  0
SECTION
  2
HEADER
  9
$ACADVER
  1
AC1014
  9
$ACADMAINTVER
 70
     0
  9
$DWGCODEPAGE
  3
ANSI_932
  9
$INSBASE
 10
209.258442
 20
80.630216
 30
0.0
  9
$EXTMIN
 10
197.884781
 20
47.736378
 30
0.0
  9
$EXTMAX
 10
498.777502
 20
208.157748
 30
0.0
  9
$LIMMIN
 10
-587.250952
 20
327.890188
  9
$LIMMAX
 10
600.749048
 20
957.890188
  9
$ORTHOMODE
 70
     0
  9
$REGENMODE
 70
     1
  9
$FILLMODE
 70
     1
  9
$QTEXTMODE
 70
     0
  9
$MIRRTEXT
 70
     1
  9
$DRAGMODE
 70
     2
  9
$LTSCALE
 40
5.0
  9
$OSMODE
 70
   303
  9
$ATTMODE
 70
     1
  9
$TEXTSIZE
 40
5.0
  9
$TRACEWID
 40
0.05
  9
$TEXTSTYLE
  7
STANDARD
  9
$CLAYER
  8
外形
  9
$CELTYPE
  6
CONTINUOUS
  9
$CECOLOR
 62
   256
  9
$CELTSCALE
 40
1.0
  9
$DELOBJ
 70
     1
  9
$DISPSILH
 70
     0
  9
$DIMSCALE
 40
0.0
  9
$DIMASZ
 40
2.0
  9
$DIMEXO
 40
1.0
  9
$DIMDLI
 40
8.0
  9
$DIMRND
 40
0.0
  9
$DIMDLE
 40
0.0
  9
$DIMEXE
 40
2.0
  9
$DIMTP
 40
0.0
  9
$DIMTM
 40
0.0
  9
$DIMTXT
 40
3.0
  9
$DIMCEN
 40
-1.0
  9
$DIMTSZ
 40
0.0
  9
$DIMTOL
 70
     0
  9
$DIMLIM
 70
     0
  9
$DIMTIH
 70
     0
  9
$DIMTOH
 70
     0
  9
$DIMSE1
 70
     0
  9
$DIMSE2
 70
     0
  9
$DIMTAD
 70
     1
  9
$DIMZIN
 70
     0
  9
$DIMBLK
  1

  9
$DIMASO
 70
     1
  9
$DIMSHO
 70
     1
  9
$DIMPOST
  1

  9
$DIMAPOST
  1

  9
$DIMALT
 70
     0
  9
$DIMALTD
 70
     2
  9
$DIMALTF
 40
25.4
  9
$DIMLFAC
 40
1.0
  9
$DIMTOFL
 70
     1
  9
$DIMTVP
 40
0.0
  9
$DIMTIX
 70
     0
  9
$DIMSOXD
 70
     0
  9
$DIMSAH
 70
     1
  9
$DIMBLK1
  1
_OPEN30
  9
$DIMBLK2
  1
_OPEN30
  9
$DIMSTYLE
  2
STANDARD
  9
$DIMCLRD
 70
     1
  9
$DIMCLRE
 70
     1
  9
$DIMCLRT
 70
     3
  9
$DIMTFAC
 40
1.0
  9
$DIMGAP
 40
1.0
  9
$DIMJUST
 70
     0
  9
$DIMSD1
 70
     0
  9
$DIMSD2
 70
     0
  9
$DIMTOLJ
 70
     1
  9
$DIMTZIN
 70
     8
  9
$DIMALTZ
 70
     0
  9
$DIMALTTZ
 70
     0
  9
$DIMFIT
 70
     3
  9
$DIMUPT
 70
     0
  9
$DIMUNIT
 70
     2
  9
$DIMDEC
 70
     2
  9
$DIMTDEC
 70
     2
  9
$DIMALTU
 70
     2
  9
$DIMALTTD
 70
     2
  9
$DIMTXSTY
  7
STANDARD
  9
$DIMAUNIT
 70
     1
  9
$LUNITS
 70
     2
  9
$LUPREC
 70
     3
  9
$SKETCHINC
 40
0.1
  9
$FILLETRAD
 40
5.0
  9
$AUNITS
 70
     0
  9
$AUPREC
 70
     3
  9
$MENU
  1
acad
  9
$ELEVATION
 40
0.0
  9
$PELEVATION
 40
0.0
  9
$THICKNESS
 40
0.0
  9
$LIMCHECK
 70
     0
  9
$BLIPMODE
 70
     0
  9
$CHAMFERA
 40
0.0
  9
$CHAMFERB
 40
0.0
  9
$CHAMFERC
 40
0.0
  9
$CHAMFERD
 40
0.0
  9
$SKPOLY
 70
     0
  9
$TDCREATE
 40
2450751.535399305
  9
$TDUPDATE
 40
2452030.437847222
  9
$TDINDWG
 40
4.6739091435
  9
$TDUSRTIMER
 40
4.6739091435
  9
$USRTIMER
 70
     1
  9
$ANGBASE
 50
0.0
  9
$ANGDIR
 70
     0
  9
$PDMODE
 70
    32
  9
$PDSIZE
 40
0.0
  9
$PLINEWID
 40
0.0
  9
$COORDS
 70
     2
  9
$SPLFRAME
 70
     0
  9
$SPLINETYPE
 70
     5
  9
$SPLINESEGS
 70
     8
  9
$ATTDIA
 70
     0
  9
$ATTREQ
 70
     1
  9
$HANDLING
 70
     1
  9
$HANDSEED
  5
4C1
  9
$SURFTAB1
 70
     6
  9
$SURFTAB2
 70
     6
  9
$SURFTYPE
 70
     6
  9
$SURFU
 70
     6
  9
$SURFV
 70
     6
  9
$UCSNAME
  2

  9
$UCSORG
 10
0.0
 20
0.0
 30
0.0
  9
$UCSXDIR
 10
1.0
 20
0.0
 30
0.0
  9
$UCSYDIR
 10
0.0
 20
1.0
 30
0.0
  9
$PUCSNAME
  2

  9
$PUCSORG
 10
0.0
 20
0.0
 30
0.0
  9
$PUCSXDIR
 10
1.0
 20
0.0
 30
0.0
  9
$PUCSYDIR
 10
0.0
 20
1.0
 30
0.0
  9
$USERI1
 70
     0
  9
$USERI2
 70
     0
  9
$USERI3
 70
     0
  9
$USERI4
 70
     0
  9
$USERI5
 70
     0
  9
$USERR1
 40
0.0
  9
$USERR2
 40
0.0
  9
$USERR3
 40
0.0
  9
$USERR4
 40
0.0
  9
$USERR5
 40
0.0
  9
$WORLDVIEW
 70
     1
  9
$SHADEDGE
 70
     3
  9
$SHADEDIF
 70
    70
  9
$TILEMODE
 70
     1
  9
$MAXACTVP
 70
    16
  9
$PINSBASE
 10
0.0
 20
0.0
 30
0.0
  9
$PLIMCHECK
 70
     0
  9
$PEXTMIN
 10
1.000000E+20
 20
1.000000E+20
 30
1.000000E+20
  9
$PEXTMAX
 10
-1.000000E+20
 20
-1.000000E+20
 30
-1.000000E+20
  9
$PLIMMIN
 10
0.0
 20
0.0
  9
$PLIMMAX
 10
12.0
 20
9.0
  9
$UNITMODE
 70
     0
  9
$VISRETAIN
 70
     0
  9
$PLINEGEN
 70
     0
  9
$PSLTSCALE
 70
     1
  9
$TREEDEPTH
 70
  3020
  9
$PICKSTYLE
 70
     1
  9
$CMLSTYLE
  2
STANDARD
  9
$CMLJUST
 70
     0
  9
$CMLSCALE
 40
1.0
  9
$PROXYGRAPHICS
 70
     1
  9
$MEASUREMENT
 70
     0
  0
ENDSEC
  0
SECTION
  2
CLASSES
  0
CLASS
  1
LWPOLYLINE
  2
AcDbPolyline
  3
"AutoCAD"
 90
        0
280
     0
281
     1
  0
CLASS
  1
ACDBDICTIONARYWDFLT
  2
AcDbDictionaryWithDefault
  3
AutoCAD 2000
 90
        0
280
     1
281
     0
  0
CLASS
  1
ACDBPLACEHOLDER
  2
AcDbPlaceHolder
  3
AutoCAD 2000
 90
        0
280
     1
281
     0
  0
CLASS
  1
LAYOUT
  2
AcDbLayout
  3
AutoCAD 2000
 90
        0
280
     1
281
     0
  0
CLASS
  1
LONG_TRANSACTION
  2
AcDbLongTransaction
  3
AutoCAD 2000
 90
        0
280
     1
281
     0
  0
CLASS
  1
LWPOLYLINE
  2
AcDbPolyline
  3
"AutoCAD"
 90
        0
280
     0
281
     1
  0
CLASS
  1
HATCH
  2
AcDbHatch
  3
"ACAD_SEDONA"
 90
        0
280
     0
281
     1
  0
CLASS
  1
XRECORD
  2
AcDbXrecord
  3
"<Built In>"
 90
        0
280
     0
281
     0
  0
CLASS
  1
DICTIONARYVAR
  2
AcDbDictionaryVar
  3
"AutoCAD"
 90
        0
280
     0
281
     0
  0
ENDSEC
  0
SECTION
  2
TABLES
  0
TABLE
  2
VPORT
  5
16
100
AcDbSymbolTable
 70
     1
  0
VPORT
  5
4BC
100
AcDbSymbolTableRecord
100
AcDbViewportTableRecord
  2
*ACTIVE
 70
     0
 10
0.0
 20
0.0
 11
1.0
 21
1.0
 12
386.646855
 22
129.746383
 13
0.0
 23
0.0
 14
1.0
 24
1.0
 15
10.0
 25
10.0
 16
0.0
 26
0.0
 36
1.0
 17
0.0
 27
0.0
 37
0.0
 40
276.125074
 41
1.710425
 42
50.0
 43
0.0
 44
0.0
 50
0.0
 51
0.0
 71
     0
 72
   100
 73
     1
 74
     1
 75
     0
 76
     0
 77
     0
 78
     2
  0
ENDTAB
  0
TABLE
  2
LTYPE
  5
11
100
AcDbSymbolTable
 70
     2
  0
LTYPE
  5
12
100
AcDbSymbolTableRecord
100
AcDbLinetypeTableRecord
  2
BYBLOCK
 70
     0
  3

 72
    65
 73
     0
 40
0.0
  0
LTYPE
  5
13
100
AcDbSymbolTableRecord
100
AcDbLinetypeTableRecord
  2
BYLAYER
 70
     0
  3

 72
    65
 73
     0
 40
0.0
  0
LTYPE
  5
7
100
AcDbSymbolTableRecord
100
AcDbLinetypeTableRecord
  2
CONTINUOUS
 70
     0
  3
Solid line
 72
    65
 73
     0
 40
0.0
  0
LTYPE
  5
60
100
AcDbSymbolTableRecord
100
AcDbLinetypeTableRecord
  2
CENTER
 70
     0
  3
Center ____ _ ____ _ ____ _ ____ _ ____ _ ____
 72
    65
 73
     4
 40
2.0
 49
1.25
 74
     0
 49
-0.25
 74
     0
 49
0.25
 74
     0
 49
-0.25
 74
     0
  0
ENDTAB
  0
TABLE
  2
LAYER
  5
E
100
AcDbSymbolTable
 70
     4
  0
LAYER
  5
6
100
AcDbSymbolTableRecord
100
AcDbLayerTableRecord
  2
0
 70
     0
 62
     7
  6
CONTINUOUS
  0
LAYER
  5
1F
100
AcDbSymbolTableRecord
100
AcDbLayerTableRecord
  2
外形
 70
     0
 62
     4
  6
CONTINUOUS
  0
LAYER
  5
37
102
{ACAD_XDICTIONARY
360
38
102
}
100
AcDbSymbolTableRecord
100
AcDbLayerTableRecord
  2
DEFPOINTS
 70
     0
 62
     7
  6
CONTINUOUS
  0
LAYER
  5
49
100
AcDbSymbolTableRecord
100
AcDbLayerTableRecord
  2
寸法
 70
     0
 62
     1
  6
CONTINUOUS
  0
ENDTAB
  0
TABLE
  2
STYLE
  5
F
100
AcDbSymbolTable
 70
     1
  0
STYLE
  5
10
100
AcDbSymbolTableRecord
100
AcDbTextStyleTableRecord
  2
STANDARD
 70
     0
 40
0.0
 41
1.0
 50
0.0
 71
     0
 42
5.0
  3
MONOTXT
  4
BIGFONT
  0
ENDTAB
  0
TABLE
  2
VIEW
  5
14
100
AcDbSymbolTable
 70
     0
  0
ENDTAB
  0
TABLE
  2
UCS
  5
15
100
AcDbSymbolTable
 70
     0
  0
ENDTAB
  0
TABLE
  2
APPID
  5
18
100
AcDbSymbolTable
 70
     1
  0
APPID
  5
19
100
AcDbSymbolTableRecord
100
AcDbRegAppTableRecord
  2
ACAD
 70
     0
  0
ENDTAB
  0
TABLE
  2
DIMSTYLE
  5
1A
100
AcDbSymbolTable
 70
     1
  0
DIMSTYLE
105
4A
102
{ACAD_XDICTIONARY
360
4B
102
}
102
{ACAD_REACTORS
330
1FF
330
480
330
493
102
}
100
AcDbSymbolTableRecord
100
AcDbDimStyleTableRecord
  2
STANDARD
 70
     0
  3

  4

  5

  6
_OPEN30
  7
_OPEN30
 40
0.0
 41
2.0
 42
1.0
 43
8.0
 44
2.0
 45
0.0
 46
0.0
 47
0.0
 48
0.0
140
3.0
141
-1.0
142
0.0
143
25.4
144
1.0
145
0.0
146
1.0
147
1.0
 71
     0
 72
     0
 73
     0
 74
     0
 75
     0
 76
     0
 77
     1
 78
     8
170
     0
171
     2
172
     1
173
     1
174
     0
175
     0
176
     1
177
     1
178
     3
270
     2
271
     2
272
     2
273
     2
274
     2
340
10
275
     0
280
     0
281
     0
282
     0
283
     1
284
     8
285
     0
286
     0
287
     3
288
     0
  0
ENDTAB
  0
TABLE
  2
BLOCK_RECORD
  5
1
100
AcDbSymbolTable
 70
     9
  0
BLOCK_RECORD
  5
2
102
{ACAD_XDICTIONARY
360
3
102
}
100
AcDbSymbolTableRecord
100
AcDbBlockTableRecord
  2
*MODEL_SPACE
  0
BLOCK_RECORD
  5
9
102
{ACAD_XDICTIONARY
360
A
102
}
100
AcDbSymbolTableRecord
100
AcDbBlockTableRecord
  2
*PAPER_SPACE
  0
BLOCK_RECORD
  5
4D
100
AcDbSymbolTableRecord
100
AcDbBlockTableRecord
  2
_OPEN30
  0
BLOCK_RECORD
  5
257
100
AcDbSymbolTableRecord
100
AcDbBlockTableRecord
  2
*D1
  0
BLOCK_RECORD
  5
2C1
100
AcDbSymbolTableRecord
100
AcDbBlockTableRecord
  2
*D2
  0
BLOCK_RECORD
  5
2D9
100
AcDbSymbolTableRecord
100
AcDbBlockTableRecord
  2
*D3
  0
BLOCK_RECORD
  5
2F2
100
AcDbSymbolTableRecord
100
AcDbBlockTableRecord
  2
*D4
  0
BLOCK_RECORD
  5
313
100
AcDbSymbolTableRecord
100
AcDbBlockTableRecord
  2
*D5
  0
BLOCK_RECORD
  5
31E
100
AcDbSymbolTableRecord
100
AcDbBlockTableRecord
  2
*D6
  0
BLOCK_RECORD
  5
46E
100
AcDbSymbolTableRecord
100
AcDbBlockTableRecord
  2
*D7
  0
BLOCK_RECORD
  5
481
100
AcDbSymbolTableRecord
100
AcDbBlockTableRecord
  2
*D8
  0
ENDTAB
  0
ENDSEC
  0
SECTION
  2
BLOCKS
  0
BLOCK
  5
5
100
AcDbEntity
  8
0
100
AcDbBlockBegin
  2
*MODEL_SPACE
 70
     0
 10
0.0
 20
0.0
 30
0.0
  3
*MODEL_SPACE
  1

  0
ENDBLK
  5
8
100
AcDbEntity
  8
0
100
AcDbBlockEnd
  0
BLOCK
  5
C
100
AcDbEntity
 67
     1
  8
0
100
AcDbBlockBegin
  2
*PAPER_SPACE
 70
     0
 10
0.0
 20
0.0
 30
0.0
  3
*PAPER_SPACE
  1

  0
ENDBLK
  5
D
100
AcDbEntity
 67
     1
  8
0
100
AcDbBlockEnd
  0
BLOCK
  5
51
100
AcDbEntity
  8
0
100
AcDbBlockBegin
  2
_OPEN30
 70
     0
 10
0.0
 20
0.0
 30
0.0
  3
_OPEN30
  1

  0
LINE
  5
4E
100
AcDbEntity
  8
0
  6
BYBLOCK
 62
     0
100
AcDbLine
 10
-1.0
 20
0.267949
 30
0.0
 11
0.0
 21
0.0
 31
0.0
  0
LINE
  5
4F
100
AcDbEntity
  8
0
  6
BYBLOCK
 62
     0
100
AcDbLine
 10
0.0
 20
0.0
 30
0.0
 11
-1.0
 21
-0.267949
 31
0.0
  0
LINE
  5
50
100
AcDbEntity
  8
0
  6
BYBLOCK
 62
     0
100
AcDbLine
 10
0.0
 20
0.0
 30
0.0
 11
-1.0
 21
0.0
 31
0.0
  0
ENDBLK
  5
52
100
AcDbEntity
  8
0
100
AcDbBlockEnd
  0
BLOCK
  5
339
100
AcDbEntity
  8
0
100
AcDbBlockBegin
  2
*D1
 70
     1
 10
0.0
 20
0.0
 30
0.0
  3
*D1
  1

  0
LINE
  5
33A
100
AcDbEntity
  8
0
  6
BYBLOCK
 62
     1
100
AcDbLine
 10
291.293596
 20
157.629081
 30
0.0
 11
291.293596
 21
134.348075
 31
0.0
  0
LINE
  5
33B
100
AcDbEntity
  8
0
  6
BYBLOCK
 62
     1
100
AcDbLine
 10
491.289508
 20
170.629081
 30
0.0
 11
491.289508
 21
134.348075
 31
0.0
  0
LINE
  5
33C
100
AcDbEntity
  8
0
  6
BYBLOCK
 62
     1
100
AcDbLine
 10
293.293596
 20
136.348075
 30
0.0
 11
489.289508
 21
136.348075
 31
0.0
  0
INSERT
  5
33D
100
AcDbEntity
  8
0
  6
BYBLOCK
 62
     1
100
AcDbBlockReference
  2
_OPEN30
 10
291.293596
 20
136.348075
 30
0.0
 41
2.0
 42
2.0
 43
2.0
 50
180.0
  0
INSERT
  5
33E
100
AcDbEntity
  8
0
  6
BYBLOCK
 62
     1
100
AcDbBlockReference
  2
_OPEN30
 10
491.289508
 20
136.348075
 30
0.0
 41
2.0
 42
2.0
 43
2.0
  0
MTEXT
  5
33F
100
AcDbEntity
  8
0
  6
BYBLOCK
 62
     3
100
AcDbMText
 10
391.291552
 20
138.848075
 30
0.0
 40
3.0
 41
0.0
 71
     5
 72
     1
  1
\A1;200
  0
POINT
  5
340
100
AcDbEntity
  8
DEFPOINTS
  6
BYBLOCK
 62
     0
100
AcDbPoint
 10
291.293596
 20
158.629081
 30
0.0
  0
POINT
  5
341
100
AcDbEntity
  8
DEFPOINTS
  6
BYBLOCK
 62
     0
100
AcDbPoint
 10
491.289508
 20
171.629081
 30
0.0
  0
POINT
  5
342
100
AcDbEntity
  8
DEFPOINTS
  6
BYBLOCK
 62
     0
100
AcDbPoint
 10
491.289508
 20
136.348075
 30
0.0
  0
ENDBLK
  5
343
100
AcDbEntity
  8
0
100
AcDbBlockEnd
  0
BLOCK
  5
39B
100
AcDbEntity
  8
0
100
AcDbBlockBegin
  2
*D2
 70
     1
 10
0.0
 20
0.0
 30
0.0
  3
*D2
  1

  0
LINE
  5
39C
100
AcDbEntity
  8
0
  6
BYBLOCK
 62
     1
100
AcDbLine
 10
300.561719
 20
188.080138
 30
0.0
 11
303.282429
 21
196.453623
 31
0.0
  0
LINE
  5
39D
100
AcDbEntity
  8
0
  6
BYBLOCK
 62
     1
100
AcDbLine
 10
289.992491
 20
158.629081
 30
0.0
 11
251.221414
 21
158.629081
 31
0.0
  0
ARC
  5
39E
100
AcDbEntity
  8
0
  6
BYBLOCK
 62
     1
100
AcDbCircle
 10
290.992491
 20
158.629081
 30
0.0
 40
37.771077
100
AcDbArc
 50
75.034199
 51
176.965801
  0
INSERT
  5
39F
100
AcDbEntity
  8
0
  6
BYBLOCK
 62
     1
100
AcDbBlockReference
  2
_OPEN30
 10
302.664395
 20
194.55151
 30
0.0
 41
2.0
 42
2.0
 43
2.0
 50
343.517099
  0
INSERT
  5
3A0
100
AcDbEntity
  8
0
  6
BYBLOCK
 62
     1
100
AcDbBlockReference
  2
_OPEN30
 10
253.221414
 20
158.629081
 30
0.0
 41
2.0
 42
2.0
 43
2.0
 50
268.482901
  0
MTEXT
  5
3A1
100
AcDbEntity
  8
0
  6
BYBLOCK
 62
     3
100
AcDbMText
 10
267.321746
 20
191.209067
 30
0.0
 40
3.0
 41
0.0
 71
     5
 72
     1
  1
\A1;108°
 11
0.809017
 21
0.587785
 31
0.0
  0
POINT
  5
3A2
100
AcDbEntity
  8
DEFPOINTS
  6
BYBLOCK
 62
     0
100
AcDbPoint
 10
279.320586
 20
194.55151
 30
0.0
  0
POINT
  5
3A3
100
AcDbEntity
  8
DEFPOINTS
  6
BYBLOCK
 62
     0
100
AcDbPoint
 10
291.332751
 20
159.676295
 30
0.0
  0
POINT
  5
3A4
100
AcDbEntity
  8
DEFPOINTS
  6
BYBLOCK
 62
     0
100
AcDbPoint
 10
292.093596
 20
158.629081
 30
0.0
  0
POINT
  5
3A5
100
AcDbEntity
  8
DEFPOINTS
  6
BYBLOCK
 62
     0
100
AcDbPoint
 10
291.293596
 20
158.629081
 30
0.0
  0
POINT
  5
3A6
100
AcDbEntity
  8
DEFPOINTS
  6
BYBLOCK
 62
     0
100
AcDbPoint
 10
300.252702
 20
187.129081
 30
0.0
  0
ENDBLK
  5
3A7
100
AcDbEntity
  8
0
100
AcDbBlockEnd
  0
BLOCK
  5
3FB
100
AcDbEntity
  8
0
100
AcDbBlockBegin
  2
*D3
 70
     1
 10
0.0
 20
0.0
 30
0.0
  3
*D3
  1

  0
LINE
  5
3FC
100
AcDbEntity
  8
0
  6
BYBLOCK
 62
     1
100
AcDbLine
 10
292.293596
 20
158.629081
 30
0.0
 11
318.712285
 21
158.629081
 31
0.0
  0
LINE
  5
3FD
100
AcDbEntity
  8
0
  6
BYBLOCK
 62
     1
100
AcDbLine
 10
306.627015
 20
167.629081
 30
0.0
 11
318.712285
 21
167.629081
 31
0.0
  0
LINE
  5
3FE
100
AcDbEntity
  8
0
  6
BYBLOCK
 62
     1
100
AcDbLine
 10
316.712285
 20
160.629081
 30
0.0
 11
316.712285
 21
165.629081
 31
0.0
  0
INSERT
  5
3FF
100
AcDbEntity
  8
0
  6
BYBLOCK
 62
     1
100
AcDbBlockReference
  2
_OPEN30
 10
316.712285
 20
158.629081
 30
0.0
 41
2.0
 42
2.0
 43
2.0
 50
270.0
  0
INSERT
  5
400
100
AcDbEntity
  8
0
  6
BYBLOCK
 62
     1
100
AcDbBlockReference
  2
_OPEN30
 10
316.712285
 20
167.629081
 30
0.0
 41
2.0
 42
2.0
 43
2.0
 50
90.0
  0
MTEXT
  5
401
100
AcDbEntity
  8
0
  6
BYBLOCK
 62
     3
100
AcDbMText
 10
314.212285
 20
163.129081
 30
0.0
 40
3.0
 41
0.0
 71
     5
 72
     1
  1
\A1;9
 11
0.0
 21
1.0
 31
0.0
  0
POINT
  5
402
100
AcDbEntity
  8
DEFPOINTS
  6
BYBLOCK
 62
     0
100
AcDbPoint
 10
291.293596
 20
158.629081
 30
0.0
  0
POINT
  5
403
100
AcDbEntity
  8
DEFPOINTS
  6
BYBLOCK
 62
     0
100
AcDbPoint
 10
305.627015
 20
167.629081
 30
0.0
  0
POINT
  5
404
100
AcDbEntity
  8
DEFPOINTS
  6
BYBLOCK
 62
     0
100
AcDbPoint
 10
316.712285
 20
167.629081
 30
0.0
  0
ENDBLK
  5
405
100
AcDbEntity
  8
0
100
AcDbBlockEnd
  0
BLOCK
  5
3C8
100
AcDbEntity
  8
0
100
AcDbBlockBegin
  2
*D4
 70
     1
 10
0.0
 20
0.0
 30
0.0
  3
*D4
  1

  0
LINE
  5
3C9
100
AcDbEntity
  8
0
  6
BYBLOCK
 62
     1
100
AcDbLine
 10
290.293596
 20
158.629081
 30
0.0
 11
284.026899
 21
158.629081
 31
0.0
  0
LINE
  5
3CA
100
AcDbEntity
  8
0
  6
BYBLOCK
 62
     1
100
AcDbLine
 10
290.459143
 20
179.129081
 30
0.0
 11
284.026899
 21
179.129081
 31
0.0
  0
LINE
  5
3CB
100
AcDbEntity
  8
0
  6
BYBLOCK
 62
     1
100
AcDbLine
 10
286.026899
 20
160.629081
 30
0.0
 11
286.026899
 21
177.129081
 31
0.0
  0
INSERT
  5
3CC
100
AcDbEntity
  8
0
  6
BYBLOCK
 62
     1
100
AcDbBlockReference
  2
_OPEN30
 10
286.026899
 20
158.629081
 30
0.0
 41
2.0
 42
2.0
 43
2.0
 50
270.0
  0
INSERT
  5
3CD
100
AcDbEntity
  8
0
  6
BYBLOCK
 62
     1
100
AcDbBlockReference
  2
_OPEN30
 10
286.026899
 20
179.129081
 30
0.0
 41
2.0
 42
2.0
 43
2.0
 50
90.0
  0
MTEXT
  5
3CE
100
AcDbEntity
  8
0
  6
BYBLOCK
 62
     3
100
AcDbMText
 10
283.526899
 20
168.879081
 30
0.0
 40
3.0
 41
0.0
 71
     5
 72
     1
  1
\A1;20.5
 11
0.0
 21
1.0
 31
0.0
  0
POINT
  5
3CF
100
AcDbEntity
  8
DEFPOINTS
  6
BYBLOCK
 62
     0
100
AcDbPoint
 10
291.293596
 20
158.629081
 30
0.0
  0
POINT
  5
3D0
100
AcDbEntity
  8
DEFPOINTS
  6
BYBLOCK
 62
     0
100
AcDbPoint
 10
291.459143
 20
179.129081
 30
0.0
  0
POINT
  5
3D1
100
AcDbEntity
  8
DEFPOINTS
  6
BYBLOCK
 62
     0
100
AcDbPoint
 10
286.026899
 20
179.129081
 30
0.0
  0
ENDBLK
  5
3D2
100
AcDbEntity
  8
0
100
AcDbBlockEnd
  0
BLOCK
  5
3E6
100
AcDbEntity
  8
0
100
AcDbBlockBegin
  2
*D5
 70
     1
 10
0.0
 20
0.0
 30
0.0
  3
*D5
  1

  0
LINE
  5
3E7
100
AcDbEntity
  8
0
  6
BYBLOCK
 62
     1
100
AcDbLine
 10
430.875165
 20
200.206057
 30
0.0
 11
421.82396
 21
189.984675
 31
0.0
  0
LINE
  5
3E8
100
AcDbEntity
  8
0
  6
BYBLOCK
 62
     1
100
AcDbLine
 10
402.598342
 20
168.273488
 30
0.0
 11
401.272438
 21
166.776165
 31
0.0
  0
MTEXT
  5
3E9
100
AcDbEntity
  8
0
  6
BYBLOCK
 62
     3
100
AcDbMText
 10
425.688749
 20
198.12013
 30
0.0
 40
3.0
 41
0.0
 71
     5
 72
     1
  1
\A1;\U+220525
 11
0.662952
 21
0.748662
 31
0.0
  0
LINE
  5
3EA
100
AcDbEntity
  8
0
  6
BYBLOCK
 62
     1
100
AcDbLine
 10
403.924247
 20
169.770811
 30
0.0
 11
420.498055
 21
188.487351
 31
0.0
  0
INSERT
  5
3EB
100
AcDbEntity
  8
0
  6
BYBLOCK
 62
     1
100
AcDbBlockReference
  2
_OPEN30
 10
403.924247
 20
169.770811
 30
0.0
 41
2.0
 42
2.0
 43
2.0
 50
48.474575
  0
INSERT
  5
3EC
100
AcDbEntity
  8
0
  6
BYBLOCK
 62
     1
100
AcDbBlockReference
  2
_OPEN30
 10
420.498055
 20
188.487351
 30
0.0
 41
2.0
 42
2.0
 43
2.0
 50
228.474575
  0
POINT
  5
3ED
100
AcDbEntity
  8
DEFPOINTS
  6
BYBLOCK
 62
     0
100
AcDbPoint
 10
420.498055
 20
188.487351
 30
0.0
  0
POINT
  5
3EE
100
AcDbEntity
  8
DEFPOINTS
  6
BYBLOCK
 62
     0
100
AcDbPoint
 10
403.924247
 20
169.770811
 30
0.0
  0
ENDBLK
  5
3EF
100
AcDbEntity
  8
0
100
AcDbBlockEnd
  0
BLOCK
  5
3F0
100
AcDbEntity
  8
0
100
AcDbBlockBegin
  2
*D6
 70
     1
 10
0.0
 20
0.0
 30
0.0
  3
*D6
  1

  0
LINE
  5
3F1
100
AcDbEntity
  8
0
  6
BYBLOCK
 62
     1
100
AcDbLine
 10
400.711151
 20
173.230102
 30
0.0
 11
400.711151
 21
156.249686
 31
0.0
  0
LINE
  5
3F2
100
AcDbEntity
  8
0
  6
BYBLOCK
 62
     1
100
AcDbLine
 10
423.711151
 20
173.230102
 30
0.0
 11
423.711151
 21
156.249686
 31
0.0
  0
LINE
  5
3F3
100
AcDbEntity
  8
0
  6
BYBLOCK
 62
     1
100
AcDbLine
 10
402.711151
 20
158.249686
 30
0.0
 11
421.711151
 21
158.249686
 31
0.0
  0
INSERT
  5
3F4
100
AcDbEntity
  8
0
  6
BYBLOCK
 62
     1
100
AcDbBlockReference
  2
_OPEN30
 10
400.711151
 20
158.249686
 30
0.0
 41
2.0
 42
2.0
 43
2.0
 50
180.0
  0
INSERT
  5
3F5
100
AcDbEntity
  8
0
  6
BYBLOCK
 62
     1
100
AcDbBlockReference
  2
_OPEN30
 10
423.711151
 20
158.249686
 30
0.0
 41
2.0
 42
2.0
 43
2.0
  0
MTEXT
  5
3F6
100
AcDbEntity
  8
0
  6
BYBLOCK
 62
     3
100
AcDbMText
 10
412.211151
 20
160.749686
 30
0.0
 40
3.0
 41
0.0
 71
     5
 72
     1
  1
\A1;23
  0
POINT
  5
3F7
100
AcDbEntity
  8
DEFPOINTS
  6
BYBLOCK
 62
     0
100
AcDbPoint
 10
400.711151
 20
174.230102
 30
0.0
  0
POINT
  5
3F8
100
AcDbEntity
  8
DEFPOINTS
  6
BYBLOCK
 62
     0
100
AcDbPoint
 10
423.711151
 20
174.230102
 30
0.0
  0
POINT
  5
3F9
100
AcDbEntity
  8
DEFPOINTS
  6
BYBLOCK
 62
     0
100
AcDbPoint
 10
423.711151
 20
158.249686
 30
0.0
  0
ENDBLK
  5
3FA
100
AcDbEntity
  8
0
100
AcDbBlockEnd
  0
BLOCK
  5
4A5
100
AcDbEntity
  8
0
100
AcDbBlockBegin
  2
*D7
 70
     1
 10
0.0
 20
0.0
 30
0.0
  3
*D7
  1

  0
LINE
  5
4A6
100
AcDbEntity
  8
0
  6
BYBLOCK
 62
     1
100
AcDbLine
 10
286.463616
 20
86.774736
 30
0.0
 11
278.86808
 21
86.774736
 31
0.0
  0
LINE
  5
4A7
100
AcDbEntity
  8
0
  6
BYBLOCK
 62
     1
100
AcDbLine
 10
290.296911
 20
86.693379
 30
0.0
 11
278.909271
 21
85.763827
 31
0.0
  0
ARC
  5
4A8
100
AcDbEntity
  8
0
  6
BYBLOCK
 62
     1
100
AcDbCircle
 10
291.293596
 20
86.774736
 30
0.0
 40
10.425516
100
AcDbArc
 50
157.879979
 51
180.0
  0
LINE
  5
4A9
100
AcDbEntity
  8
0
  6
BYBLOCK
 62
     1
100
AcDbLine
 10
281.635428
 20
90.700444
 30
0.0
 11
287.321303
 21
104.68904
 31
0.0
  0
ARC
  5
4AA
100
AcDbEntity
  8
0
  6
BYBLOCK
 62
     1
100
AcDbCircle
 10
291.293596
 20
86.774736
 30
0.0
 40
10.425516
100
AcDbArc
 50
157.983248
 51
168.991624
  0
ARC
  5
4AB
100
AcDbEntity
  8
0
  6
BYBLOCK
 62
     1
100
AcDbCircle
 10
291.293596
 20
86.774736
 30
0.0
 40
10.425516
100
AcDbArc
 50
195.674976
 51
206.683352
  0
ARC
  5
4AC
100
AcDbEntity
  8
0
  6
BYBLOCK
 62
     1
100
AcDbCircle
 10
291.293596
 20
86.774736
 30
0.0
 40
10.425516
100
AcDbArc
 50
180.0
 51
184.6666
  0
INSERT
  5
4AD
100
AcDbEntity
  8
0
  6
BYBLOCK
 62
     1
100
AcDbBlockReference
  2
_OPEN30
 10
280.86808
 20
86.774736
 30
0.0
 41
2.0
 42
2.0
 43
2.0
 50
264.495812
  0
INSERT
  5
4AE
100
AcDbEntity
  8
0
  6
BYBLOCK
 62
     1
100
AcDbBlockReference
  2
_OPEN30
 10
280.902641
 20
85.926542
 30
0.0
 41
2.0
 42
2.0
 43
2.0
 50
100.170788
  0
MTEXT
  5
4AF
100
AcDbEntity
  8
0
  6
BYBLOCK
 62
     3
100
AcDbMText
 10
286.794358
 20
96.753372
 30
0.0
 40
3.0
 41
0.0
 71
     5
 72
     1
  1
\A1;4°40'
 11
-0.376548
 21
-0.926397
 31
0.0
  0
POINT
  5
4B0
100
AcDbEntity
  8
DEFPOINTS
  6
BYBLOCK
 62
     0
100
AcDbPoint
 10
280.883445
 20
86.208926
 30
0.0
  0
POINT
  5
4B1
100
AcDbEntity
  8
DEFPOINTS
  6
BYBLOCK
 62
     0
100
AcDbPoint
 10
287.463616
 20
86.774736
 30
0.0
  0
POINT
  5
4B2
100
AcDbEntity
  8
DEFPOINTS
  6
BYBLOCK
 62
     0
100
AcDbPoint
 10
303.801424
 20
87.795727
 30
0.0
  0
POINT
  5
4B3
100
AcDbEntity
  8
DEFPOINTS
  6
BYBLOCK
 62
     0
100
AcDbPoint
 10
291.293596
 20
86.774736
 30
0.0
  0
POINT
  5
4B4
100
AcDbEntity
  8
DEFPOINTS
  6
BYBLOCK
 62
     0
100
AcDbPoint
 10
498.777502
 20
86.774736
 30
0.0
  0
ENDBLK
  5
4B5
100
AcDbEntity
  8
0
100
AcDbBlockEnd
  0
BLOCK
  5
494
100
AcDbEntity
  8
0
100
AcDbBlockBegin
  2
*D8
 70
     1
 10
0.0
 20
0.0
 30
0.0
  3
*D8
  1

  0
LINE
  5
495
100
AcDbEntity
  8
0
  6
BYBLOCK
 62
     1
100
AcDbLine
 10
218.723668
 20
157.635741
 30
0.0
 11
217.346139
 21
145.54533
 31
0.0
  0
LINE
  5
496
100
AcDbEntity
  8
0
  6
BYBLOCK
 62
     1
100
AcDbLine
 10
218.906871
 20
156.545937
 30
0.0
 11
218.906871
 21
145.456706
 31
0.0
  0
ARC
  5
497
100
AcDbEntity
  8
0
  6
BYBLOCK
 62
     1
100
AcDbCircle
 10
218.906871
 20
159.243695
 30
0.0
 40
11.786989
100
AcDbArc
 50
243.961733
 51
263.5
  0
LINE
  5
498
100
AcDbEntity
  8
0
  6
BYBLOCK
 62
     1
100
AcDbLine
 10
213.73272
 20
148.653072
 30
0.0
 11
200.614605
 21
155.062054
 31
0.0
  0
ARC
  5
499
100
AcDbEntity
  8
0
  6
BYBLOCK
 62
     1
100
AcDbCircle
 10
218.906871
 20
159.243695
 30
0.0
 40
11.786989
100
AcDbArc
 50
244.032862
 51
253.766431
  0
ARC
  5
49A
100
AcDbEntity
  8
0
  6
BYBLOCK
 62
     1
100
AcDbCircle
 10
218.906871
 20
159.243695
 30
0.0
 40
11.786989
100
AcDbArc
 50
279.733569
 51
289.467138
  0
ARC
  5
49B
100
AcDbEntity
  8
0
  6
BYBLOCK
 62
     1
100
AcDbCircle
 10
218.906871
 20
159.243695
 30
0.0
 40
11.786989
100
AcDbArc
 50
263.5
 51
270.0
  0
INSERT
  5
49C
100
AcDbEntity
  8
0
  6
BYBLOCK
 62
     1
100
AcDbBlockReference
  2
_OPEN30
 10
217.572546
 20
147.532474
 30
0.0
 41
2.0
 42
2.0
 43
2.0
 50
348.633215
  0
INSERT
  5
49D
100
AcDbEntity
  8
0
  6
BYBLOCK
 62
     1
100
AcDbBlockReference
  2
_OPEN30
 10
218.906871
 20
147.456706
 30
0.0
 41
2.0
 42
2.0
 43
2.0
 50
184.866785
  0
MTEXT
  5
49E
100
AcDbEntity
  8
0
  6
BYBLOCK
 62
     3
100
AcDbMText
 10
208.271091
 20
154.103816
 30
0.0
 40
3.0
 41
0.0
 71
     5
 72
     1
  1
\A1;6.5°
 11
0.898501
 21
-0.438971
 31
0.0
  0
POINT
  5
49F
100
AcDbEntity
  8
DEFPOINTS
  6
BYBLOCK
 62
     0
100
AcDbPoint
 10
218.461246
 20
147.465132
 30
0.0
  0
POINT
  5
4A0
100
AcDbEntity
  8
DEFPOINTS
  6
BYBLOCK
 62
     0
100
AcDbPoint
 10
222.515535
 20
190.916531
 30
0.0
  0
POINT
  5
4A1
100
AcDbEntity
  8
DEFPOINTS
  6
BYBLOCK
 62
     0
100
AcDbPoint
 10
218.906871
 20
198.64135
 30
0.0
  0
POINT
  5
4A2
100
AcDbEntity
  8
DEFPOINTS
  6
BYBLOCK
 62
     0
100
AcDbPoint
 10
218.906871
 20
157.545937
 30
0.0
  0
POINT
  5
4A3
100
AcDbEntity
  8
DEFPOINTS
  6
BYBLOCK
 62
     0
100
AcDbPoint
 10
218.836871
 20
158.629313
 30
0.0
  0
ENDBLK
  5
4A4
100
AcDbEntity
  8
0
100
AcDbBlockEnd
  0
ENDSEC
  0
SECTION
  2
ENTITIES
  0
LINE
  5
1B9
100
AcDbEntity
  8
外形
  6
CONTINUOUS
100
AcDbLine
 10
341.793596
 20
98.274736
 30
0.0
 11
489.289508
 21
98.274736
 31
0.0
  0
LINE
  5
1BA
100
AcDbEntity
  8
外形
  6
CONTINUOUS
100
AcDbLine
 10
341.793596
 20
75.274736
 30
0.0
 11
489.289508
 21
75.274736
 31
0.0
  0
LINE
  5
1BB
100
AcDbEntity
  8
外形
  6
CONTINUOUS
100
AcDbLine
 10
425.711151
 20
169.129081
 30
0.0
 11
489.289508
 21
169.129081
 31
0.0
  0
LINE
  5
1BC
100
AcDbEntity
  8
外形
  6
CONTINUOUS
100
AcDbLine
 10
425.711151
 20
174.230102
 30
0.0
 11
489.289508
 21
174.230102
 31
0.0
  0
LINE
  5
1BD
100
AcDbEntity
  8
外形
  6
CONTINUOUS
100
AcDbLine
 10
425.711151
 20
191.629081
 30
0.0
 11
489.289508
 21
191.629081
 31
0.0
  0
LINE
  5
1BE
100
AcDbEntity
  8
外形
  6
CONTINUOUS
100
AcDbLine
 10
425.711151
 20
184.028061
 30
0.0
 11
489.289508
 21
184.028061
 31
0.0
  0
LINE
  5
1BF
100
AcDbEntity
  8
外形
  6
CONTINUOUS
100
AcDbLine
 10
341.293596
 20
81.875757
 30
0.0
 11
489.289508
 21
81.875757
 31
0.0
  0
LINE
  5
1C0
100
AcDbEntity
  8
外形
  6
CONTINUOUS
100
AcDbLine
 10
341.293596
 20
91.673716
 30
0.0
 11
489.289508
 21
91.673716
 31
0.0
  0
DIMENSION
  5
1C1
100
AcDbEntity
  8
寸法
  6
CONTINUOUS
100
AcDbDimension
  2
*D1
 10
491.289508
 20
136.348075
 30
0.0
 11
391.291552
 21
138.848075
 31
0.0
 70
    32
  3
STANDARD
100
AcDbAlignedDimension
 13
291.293596
 23
158.629081
 33
0.0
 14
491.289508
 24
171.629081
 34
0.0
100
AcDbRotatedDimension
1001
ACAD
1000
DSTYLE
1002
{
1070
    40
1040
1.0
1002
}
  0
LINE
  5
1C2
100
AcDbEntity
  8
外形
  6
CENTER
 62
     1
100
AcDbLine
 10
287.463616
 20
86.774736
 30
0.0
 11
498.777502
 21
86.774736
 31
0.0
  0
LINE
  5
1C3
100
AcDbEntity
  8
外形
  6
CENTER
 62
     1
100
AcDbLine
 10
291.638939
 20
179.129081
 30
0.0
 11
498.777502
 21
179.129081
 31
0.0
  0
TEXT
  5
1C4
100
AcDbEntity
  8
外形
  6
CONTINUOUS
 62
     2
100
AcDbText
 10
353.225992
 20
47.736378
 30
0.0
 40
6.0
  1
S25R-SVQCR16
100
AcDbText
  0
LEADER
  5
1C5
100
AcDbEntity
  8
寸法
  6
CONTINUOUS
 62
     1
100
AcDbLeader
  3
STANDARD
 73
     0
 74
     0
 75
     1
 40
3.0
 41
26.0
 76
     3
 10
227.331702
 20
191.467573
 30
0.0
 10
235.299027
 20
204.708782
 30
0.0
 10
237.299027
 20
204.708782
 30
0.0
 77
   256
340
1C6
213
-0.1129475379637483
223
0.5510341987360618
233
0.0
1001
ACAD
1000
DSTYLE
1002
{
1070
   284
1070
    13
1070
   146
1040
0.5
1070
   272
1070
     3
1070
    40
1040
1.0
1070
   287
1070
     0
1002
}
  0
MTEXT
  5
1C6
102
{ACAD_REACTORS
330
1C5
102
}
100
AcDbEntity
  8
寸法
  6
CONTINUOUS
 62
     3
100
AcDbMText
 10
238.411975
 20
206.657748
 30
0.0
 40
3.0
 41
0.0
 71
     4
 72
     1
  1
%%c35最小加工径
  0
ARC
  5
1CB
100
AcDbEntity
  8
外形
  6
CONTINUOUS
100
AcDbCircle
 10
218.906871
 20
179.129081
 30
0.0
 40
12.5
100
AcDbArc
 50
293.073918
 51
336.926082
  0
LINE
  5
1CC
100
AcDbEntity
  8
外形
  6
CONTINUOUS
100
AcDbLine
 10
207.406871
 20
184.028061
 30
0.0
 11
207.406871
 21
164.88575
 31
0.0
  0
CIRCLE
  5
1CD
100
AcDbEntity
  8
外形
  6
CENTER
 62
     1
100
AcDbCircle
 10
218.906871
 20
176.129081
 30
0.0
 40
17.5
  0
LINE
  5
1CE
100
AcDbEntity
  8
外形
  6
CONTINUOUS
100
AcDbLine
 10
222.515535
 20
190.916531
 30
0.0
 11
218.836871
 21
158.629313
 31
0.0
  0
LINE
  5
1CF
100
AcDbEntity
  8
外形
  6
CENTER
 62
     1
100
AcDbLine
 10
218.906871
 20
198.64135
 30
0.0
 11
218.906871
 21
157.545937
 31
0.0
  0
LINE
  5
1D1
100
AcDbEntity
  8
外形
  6
CONTINUOUS
100
AcDbLine
 10
207.406871
 20
172.929081
 30
0.0
 11
215.675328
 21
172.929081
 31
0.0
  0
LINE
  5
1D2
100
AcDbEntity
  8
外形
  6
CONTINUOUS
100
AcDbLine
 10
213.406871
 20
160.684505
 30
0.0
 11
207.406871
 21
164.88575
 31
0.0
  0
LINE
  5
1D3
100
AcDbEntity
  8
外形
  6
CONTINUOUS
100
AcDbLine
 10
215.689926
 20
173.057211
 30
0.0
 11
214.173631
 21
159.748858
 31
0.0
  0
ARC
  5
1D4
100
AcDbEntity
  8
外形
  6
CONTINUOUS
100
AcDbCircle
 10
218.936871
 20
179.129081
 30
0.0
 40
19.25
100
AcDbArc
 50
253.367389
 51
255.921674
  0
LINE
  5
1D5
100
AcDbEntity
  8
外形
  6
CONTINUOUS
100
AcDbLine
 10
218.836869
 20
158.629313
 30
0.0
 11
214.173631
 21
159.748858
 31
0.0
  0
LINE
  5
1D6
100
AcDbEntity
  8
外形
  6
CONTINUOUS
100
AcDbLine
 10
223.80585
 20
167.629081
 30
0.0
 11
220.101706
 21
167.629081
 31
0.0
  0
ARC
  5
1D7
100
AcDbEntity
  8
外形
  6
CONTINUOUS
100
AcDbCircle
 10
218.906871
 20
179.129081
 30
0.0
 40
12.5
100
AcDbArc
 50
274.774318
 51
274.86742
  0
LINE
  5
1D8
100
AcDbEntity
  8
外形
  6
CONTINUOUS
100
AcDbLine
 10
220.48549
 20
173.099061
 30
0.0
 11
215.689926
 21
173.057211
 31
0.0
  0
LINE
  5
1D9
100
AcDbEntity
  8
外形
  6
CONTINUOUS
100
AcDbLine
 10
222.084009
 20
187.129081
 30
0.0
 11
209.302184
 21
187.129081
 31
0.0
  0
ARC
  5
1DA
100
AcDbEntity
  8
外形
  6
CONTINUOUS
100
AcDbCircle
 10
218.906871
 20
179.129081
 30
0.0
 40
12.5
100
AcDbArc
 50
23.073918
 51
156.926082
  0
LINE
  5
1DB
100
AcDbEntity
  8
外形
  6
CENTER
 62
     1
100
AcDbLine
 10
238.968891
 20
179.129081
 30
0.0
 11
197.884781
 21
179.129081
 31
0.0
  0
LINE
  5
1DC
100
AcDbEntity
  8
外形
  6
CONTINUOUS
100
AcDbLine
 10
230.406871
 20
184.028061
 30
0.0
 11
230.406871
 21
174.230102
 31
0.0
  0
SPLINE
  5
1DE
100
AcDbEntity
  8
外形
  6
CONTINUOUS
100
AcDbSpline
210
0.0
220
0.0
230
1.0
 70
     8
 71
     3
 72
     9
 73
     5
 74
     3
 42
0.0000001
 43
0.0000001
 44
0.0000000001
 40
0.0
 40
0.0
 40
0.0
 40
0.0
 40
3.416353811705436
 40
10.8825448881687
 40
10.8825448881687
 40
10.8825448881687
 40
10.8825448881687
 10
292.5034085601686
 20
80.77473633363968
 30
0.0
 10
293.1501128431029
 20
79.81230798828561
 30
0.0
 10
295.2101419783435
 20
76.74656297262718
 30
0.0
 10
298.8182087866805
 20
75.57708230912023
 30
0.0
 10
301.2935963439582
 20
74.77473633364303
 30
0.0
 11
292.5034085601686
 21
80.77473633363968
 31
0.0
 11
294.5960833741927
 21
78.07433164368979
 31
0.0
 11
301.2935963439582
 21
74.77473633364303
 31
0.0
  0
SPLINE
  5
1DF
100
AcDbEntity
  8
外形
  6
CONTINUOUS
100
AcDbSpline
210
0.0
220
0.0
230
1.0
 70
     8
 71
     3
 72
     9
 73
     5
 74
     3
 42
0.0000001
 43
0.0000001
 44
0.0000000001
 40
0.0
 40
0.0
 40
0.0
 40
0.0
 40
13.10472506735163
 40
32.73073038307133
 40
32.73073038307133
 40
32.73073038307133
 40
32.73073038307133
 10
325.2626730213362
 20
93.1358349036069
 30
0.0
 10
320.9478437002579
 20
92.44494805773967
 30
0.0
 10
310.1710044738455
 20
90.71936961476811
 30
0.0
 10
299.2870540350505
 20
89.8767285599367
 30
0.0
 10
292.7608180889592
 20
89.37146400800605
 30
0.0
 11
325.2626730213362
 21
93.1358349036069
 31
0.0
 11
312.3010146993272
 21
91.20471278567448
 31
0.0
 11
292.7608180889592
 21
89.37146400800605
 31
0.0
  0
LINE
  5
1E0
100
AcDbEntity
  8
外形
  6
CONTINUOUS
100
AcDbLine
 10
304.943239
 20
89.838678
 30
0.0
 11
292.435411
 21
88.817688
 31
0.0
  0
LINE
  5
1E1
100
AcDbEntity
  8
外形
  6
CONTINUOUS
100
AcDbLine
 10
292.263375
 20
82.078066
 30
0.0
 11
303.606169
 21
83.003956
 31
0.0
  0
LINE
  5
1E2
100
AcDbEntity
  8
外形
  6
CONTINUOUS
100
AcDbLine
 10
341.293596
 20
74.774736
 30
0.0
 11
293.713221
 21
74.774736
 31
0.0
  0
LINE
  5
1E3
100
AcDbEntity
  8
外形
  6
CONTINUOUS
100
AcDbLine
 10
303.801424
 20
87.795727
 30
0.0
 11
291.293596
 21
86.774736
 31
0.0
  0
LINE
  5
1E4
100
AcDbEntity
  8
外形
  6
CONTINUOUS
100
AcDbLine
 10
293.769031
 20
74.786125
 30
0.0
 11
291.293596
 21
86.774736
 31
0.0
  0
LINE
  5
1E5
100
AcDbEntity
  8
外形
  6
CONTINUOUS
100
AcDbLine
 10
291.293596
 20
86.774736
 30
0.0
 11
292.74872
 21
89.378263
 31
0.0
  0
LINE
  5
1E6
100
AcDbEntity
  8
外形
  6
CONTINUOUS
100
AcDbLine
 10
301.293596
 20
82.770124
 30
0.0
 11
301.293596
 21
74.774736
 31
0.0
  0
LINE
  5
1E7
100
AcDbEntity
  8
外形
  6
CONTINUOUS
100
AcDbLine
 10
302.293596
 20
82.84707
 30
0.0
 11
302.293596
 21
74.774736
 31
0.0
  0
LINE
  5
1E8
100
AcDbEntity
  8
外形
  6
CONTINUOUS
100
AcDbLine
 10
341.293596
 20
83.346909
 30
0.0
 11
341.293596
 21
74.774736
 31
0.0
  0
LINE
  5
1E9
100
AcDbEntity
  8
外形
  6
CONTINUOUS
100
AcDbLine
 10
341.793596
 20
75.274736
 30
0.0
 11
341.793596
 21
81.875757
 31
0.0
  0
LINE
  5
1EA
100
AcDbEntity
  8
外形
  6
CONTINUOUS
100
AcDbLine
 10
341.793596
 20
75.274736
 30
0.0
 11
341.293596
 21
74.774736
 31
0.0
  0
SPLINE
  5
1EB
100
AcDbEntity
  8
外形
  6
CONTINUOUS
100
AcDbSpline
210
0.0
220
0.0
230
1.0
 70
     8
 71
     3
 72
     9
 73
     5
 74
     3
 42
0.0000001
 43
0.0000001
 44
0.0000000001
 40
0.0
 40
0.0
 40
0.0
 40
0.0
 40
11.55752390679531
 40
23.45310071383064
 40
23.45310071383064
 40
23.45310071383064
 40
23.45310071383064
 10
327.2201869623029
 20
89.03622669037179
 30
0.0
 10
323.3768220715996
 20
88.76656250850444
 30
0.0
 10
315.5776754214536
 20
88.21934657650633
 30
0.0
 10
307.7643864905839
 20
87.93829290866542
 30
0.0
 10
303.8014316673902
 20
87.79574052152078
 30
0.0
 11
327.2201869623029
 21
89.03622669037179
 31
0.0
 11
315.6866579088394
 21
88.29187030458786
 31
0.0
 11
303.8014316673902
 21
87.79574052152078
 31
0.0
  0
SPLINE
  5
1EC
100
AcDbEntity
  8
外形
  6
CONTINUOUS
100
AcDbSpline
210
0.0
220
0.0
230
1.0
 70
     8
 71
     3
 72
     8
 73
     4
 74
     0
 42
0.0000001
 43
0.0000001
 40
0.0
 40
0.0
 40
0.0
 40
0.0
 40
9.238676796944433
 40
9.238676796944433
 40
9.238676796944433
 40
9.238676796944433
 10
336.3122390616356
 20
98.7747363336431
 30
0.0
 10
333.7920499216051
 20
96.89093423108591
 30
0.0
 10
331.2718607815746
 20
95.00713212852877
 30
0.0
 10
325.2626730213361
 20
93.1358349036069
 30
0.0
  0
LINE
  5
1ED
100
AcDbEntity
  8
外形
  6
CONTINUOUS
100
AcDbLine
 10
341.293596
 20
83.346909
 30
0.0
 11
303.606663
 21
83.346909
 31
0.0
  0
LINE
  5
1EE
100
AcDbEntity
  8
外形
  6
CONTINUOUS
100
AcDbLine
 10
303.801424
 20
87.795727
 30
0.0
 11
304.943239
 21
89.838678
 31
0.0
  0
ARC
  5
1EF
100
AcDbEntity
  8
外形
  6
CONTINUOUS
100
AcDbCircle
 10
302.293596
 20
82.942975
 30
0.0
 40
5.0
100
AcDbArc
 50
258.463041
 51
270.0
  0
LINE
  5
1F0
100
AcDbEntity
  8
外形
  6
CONTINUOUS
100
AcDbLine
 10
303.801424
 20
87.795727
 30
0.0
 11
303.606169
 21
83.003956
 31
0.0
  0
LINE
  5
1F1
100
AcDbEntity
  8
外形
  6
CONTINUOUS
100
AcDbLine
 10
341.293596
 20
90.202564
 30
0.0
 11
329.178502
 21
90.202564
 31
0.0
  0
LINE
  5
1F2
100
AcDbEntity
  8
外形
  6
CONTINUOUS
100
AcDbLine
 10
341.293596
 20
98.774736
 30
0.0
 11
336.312239
 21
98.774736
 31
0.0
  0
ARC
  5
1F3
100
AcDbEntity
  8
外形
  6
CONTINUOUS
100
AcDbCircle
 10
317.981936
 20
106.774736
 30
0.0
 40
20.0
100
AcDbArc
 50
297.510589
 51
336.421822
  0
LINE
  5
1F4
100
AcDbEntity
  8
外形
  6
CONTINUOUS
100
AcDbLine
 10
341.793596
 20
91.673716
 30
0.0
 11
341.793596
 21
98.274736
 31
0.0
  0
LINE
  5
1F5
100
AcDbEntity
  8
外形
  6
CONTINUOUS
100
AcDbLine
 10
341.293596
 20
98.774736
 30
0.0
 11
341.293596
 21
90.202564
 31
0.0
  0
LINE
  5
1F6
100
AcDbEntity
  8
外形
  6
CONTINUOUS
100
AcDbLine
 10
341.793596
 20
98.274736
 30
0.0
 11
341.293596
 21
98.774736
 31
0.0
  0
LINE
  5
1F7
100
AcDbEntity
  8
外形
  6
CONTINUOUS
100
AcDbLine
 10
341.293596
 20
98.774736
 30
0.0
 11
341.293596
 21
93.850236
 31
0.0
  0
LINE
  5
1F8
100
AcDbEntity
  8
外形
  6
CONTINUOUS
100
AcDbLine
 10
303.928128
 20
167.629081
 30
0.0
 11
398.711151
 21
167.629081
 31
0.0
  0
LINE
  5
1F9
100
AcDbEntity
  8
外形
  6
CONTINUOUS
100
AcDbLine
 10
341.293596
 20
174.230102
 30
0.0
 11
398.711151
 21
174.230102
 31
0.0
  0
LINE
  5
1FA
100
AcDbEntity
  8
外形
  6
CONTINUOUS
100
AcDbLine
 10
341.293596
 20
184.028061
 30
0.0
 11
398.711151
 21
184.028061
 31
0.0
  0
LINE
  5
1FB
100
AcDbEntity
  8
外形
  6
CONTINUOUS
100
AcDbLine
 10
341.793596
 20
191.629081
 30
0.0
 11
398.711151
 21
191.629081
 31
0.0
  0
DIMENSION
  5
1FD
100
AcDbEntity
  8
寸法
  6
CONTINUOUS
100
AcDbDimension
  2
*D2
 10
300.252702
 20
187.129081
 30
0.0
 11
267.321746
 21
191.209067
 31
0.0
 70
    34
  3
STANDARD
100
AcDb2LineAngularDimension
 13
292.093596
 23
158.629081
 33
0.0
 14
291.293596
 24
158.629081
 34
0.0
 15
291.332751
 25
159.676295
 35
0.0
 16
279.320586
 26
194.55151
 36
0.0
1001
ACAD
1000
DSTYLE
1002
{
1070
    40
1040
1.0
1002
}
  0
DIMENSION
  5
1FF
100
AcDbEntity
  8
寸法
  6
CONTINUOUS
100
AcDbDimension
  2
*D3
 10
316.712285
 20
167.629081
 30
0.0
 11
314.212285
 21
163.129081
 31
0.0
 70
    32
  3
STANDARD
100
AcDbAlignedDimension
 13
291.293596
 23
158.629081
 33
0.0
 14
305.627015
 24
167.629081
 34
0.0
 50
90.0
100
AcDbRotatedDimension
1001
ACAD
1000
DSTYLE
1002
{
1070
    40
1040
1.0
1002
}
  0
LINE
  5
200
100
AcDbEntity
  8
外形
  6
CENTER
 62
     1
100
AcDbLine
 10
293.072662
 20
170.152139
 30
0.0
 11
306.334128
 21
170.152139
 31
0.0
  0
CIRCLE
  5
201
100
AcDbEntity
  8
外形
  6
CONTINUOUS
100
AcDbCircle
 10
299.742239
 20
170.152139
 30
0.0
 40
2.550019
  0
LINE
  5
204
100
AcDbEntity
  8
外形
  6
CONTINUOUS
100
AcDbLine
 10
295.678439
 20
173.050947
 30
0.0
 11
306.90943
 21
181.514105
 31
0.0
  0
LINE
  5
205
100
AcDbEntity
  8
外形
  6
CONTINUOUS
100
AcDbLine
 10
291.332751
 20
159.676295
 30
0.0
 11
300.252702
 21
187.129081
 31
0.0
  0
LINE
  5
206
100
AcDbEntity
  8
外形
  6
CONTINUOUS
100
AcDbLine
 10
292.575048
 20
158.790173
 30
0.0
 11
303.806039
 21
167.253332
 31
0.0
  0
DIMENSION
  5
207
100
AcDbEntity
  8
寸法
  6
CONTINUOUS
100
AcDbDimension
  2
*D4
 10
286.026899
 20
179.129081
 30
0.0
 11
283.526899
 21
168.879081
 31
0.0
 70
    32
  3
STANDARD
100
AcDbAlignedDimension
 13
291.293596
 23
158.629081
 33
0.0
 14
291.459143
 24
179.129081
 34
0.0
 50
90.0
100
AcDbRotatedDimension
1001
ACAD
1000
DSTYLE
1002
{
1070
    40
1040
1.0
1002
}
  0
LINE
  5
208
100
AcDbEntity
  8
外形
  6
CONTINUOUS
 62
     1
100
AcDbLine
 10
291.293596
 20
159.429081
 30
0.0
 11
291.293596
 21
158.629081
 31
0.0
  0
LINE
  5
209
100
AcDbEntity
  8
外形
  6
CONTINUOUS
 62
     1
100
AcDbLine
 10
292.093596
 20
158.629081
 30
0.0
 11
291.293596
 21
158.629081
 31
0.0
  0
ARC
  5
20A
100
AcDbEntity
  8
外形
  6
CONTINUOUS
100
AcDbCircle
 10
292.093596
 20
159.429081
 30
0.0
 40
0.8
100
AcDbArc
 50
162.0
 51
307.0
  0
SPLINE
  5
20C
100
AcDbEntity
  8
外形
  6
CONTINUOUS
100
AcDbSpline
210
0.0
220
0.0
230
1.0
 70
     8
 71
     3
 72
     9
 73
     5
 74
     0
 42
0.0000001
 43
0.0000001
 40
12.3088885730966
 40
12.3088885730966
 40
12.3088885730966
 40
12.3088885730966
 40
25.84155860107713
 40
31.53131818006933
 40
31.53131818006933
 40
31.53131818006933
 40
31.53131818006933
 10
319.6949789858191
 20
167.6290812921346
 30
0.0
 10
324.2813292932382
 20
168.1118614442788
 30
0.0
 10
330.3209366140528
 20
169.7739388334437
 30
0.0
 10
334.9438699376986
 20
174.347499091059
 30
0.0
 10
336.3122390616368
 20
175.7012539918665
 30
0.0
  0
LINE
  5
20D
100
AcDbEntity
  8
外形
  6
CONTINUOUS
100
AcDbLine
 10
341.793596
 20
167.629081
 30
0.0
 11
341.793596
 21
174.230102
 31
0.0
  0
LINE
  5
20E
100
AcDbEntity
  8
外形
  6
CONTINUOUS
100
AcDbLine
 10
341.293596
 20
167.629081
 30
0.0
 11
341.293596
 21
175.701254
 31
0.0
  0
LINE
  5
20F
100
AcDbEntity
  8
外形
  6
CENTER
 62
     1
100
AcDbLine
 10
299.742239
 20
163.058454
 30
0.0
 11
299.742239
 21
177.514846
 31
0.0
  0
LINE
  5
210
100
AcDbEntity
  8
外形
  6
CONTINUOUS
100
AcDbLine
 10
303.806039
 20
167.253332
 30
0.0
 11
308.151727
 21
180.627983
 31
0.0
  0
ARC
  5
211
100
AcDbEntity
  8
外形
  6
CONTINUOUS
100
AcDbCircle
 10
300.944043
 20
170.846001
 30
0.0
 40
0.394205
100
AcDbArc
 50
180.283476
 51
239.716524
  0
LINE
  5
212
100
AcDbEntity
  8
外形
  6
CONTINUOUS
100
AcDbLine
 10
300.546375
 20
171.544944
 30
0.0
 11
300.549843
 21
170.844051
 31
0.0
  0
ARC
  5
213
100
AcDbEntity
  8
外形
  6
CONTINUOUS
100
AcDbCircle
 10
300.944043
 20
169.458277
 30
0.0
 40
0.394205
100
AcDbArc
 50
120.283476
 51
179.716524
  0
LINE
  5
214
100
AcDbEntity
  8
外形
  6
CONTINUOUS
100
AcDbLine
 10
300.549843
 20
169.460228
 30
0.0
 11
300.546375
 21
168.759334
 31
0.0
  0
LINE
  5
215
100
AcDbEntity
  8
外形
  6
CONTINUOUS
100
AcDbLine
 10
301.350511
 20
170.152139
 30
0.0
 11
300.745254
 21
169.798689
 31
0.0
  0
LINE
  5
216
100
AcDbEntity
  8
外形
  6
CONTINUOUS
100
AcDbLine
 10
300.745254
 20
170.505589
 30
0.0
 11
301.350511
 21
170.152139
 31
0.0
  0
ARC
  5
217
100
AcDbEntity
  8
外形
  6
CONTINUOUS
100
AcDbCircle
 10
299.742239
 20
171.539863
 30
0.0
 40
0.394205
100
AcDbArc
 50
240.283476
 51
299.716524
  0
ARC
  5
218
100
AcDbEntity
  8
外形
  6
CONTINUOUS
100
AcDbCircle
 10
298.540435
 20
170.846001
 30
0.0
 40
0.394205
100
AcDbArc
 50
300.283476
 51
359.716524
  0
LINE
  5
219
100
AcDbEntity
  8
外形
  6
CONTINUOUS
100
AcDbLine
 10
298.938103
 20
171.544944
 30
0.0
 11
299.546828
 21
171.1975
 31
0.0
  0
LINE
  5
21A
100
AcDbEntity
  8
外形
  6
CONTINUOUS
100
AcDbLine
 10
298.934635
 20
170.844051
 30
0.0
 11
298.938103
 21
171.544944
 31
0.0
  0
ARC
  5
21B
100
AcDbEntity
  8
外形
  6
CONTINUOUS
100
AcDbCircle
 10
298.540435
 20
169.458277
 30
0.0
 40
0.394205
100
AcDbArc
 50
0.283476
 51
59.716524
  0
ARC
  5
21C
100
AcDbEntity
  8
外形
  6
CONTINUOUS
100
AcDbCircle
 10
299.742239
 20
168.764415
 30
0.0
 40
0.394205
100
AcDbArc
 50
60.283476
 51
119.716524
  0
LINE
  5
21D
100
AcDbEntity
  8
外形
  6
CONTINUOUS
100
AcDbLine
 10
298.938103
 20
168.759334
 30
0.0
 11
298.934635
 21
169.460228
 31
0.0
  0
LINE
  5
21E
100
AcDbEntity
  8
外形
  6
CONTINUOUS
100
AcDbLine
 10
299.546828
 20
169.106778
 30
0.0
 11
298.938103
 21
168.759334
 31
0.0
  0
LINE
  5
21F
100
AcDbEntity
  8
外形
  6
CONTINUOUS
100
AcDbLine
 10
298.739224
 20
169.798689
 30
0.0
 11
298.133967
 21
170.152139
 31
0.0
  0
LINE
  5
220
100
AcDbEntity
  8
外形
  6
CONTINUOUS
100
AcDbLine
 10
298.133967
 20
170.152139
 30
0.0
 11
298.739224
 21
170.505589
 31
0.0
  0
LINE
  5
221
100
AcDbEntity
  8
外形
  6
CONTINUOUS
100
AcDbLine
 10
299.93765
 20
171.1975
 30
0.0
 11
300.546375
 21
171.544944
 31
0.0
  0
LINE
  5
222
100
AcDbEntity
  8
外形
  6
CONTINUOUS
100
AcDbLine
 10
300.546375
 20
168.759334
 30
0.0
 11
299.93765
 21
169.106778
 31
0.0
  0
SPLINE
  5
223
100
AcDbEntity
  8
外形
  6
CONTINUOUS
100
AcDbSpline
210
0.0
220
0.0
230
-1.0
 70
     8
 71
     3
 72
     9
 73
     5
 74
     3
 42
0.0000001
 43
0.0000001
 44
0.0000000001
 40
0.0
 40
0.0
 40
0.0
 40
0.0
 40
25.84155860107713
 40
31.53131818006933
 40
31.53131818006933
 40
31.53131818006933
 40
31.53131818006933
 10
306.6268044208517
 20
190.8091709538613
 30
0.0
 10
315.9656400666751
 20
191.0810796559038
 30
0.0
 10
327.360687970928
 20
191.4128568498566
 30
0.0
 10
334.9438699376989
 20
183.9106634930769
 30
0.0
 10
336.3122390616371
 20
182.5569085922694
 30
0.0
 11
306.6268044208517
 21
190.8091709538613
 31
0.0
 11
332.0830118531269
 21
186.3630879476768
 31
0.0
 11
336.3122390616371
 21
182.5569085922694
 31
0.0
  0
LINE
  5
224
100
AcDbEntity
  8
外形
  6
CONTINUOUS
100
AcDbLine
 10
341.293596
 20
191.129081
 30
0.0
 11
307.180905
 21
191.129081
 31
0.0
  0
LINE
  5
226
100
AcDbEntity
  8
外形
  6
CONTINUOUS
100
AcDbLine
 10
306.78848
 20
176.43234
 30
0.0
 11
308.629718
 21
179.070944
 31
0.0
  0
ARC
  5
227
100
AcDbEntity
  8
外形
  6
CONTINUOUS
100
AcDbCircle
 10
307.194585
 20
180.072391
 30
0.0
 40
1.75
100
AcDbArc
 50
325.092375
 51
6.385887
  0
ARC
  5
228
100
AcDbEntity
  8
外形
  6
CONTINUOUS
100
AcDbCircle
 10
307.524907
 20
181.305169
 30
0.0
 40
1.75
100
AcDbArc
 50
323.614113
 51
199.12087
  0
ARC
  5
229
100
AcDbEntity
  8
外形
  6
CONTINUOUS
100
AcDbCircle
 10
307.390882
 20
180.875197
 30
0.0
 40
0.8
100
AcDbArc
 50
342.0
 51
127.0
  0
LINE
  5
22A
100
AcDbEntity
  8
外形
  6
CONTINUOUS
100
AcDbLine
 10
300.252702
 20
187.129081
 30
0.0
 11
307.180905
 21
191.129081
 31
0.0
  0
LINE
  5
22B
100
AcDbEntity
  8
外形
  6
CONTINUOUS
100
AcDbLine
 10
341.793596
 20
184.028061
 30
0.0
 11
341.793596
 21
191.629081
 31
0.0
  0
LINE
  5
22C
100
AcDbEntity
  8
外形
  6
CONTINUOUS
100
AcDbLine
 10
341.293596
 20
182.556909
 30
0.0
 11
341.293596
 21
191.129081
 31
0.0
  0
LINE
  5
22D
100
AcDbEntity
  8
外形
  6
CONTINUOUS
100
AcDbLine
 10
341.293596
 20
175.701254
 30
0.0
 11
336.312239
 21
175.701254
 31
0.0
  0
LINE
  5
22E
100
AcDbEntity
  8
外形
  6
CONTINUOUS
100
AcDbLine
 10
341.293596
 20
182.556909
 30
0.0
 11
336.312239
 21
182.556909
 31
0.0
  0
LINE
  5
22F
100
AcDbEntity
  8
外形
  6
CONTINUOUS
100
AcDbLine
 10
336.312239
 20
175.701254
 30
0.0
 11
336.312239
 21
182.556909
 31
0.0
  0
LINE
  5
230
100
AcDbEntity
  8
外形
  6
CONTINUOUS
100
AcDbLine
 10
341.793596
 20
191.629081
 30
0.0
 11
341.293596
 21
191.129081
 31
0.0
  0
DIMENSION
  5
231
100
AcDbEntity
  8
寸法
  6
CONTINUOUS
100
AcDbDimension
  2
*D5
 10
403.924247
 20
169.770811
 30
0.0
 11
427.560403
 21
196.462749
 31
0.0
 70
   163
  3
STANDARD
100
AcDbDiametricDimension
 15
420.498055
 25
188.487351
 35
0.0
 40
0.0
1001
ACAD
1000
DSTYLE
1002
{
1070
    40
1040
1.0
1002
}
  0
ARC
  5
232
100
AcDbEntity
  8
外形
  6
CONTINUOUS
100
AcDbCircle
 10
412.211151
 20
179.129081
 30
0.0
 40
12.5
100
AcDbArc
 50
23.073918
 51
156.926082
  0
LINE
  5
233
100
AcDbEntity
  8
外形
  6
CONTINUOUS
100
AcDbLine
 10
407.312172
 20
167.629081
 30
0.0
 11
417.110131
 21
167.629081
 31
0.0
  0
DIMENSION
  5
234
100
AcDbEntity
  8
寸法
  6
CONTINUOUS
100
AcDbDimension
  2
*D6
 10
423.711151
 20
158.249686
 30
0.0
 11
412.211151
 21
160.749686
 31
0.0
 70
    32
  3
STANDARD
100
AcDbAlignedDimension
 13
400.711151
 23
174.230102
 33
0.0
 14
423.711151
 24
174.230102
 34
0.0
100
AcDbRotatedDimension
1001
ACAD
1000
DSTYLE
1002
{
1070
    40
1040
1.0
1002
}
  0
ARC
  5
235
100
AcDbEntity
  8
外形
  6
CONTINUOUS
100
AcDbCircle
 10
412.211151
 20
179.129081
 30
0.0
 40
12.5
100
AcDbArc
 50
203.073918
 51
246.926082
  0
LINE
  5
236
100
AcDbEntity
  8
外形
  6
CENTER
 62
     1
100
AcDbLine
 10
412.211151
 20
194.25821
 30
0.0
 11
412.211151
 21
165.583279
 31
0.0
  0
LINE
  5
237
100
AcDbEntity
  8
外形
  6
CONTINUOUS
100
AcDbLine
 10
400.711151
 20
184.028061
 30
0.0
 11
400.711151
 21
174.230102
 31
0.0
  0
ARC
  5
238
100
AcDbEntity
  8
外形
  6
CONTINUOUS
100
AcDbCircle
 10
412.211151
 20
179.129081
 30
0.0
 40
12.5
100
AcDbArc
 50
293.073918
 51
336.926082
  0
LINE
  5
239
100
AcDbEntity
  8
外形
  6
CONTINUOUS
100
AcDbLine
 10
423.711151
 20
184.028061
 30
0.0
 11
423.711151
 21
174.230102
 31
0.0
  0
LINE
  5
23A
100
AcDbEntity
  8
外形
  6
CONTINUOUS
100
AcDbLine
 10
489.289508
 20
75.274736
 30
0.0
 11
491.289508
 21
77.274736
 31
0.0
  0
LINE
  5
23B
100
AcDbEntity
  8
外形
  6
CONTINUOUS
100
AcDbLine
 10
489.289508
 20
81.875757
 30
0.0
 11
489.289508
 21
75.274736
 31
0.0
  0
ARC
  5
23C
100
AcDbEntity
  8
外形
  6
CONTINUOUS
100
AcDbCircle
 10
477.789508
 20
86.774736
 30
0.0
 40
12.5
100
AcDbArc
 50
336.926082
 51
23.073918
  0
LINE
  5
23D
100
AcDbEntity
  8
外形
  6
CONTINUOUS
100
AcDbLine
 10
491.289508
 20
96.274736
 30
0.0
 11
491.289508
 21
77.274736
 31
0.0
  0
LINE
  5
23E
100
AcDbEntity
  8
外形
  6
CONTINUOUS
100
AcDbLine
 10
489.289508
 20
98.274736
 30
0.0
 11
491.289508
 21
96.274736
 31
0.0
  0
LINE
  5
23F
100
AcDbEntity
  8
外形
  6
CONTINUOUS
100
AcDbLine
 10
489.289508
 20
98.274736
 30
0.0
 11
489.289508
 21
91.673716
 31
0.0
  0
LINE
  5
241
100
AcDbEntity
  8
外形
  6
CONTINUOUS
100
AcDbLine
 10
489.289508
 20
174.230102
 30
0.0
 11
489.289508
 21
169.129081
 31
0.0
  0
LINE
  5
242
100
AcDbEntity
  8
外形
  6
CONTINUOUS
100
AcDbLine
 10
491.289508
 20
171.129081
 30
0.0
 11
491.289508
 21
189.629081
 31
0.0
  0
LINE
  5
243
100
AcDbEntity
  8
外形
  6
CONTINUOUS
100
AcDbLine
 10
489.289508
 20
169.129081
 30
0.0
 11
491.289508
 21
171.129081
 31
0.0
  0
LINE
  5
244
100
AcDbEntity
  8
外形
  6
CONTINUOUS
100
AcDbLine
 10
489.289508
 20
191.629081
 30
0.0
 11
489.289508
 21
184.028061
 31
0.0
  0
ARC
  5
245
100
AcDbEntity
  8
外形
  6
CONTINUOUS
100
AcDbCircle
 10
477.789508
 20
179.129081
 30
0.0
 40
12.5
100
AcDbArc
 50
336.926082
 51
23.073918
  0
LINE
  5
246
100
AcDbEntity
  8
外形
  6
CONTINUOUS
100
AcDbLine
 10
489.289508
 20
191.629081
 30
0.0
 11
491.289508
 21
189.629081
 31
0.0
  0
DIMENSION
  5
480
100
AcDbEntity
  8
寸法
  6
CONTINUOUS
100
AcDbDimension
  2
*D7
 10
498.777502
 20
86.774736
 30
0.0
 11
286.794358
 21
96.753372
 31
0.0
 70
    34
  3
STANDARD
100
AcDb2LineAngularDimension
 13
303.801424
 23
87.795727
 33
0.0
 14
291.293596
 24
86.774736
 34
0.0
 15
287.463616
 25
86.774736
 35
0.0
 16
280.883445
 26
86.208926
 36
0.0
1001
ACAD
1000
DSTYLE
1002
{
1070
    78
1070
     0
1070
    40
1040
1.0
1070
   275
1070
     1
1002
}
  0
DIMENSION
  5
493
100
AcDbEntity
  8
寸法
  6
CONTINUOUS
100
AcDbDimension
  2
*D8
 10
218.836871
 20
158.629313
 30
0.0
 11
208.271091
 21
154.103816
 31
0.0
 70
    34
  3
STANDARD
100
AcDb2LineAngularDimension
 13
218.906871
 23
198.64135
 33
0.0
 14
218.906871
 24
157.545937
 34
0.0
 15
222.515535
 25
190.916531
 35
0.0
 16
218.461246
 26
147.465132
 36
0.0
1001
ACAD
1000
DSTYLE
1002
{
1070
    40
1040
1.0
1002
}
  0
ENDSEC
  0
SECTION
  2
OBJECTS
  0
DICTIONARY
  5
1E
100
AcDbDictionary
  3
ACAD_GROUP
350
1C
  3
ACAD_MLINESTYLE
350
1D
  0
DICTIONARY
  5
38
100
AcDbDictionary
280
     1
  3
ACAD_XREC_ROUNDTRIP
360
39
  0
DICTIONARY
  5
4B
100
AcDbDictionary
280
     1
  3
ACAD_XREC_ROUNDTRIP
360
4C
  0
DICTIONARY
  5
3
100
AcDbDictionary
280
     1
  3
ACAD_LAYOUTSELFREF
360
4
  0
DICTIONARY
  5
A
100
AcDbDictionary
280
     1
  3
ACAD_LAYOUTSELFREF
360
B
  0
DICTIONARY
  5
1C
102
{ACAD_REACTORS
330
1E
102
}
100
AcDbDictionary
  0
DICTIONARY
  5
1D
102
{ACAD_REACTORS
330
1E
102
}
100
AcDbDictionary
  3
STANDARD
350
20
  0
XRECORD
  5
39
102
{ACAD_REACTORS
330
38
102
}
100
AcDbXrecord
102
PLOTBIT
280
     0
  0
XRECORD
  5
4C
102
{ACAD_REACTORS
330
4B
102
}
100
AcDbXrecord
102
ACADR14ROUNDTRIP
1000
DSTYLE
1002
{
1070
   341
340
0
1070
   343
340
0
1070
   344
340
0
1002
}
  0
XRECORD
  5
4
102
{ACAD_REACTORS
330
3
102
}
100
AcDbXrecord
340
2
  0
XRECORD
  5
B
102
{ACAD_REACTORS
330
A
102
}
100
AcDbXrecord
340
9
  0
MLINESTYLE
  5
20
102
{ACAD_REACTORS
330
1D
102
}
100
AcDbMlineStyle
  2
STANDARD
 70
     0
  3

 62
     0
 51
90.0
 52
90.0
 71
     2
 49
0.5
 62
   256
  6
BYLAYER
 49
-0.5
 62
   256
  6
BYLAYER
  0
ENDSEC
  0
EOF
