  0
SECTION
  2
HEADER
  9
$ACADVER
  1
AC1014
  9
$ACADMAINTVER
 70
     0
  9
$DWGCODEPAGE
  3
ANSI_932
  9
$INSBASE
 10
-16.918037
 20
146.266983
 30
0.0
  9
$EXTMIN
 10
-50.942388
 20
118.986904
 30
0.0
  9
$EXTMAX
 10
227.809112
 20
279.408274
 30
0.0
  9
$LIMMIN
 10
-587.250952
 20
327.890188
  9
$LIMMAX
 10
600.749048
 20
957.890188
  9
$ORTHOMODE
 70
     1
  9
$REGENMODE
 70
     1
  9
$FILLMODE
 70
     1
  9
$QTEXTMODE
 70
     0
  9
$MIRRTEXT
 70
     1
  9
$DRAGMODE
 70
     2
  9
$LTSCALE
 40
5.0
  9
$OSMODE
 70
   303
  9
$ATTMODE
 70
     1
  9
$TEXTSIZE
 40
5.0
  9
$TRACEWID
 40
0.05
  9
$TEXTSTYLE
  7
STANDARD
  9
$CLAYER
  8
寸法
  9
$CELTYPE
  6
CONTINUOUS
  9
$CECOLOR
 62
   256
  9
$CELTSCALE
 40
1.0
  9
$DELOBJ
 70
     1
  9
$DISPSILH
 70
     0
  9
$DIMSCALE
 40
1.0
  9
$DIMASZ
 40
2.0
  9
$DIMEXO
 40
1.0
  9
$DIMDLI
 40
8.0
  9
$DIMRND
 40
0.0
  9
$DIMDLE
 40
0.0
  9
$DIMEXE
 40
2.0
  9
$DIMTP
 40
0.0
  9
$DIMTM
 40
0.0
  9
$DIMTXT
 40
2.0
  9
$DIMCEN
 40
-1.0
  9
$DIMTSZ
 40
0.0
  9
$DIMTOL
 70
     0
  9
$DIMLIM
 70
     0
  9
$DIMTIH
 70
     0
  9
$DIMTOH
 70
     0
  9
$DIMSE1
 70
     0
  9
$DIMSE2
 70
     0
  9
$DIMTAD
 70
     1
  9
$DIMZIN
 70
     8
  9
$DIMBLK
  1

  9
$DIMASO
 70
     1
  9
$DIMSHO
 70
     1
  9
$DIMPOST
  1

  9
$DIMAPOST
  1

  9
$DIMALT
 70
     0
  9
$DIMALTD
 70
     2
  9
$DIMALTF
 40
25.4
  9
$DIMLFAC
 40
1.0
  9
$DIMTOFL
 70
     1
  9
$DIMTVP
 40
0.0
  9
$DIMTIX
 70
     0
  9
$DIMSOXD
 70
     0
  9
$DIMSAH
 70
     1
  9
$DIMBLK1
  1
_DOTSMALL
  9
$DIMBLK2
  1
_DOTSMALL
  9
$DIMSTYLE
  2
参考寸法
  9
$DIMCLRD
 70
     2
  9
$DIMCLRE
 70
     2
  9
$DIMCLRT
 70
     2
  9
$DIMTFAC
 40
1.0
  9
$DIMGAP
 40
1.0
  9
$DIMJUST
 70
     0
  9
$DIMSD1
 70
     0
  9
$DIMSD2
 70
     0
  9
$DIMTOLJ
 70
     1
  9
$DIMTZIN
 70
     8
  9
$DIMALTZ
 70
     0
  9
$DIMALTTZ
 70
     0
  9
$DIMFIT
 70
     3
  9
$DIMUPT
 70
     0
  9
$DIMUNIT
 70
     2
  9
$DIMDEC
 70
     3
  9
$DIMTDEC
 70
     2
  9
$DIMALTU
 70
     2
  9
$DIMALTTD
 70
     2
  9
$DIMTXSTY
  7
STANDARD
  9
$DIMAUNIT
 70
     0
  9
$LUNITS
 70
     2
  9
$LUPREC
 70
     3
  9
$SKETCHINC
 40
0.1
  9
$FILLETRAD
 40
6.5
  9
$AUNITS
 70
     0
  9
$AUPREC
 70
     3
  9
$MENU
  1
acad
  9
$ELEVATION
 40
0.0
  9
$PELEVATION
 40
0.0
  9
$THICKNESS
 40
0.0
  9
$LIMCHECK
 70
     0
  9
$BLIPMODE
 70
     0
  9
$CHAMFERA
 40
0.0
  9
$CHAMFERB
 40
0.0
  9
$CHAMFERC
 40
0.0
  9
$CHAMFERD
 40
0.0
  9
$SKPOLY
 70
     0
  9
$TDCREATE
 40
2450751.535399305
  9
$TDUPDATE
 40
2452030.539687500
  9
$TDINDWG
 40
4.5864206019
  9
$TDUSRTIMER
 40
4.5864206019
  9
$USRTIMER
 70
     1
  9
$ANGBASE
 50
0.0
  9
$ANGDIR
 70
     0
  9
$PDMODE
 70
    32
  9
$PDSIZE
 40
0.0
  9
$PLINEWID
 40
0.0
  9
$COORDS
 70
     2
  9
$SPLFRAME
 70
     0
  9
$SPLINETYPE
 70
     5
  9
$SPLINESEGS
 70
     8
  9
$ATTDIA
 70
     0
  9
$ATTREQ
 70
     1
  9
$HANDLING
 70
     1
  9
$HANDSEED
  5
45C
  9
$SURFTAB1
 70
     6
  9
$SURFTAB2
 70
     6
  9
$SURFTYPE
 70
     6
  9
$SURFU
 70
     6
  9
$SURFV
 70
     6
  9
$UCSNAME
  2

  9
$UCSORG
 10
0.0
 20
0.0
 30
0.0
  9
$UCSXDIR
 10
1.0
 20
0.0
 30
0.0
  9
$UCSYDIR
 10
0.0
 20
1.0
 30
0.0
  9
$PUCSNAME
  2

  9
$PUCSORG
 10
0.0
 20
0.0
 30
0.0
  9
$PUCSXDIR
 10
1.0
 20
0.0
 30
0.0
  9
$PUCSYDIR
 10
0.0
 20
1.0
 30
0.0
  9
$USERI1
 70
     0
  9
$USERI2
 70
     0
  9
$USERI3
 70
     0
  9
$USERI4
 70
     0
  9
$USERI5
 70
     0
  9
$USERR1
 40
0.0
  9
$USERR2
 40
0.0
  9
$USERR3
 40
0.0
  9
$USERR4
 40
0.0
  9
$USERR5
 40
0.0
  9
$WORLDVIEW
 70
     1
  9
$SHADEDGE
 70
     3
  9
$SHADEDIF
 70
    70
  9
$TILEMODE
 70
     1
  9
$MAXACTVP
 70
    16
  9
$PINSBASE
 10
0.0
 20
0.0
 30
0.0
  9
$PLIMCHECK
 70
     0
  9
$PEXTMIN
 10
1.000000E+20
 20
1.000000E+20
 30
1.000000E+20
  9
$PEXTMAX
 10
-1.000000E+20
 20
-1.000000E+20
 30
-1.000000E+20
  9
$PLIMMIN
 10
0.0
 20
0.0
  9
$PLIMMAX
 10
12.0
 20
9.0
  9
$UNITMODE
 70
     0
  9
$VISRETAIN
 70
     0
  9
$PLINEGEN
 70
     0
  9
$PSLTSCALE
 70
     1
  9
$TREEDEPTH
 70
  3020
  9
$PICKSTYLE
 70
     1
  9
$CMLSTYLE
  2
STANDARD
  9
$CMLJUST
 70
     0
  9
$CMLSCALE
 40
1.0
  9
$PROXYGRAPHICS
 70
     1
  9
$MEASUREMENT
 70
     0
  0
ENDSEC
  0
SECTION
  2
CLASSES
  0
CLASS
  1
LWPOLYLINE
  2
AcDbPolyline
  3
"AutoCAD"
 90
        0
280
     0
281
     1
  0
CLASS
  1
ACDBDICTIONARYWDFLT
  2
AcDbDictionaryWithDefault
  3
AutoCAD 2000
 90
        0
280
     1
281
     0
  0
CLASS
  1
ACDBPLACEHOLDER
  2
AcDbPlaceHolder
  3
AutoCAD 2000
 90
        0
280
     1
281
     0
  0
CLASS
  1
LAYOUT
  2
AcDbLayout
  3
AutoCAD 2000
 90
        0
280
     1
281
     0
  0
CLASS
  1
LONG_TRANSACTION
  2
AcDbLongTransaction
  3
AutoCAD 2000
 90
        0
280
     1
281
     0
  0
CLASS
  1
LWPOLYLINE
  2
AcDbPolyline
  3
"AutoCAD"
 90
        0
280
     0
281
     1
  0
CLASS
  1
HATCH
  2
AcDbHatch
  3
"ACAD_SEDONA"
 90
        0
280
     0
281
     1
  0
CLASS
  1
XRECORD
  2
AcDbXrecord
  3
"<Built In>"
 90
        0
280
     0
281
     0
  0
CLASS
  1
DICTIONARYVAR
  2
AcDbDictionaryVar
  3
"AutoCAD"
 90
        0
280
     0
281
     0
  0
ENDSEC
  0
SECTION
  2
TABLES
  0
TABLE
  2
VPORT
  5
16
100
AcDbSymbolTable
 70
     1
  0
VPORT
  5
457
100
AcDbSymbolTableRecord
100
AcDbViewportTableRecord
  2
*ACTIVE
 70
     0
 10
0.0
 20
0.0
 11
1.0
 21
1.0
 12
122.104194
 22
194.672833
 13
0.0
 23
0.0
 14
1.0
 24
1.0
 15
10.0
 25
10.0
 16
0.0
 26
0.0
 36
1.0
 17
0.0
 27
0.0
 37
0.0
 40
245.359682
 41
1.710425
 42
50.0
 43
0.0
 44
0.0
 50
0.0
 51
0.0
 71
     0
 72
   100
 73
     1
 74
     1
 75
     0
 76
     0
 77
     0
 78
     2
  0
ENDTAB
  0
TABLE
  2
LTYPE
  5
11
100
AcDbSymbolTable
 70
     2
  0
LTYPE
  5
12
100
AcDbSymbolTableRecord
100
AcDbLinetypeTableRecord
  2
BYBLOCK
 70
     0
  3

 72
    65
 73
     0
 40
0.0
  0
LTYPE
  5
13
100
AcDbSymbolTableRecord
100
AcDbLinetypeTableRecord
  2
BYLAYER
 70
     0
  3

 72
    65
 73
     0
 40
0.0
  0
LTYPE
  5
7
100
AcDbSymbolTableRecord
100
AcDbLinetypeTableRecord
  2
CONTINUOUS
 70
     0
  3
Solid line
 72
    65
 73
     0
 40
0.0
  0
LTYPE
  5
61
100
AcDbSymbolTableRecord
100
AcDbLinetypeTableRecord
  2
CENTER
 70
     0
  3
Center ____ _ ____ _ ____ _ ____ _ ____ _ ____
 72
    65
 73
     4
 40
2.0
 49
1.25
 74
     0
 49
-0.25
 74
     0
 49
0.25
 74
     0
 49
-0.25
 74
     0
  0
ENDTAB
  0
TABLE
  2
LAYER
  5
E
100
AcDbSymbolTable
 70
     5
  0
LAYER
  5
6
100
AcDbSymbolTableRecord
100
AcDbLayerTableRecord
  2
0
 70
     0
 62
     7
  6
CONTINUOUS
  0
LAYER
  5
1F
100
AcDbSymbolTableRecord
100
AcDbLayerTableRecord
  2
外形
 70
     0
 62
     4
  6
CONTINUOUS
  0
LAYER
  5
42
102
{ACAD_XDICTIONARY
360
43
102
}
100
AcDbSymbolTableRecord
100
AcDbLayerTableRecord
  2
DEFPOINTS
 70
     0
 62
     7
  6
CONTINUOUS
  0
LAYER
  5
2C
100
AcDbSymbolTableRecord
100
AcDbLayerTableRecord
  2
寸法
 70
     0
 62
     1
  6
CONTINUOUS
  0
LAYER
  5
89
100
AcDbSymbolTableRecord
100
AcDbLayerTableRecord
  2
参考
 70
     0
 62
     2
  6
CONTINUOUS
  0
ENDTAB
  0
TABLE
  2
STYLE
  5
F
100
AcDbSymbolTable
 70
     1
  0
STYLE
  5
10
100
AcDbSymbolTableRecord
100
AcDbTextStyleTableRecord
  2
STANDARD
 70
     0
 40
0.0
 41
1.0
 50
0.0
 71
     0
 42
5.0
  3
MONOTXT
  4
BIGFONT
  0
ENDTAB
  0
TABLE
  2
VIEW
  5
14
100
AcDbSymbolTable
 70
     0
  0
ENDTAB
  0
TABLE
  2
UCS
  5
15
100
AcDbSymbolTable
 70
     0
  0
ENDTAB
  0
TABLE
  2
APPID
  5
18
100
AcDbSymbolTable
 70
     1
  0
APPID
  5
19
100
AcDbSymbolTableRecord
100
AcDbRegAppTableRecord
  2
ACAD
 70
     0
  0
ENDTAB
  0
TABLE
  2
DIMSTYLE
  5
1A
100
AcDbSymbolTable
 70
     2
  0
DIMSTYLE
105
2D
102
{ACAD_XDICTIONARY
360
2E
102
}
102
{ACAD_REACTORS
330
201
330
422
330
445
102
}
100
AcDbSymbolTableRecord
100
AcDbDimStyleTableRecord
  2
STANDARD
 70
     0
  3

  4

  5

  6
_OPEN30
  7
_OPEN30
 40
0.0
 41
2.0
 42
1.0
 43
8.0
 44
2.0
 45
0.0
 46
0.0
 47
0.0
 48
0.0
140
3.0
141
-1.0
142
0.0
143
25.4
144
1.0
145
0.0
146
1.0
147
1.0
 71
     0
 72
     0
 73
     0
 74
     0
 75
     0
 76
     0
 77
     1
 78
     8
170
     0
171
     2
172
     1
173
     1
174
     0
175
     0
176
     1
177
     1
178
     3
270
     2
271
     2
272
     2
273
     2
274
     2
340
10
275
     0
280
     0
281
     0
282
     0
283
     1
284
     8
285
     0
286
     0
287
     3
288
     0
  0
DIMSTYLE
105
21
100
AcDbSymbolTableRecord
100
AcDbDimStyleTableRecord
  2
参考寸法
 70
     0
  3

  4

  5

  6
_DOTSMALL
  7
_DOTSMALL
 40
1.0
 41
2.0
 42
1.0
 43
8.0
 44
2.0
 45
0.0
 46
0.0
 47
0.0
 48
0.0
140
2.0
141
-1.0
142
0.0
143
25.4
144
1.0
145
0.0
146
1.0
147
1.0
 71
     0
 72
     0
 73
     0
 74
     0
 75
     0
 76
     0
 77
     1
 78
     8
170
     0
171
     2
172
     1
173
     1
174
     0
175
     0
176
     2
177
     2
178
     2
270
     2
271
     3
272
     2
273
     2
274
     2
340
10
275
     0
280
     0
281
     0
282
     0
283
     1
284
     8
285
     0
286
     0
287
     3
288
     0
  0
ENDTAB
  0
TABLE
  2
BLOCK_RECORD
  5
1
100
AcDbSymbolTable
 70
    22
  0
BLOCK_RECORD
  5
2
102
{ACAD_XDICTIONARY
360
3
102
}
100
AcDbSymbolTableRecord
100
AcDbBlockTableRecord
  2
*MODEL_SPACE
  0
BLOCK_RECORD
  5
9
102
{ACAD_XDICTIONARY
360
A
102
}
100
AcDbSymbolTableRecord
100
AcDbBlockTableRecord
  2
*PAPER_SPACE
  0
BLOCK_RECORD
  5
22
100
AcDbSymbolTableRecord
100
AcDbBlockTableRecord
  2
_DOTSMALL
  0
BLOCK_RECORD
  5
30
100
AcDbSymbolTableRecord
100
AcDbBlockTableRecord
  2
_OPEN30
  0
BLOCK_RECORD
  5
25B
100
AcDbSymbolTableRecord
100
AcDbBlockTableRecord
  2
*D3
  0
BLOCK_RECORD
  5
267
100
AcDbSymbolTableRecord
100
AcDbBlockTableRecord
  2
*D4
  0
BLOCK_RECORD
  5
2D3
100
AcDbSymbolTableRecord
100
AcDbBlockTableRecord
  2
*D12
  0
BLOCK_RECORD
  5
2E9
100
AcDbSymbolTableRecord
100
AcDbBlockTableRecord
  2
*D14
  0
BLOCK_RECORD
  5
317
100
AcDbSymbolTableRecord
100
AcDbBlockTableRecord
  2
*D18
  0
BLOCK_RECORD
  5
322
100
AcDbSymbolTableRecord
100
AcDbBlockTableRecord
  2
*D19
  0
BLOCK_RECORD
  5
412
100
AcDbSymbolTableRecord
100
AcDbBlockTableRecord
  2
*D20
  0
BLOCK_RECORD
  5
435
100
AcDbSymbolTableRecord
100
AcDbBlockTableRecord
  2
*D21
  0
ENDTAB
  0
ENDSEC
  0
SECTION
  2
BLOCKS
  0
BLOCK
  5
5
100
AcDbEntity
  8
0
100
AcDbBlockBegin
  2
*MODEL_SPACE
 70
     0
 10
0.0
 20
0.0
 30
0.0
  3
*MODEL_SPACE
  1

  0
ENDBLK
  5
8
100
AcDbEntity
  8
0
100
AcDbBlockEnd
  0
BLOCK
  5
C
100
AcDbEntity
 67
     1
  8
0
100
AcDbBlockBegin
  2
*PAPER_SPACE
 70
     0
 10
0.0
 20
0.0
 30
0.0
  3
*PAPER_SPACE
  1

  0
ENDBLK
  5
D
100
AcDbEntity
 67
     1
  8
0
100
AcDbBlockEnd
  0
BLOCK
  5
27
100
AcDbEntity
  8
0
100
AcDbBlockBegin
  2
_DOTSMALL
 70
     0
 10
0.0
 20
0.0
 30
0.0
  3
_DOTSMALL
  1

  0
POLYLINE
  5
23
100
AcDbEntity
  8
0
  6
BYBLOCK
 62
     0
100
AcDb2dPolyline
 66
     1
 10
0.0
 20
0.0
 30
0.0
 70
     1
 40
0.5
 41
0.5
  0
VERTEX
  5
24
100
AcDbEntity
  8
0
  6
BYBLOCK
 62
     0
100
AcDbVertex
100
AcDb2dVertex
 10
-0.0625
 20
0.0
 30
0.0
 42
1.0
  0
VERTEX
  5
25
100
AcDbEntity
  8
0
  6
BYBLOCK
 62
     0
100
AcDbVertex
100
AcDb2dVertex
 10
0.0625
 20
0.0
 30
0.0
 42
1.0
  0
SEQEND
  5
26
100
AcDbEntity
  8
0
  6
BYBLOCK
 62
     0
  0
ENDBLK
  5
28
100
AcDbEntity
  8
0
100
AcDbBlockEnd
  0
BLOCK
  5
34
100
AcDbEntity
  8
0
100
AcDbBlockBegin
  2
_OPEN30
 70
     0
 10
0.0
 20
0.0
 30
0.0
  3
_OPEN30
  1

  0
LINE
  5
31
100
AcDbEntity
  8
0
  6
BYBLOCK
 62
     0
100
AcDbLine
 10
-1.0
 20
0.267949
 30
0.0
 11
0.0
 21
0.0
 31
0.0
  0
LINE
  5
32
100
AcDbEntity
  8
0
  6
BYBLOCK
 62
     0
100
AcDbLine
 10
0.0
 20
0.0
 30
0.0
 11
-1.0
 21
-0.267949
 31
0.0
  0
LINE
  5
33
100
AcDbEntity
  8
0
  6
BYBLOCK
 62
     0
100
AcDbLine
 10
0.0
 20
0.0
 30
0.0
 11
-1.0
 21
0.0
 31
0.0
  0
ENDBLK
  5
35
100
AcDbEntity
  8
0
100
AcDbBlockEnd
  0
BLOCK
  5
33F
100
AcDbEntity
  8
0
100
AcDbBlockBegin
  2
*D3
 70
     1
 10
0.0
 20
0.0
 30
0.0
  3
*D3
  1

  0
LINE
  5
340
100
AcDbEntity
  8
0
  6
BYBLOCK
 62
     1
100
AcDbLine
 10
20.325206
 20
228.879608
 30
0.0
 11
20.325206
 21
205.598601
 31
0.0
  0
LINE
  5
341
100
AcDbEntity
  8
0
  6
BYBLOCK
 62
     1
100
AcDbLine
 10
220.321118
 20
241.879608
 30
0.0
 11
220.321118
 21
205.598601
 31
0.0
  0
LINE
  5
342
100
AcDbEntity
  8
0
  6
BYBLOCK
 62
     1
100
AcDbLine
 10
22.325206
 20
207.598601
 30
0.0
 11
218.321118
 21
207.598601
 31
0.0
  0
INSERT
  5
343
100
AcDbEntity
  8
0
  6
BYBLOCK
 62
     1
100
AcDbBlockReference
  2
_OPEN30
 10
20.325206
 20
207.598601
 30
0.0
 41
2.0
 42
2.0
 43
2.0
 50
180.0
  0
INSERT
  5
344
100
AcDbEntity
  8
0
  6
BYBLOCK
 62
     1
100
AcDbBlockReference
  2
_OPEN30
 10
220.321118
 20
207.598601
 30
0.0
 41
2.0
 42
2.0
 43
2.0
  0
MTEXT
  5
345
100
AcDbEntity
  8
0
  6
BYBLOCK
 62
     3
100
AcDbMText
 10
120.323162
 20
210.098601
 30
0.0
 40
3.0
 41
0.0
 71
     5
 72
     1
  1
\A1;200
  0
POINT
  5
346
100
AcDbEntity
  8
DEFPOINTS
  6
BYBLOCK
 62
     0
100
AcDbPoint
 10
20.325206
 20
229.879608
 30
0.0
  0
POINT
  5
347
100
AcDbEntity
  8
DEFPOINTS
  6
BYBLOCK
 62
     0
100
AcDbPoint
 10
220.321118
 20
242.879608
 30
0.0
  0
POINT
  5
348
100
AcDbEntity
  8
DEFPOINTS
  6
BYBLOCK
 62
     0
100
AcDbPoint
 10
220.321118
 20
207.598601
 30
0.0
  0
ENDBLK
  5
349
100
AcDbEntity
  8
0
100
AcDbBlockEnd
  0
BLOCK
  5
34A
100
AcDbEntity
  8
0
100
AcDbBlockBegin
  2
*D4
 70
     1
 10
0.0
 20
0.0
 30
0.0
  3
*D4
  1

  0
LINE
  5
34B
100
AcDbEntity
  8
0
  6
BYBLOCK
 62
     1
100
AcDbLine
 10
21.880548
 20
260.378237
 30
0.0
 11
22.116877
 21
264.88767
 31
0.0
  0
LINE
  5
34C
100
AcDbEntity
  8
0
  6
BYBLOCK
 62
     1
100
AcDbLine
 10
19.282182
 20
229.879608
 30
0.0
 11
-14.773924
 21
229.879608
 31
0.0
  0
ARC
  5
34D
100
AcDbEntity
  8
0
  6
BYBLOCK
 62
     1
100
AcDbCircle
 10
20.282182
 20
229.879608
 30
0.0
 40
33.056106
100
AcDbArc
 50
90.467107
 51
176.532893
  0
INSERT
  5
34E
100
AcDbEntity
  8
0
  6
BYBLOCK
 62
     1
100
AcDbBlockReference
  2
_OPEN30
 10
22.012205
 20
262.890411
 30
0.0
 41
2.0
 42
2.0
 43
2.0
 50
358.733553
  0
INSERT
  5
34F
100
AcDbEntity
  8
0
  6
BYBLOCK
 62
     1
100
AcDbBlockReference
  2
_OPEN30
 10
-12.773924
 20
229.879608
 30
0.0
 41
2.0
 42
2.0
 43
2.0
 50
268.266447
  0
MTEXT
  5
350
100
AcDbEntity
  8
0
  6
BYBLOCK
 62
     3
100
AcDbMText
 10
-4.193026
 20
255.671095
 30
0.0
 40
3.0
 41
0.0
 71
     5
 72
     1
  1
\A1;93°
 11
0.725374
 21
0.688355
 31
0.0
  0
POINT
  5
351
100
AcDbEntity
  8
DEFPOINTS
  6
BYBLOCK
 62
     0
100
AcDbPoint
 10
4.763281
 20
259.066417
 30
0.0
  0
POINT
  5
352
100
AcDbEntity
  8
DEFPOINTS
  6
BYBLOCK
 62
     0
100
AcDbPoint
 10
20.326303
 20
230.721476
 30
0.0
  0
POINT
  5
353
100
AcDbEntity
  8
DEFPOINTS
  6
BYBLOCK
 62
     0
100
AcDbPoint
 10
21.125206
 20
229.879608
 30
0.0
  0
POINT
  5
354
100
AcDbEntity
  8
DEFPOINTS
  6
BYBLOCK
 62
     0
100
AcDbPoint
 10
20.325206
 20
229.879608
 30
0.0
  0
POINT
  5
355
100
AcDbEntity
  8
DEFPOINTS
  6
BYBLOCK
 62
     0
100
AcDbPoint
 10
21.828212
 20
259.379608
 30
0.0
  0
ENDBLK
  5
356
100
AcDbEntity
  8
0
100
AcDbBlockEnd
  0
BLOCK
  5
406
100
AcDbEntity
  8
0
100
AcDbBlockBegin
  2
*D12
 70
     1
 10
0.0
 20
0.0
 30
0.0
  3
*D12
  1

  0
LINE
  5
407
100
AcDbEntity
  8
0
  6
BYBLOCK
 62
     1
100
AcDbLine
 10
21.325206
 20
229.879608
 30
0.0
 11
47.743895
 21
229.879608
 31
0.0
  0
LINE
  5
408
100
AcDbEntity
  8
0
  6
BYBLOCK
 62
     1
100
AcDbLine
 10
35.658625
 20
238.879608
 30
0.0
 11
47.743895
 21
238.879608
 31
0.0
  0
LINE
  5
409
100
AcDbEntity
  8
0
  6
BYBLOCK
 62
     1
100
AcDbLine
 10
45.743895
 20
231.879608
 30
0.0
 11
45.743895
 21
236.879608
 31
0.0
  0
INSERT
  5
40A
100
AcDbEntity
  8
0
  6
BYBLOCK
 62
     1
100
AcDbBlockReference
  2
_OPEN30
 10
45.743895
 20
229.879608
 30
0.0
 41
2.0
 42
2.0
 43
2.0
 50
270.0
  0
INSERT
  5
40B
100
AcDbEntity
  8
0
  6
BYBLOCK
 62
     1
100
AcDbBlockReference
  2
_OPEN30
 10
45.743895
 20
238.879608
 30
0.0
 41
2.0
 42
2.0
 43
2.0
 50
90.0
  0
MTEXT
  5
40C
100
AcDbEntity
  8
0
  6
BYBLOCK
 62
     3
100
AcDbMText
 10
43.243895
 20
234.379608
 30
0.0
 40
3.0
 41
0.0
 71
     5
 72
     1
  1
\A1;9
 11
0.0
 21
1.0
 31
0.0
  0
POINT
  5
40D
100
AcDbEntity
  8
DEFPOINTS
  6
BYBLOCK
 62
     0
100
AcDbPoint
 10
20.325206
 20
229.879608
 30
0.0
  0
POINT
  5
40E
100
AcDbEntity
  8
DEFPOINTS
  6
BYBLOCK
 62
     0
100
AcDbPoint
 10
34.658625
 20
238.879608
 30
0.0
  0
POINT
  5
40F
100
AcDbEntity
  8
DEFPOINTS
  6
BYBLOCK
 62
     0
100
AcDbPoint
 10
45.743895
 20
238.879608
 30
0.0
  0
ENDBLK
  5
410
100
AcDbEntity
  8
0
100
AcDbBlockEnd
  0
BLOCK
  5
3C2
100
AcDbEntity
  8
0
100
AcDbBlockBegin
  2
*D14
 70
     1
 10
0.0
 20
0.0
 30
0.0
  3
*D14
  1

  0
LINE
  5
3C3
100
AcDbEntity
  8
0
  6
BYBLOCK
 62
     1
100
AcDbLine
 10
19.325206
 20
229.879608
 30
0.0
 11
13.238305
 21
229.879608
 31
0.0
  0
LINE
  5
3C4
100
AcDbEntity
  8
0
  6
BYBLOCK
 62
     1
100
AcDbLine
 10
19.670549
 20
250.379608
 30
0.0
 11
13.238305
 21
250.379608
 31
0.0
  0
LINE
  5
3C5
100
AcDbEntity
  8
0
  6
BYBLOCK
 62
     1
100
AcDbLine
 10
15.238305
 20
231.879608
 30
0.0
 11
15.238305
 21
248.379608
 31
0.0
  0
INSERT
  5
3C6
100
AcDbEntity
  8
0
  6
BYBLOCK
 62
     1
100
AcDbBlockReference
  2
_OPEN30
 10
15.238305
 20
229.879608
 30
0.0
 41
2.0
 42
2.0
 43
2.0
 50
270.0
  0
INSERT
  5
3C7
100
AcDbEntity
  8
0
  6
BYBLOCK
 62
     1
100
AcDbBlockReference
  2
_OPEN30
 10
15.238305
 20
250.379608
 30
0.0
 41
2.0
 42
2.0
 43
2.0
 50
90.0
  0
MTEXT
  5
3C8
100
AcDbEntity
  8
0
  6
BYBLOCK
 62
     3
100
AcDbMText
 10
12.738305
 20
240.129608
 30
0.0
 40
3.0
 41
0.0
 71
     5
 72
     1
  1
\A1;20.5
 11
0.0
 21
1.0
 31
0.0
  0
POINT
  5
3C9
100
AcDbEntity
  8
DEFPOINTS
  6
BYBLOCK
 62
     0
100
AcDbPoint
 10
20.325206
 20
229.879608
 30
0.0
  0
POINT
  5
3CA
100
AcDbEntity
  8
DEFPOINTS
  6
BYBLOCK
 62
     0
100
AcDbPoint
 10
20.670549
 20
250.379608
 30
0.0
  0
POINT
  5
3CB
100
AcDbEntity
  8
DEFPOINTS
  6
BYBLOCK
 62
     0
100
AcDbPoint
 10
15.238305
 20
250.379608
 30
0.0
  0
ENDBLK
  5
3CC
100
AcDbEntity
  8
0
100
AcDbBlockEnd
  0
BLOCK
  5
3EC
100
AcDbEntity
  8
0
100
AcDbBlockBegin
  2
*D18
 70
     1
 10
0.0
 20
0.0
 30
0.0
  3
*D18
  1

  0
LINE
  5
3ED
100
AcDbEntity
  8
0
  6
BYBLOCK
 62
     1
100
AcDbLine
 10
159.906775
 20
271.456583
 30
0.0
 11
150.85557
 21
261.235201
 31
0.0
  0
LINE
  5
3EE
100
AcDbEntity
  8
0
  6
BYBLOCK
 62
     1
100
AcDbLine
 10
131.629952
 20
239.524014
 30
0.0
 11
130.304048
 21
238.026691
 31
0.0
  0
MTEXT
  5
3EF
100
AcDbEntity
  8
0
  6
BYBLOCK
 62
     3
100
AcDbMText
 10
154.720359
 20
269.370656
 30
0.0
 40
3.0
 41
0.0
 71
     5
 72
     1
  1
\A1;\U+220525
 11
0.662952
 21
0.748662
 31
0.0
  0
LINE
  5
3F0
100
AcDbEntity
  8
0
  6
BYBLOCK
 62
     1
100
AcDbLine
 10
132.955857
 20
241.021337
 30
0.0
 11
149.529665
 21
259.737878
 31
0.0
  0
INSERT
  5
3F1
100
AcDbEntity
  8
0
  6
BYBLOCK
 62
     1
100
AcDbBlockReference
  2
_OPEN30
 10
132.955857
 20
241.021337
 30
0.0
 41
2.0
 42
2.0
 43
2.0
 50
48.474575
  0
INSERT
  5
3F2
100
AcDbEntity
  8
0
  6
BYBLOCK
 62
     1
100
AcDbBlockReference
  2
_OPEN30
 10
149.529665
 20
259.737878
 30
0.0
 41
2.0
 42
2.0
 43
2.0
 50
228.474575
  0
POINT
  5
3F3
100
AcDbEntity
  8
DEFPOINTS
  6
BYBLOCK
 62
     0
100
AcDbPoint
 10
149.529665
 20
259.737878
 30
0.0
  0
POINT
  5
3F4
100
AcDbEntity
  8
DEFPOINTS
  6
BYBLOCK
 62
     0
100
AcDbPoint
 10
132.955857
 20
241.021337
 30
0.0
  0
ENDBLK
  5
3F5
100
AcDbEntity
  8
0
100
AcDbBlockEnd
  0
BLOCK
  5
3F6
100
AcDbEntity
  8
0
100
AcDbBlockBegin
  2
*D19
 70
     1
 10
0.0
 20
0.0
 30
0.0
  3
*D19
  1

  0
LINE
  5
3F7
100
AcDbEntity
  8
0
  6
BYBLOCK
 62
     1
100
AcDbLine
 10
129.742761
 20
244.480628
 30
0.0
 11
129.742761
 21
227.500213
 31
0.0
  0
LINE
  5
3F8
100
AcDbEntity
  8
0
  6
BYBLOCK
 62
     1
100
AcDbLine
 10
152.742761
 20
244.480628
 30
0.0
 11
152.742761
 21
227.500213
 31
0.0
  0
LINE
  5
3F9
100
AcDbEntity
  8
0
  6
BYBLOCK
 62
     1
100
AcDbLine
 10
131.742761
 20
229.500213
 30
0.0
 11
150.742761
 21
229.500213
 31
0.0
  0
INSERT
  5
3FA
100
AcDbEntity
  8
0
  6
BYBLOCK
 62
     1
100
AcDbBlockReference
  2
_OPEN30
 10
129.742761
 20
229.500213
 30
0.0
 41
2.0
 42
2.0
 43
2.0
 50
180.0
  0
INSERT
  5
3FB
100
AcDbEntity
  8
0
  6
BYBLOCK
 62
     1
100
AcDbBlockReference
  2
_OPEN30
 10
152.742761
 20
229.500213
 30
0.0
 41
2.0
 42
2.0
 43
2.0
  0
MTEXT
  5
3FC
100
AcDbEntity
  8
0
  6
BYBLOCK
 62
     3
100
AcDbMText
 10
141.242761
 20
232.000213
 30
0.0
 40
3.0
 41
0.0
 71
     5
 72
     1
  1
\A1;23
  0
POINT
  5
3FD
100
AcDbEntity
  8
DEFPOINTS
  6
BYBLOCK
 62
     0
100
AcDbPoint
 10
129.742761
 20
245.480628
 30
0.0
  0
POINT
  5
3FE
100
AcDbEntity
  8
DEFPOINTS
  6
BYBLOCK
 62
     0
100
AcDbPoint
 10
152.742761
 20
245.480628
 30
0.0
  0
POINT
  5
3FF
100
AcDbEntity
  8
DEFPOINTS
  6
BYBLOCK
 62
     0
100
AcDbPoint
 10
152.742761
 20
229.500213
 30
0.0
  0
ENDBLK
  5
400
100
AcDbEntity
  8
0
100
AcDbBlockEnd
  0
BLOCK
  5
423
100
AcDbEntity
  8
0
100
AcDbBlockBegin
  2
*D20
 70
     1
 10
0.0
 20
0.0
 30
0.0
  3
*D20
  1

  0
LINE
  5
424
100
AcDbEntity
  8
0
  6
BYBLOCK
 62
     1
100
AcDbLine
 10
15.495226
 20
158.025263
 30
0.0
 11
7.511952
 21
158.025263
 31
0.0
  0
LINE
  5
425
100
AcDbEntity
  8
0
  6
BYBLOCK
 62
     1
100
AcDbLine
 10
19.326577
 20
157.972927
 30
0.0
 11
7.529512
 21
157.354669
 31
0.0
  0
ARC
  5
426
100
AcDbEntity
  8
0
  6
BYBLOCK
 62
     1
100
AcDbCircle
 10
20.325206
 20
158.025263
 30
0.0
 40
10.813254
100
AcDbArc
 50
158.68261
 51
180.0
  0
LINE
  5
427
100
AcDbEntity
  8
0
  6
BYBLOCK
 62
     1
100
AcDbLine
 10
10.251785
 20
161.956248
 30
0.0
 11
13.378177
 21
169.967844
 31
0.0
  0
ARC
  5
428
100
AcDbEntity
  8
0
  6
BYBLOCK
 62
     1
100
AcDbCircle
 10
20.325206
 20
158.025263
 30
0.0
 40
10.813254
100
AcDbArc
 50
158.775024
 51
169.387512
  0
ARC
  5
429
100
AcDbEntity
  8
0
  6
BYBLOCK
 62
     1
100
AcDbCircle
 10
20.325206
 20
158.025263
 30
0.0
 40
10.813254
100
AcDbArc
 50
193.612488
 51
204.224976
  0
ARC
  5
42A
100
AcDbEntity
  8
0
  6
BYBLOCK
 62
     1
100
AcDbCircle
 10
20.325206
 20
158.025263
 30
0.0
 40
10.813254
100
AcDbArc
 50
180.0
 51
183.0
  0
INSERT
  5
42B
100
AcDbEntity
  8
0
  6
BYBLOCK
 62
     1
100
AcDbBlockReference
  2
_OPEN30
 10
9.511952
 20
158.025263
 30
0.0
 41
2.0
 42
2.0
 43
2.0
 50
264.693756
  0
INSERT
  5
42C
100
AcDbEntity
  8
0
  6
BYBLOCK
 62
     1
100
AcDbBlockReference
  2
_OPEN30
 10
9.526771
 20
157.459341
 30
0.0
 41
2.0
 42
2.0
 43
2.0
 50
98.306244
  0
MTEXT
  5
42D
100
AcDbEntity
  8
0
  6
BYBLOCK
 62
     3
100
AcDbMText
 10
14.143933
 20
165.053211
 30
0.0
 40
3.0
 41
0.0
 71
     5
 72
     1
  1
\A1;3°
 11
-0.363534
 21
-0.931581
 31
0.0
  0
POINT
  5
42E
100
AcDbEntity
  8
DEFPOINTS
  6
BYBLOCK
 62
     0
100
AcDbPoint
 10
9.518539
 20
157.647885
 30
0.0
  0
POINT
  5
42F
100
AcDbEntity
  8
DEFPOINTS
  6
BYBLOCK
 62
     0
100
AcDbPoint
 10
16.495226
 20
158.025263
 30
0.0
  0
POINT
  5
430
100
AcDbEntity
  8
DEFPOINTS
  6
BYBLOCK
 62
     0
100
AcDbPoint
 10
30.420621
 20
158.554341
 30
0.0
  0
POINT
  5
431
100
AcDbEntity
  8
DEFPOINTS
  6
BYBLOCK
 62
     0
100
AcDbPoint
 10
20.325206
 20
158.025263
 30
0.0
  0
POINT
  5
432
100
AcDbEntity
  8
DEFPOINTS
  6
BYBLOCK
 62
     0
100
AcDbPoint
 10
227.809112
 20
158.025263
 30
0.0
  0
ENDBLK
  5
433
100
AcDbEntity
  8
0
100
AcDbBlockEnd
  0
BLOCK
  5
446
100
AcDbEntity
  8
0
100
AcDbBlockBegin
  2
*D21
 70
     1
 10
0.0
 20
0.0
 30
0.0
  3
*D21
  1

  0
LINE
  5
447
100
AcDbEntity
  8
0
  6
BYBLOCK
 62
     1
100
AcDbLine
 10
-30.906884
 20
228.888152
 30
0.0
 11
-33.546281
 21
208.839935
 31
0.0
  0
LINE
  5
448
100
AcDbEntity
  8
0
  6
BYBLOCK
 62
     1
100
AcDbLine
 10
-30.776357
 20
227.796463
 30
0.0
 11
-30.776357
 21
208.658385
 31
0.0
  0
ARC
  5
449
100
AcDbEntity
  8
0
  6
BYBLOCK
 62
     1
100
AcDbCircle
 10
-30.776357
 20
229.879597
 30
0.0
 40
19.221212
100
AcDbArc
 50
250.554932
 51
262.5
  0
LINE
  5
44A
100
AcDbEntity
  8
0
  6
BYBLOCK
 62
     1
100
AcDbLine
 10
-37.175156
 20
211.754742
 30
0.0
 11
-50.942388
 21
216.615125
 31
0.0
  0
ARC
  5
44B
100
AcDbEntity
  8
0
  6
BYBLOCK
 62
     1
100
AcDbCircle
 10
-30.776357
 20
229.879597
 30
0.0
 40
19.221212
100
AcDbArc
 50
250.571167
 51
256.535584
  0
ARC
  5
44C
100
AcDbEntity
  8
0
  6
BYBLOCK
 62
     1
100
AcDbCircle
 10
-30.776357
 20
229.879597
 30
0.0
 40
19.221212
100
AcDbArc
 50
275.964416
 51
281.928833
  0
ARC
  5
44D
100
AcDbEntity
  8
0
  6
BYBLOCK
 62
     1
100
AcDbCircle
 10
-30.776357
 20
229.879597
 30
0.0
 40
19.221212
100
AcDbArc
 50
262.5
 51
270.0
  0
INSERT
  5
44E
100
AcDbEntity
  8
0
  6
BYBLOCK
 62
     1
100
AcDbBlockReference
  2
_OPEN30
 10
-33.285229
 20
210.822825
 30
0.0
 41
2.0
 42
2.0
 43
2.0
 50
349.517792
  0
INSERT
  5
44F
100
AcDbEntity
  8
0
  6
BYBLOCK
 62
     1
100
AcDbBlockReference
  2
_OPEN30
 10
-30.776357
 20
210.658385
 30
0.0
 41
2.0
 42
2.0
 43
2.0
 50
182.982208
  0
MTEXT
  5
450
100
AcDbEntity
  8
0
  6
BYBLOCK
 62
     3
100
AcDbMText
 10
-43.226514
 20
216.542336
 30
0.0
 40
3.0
 41
0.0
 71
     5
 72
     1
  1
\A1;7.5°
 11
0.942961
 21
-0.332903
 31
0.0
  0
POINT
  5
451
100
AcDbEntity
  8
DEFPOINTS
  6
BYBLOCK
 62
     0
100
AcDbPoint
 10
-31.614775
 20
210.676679
 30
0.0
  0
POINT
  5
452
100
AcDbEntity
  8
DEFPOINTS
  6
BYBLOCK
 62
     0
100
AcDbPoint
 10
-26.533811
 20
262.104935
 30
0.0
  0
POINT
  5
453
100
AcDbEntity
  8
DEFPOINTS
  6
BYBLOCK
 62
     0
100
AcDbPoint
 10
-30.776357
 20
269.891876
 30
0.0
  0
POINT
  5
454
100
AcDbEntity
  8
DEFPOINTS
  6
BYBLOCK
 62
     0
100
AcDbPoint
 10
-30.776357
 20
228.796463
 30
0.0
  0
POINT
  5
455
100
AcDbEntity
  8
DEFPOINTS
  6
BYBLOCK
 62
     0
100
AcDbPoint
 10
-30.776356
 20
229.879607
 30
0.0
  0
ENDBLK
  5
456
100
AcDbEntity
  8
0
100
AcDbBlockEnd
  0
ENDSEC
  0
SECTION
  2
ENTITIES
  0
LINE
  5
1B8
100
AcDbEntity
  8
外形
  6
CONTINUOUS
100
AcDbLine
 10
58.825206
 20
169.525263
 30
0.0
 11
218.321118
 21
169.525263
 31
0.0
  0
LINE
  5
1B9
100
AcDbEntity
  8
外形
  6
CONTINUOUS
100
AcDbLine
 10
58.825206
 20
146.525263
 30
0.0
 11
218.321118
 21
146.525263
 31
0.0
  0
LINE
  5
1BA
100
AcDbEntity
  8
外形
  6
CONTINUOUS
100
AcDbLine
 10
154.742761
 20
240.379608
 30
0.0
 11
218.321118
 21
240.379608
 31
0.0
  0
LINE
  5
1BB
100
AcDbEntity
  8
外形
  6
CONTINUOUS
100
AcDbLine
 10
154.742761
 20
245.480628
 30
0.0
 11
218.321118
 21
245.480628
 31
0.0
  0
LINE
  5
1BC
100
AcDbEntity
  8
外形
  6
CONTINUOUS
100
AcDbLine
 10
154.742761
 20
262.879608
 30
0.0
 11
218.321118
 21
262.879608
 31
0.0
  0
LINE
  5
1BD
100
AcDbEntity
  8
外形
  6
CONTINUOUS
100
AcDbLine
 10
154.742761
 20
255.278587
 30
0.0
 11
218.321118
 21
255.278587
 31
0.0
  0
LINE
  5
1BE
100
AcDbEntity
  8
外形
  6
CONTINUOUS
100
AcDbLine
 10
58.325206
 20
153.126283
 30
0.0
 11
218.321118
 21
153.126283
 31
0.0
  0
LINE
  5
1BF
100
AcDbEntity
  8
外形
  6
CONTINUOUS
100
AcDbLine
 10
58.325206
 20
162.924242
 30
0.0
 11
218.321118
 21
162.924242
 31
0.0
  0
DIMENSION
  5
1C0
100
AcDbEntity
  8
寸法
  6
CONTINUOUS
100
AcDbDimension
  2
*D3
 10
220.321118
 20
207.598601
 30
0.0
 11
120.323162
 21
210.098601
 31
0.0
 70
    32
  3
STANDARD
100
AcDbAlignedDimension
 13
20.325206
 23
229.879608
 33
0.0
 14
220.321118
 24
242.879608
 34
0.0
100
AcDbRotatedDimension
1001
ACAD
1000
DSTYLE
1002
{
1070
    40
1040
1.0
1002
}
  0
LINE
  5
1C1
100
AcDbEntity
  8
外形
  6
CENTER
 62
     1
100
AcDbLine
 10
16.495226
 20
158.025263
 30
0.0
 11
227.809112
 21
158.025263
 31
0.0
  0
LINE
  5
1C2
100
AcDbEntity
  8
外形
  6
CENTER
 62
     1
100
AcDbLine
 10
20.670549
 20
250.379608
 30
0.0
 11
227.809112
 21
250.379608
 31
0.0
  0
TEXT
  5
1C3
100
AcDbEntity
  8
外形
  6
CONTINUOUS
 62
     2
100
AcDbText
 10
82.437398
 20
118.986904
 30
0.0
 40
6.0
  1
S25R-SVUCR16
100
AcDbText
  0
LEADER
  5
1C4
100
AcDbEntity
  8
寸法
  6
CONTINUOUS
 62
     1
100
AcDbLeader
  3
STANDARD
 73
     0
 74
     0
 75
     1
 40
3.0
 41
26.0
 76
     3
 10
-22.351526
 20
262.718099
 30
0.0
 10
-14.384201
 20
275.959308
 30
0.0
 10
-12.384201
 20
275.959308
 30
0.0
 77
   256
340
1C6
213
-0.1129475379637483
223
0.5510341987360618
233
0.0
1001
ACAD
1000
DSTYLE
1002
{
1070
   284
1070
    13
1070
   146
1040
0.5
1070
   272
1070
     3
1070
    40
1040
1.0
1070
   287
1070
     0
1002
}
  0
DIMENSION
  5
1C5
100
AcDbEntity
  8
寸法
  6
CONTINUOUS
100
AcDbDimension
  2
*D4
 10
21.828212
 20
259.379608
 30
0.0
 11
-4.193026
 21
255.671095
 31
0.0
 70
    34
  3
STANDARD
100
AcDb2LineAngularDimension
 13
21.125206
 23
229.879608
 33
0.0
 14
20.325206
 24
229.879608
 34
0.0
 15
20.326303
 25
230.721476
 35
0.0
 16
4.763281
 26
259.066417
 36
0.0
1001
ACAD
1000
DSTYLE
1002
{
1070
    40
1040
1.0
1002
}
  0
MTEXT
  5
1C6
102
{ACAD_REACTORS
330
1C4
102
}
100
AcDbEntity
  8
寸法
  6
CONTINUOUS
 62
     3
100
AcDbMText
 10
-11.271253
 20
277.908274
 30
0.0
 40
3.0
 41
0.0
 71
     4
 72
     1
  1
%%c35最小加工径
  0
ARC
  5
1CB
100
AcDbEntity
  8
外形
  6
CONTINUOUS
100
AcDbCircle
 10
-30.776357
 20
250.379608
 30
0.0
 40
12.5
100
AcDbArc
 50
293.073918
 51
336.926082
  0
LINE
  5
1CC
100
AcDbEntity
  8
外形
  6
CONTINUOUS
100
AcDbLine
 10
-42.276357
 20
255.278587
 30
0.0
 11
-42.276357
 21
236.344338
 31
0.0
  0
CIRCLE
  5
1CD
100
AcDbEntity
  8
外形
  6
CENTER
 62
     1
100
AcDbCircle
 10
-30.776357
 20
247.379608
 30
0.0
 40
17.5
  0
LINE
  5
1CE
100
AcDbEntity
  8
外形
  6
CONTINUOUS
100
AcDbLine
 10
-26.533811
 20
262.104935
 30
0.0
 11
-30.776356
 21
229.879607
 31
0.0
  0
LINE
  5
1CF
100
AcDbEntity
  8
外形
  6
CENTER
 62
     1
100
AcDbLine
 10
-30.776357
 20
269.891876
 30
0.0
 11
-30.776357
 21
228.796463
 31
0.0
  0
LINE
  5
1D1
100
AcDbEntity
  8
外形
  6
CONTINUOUS
100
AcDbLine
 10
-35.776357
 20
231.792989
 30
0.0
 11
-42.276357
 21
236.344338
 31
0.0
  0
LINE
  5
1D2
100
AcDbEntity
  8
外形
  6
CONTINUOUS
100
AcDbLine
 10
-42.276357
 20
244.679608
 30
0.0
 11
-33.593165
 21
244.679608
 31
0.0
  0
LINE
  5
1D3
100
AcDbEntity
  8
外形
  6
CONTINUOUS
100
AcDbLine
 10
-33.609904
 20
244.824452
 30
0.0
 11
-35.419347
 21
231.080366
 31
0.0
  0
ARC
  5
1D4
100
AcDbEntity
  8
外形
  6
CONTINUOUS
100
AcDbCircle
 10
-30.766357
 20
250.379608
 30
0.0
 40
19.25
100
AcDbArc
 50
254.914525
 51
256.254675
  0
LINE
  5
1D5
100
AcDbEntity
  8
外形
  6
CONTINUOUS
100
AcDbLine
 10
-30.776357
 20
229.879608
 30
0.0
 11
-35.419347
 21
231.080366
 31
0.0
  0
LINE
  5
1D6
100
AcDbEntity
  8
外形
  6
CONTINUOUS
100
AcDbLine
 10
-25.877378
 20
238.879608
 30
0.0
 11
-29.601522
 21
238.879608
 31
0.0
  0
LINE
  5
1D7
100
AcDbEntity
  8
外形
  6
CONTINUOUS
100
AcDbLine
 10
-28.81434
 20
244.782602
 30
0.0
 11
-33.609904
 21
244.824452
 31
0.0
  0
ARC
  5
1D8
100
AcDbEntity
  8
外形
  6
CONTINUOUS
100
AcDbCircle
 10
-30.776357
 20
250.379608
 30
0.0
 40
12.5
100
AcDbArc
 50
23.073918
 51
156.926082
  0
LINE
  5
1D9
100
AcDbEntity
  8
外形
  6
CONTINUOUS
100
AcDbLine
 10
-39.451033
 20
259.379608
 30
0.0
 11
-26.892607
 21
259.379608
 31
0.0
  0
LINE
  5
1DA
100
AcDbEntity
  8
外形
  6
CENTER
 62
     1
100
AcDbLine
 10
-12.992262
 20
250.379608
 30
0.0
 11
-49.41698
 21
250.379608
 31
0.0
  0
LINE
  5
1DB
100
AcDbEntity
  8
外形
  6
CONTINUOUS
100
AcDbLine
 10
-19.276357
 20
255.278587
 30
0.0
 11
-19.276357
 21
245.480628
 31
0.0
  0
ARC
  5
1DD
100
AcDbEntity
  8
外形
  6
CONTINUOUS
100
AcDbCircle
 10
31.997593
 20
178.025263
 30
0.0
 40
20.0
100
AcDbArc
 50
285.154656
 51
336.421822
  0
SPLINE
  5
1DE
100
AcDbEntity
  8
外形
  6
CONTINUOUS
100
AcDbSpline
210
0.0
220
0.0
230
1.0
 70
     8
 71
     3
 72
     9
 73
     5
 74
     0
 42
0.0000001
 43
0.0000001
 40
0.0
 40
0.0
 40
0.0
 40
0.0
 40
12.81660498967031
 40
30.4649874561106
 40
30.4649874561106
 40
30.4649874561106
 40
30.4649874561106
 10
50.32789627423372
 20
170.025262595053
 30
0.0
 10
46.83169552850452
 20
167.4119070293327
 30
0.0
 10
38.5212488892794
 20
161.1999776929607
 30
0.0
 10
28.07576797562458
 20
160.8873743951279
 30
0.0
 10
22.00070279149215
 20
160.7725779859102
 30
0.0
  0
LINE
  5
1DF
100
AcDbEntity
  8
外形
  6
CONTINUOUS
100
AcDbLine
 10
58.325206
 20
154.597435
 30
0.0
 11
35.328498
 21
154.597435
 31
0.0
  0
LINE
  5
1E0
100
AcDbEntity
  8
外形
  6
CONTINUOUS
100
AcDbLine
 10
58.325206
 20
161.45309
 30
0.0
 11
43.19416
 21
161.45309
 31
0.0
  0
LINE
  5
1E1
100
AcDbEntity
  8
外形
  6
CONTINUOUS
100
AcDbLine
 10
58.325206
 20
146.025263
 30
0.0
 11
21.227896
 21
146.025263
 31
0.0
  0
LINE
  5
1E2
100
AcDbEntity
  8
外形
  6
CONTINUOUS
100
AcDbLine
 10
29.825206
 20
153.673882
 30
0.0
 11
29.825206
 21
146.025263
 31
0.0
  0
LINE
  5
1E3
100
AcDbEntity
  8
外形
  6
CONTINUOUS
100
AcDbLine
 10
21.227896
 20
146.025263
 30
0.0
 11
21.227896
 21
153.300018
 31
0.0
  0
LINE
  5
1E4
100
AcDbEntity
  8
外形
  6
CONTINUOUS
100
AcDbLine
 10
21.427896
 20
146.025263
 30
0.0
 11
21.427896
 21
153.308716
 31
0.0
  0
LINE
  5
1E5
100
AcDbEntity
  8
外形
  6
CONTINUOUS
100
AcDbLine
 10
31.632074
 20
160.462074
 30
0.0
 11
31.25497
 21
155.681177
 31
0.0
  0
LINE
  5
1E6
100
AcDbEntity
  8
外形
  6
CONTINUOUS
100
AcDbLine
 10
30.420621
 20
158.554341
 30
0.0
 11
31.632074
 21
160.462074
 31
0.0
  0
LINE
  5
1E7
100
AcDbEntity
  8
外形
  6
CONTINUOUS
100
AcDbLine
 10
20.325206
 20
158.025263
 30
0.0
 11
22.000703
 21
160.772578
 31
0.0
  0
ARC
  5
1E8
100
AcDbEntity
  8
外形
  6
CONTINUOUS
100
AcDbCircle
 10
30.328498
 20
154.598158
 30
0.0
 40
5.0
100
AcDbArc
 50
264.222915
 51
0.0
  0
ARC
  5
1E9
100
AcDbEntity
  8
外形
  6
CONTINUOUS
100
AcDbCircle
 10
30.459321
 20
141.287328
 30
0.0
 40
17.839926
100
AcDbArc
 50
74.160885
 51
86.577685
  0
LINE
  5
1EA
100
AcDbEntity
  8
外形
  6
CONTINUOUS
100
AcDbLine
 10
30.036388
 20
153.683065
 30
0.0
 11
31.25497
 21
155.681177
 31
0.0
  0
LINE
  5
1EB
100
AcDbEntity
  8
外形
  6
CONTINUOUS
100
AcDbLine
 10
21.115907
 20
153.295149
 30
0.0
 11
30.036388
 21
153.683065
 31
0.0
  0
LINE
  5
1EC
100
AcDbEntity
  8
外形
  6
CONTINUOUS
100
AcDbLine
 10
30.420621
 20
158.554341
 30
0.0
 11
30.036388
 21
153.683065
 31
0.0
  0
LINE
  5
1ED
100
AcDbEntity
  8
外形
  6
CONTINUOUS
100
AcDbLine
 10
21.115907
 20
153.295149
 30
0.0
 11
20.325206
 21
158.025263
 31
0.0
  0
LINE
  5
1EE
100
AcDbEntity
  8
外形
  6
CONTINUOUS
100
AcDbLine
 10
30.420621
 20
158.554341
 30
0.0
 11
20.325206
 21
158.025263
 31
0.0
  0
SPLINE
  5
1EF
100
AcDbEntity
  8
外形
  6
CONTINUOUS
100
AcDbSpline
210
-0.1416867706875382
220
0.9899115410036076
230
0.0
 70
    24
 71
     3
 72
     8
 73
     4
 74
     2
 42
0.0000001
 43
0.0000001
 44
0.0000000001
 40
0.0
 40
0.0
 40
0.0
 40
0.0
 40
1.916941975189039
 40
1.916941975189039
 40
1.916941975189039
 40
1.916941975189039
 10
37.22610123399059
 20
158.7207888436877
 30
0.0
 10
36.59356690576597
 20
158.6302537376677
 30
0.0
 10
35.96103257754133
 20
158.5397186316478
 30
0.0
 10
35.32849824931671
 20
158.4491835256278
 30
0.0
 11
37.22610123399059
 21
158.7207888436877
 31
0.0
 11
35.32849824931671
 21
158.4491835256278
 31
0.0
  0
LINE
  5
1F0
100
AcDbEntity
  8
外形
  6
CONTINUOUS
100
AcDbLine
 10
35.328498
 20
158.449906
 30
0.0
 11
35.328498
 21
154.598158
 31
0.0
  0
LINE
  5
1F1
100
AcDbEntity
  8
外形
  6
CONTINUOUS
100
AcDbLine
 10
31.632074
 20
160.462074
 30
0.0
 11
21.543788
 21
160.023374
 31
0.0
  0
LINE
  5
1F2
100
AcDbEntity
  8
外形
  6
CONTINUOUS
100
AcDbLine
 10
58.325206
 20
154.597435
 30
0.0
 11
58.325206
 21
146.025263
 31
0.0
  0
LINE
  5
1F3
100
AcDbEntity
  8
外形
  6
CONTINUOUS
100
AcDbLine
 10
58.825206
 20
146.525263
 30
0.0
 11
58.825206
 21
153.126283
 31
0.0
  0
LINE
  5
1F4
100
AcDbEntity
  8
外形
  6
CONTINUOUS
100
AcDbLine
 10
58.825206
 20
146.525263
 30
0.0
 11
58.325206
 21
146.025263
 31
0.0
  0
LINE
  5
1F5
100
AcDbEntity
  8
外形
  6
CONTINUOUS
100
AcDbLine
 10
58.825206
 20
162.924242
 30
0.0
 11
58.825206
 21
169.525263
 31
0.0
  0
LINE
  5
1F6
100
AcDbEntity
  8
外形
  6
CONTINUOUS
100
AcDbLine
 10
58.325206
 20
170.025263
 30
0.0
 11
50.327896
 21
170.025263
 31
0.0
  0
LINE
  5
1F7
100
AcDbEntity
  8
外形
  6
CONTINUOUS
100
AcDbLine
 10
58.325206
 20
170.025263
 30
0.0
 11
58.325206
 21
161.45309
 31
0.0
  0
LINE
  5
1F8
100
AcDbEntity
  8
外形
  6
CONTINUOUS
100
AcDbLine
 10
58.825206
 20
169.525263
 30
0.0
 11
58.325206
 21
170.025263
 31
0.0
  0
LINE
  5
1F9
100
AcDbEntity
  8
外形
  6
CONTINUOUS
100
AcDbLine
 10
58.325206
 20
170.025263
 30
0.0
 11
58.325206
 21
165.100763
 31
0.0
  0
LINE
  5
1FA
100
AcDbEntity
  8
外形
  6
CONTINUOUS
100
AcDbLine
 10
34.658625
 20
238.879608
 30
0.0
 11
127.742761
 21
238.879608
 31
0.0
  0
LINE
  5
1FB
100
AcDbEntity
  8
外形
  6
CONTINUOUS
100
AcDbLine
 10
58.325206
 20
245.480628
 30
0.0
 11
127.742761
 21
245.480628
 31
0.0
  0
LINE
  5
1FC
100
AcDbEntity
  8
外形
  6
CONTINUOUS
100
AcDbLine
 10
58.325206
 20
255.278587
 30
0.0
 11
127.742761
 21
255.278587
 31
0.0
  0
LINE
  5
1FD
100
AcDbEntity
  8
外形
  6
CONTINUOUS
100
AcDbLine
 10
58.825206
 20
262.879608
 30
0.0
 11
127.742761
 21
262.879608
 31
0.0
  0
SPLINE
  5
1FF
100
AcDbEntity
  8
外形
  6
CONTINUOUS
100
AcDbSpline
210
0.0
220
0.0
230
1.0
 70
     8
 71
     3
 72
     9
 73
     5
 74
     0
 42
0.0000001
 43
0.0000001
 40
10.64489818450375
 40
10.64489818450375
 40
10.64489818450375
 40
10.64489818450375
 40
20.9710410435799
 40
26.29215869494645
 40
26.29215869494645
 40
26.29215869494645
 40
26.29215869494645
 10
38.08023417685276
 20
238.879607553479
 30
0.0
 10
41.57121177006198
 20
239.3610333033918
 30
0.0
 10
46.28985457719275
 20
241.0184903615889
 30
0.0
 10
49.30316776231726
 20
245.4460971084158
 30
0.0
 10
50.32789627423543
 20
246.9517802532787
 30
0.0
  0
SPLINE
  5
200
100
AcDbEntity
  8
外形
  6
CONTINUOUS
100
AcDbSpline
210
0.0
220
0.0
230
-1.0
 70
     8
 71
     3
 72
     9
 73
     5
 74
     3
 42
0.0000001
 43
0.0000001
 44
0.0000000001
 40
0.0
 40
0.0
 40
0.0
 40
0.0
 40
20.9710410435799
 40
26.29215869494636
 40
26.29215869494636
 40
26.29215869494636
 40
26.29215869494636
 10
26.48276815339514
 20
262.0669169790355
 30
0.0
 10
34.36173578254889
 20
262.371268249943
 30
0.0
 10
44.23988474175255
 20
262.7528445339758
 30
0.0
 10
49.3031677623171
 20
255.3131179985422
 30
0.0
 10
50.32789627423531
 20
253.8074348536795
 30
0.0
 11
26.48276815339514
 21
262.0669169790355
 31
0.0
 11
47.05649687897428
 21
258.0041286781524
 31
0.0
 11
50.32789627423531
 21
253.8074348536795
 31
0.0
  0
DIMENSION
  5
201
100
AcDbEntity
  8
寸法
  6
CONTINUOUS
100
AcDbDimension
  2
*D12
 10
45.743895
 20
238.879608
 30
0.0
 11
43.243895
 21
234.379608
 31
0.0
 70
    32
  3
STANDARD
100
AcDbAlignedDimension
 13
20.325206
 23
229.879608
 33
0.0
 14
34.658625
 24
238.879608
 34
0.0
 50
90.0
100
AcDbRotatedDimension
1001
ACAD
1000
DSTYLE
1002
{
1070
    40
1040
1.0
1002
}
  0
LINE
  5
202
100
AcDbEntity
  8
外形
  6
CONTINUOUS
100
AcDbLine
 10
58.325206
 20
262.379608
 30
0.0
 11
27.024364
 21
262.379608
 31
0.0
  0
DIMENSION
  5
204
100
AcDbEntity
  8
寸法
  6
CONTINUOUS
100
AcDbDimension
  2
*D14
 10
15.238305
 20
250.379608
 30
0.0
 11
12.738305
 21
240.129608
 31
0.0
 70
    32
  3
STANDARD
100
AcDbAlignedDimension
 13
20.325206
 23
229.879608
 33
0.0
 14
20.670549
 24
250.379608
 34
0.0
 50
90.0
100
AcDbRotatedDimension
1001
ACAD
1000
DSTYLE
1002
{
1070
    40
1040
1.0
1002
}
  0
LINE
  5
205
100
AcDbEntity
  8
外形
  6
CENTER
 62
     1
100
AcDbLine
 10
25.737896
 20
235.923215
 30
0.0
 11
25.737896
 21
250.379608
 31
0.0
  0
CIRCLE
  5
206
100
AcDbEntity
  8
外形
  6
CONTINUOUS
100
AcDbCircle
 10
25.737896
 20
243.0169
 30
0.0
 40
2.550019
  0
LINE
  5
208
100
AcDbEntity
  8
外形
  6
CONTINUOUS
100
AcDbLine
 10
21.0623
 20
244.765145
 30
0.0
 11
29.720178
 21
255.846722
 31
0.0
  0
LINE
  5
209
100
AcDbEntity
  8
外形
  6
CONTINUOUS
100
AcDbLine
 10
30.413492
 20
241.268656
 30
0.0
 11
31.14949
 21
255.312324
 31
0.0
  0
LINE
  5
20A
100
AcDbEntity
  8
外形
  6
CONTINUOUS
100
AcDbLine
 10
20.326303
 20
230.721476
 30
0.0
 11
21.828212
 21
259.379608
 31
0.0
  0
LINE
  5
20C
100
AcDbEntity
  8
外形
  6
CONTINUOUS
100
AcDbLine
 10
21.755615
 20
230.187078
 30
0.0
 11
30.413492
 21
241.268656
 31
0.0
  0
LINE
  5
20D
100
AcDbEntity
  8
外形
  6
CONTINUOUS
 62
     1
100
AcDbLine
 10
20.325206
 20
230.679608
 30
0.0
 11
20.325206
 21
229.879608
 31
0.0
  0
LINE
  5
20E
100
AcDbEntity
  8
外形
  6
CONTINUOUS
 62
     1
100
AcDbLine
 10
21.125206
 20
229.879608
 30
0.0
 11
20.325206
 21
229.879608
 31
0.0
  0
ARC
  5
20F
100
AcDbEntity
  8
外形
  6
CONTINUOUS
100
AcDbCircle
 10
21.125206
 20
230.679608
 30
0.0
 40
0.8
100
AcDbArc
 50
177.0
 51
322.0
  0
ARC
  5
210
100
AcDbEntity
  8
外形
  6
CONTINUOUS
100
AcDbCircle
 10
30.328498
 20
236.379608
 30
0.0
 40
5.0
100
AcDbArc
 50
30.0
 51
88.959845
  0
LINE
  5
211
100
AcDbEntity
  8
外形
  6
CENTER
 62
     1
100
AcDbLine
 10
19.068319
 20
243.0169
 30
0.0
 11
32.329785
 21
243.0169
 31
0.0
  0
ARC
  5
212
100
AcDbEntity
  8
外形
  6
CONTINUOUS
100
AcDbCircle
 10
26.9397
 20
243.710762
 30
0.0
 40
0.394205
100
AcDbArc
 50
180.283476
 51
239.716524
  0
LINE
  5
213
100
AcDbEntity
  8
外形
  6
CONTINUOUS
100
AcDbLine
 10
26.542032
 20
244.409705
 30
0.0
 11
26.5455
 21
243.708812
 31
0.0
  0
ARC
  5
214
100
AcDbEntity
  8
外形
  6
CONTINUOUS
100
AcDbCircle
 10
26.9397
 20
242.323039
 30
0.0
 40
0.394205
100
AcDbArc
 50
120.283476
 51
179.716524
  0
LINE
  5
215
100
AcDbEntity
  8
外形
  6
CONTINUOUS
100
AcDbLine
 10
26.5455
 20
242.324989
 30
0.0
 11
26.542032
 21
241.624096
 31
0.0
  0
LINE
  5
216
100
AcDbEntity
  8
外形
  6
CONTINUOUS
100
AcDbLine
 10
27.346168
 20
243.0169
 30
0.0
 11
26.740911
 21
242.663451
 31
0.0
  0
LINE
  5
217
100
AcDbEntity
  8
外形
  6
CONTINUOUS
100
AcDbLine
 10
26.740911
 20
243.37035
 30
0.0
 11
27.346168
 21
243.0169
 31
0.0
  0
ARC
  5
218
100
AcDbEntity
  8
外形
  6
CONTINUOUS
100
AcDbCircle
 10
25.737896
 20
244.404624
 30
0.0
 40
0.394205
100
AcDbArc
 50
240.283476
 51
299.716524
  0
ARC
  5
219
100
AcDbEntity
  8
外形
  6
CONTINUOUS
100
AcDbCircle
 10
24.536092
 20
243.710762
 30
0.0
 40
0.394205
100
AcDbArc
 50
300.283476
 51
359.716524
  0
LINE
  5
21A
100
AcDbEntity
  8
外形
  6
CONTINUOUS
100
AcDbLine
 10
24.93376
 20
244.409705
 30
0.0
 11
25.542485
 21
244.062262
 31
0.0
  0
LINE
  5
21B
100
AcDbEntity
  8
外形
  6
CONTINUOUS
100
AcDbLine
 10
24.930292
 20
243.708812
 30
0.0
 11
24.93376
 21
244.409705
 31
0.0
  0
ARC
  5
21C
100
AcDbEntity
  8
外形
  6
CONTINUOUS
100
AcDbCircle
 10
24.536092
 20
242.323039
 30
0.0
 40
0.394205
100
AcDbArc
 50
0.283476
 51
59.716524
  0
ARC
  5
21D
100
AcDbEntity
  8
外形
  6
CONTINUOUS
100
AcDbCircle
 10
25.737896
 20
241.629177
 30
0.0
 40
0.394205
100
AcDbArc
 50
60.283476
 51
119.716524
  0
LINE
  5
21E
100
AcDbEntity
  8
外形
  6
CONTINUOUS
100
AcDbLine
 10
24.93376
 20
241.624096
 30
0.0
 11
24.930292
 21
242.324989
 31
0.0
  0
LINE
  5
21F
100
AcDbEntity
  8
外形
  6
CONTINUOUS
100
AcDbLine
 10
25.542485
 20
241.971539
 30
0.0
 11
24.93376
 21
241.624096
 31
0.0
  0
LINE
  5
220
100
AcDbEntity
  8
外形
  6
CONTINUOUS
100
AcDbLine
 10
24.734881
 20
242.663451
 30
0.0
 11
24.129624
 21
243.0169
 31
0.0
  0
LINE
  5
221
100
AcDbEntity
  8
外形
  6
CONTINUOUS
100
AcDbLine
 10
24.129624
 20
243.0169
 30
0.0
 11
24.734881
 21
243.37035
 31
0.0
  0
LINE
  5
222
100
AcDbEntity
  8
外形
  6
CONTINUOUS
100
AcDbLine
 10
25.933307
 20
244.062262
 30
0.0
 11
26.542032
 21
244.409705
 31
0.0
  0
LINE
  5
223
100
AcDbEntity
  8
外形
  6
CONTINUOUS
100
AcDbLine
 10
26.542032
 20
241.624096
 30
0.0
 11
25.933307
 21
241.971539
 31
0.0
  0
ARC
  5
226
100
AcDbEntity
  8
外形
  6
CONTINUOUS
100
AcDbCircle
 10
30.36876
 20
254.527937
 30
0.0
 40
1.75
100
AcDbArc
 50
340.092375
 51
21.385887
  0
ARC
  5
227
100
AcDbEntity
  8
外形
  6
CONTINUOUS
100
AcDbCircle
 10
30.36876
 20
255.804203
 30
0.0
 40
1.75
100
AcDbArc
 50
294.401967
 51
214.12087
  0
LINE
  5
228
100
AcDbEntity
  8
外形
  6
CONTINUOUS
100
AcDbLine
 10
30.918607
 20
250.90681
 30
0.0
 11
32.014185
 21
253.932054
 31
0.0
  0
ARC
  5
229
100
AcDbEntity
  8
外形
  6
CONTINUOUS
100
AcDbCircle
 10
30.350586
 20
255.354193
 30
0.0
 40
0.8
100
AcDbArc
 50
357.0
 51
142.0
  0
LINE
  5
22A
100
AcDbEntity
  8
外形
  6
CONTINUOUS
100
AcDbLine
 10
21.828212
 20
259.379608
 30
0.0
 11
27.024364
 21
262.379608
 31
0.0
  0
LINE
  5
22B
100
AcDbEntity
  8
外形
  6
CONTINUOUS
100
AcDbLine
 10
58.825206
 20
238.879608
 30
0.0
 11
58.825206
 21
245.480628
 31
0.0
  0
LINE
  5
22C
100
AcDbEntity
  8
外形
  6
CONTINUOUS
100
AcDbLine
 10
58.325206
 20
238.879608
 30
0.0
 11
58.325206
 21
246.95178
 31
0.0
  0
LINE
  5
22D
100
AcDbEntity
  8
外形
  6
CONTINUOUS
100
AcDbLine
 10
58.825206
 20
255.278587
 30
0.0
 11
58.825206
 21
262.879608
 31
0.0
  0
LINE
  5
22E
100
AcDbEntity
  8
外形
  6
CONTINUOUS
100
AcDbLine
 10
58.325206
 20
253.807435
 30
0.0
 11
58.325206
 21
262.379608
 31
0.0
  0
LINE
  5
22F
100
AcDbEntity
  8
外形
  6
CONTINUOUS
100
AcDbLine
 10
50.327896
 20
246.95178
 30
0.0
 11
50.327896
 21
253.807435
 31
0.0
  0
LINE
  5
230
100
AcDbEntity
  8
外形
  6
CONTINUOUS
100
AcDbLine
 10
58.325206
 20
246.95178
 30
0.0
 11
50.327896
 21
246.95178
 31
0.0
  0
LINE
  5
231
100
AcDbEntity
  8
外形
  6
CONTINUOUS
100
AcDbLine
 10
58.325206
 20
253.807435
 30
0.0
 11
50.327896
 21
253.807435
 31
0.0
  0
LINE
  5
232
100
AcDbEntity
  8
外形
  6
CONTINUOUS
100
AcDbLine
 10
58.825206
 20
262.879608
 30
0.0
 11
58.325206
 21
262.379608
 31
0.0
  0
DIMENSION
  5
233
100
AcDbEntity
  8
寸法
  6
CONTINUOUS
100
AcDbDimension
  2
*D18
 10
132.955857
 20
241.021337
 30
0.0
 11
156.592013
 21
267.713275
 31
0.0
 70
   163
  3
STANDARD
100
AcDbDiametricDimension
 15
149.529665
 25
259.737878
 35
0.0
 40
0.0
1001
ACAD
1000
DSTYLE
1002
{
1070
    40
1040
1.0
1002
}
  0
ARC
  5
234
100
AcDbEntity
  8
外形
  6
CONTINUOUS
100
AcDbCircle
 10
141.242761
 20
250.379608
 30
0.0
 40
12.5
100
AcDbArc
 50
293.073918
 51
336.926082
  0
ARC
  5
235
100
AcDbEntity
  8
外形
  6
CONTINUOUS
100
AcDbCircle
 10
141.242761
 20
250.379608
 30
0.0
 40
12.5
100
AcDbArc
 50
203.073918
 51
246.926082
  0
LINE
  5
236
100
AcDbEntity
  8
外形
  6
CENTER
 62
     1
100
AcDbLine
 10
141.242761
 20
265.508737
 30
0.0
 11
141.242761
 21
236.833805
 31
0.0
  0
DIMENSION
  5
237
100
AcDbEntity
  8
寸法
  6
CONTINUOUS
100
AcDbDimension
  2
*D19
 10
152.742761
 20
229.500213
 30
0.0
 11
141.242761
 21
232.000213
 31
0.0
 70
    32
  3
STANDARD
100
AcDbAlignedDimension
 13
129.742761
 23
245.480628
 33
0.0
 14
152.742761
 24
245.480628
 34
0.0
100
AcDbRotatedDimension
1001
ACAD
1000
DSTYLE
1002
{
1070
    40
1040
1.0
1002
}
  0
LINE
  5
238
100
AcDbEntity
  8
外形
  6
CONTINUOUS
100
AcDbLine
 10
136.343782
 20
238.879608
 30
0.0
 11
146.141741
 21
238.879608
 31
0.0
  0
ARC
  5
239
100
AcDbEntity
  8
外形
  6
CONTINUOUS
100
AcDbCircle
 10
141.242761
 20
250.379608
 30
0.0
 40
12.5
100
AcDbArc
 50
23.073918
 51
156.926082
  0
LINE
  5
23A
100
AcDbEntity
  8
外形
  6
CONTINUOUS
100
AcDbLine
 10
129.742761
 20
255.278587
 30
0.0
 11
129.742761
 21
245.480628
 31
0.0
  0
LINE
  5
23B
100
AcDbEntity
  8
外形
  6
CONTINUOUS
100
AcDbLine
 10
152.742761
 20
255.278587
 30
0.0
 11
152.742761
 21
245.480628
 31
0.0
  0
LINE
  5
23C
100
AcDbEntity
  8
外形
  6
CONTINUOUS
100
AcDbLine
 10
218.321118
 20
146.525263
 30
0.0
 11
220.321118
 21
148.525263
 31
0.0
  0
LINE
  5
23D
100
AcDbEntity
  8
外形
  6
CONTINUOUS
100
AcDbLine
 10
218.321118
 20
153.126283
 30
0.0
 11
218.321118
 21
146.525263
 31
0.0
  0
ARC
  5
23E
100
AcDbEntity
  8
外形
  6
CONTINUOUS
100
AcDbCircle
 10
206.821118
 20
158.025263
 30
0.0
 40
12.5
100
AcDbArc
 50
336.926082
 51
23.073918
  0
LINE
  5
23F
100
AcDbEntity
  8
外形
  6
CONTINUOUS
100
AcDbLine
 10
220.321118
 20
167.525263
 30
0.0
 11
220.321118
 21
148.525263
 31
0.0
  0
LINE
  5
240
100
AcDbEntity
  8
外形
  6
CONTINUOUS
100
AcDbLine
 10
218.321118
 20
169.525263
 30
0.0
 11
220.321118
 21
167.525263
 31
0.0
  0
LINE
  5
241
100
AcDbEntity
  8
外形
  6
CONTINUOUS
100
AcDbLine
 10
218.321118
 20
169.525263
 30
0.0
 11
218.321118
 21
162.924242
 31
0.0
  0
LINE
  5
242
100
AcDbEntity
  8
外形
  6
CONTINUOUS
100
AcDbLine
 10
218.321118
 20
245.480628
 30
0.0
 11
218.321118
 21
240.379608
 31
0.0
  0
LINE
  5
243
100
AcDbEntity
  8
外形
  6
CONTINUOUS
100
AcDbLine
 10
220.321118
 20
242.379608
 30
0.0
 11
220.321118
 21
260.879608
 31
0.0
  0
LINE
  5
244
100
AcDbEntity
  8
外形
  6
CONTINUOUS
100
AcDbLine
 10
218.321118
 20
240.379608
 30
0.0
 11
220.321118
 21
242.379608
 31
0.0
  0
LINE
  5
245
100
AcDbEntity
  8
外形
  6
CONTINUOUS
100
AcDbLine
 10
218.321118
 20
262.879608
 30
0.0
 11
218.321118
 21
255.278587
 31
0.0
  0
ARC
  5
246
100
AcDbEntity
  8
外形
  6
CONTINUOUS
100
AcDbCircle
 10
206.821118
 20
250.379608
 30
0.0
 40
12.5
100
AcDbArc
 50
336.926082
 51
23.073918
  0
LINE
  5
247
100
AcDbEntity
  8
外形
  6
CONTINUOUS
100
AcDbLine
 10
218.321118
 20
262.879608
 30
0.0
 11
220.321118
 21
260.879608
 31
0.0
  0
DIMENSION
  5
422
100
AcDbEntity
  8
寸法
  6
CONTINUOUS
100
AcDbDimension
  2
*D20
 10
227.809112
 20
158.025263
 30
0.0
 11
14.143933
 21
165.053211
 31
0.0
 70
    34
  3
STANDARD
100
AcDb2LineAngularDimension
 13
30.420621
 23
158.554341
 33
0.0
 14
20.325206
 24
158.025263
 34
0.0
 15
16.495226
 25
158.025263
 35
0.0
 16
9.518539
 26
157.647885
 36
0.0
1001
ACAD
1000
DSTYLE
1002
{
1070
    40
1040
1.0
1002
}
  0
DIMENSION
  5
445
100
AcDbEntity
  8
寸法
  6
CONTINUOUS
100
AcDbDimension
  2
*D21
 10
-30.776356
 20
229.879607
 30
0.0
 11
-43.226514
 21
216.542336
 31
0.0
 70
    34
  3
STANDARD
100
AcDb2LineAngularDimension
 13
-30.776357
 23
269.891876
 33
0.0
 14
-30.776357
 24
228.796463
 34
0.0
 15
-26.533811
 25
262.104935
 35
0.0
 16
-31.614775
 26
210.676679
 36
0.0
1001
ACAD
1000
DSTYLE
1002
{
1070
    40
1040
1.0
1002
}
  0
ENDSEC
  0
SECTION
  2
OBJECTS
  0
DICTIONARY
  5
1E
100
AcDbDictionary
  3
ACAD_GROUP
350
1C
  3
ACAD_MLINESTYLE
350
1D
  0
DICTIONARY
  5
43
100
AcDbDictionary
280
     1
  3
ACAD_XREC_ROUNDTRIP
360
44
  0
DICTIONARY
  5
2E
100
AcDbDictionary
280
     1
  3
ACAD_XREC_ROUNDTRIP
360
2F
  0
DICTIONARY
  5
3
100
AcDbDictionary
280
     1
  3
ACAD_LAYOUTSELFREF
360
4
  0
DICTIONARY
  5
A
100
AcDbDictionary
280
     1
  3
ACAD_LAYOUTSELFREF
360
B
  0
DICTIONARY
  5
1C
102
{ACAD_REACTORS
330
1E
102
}
100
AcDbDictionary
  0
DICTIONARY
  5
1D
102
{ACAD_REACTORS
330
1E
102
}
100
AcDbDictionary
  3
STANDARD
350
20
  0
XRECORD
  5
44
102
{ACAD_REACTORS
330
43
102
}
100
AcDbXrecord
102
PLOTBIT
280
     0
  0
XRECORD
  5
2F
102
{ACAD_REACTORS
330
2E
102
}
100
AcDbXrecord
102
ACADR14ROUNDTRIP
1000
DSTYLE
1002
{
1070
   341
340
0
1070
   343
340
0
1070
   344
340
0
1002
}
  0
XRECORD
  5
4
102
{ACAD_REACTORS
330
3
102
}
100
AcDbXrecord
340
2
  0
XRECORD
  5
B
102
{ACAD_REACTORS
330
A
102
}
100
AcDbXrecord
340
9
  0
MLINESTYLE
  5
20
102
{ACAD_REACTORS
330
1D
102
}
100
AcDbMlineStyle
  2
STANDARD
 70
     0
  3

 62
     0
 51
90.0
 52
90.0
 71
     2
 49
0.5
 62
   256
  6
BYLAYER
 49
-0.5
 62
   256
  6
BYLAYER
  0
ENDSEC
  0
EOF
