  0
SECTION
  2
HEADER
  9
$ACADVER
  1
AC1014
  9
$ACADMAINTVER
 70
     0
  9
$DWGCODEPAGE
  3
ANSI_932
  9
$INSBASE
 10
-587.250952
 20
747.890188
 30
0.0
  9
$EXTMIN
 10
-1170.406574
 20
540.646561
 30
0.0
  9
$EXTMAX
 10
-793.386291
 20
726.521188
 30
0.0
  9
$LIMMIN
 10
-587.250952
 20
327.890188
  9
$LIMMAX
 10
600.749048
 20
957.890188
  9
$ORTHOMODE
 70
     0
  9
$REGENMODE
 70
     1
  9
$FILLMODE
 70
     1
  9
$QTEXTMODE
 70
     0
  9
$MIRRTEXT
 70
     1
  9
$DRAGMODE
 70
     2
  9
$LTSCALE
 40
5.0
  9
$OSMODE
 70
    39
  9
$ATTMODE
 70
     1
  9
$TEXTSIZE
 40
5.0
  9
$TRACEWID
 40
0.05
  9
$TEXTSTYLE
  7
STANDARD
  9
$CLAYER
  8
外形
  9
$CELTYPE
  6
CONTINUOUS
  9
$CECOLOR
 62
     7
  9
$CELTSCALE
 40
1.0
  9
$DELOBJ
 70
     1
  9
$DISPSILH
 70
     0
  9
$DIMSCALE
 40
0.0
  9
$DIMASZ
 40
2.0
  9
$DIMEXO
 40
1.0
  9
$DIMDLI
 40
8.0
  9
$DIMRND
 40
0.0
  9
$DIMDLE
 40
0.0
  9
$DIMEXE
 40
2.0
  9
$DIMTP
 40
0.0
  9
$DIMTM
 40
0.0
  9
$DIMTXT
 40
3.0
  9
$DIMCEN
 40
-1.0
  9
$DIMTSZ
 40
0.0
  9
$DIMTOL
 70
     0
  9
$DIMLIM
 70
     0
  9
$DIMTIH
 70
     0
  9
$DIMTOH
 70
     0
  9
$DIMSE1
 70
     0
  9
$DIMSE2
 70
     0
  9
$DIMTAD
 70
     3
  9
$DIMZIN
 70
     8
  9
$DIMBLK
  1

  9
$DIMASO
 70
     1
  9
$DIMSHO
 70
     1
  9
$DIMPOST
  1

  9
$DIMAPOST
  1

  9
$DIMALT
 70
     0
  9
$DIMALTD
 70
     2
  9
$DIMALTF
 40
25.4
  9
$DIMLFAC
 40
1.0
  9
$DIMTOFL
 70
     1
  9
$DIMTVP
 40
0.0
  9
$DIMTIX
 70
     0
  9
$DIMSOXD
 70
     0
  9
$DIMSAH
 70
     1
  9
$DIMBLK1
  1
_OPEN30
  9
$DIMBLK2
  1
_OPEN30
  9
$DIMSTYLE
  2
STANDARD
  9
$DIMCLRD
 70
     1
  9
$DIMCLRE
 70
     1
  9
$DIMCLRT
 70
     3
  9
$DIMTFAC
 40
1.0
  9
$DIMGAP
 40
1.0
  9
$DIMJUST
 70
     0
  9
$DIMSD1
 70
     0
  9
$DIMSD2
 70
     0
  9
$DIMTOLJ
 70
     1
  9
$DIMTZIN
 70
     8
  9
$DIMALTZ
 70
     0
  9
$DIMALTTZ
 70
     0
  9
$DIMFIT
 70
     4
  9
$DIMUPT
 70
     0
  9
$DIMUNIT
 70
     2
  9
$DIMDEC
 70
     3
  9
$DIMTDEC
 70
     2
  9
$DIMALTU
 70
     2
  9
$DIMALTTD
 70
     2
  9
$DIMTXSTY
  7
STANDARD
  9
$DIMAUNIT
 70
     0
  9
$LUNITS
 70
     2
  9
$LUPREC
 70
     2
  9
$SKETCHINC
 40
0.1
  9
$FILLETRAD
 40
0.2
  9
$AUNITS
 70
     0
  9
$AUPREC
 70
     2
  9
$MENU
  1
acad
  9
$ELEVATION
 40
0.0
  9
$PELEVATION
 40
0.0
  9
$THICKNESS
 40
0.0
  9
$LIMCHECK
 70
     0
  9
$BLIPMODE
 70
     0
  9
$CHAMFERA
 40
2.0
  9
$CHAMFERB
 40
2.0
  9
$CHAMFERC
 40
0.0
  9
$CHAMFERD
 40
0.0
  9
$SKPOLY
 70
     0
  9
$TDCREATE
 40
2450751.535399305
  9
$TDUPDATE
 40
2452039.361493056
  9
$TDINDWG
 40
3.7014841435
  9
$TDUSRTIMER
 40
3.7014841435
  9
$USRTIMER
 70
     1
  9
$ANGBASE
 50
0.0
  9
$ANGDIR
 70
     0
  9
$PDMODE
 70
    32
  9
$PDSIZE
 40
0.0
  9
$PLINEWID
 40
0.0
  9
$COORDS
 70
     2
  9
$SPLFRAME
 70
     0
  9
$SPLINETYPE
 70
     5
  9
$SPLINESEGS
 70
     8
  9
$ATTDIA
 70
     0
  9
$ATTREQ
 70
     1
  9
$HANDLING
 70
     1
  9
$HANDSEED
  5
4BF9
  9
$SURFTAB1
 70
     6
  9
$SURFTAB2
 70
     6
  9
$SURFTYPE
 70
     6
  9
$SURFU
 70
     6
  9
$SURFV
 70
     6
  9
$UCSNAME
  2

  9
$UCSORG
 10
40.53800450572526
 20
146.9196145921314
 30
0.0
  9
$UCSXDIR
 10
1.0
 20
0.0
 30
0.0
  9
$UCSYDIR
 10
0.0
 20
1.0
 30
0.0
  9
$PUCSNAME
  2

  9
$PUCSORG
 10
0.0
 20
0.0
 30
0.0
  9
$PUCSXDIR
 10
1.0
 20
0.0
 30
0.0
  9
$PUCSYDIR
 10
0.0
 20
1.0
 30
0.0
  9
$USERI1
 70
     0
  9
$USERI2
 70
     0
  9
$USERI3
 70
     0
  9
$USERI4
 70
     0
  9
$USERI5
 70
     0
  9
$USERR1
 40
0.0
  9
$USERR2
 40
0.0
  9
$USERR3
 40
0.0
  9
$USERR4
 40
0.0
  9
$USERR5
 40
0.0
  9
$WORLDVIEW
 70
     1
  9
$SHADEDGE
 70
     3
  9
$SHADEDIF
 70
    70
  9
$TILEMODE
 70
     1
  9
$MAXACTVP
 70
    16
  9
$PINSBASE
 10
0.0
 20
0.0
 30
0.0
  9
$PLIMCHECK
 70
     0
  9
$PEXTMIN
 10
1.000000E+20
 20
1.000000E+20
 30
1.000000E+20
  9
$PEXTMAX
 10
-1.000000E+20
 20
-1.000000E+20
 30
-1.000000E+20
  9
$PLIMMIN
 10
0.0
 20
0.0
  9
$PLIMMAX
 10
12.0
 20
9.0
  9
$UNITMODE
 70
     0
  9
$VISRETAIN
 70
     0
  9
$PLINEGEN
 70
     0
  9
$PSLTSCALE
 70
     1
  9
$TREEDEPTH
 70
  3020
  9
$PICKSTYLE
 70
     1
  9
$CMLSTYLE
  2
STANDARD
  9
$CMLJUST
 70
     0
  9
$CMLSCALE
 40
1.0
  9
$PROXYGRAPHICS
 70
     1
  9
$MEASUREMENT
 70
     0
  0
ENDSEC
  0
SECTION
  2
CLASSES
  0
CLASS
  1
LWPOLYLINE
  2
AcDbPolyline
  3
"AutoCAD"
 90
        0
280
     0
281
     1
  0
CLASS
  1
ACDBDICTIONARYWDFLT
  2
AcDbDictionaryWithDefault
  3
AutoCAD 2000
 90
        0
280
     1
281
     0
  0
CLASS
  1
ACDBPLACEHOLDER
  2
AcDbPlaceHolder
  3
AutoCAD 2000
 90
        0
280
     1
281
     0
  0
CLASS
  1
LAYOUT
  2
AcDbLayout
  3
AutoCAD 2000
 90
        0
280
     1
281
     0
  0
CLASS
  1
LONG_TRANSACTION
  2
AcDbLongTransaction
  3
AutoCAD 2000
 90
        0
280
     1
281
     0
  0
CLASS
  1
LWPOLYLINE
  2
AcDbPolyline
  3
"AutoCAD"
 90
        0
280
     0
281
     1
  0
CLASS
  1
HATCH
  2
AcDbHatch
  3
"ACAD_SEDONA"
 90
        0
280
     0
281
     1
  0
CLASS
  1
XRECORD
  2
AcDbXrecord
  3
"<Built In>"
 90
        0
280
     0
281
     0
  0
CLASS
  1
DICTIONARYVAR
  2
AcDbDictionaryVar
  3
"AutoCAD"
 90
        0
280
     0
281
     0
  0
ENDSEC
  0
SECTION
  2
TABLES
  0
TABLE
  2
VPORT
  5
16
100
AcDbSymbolTable
 70
     1
  0
VPORT
  5
4BF4
100
AcDbSymbolTableRecord
100
AcDbViewportTableRecord
  2
*ACTIVE
 70
     0
 10
0.0
 20
0.0
 11
1.0
 21
1.0
 12
-974.74324
 22
636.586444
 13
0.0
 23
0.0
 14
1.0
 24
1.0
 15
10.0
 25
10.0
 16
0.0
 26
0.0
 36
1.0
 17
0.0
 27
0.0
 37
0.0
 40
303.461682
 41
1.710425
 42
50.0
 43
0.0
 44
0.0
 50
0.0
 51
0.0
 71
     0
 72
   100
 73
     1
 74
     1
 75
     0
 76
     0
 77
     0
 78
     2
  0
ENDTAB
  0
TABLE
  2
LTYPE
  5
11
100
AcDbSymbolTable
 70
     3
  0
LTYPE
  5
12
100
AcDbSymbolTableRecord
100
AcDbLinetypeTableRecord
  2
BYBLOCK
 70
     0
  3

 72
    65
 73
     0
 40
0.0
  0
LTYPE
  5
13
100
AcDbSymbolTableRecord
100
AcDbLinetypeTableRecord
  2
BYLAYER
 70
     0
  3

 72
    65
 73
     0
 40
0.0
  0
LTYPE
  5
7
100
AcDbSymbolTableRecord
100
AcDbLinetypeTableRecord
  2
CONTINUOUS
 70
     0
  3
Solid line
 72
    65
 73
     0
 40
0.0
  0
LTYPE
  5
AA
100
AcDbSymbolTableRecord
100
AcDbLinetypeTableRecord
  2
CENTER
 70
     0
  3
Center ____ _ ____ _ ____ _ ____ _ ____ _ ____
 72
    65
 73
     4
 40
2.0
 49
1.25
 74
     0
 49
-0.25
 74
     0
 49
0.25
 74
     0
 49
-0.25
 74
     0
  0
LTYPE
  5
2837
100
AcDbSymbolTableRecord
100
AcDbLinetypeTableRecord
  2
PHANTOM
 70
     0
  3
Phantom ______  __  __  ______  __  __  ______
 72
    65
 73
     6
 40
2.5
 49
1.25
 74
     0
 49
-0.25
 74
     0
 49
0.25
 74
     0
 49
-0.25
 74
     0
 49
0.25
 74
     0
 49
-0.25
 74
     0
  0
ENDTAB
  0
TABLE
  2
LAYER
  5
E
100
AcDbSymbolTable
 70
     4
  0
LAYER
  5
6
100
AcDbSymbolTableRecord
100
AcDbLayerTableRecord
  2
0
 70
     0
 62
     7
  6
CONTINUOUS
  0
LAYER
  5
2C
100
AcDbSymbolTableRecord
100
AcDbLayerTableRecord
  2
外形
 70
     0
 62
     4
  6
CONTINUOUS
  0
LAYER
  5
37
102
{ACAD_XDICTIONARY
360
38
102
}
100
AcDbSymbolTableRecord
100
AcDbLayerTableRecord
  2
DEFPOINTS
 70
     0
 62
     7
  6
CONTINUOUS
  0
LAYER
  5
1F
100
AcDbSymbolTableRecord
100
AcDbLayerTableRecord
  2
寸法
 70
     0
 62
     1
  6
CONTINUOUS
  0
ENDTAB
  0
TABLE
  2
STYLE
  5
F
100
AcDbSymbolTable
 70
     1
  0
STYLE
  5
10
100
AcDbSymbolTableRecord
100
AcDbTextStyleTableRecord
  2
STANDARD
 70
     0
 40
0.0
 41
1.0
 50
0.0
 71
     0
 42
5.0
  3
MONOTXT
  4
BIGFONT
  0
ENDTAB
  0
TABLE
  2
VIEW
  5
14
100
AcDbSymbolTable
 70
     0
  0
ENDTAB
  0
TABLE
  2
UCS
  5
15
100
AcDbSymbolTable
 70
     0
  0
ENDTAB
  0
TABLE
  2
APPID
  5
18
100
AcDbSymbolTable
 70
     2
  0
APPID
  5
19
100
AcDbSymbolTableRecord
100
AcDbRegAppTableRecord
  2
ACAD
 70
     0
  0
APPID
  5
C59
100
AcDbSymbolTableRecord
100
AcDbRegAppTableRecord
  2
DRAWINGVARIABLESXDATA
 70
     0
  0
ENDTAB
  0
TABLE
  2
DIMSTYLE
  5
1A
100
AcDbSymbolTable
 70
     1
  0
DIMSTYLE
105
21
102
{ACAD_XDICTIONARY
360
22
102
}
102
{ACAD_REACTORS
330
34A2
330
34A1
330
355A
330
355E
330
3E53
330
3F9F
330
48E0
102
}
100
AcDbSymbolTableRecord
100
AcDbDimStyleTableRecord
  2
STANDARD
 70
     0
  3

  4

  5

  6
_OPEN30
  7
_OPEN30
 40
0.0
 41
2.0
 42
1.0
 43
8.0
 44
2.0
 45
0.0
 46
0.0
 47
0.0
 48
0.0
140
3.0
141
-1.0
142
0.0
143
25.4
144
1.0
145
0.0
146
1.0
147
1.0
 71
     0
 72
     0
 73
     0
 74
     0
 75
     0
 76
     0
 77
     1
 78
     8
170
     0
171
     2
172
     1
173
     1
174
     0
175
     0
176
     1
177
     1
178
     3
270
     2
271
     2
272
     2
273
     2
274
     2
340
10
275
     0
280
     0
281
     0
282
     0
283
     1
284
     8
285
     0
286
     0
287
     3
288
     0
  0
ENDTAB
  0
TABLE
  2
BLOCK_RECORD
  5
1
100
AcDbSymbolTable
 70
     8
  0
BLOCK_RECORD
  5
2
102
{ACAD_XDICTIONARY
360
3
102
}
100
AcDbSymbolTableRecord
100
AcDbBlockTableRecord
  2
*MODEL_SPACE
  0
BLOCK_RECORD
  5
9
102
{ACAD_XDICTIONARY
360
A
102
}
100
AcDbSymbolTableRecord
100
AcDbBlockTableRecord
  2
*PAPER_SPACE
  0
BLOCK_RECORD
  5
470
100
AcDbSymbolTableRecord
100
AcDbBlockTableRecord
  2
_OPEN30
  0
BLOCK_RECORD
  5
34A5
100
AcDbSymbolTableRecord
100
AcDbBlockTableRecord
  2
*D1
  0
BLOCK_RECORD
  5
34BB
100
AcDbSymbolTableRecord
100
AcDbBlockTableRecord
  2
*D2
  0
BLOCK_RECORD
  5
3562
100
AcDbSymbolTableRecord
100
AcDbBlockTableRecord
  2
*D3
  0
BLOCK_RECORD
  5
35B2
100
AcDbSymbolTableRecord
100
AcDbBlockTableRecord
  2
*D4
  0
BLOCK_RECORD
  5
3E54
100
AcDbSymbolTableRecord
100
AcDbBlockTableRecord
  2
*D5
  0
BLOCK_RECORD
  5
3F8E
100
AcDbSymbolTableRecord
100
AcDbBlockTableRecord
  2
*D6
  0
BLOCK_RECORD
  5
48D2
100
AcDbSymbolTableRecord
100
AcDbBlockTableRecord
  2
*D7
  0
ENDTAB
  0
ENDSEC
  0
SECTION
  2
BLOCKS
  0
BLOCK
  5
5
100
AcDbEntity
  8
0
100
AcDbBlockBegin
  2
*MODEL_SPACE
 70
     0
 10
0.0
 20
0.0
 30
0.0
  3
*MODEL_SPACE
  1

  0
ENDBLK
  5
8
100
AcDbEntity
  8
0
100
AcDbBlockEnd
  0
BLOCK
  5
C
100
AcDbEntity
 67
     1
  8
0
100
AcDbBlockBegin
  2
*PAPER_SPACE
 70
     0
 10
0.0
 20
0.0
 30
0.0
  3
*PAPER_SPACE
  1

  0
ENDBLK
  5
D
100
AcDbEntity
 67
     1
  8
0
100
AcDbBlockEnd
  0
BLOCK
  5
471
100
AcDbEntity
  8
0
100
AcDbBlockBegin
  2
_OPEN30
 70
     0
 10
0.0
 20
0.0
 30
0.0
  3
_OPEN30
  1

  0
LINE
  5
472
100
AcDbEntity
  8
0
  6
BYBLOCK
 62
     0
100
AcDbLine
 10
-1.0
 20
0.267949
 30
0.0
 11
0.0
 21
0.0
 31
0.0
  0
LINE
  5
473
100
AcDbEntity
  8
0
  6
BYBLOCK
 62
     0
100
AcDbLine
 10
0.0
 20
0.0
 30
0.0
 11
-1.0
 21
-0.267949
 31
0.0
  0
LINE
  5
474
100
AcDbEntity
  8
0
  6
BYBLOCK
 62
     0
100
AcDbLine
 10
0.0
 20
0.0
 30
0.0
 11
-1.0
 21
0.0
 31
0.0
  0
ENDBLK
  5
475
100
AcDbEntity
  8
0
100
AcDbBlockEnd
  0
BLOCK
  5
4787
100
AcDbEntity
  8
0
100
AcDbBlockBegin
  2
*D1
 70
     1
 10
0.0
 20
0.0
 30
0.0
  3
*D1
  1

  0
LINE
  5
4788
100
AcDbEntity
  8
0
  6
BYBLOCK
 62
     1
100
AcDbLine
 10
-883.249599
 20
715.467696
 30
0.0
 11
-891.455843
 21
702.91152
 31
0.0
  0
LINE
  5
4789
100
AcDbEntity
  8
0
  6
BYBLOCK
 62
     1
100
AcDbLine
 10
-907.32125
 20
678.636247
 30
0.0
 11
-908.415416
 21
676.96209
 31
0.0
  0
MTEXT
  5
478A
100
AcDbEntity
  8
0
  6
BYBLOCK
 62
     3
100
AcDbMText
 10
-888.07771
 20
712.650011
 30
0.0
 40
3.0
 41
0.0
 71
     5
 72
     1
  1
\A1;\U+220525
 11
0.547083
 21
0.837078
 31
0.0
  0
LINE
  5
478B
100
AcDbEntity
  8
0
  6
BYBLOCK
 62
     1
100
AcDbLine
 10
-906.227084
 20
680.310404
 30
0.0
 11
-892.550009
 21
701.237363
 31
0.0
  0
INSERT
  5
478C
100
AcDbEntity
  8
0
  6
BYBLOCK
 62
     1
100
AcDbBlockReference
  2
_OPEN30
 10
-906.227084
 20
680.310404
 30
0.0
 41
2.0
 42
2.0
 43
2.0
 50
56.832878
  0
INSERT
  5
478D
100
AcDbEntity
  8
0
  6
BYBLOCK
 62
     1
100
AcDbBlockReference
  2
_OPEN30
 10
-892.550009
 20
701.237363
 30
0.0
 41
2.0
 42
2.0
 43
2.0
 50
236.832878
  0
POINT
  5
478E
100
AcDbEntity
  8
DEFPOINTS
  6
BYBLOCK
 62
     0
100
AcDbPoint
 10
-892.550009
 20
701.237363
 30
0.0
  0
POINT
  5
478F
100
AcDbEntity
  8
DEFPOINTS
  6
BYBLOCK
 62
     0
100
AcDbPoint
 10
-906.227084
 20
680.310404
 30
0.0
  0
ENDBLK
  5
4790
100
AcDbEntity
  8
0
100
AcDbBlockEnd
  0
BLOCK
  5
4748
100
AcDbEntity
  8
0
100
AcDbBlockBegin
  2
*D2
 70
     1
 10
0.0
 20
0.0
 30
0.0
  3
*D2
  1

  0
LINE
  5
4749
100
AcDbEntity
  8
0
  6
BYBLOCK
 62
     1
100
AcDbLine
 10
-910.888546
 20
684.874904
 30
0.0
 11
-910.888546
 21
652.668656
 31
0.0
  0
LINE
  5
474A
100
AcDbEntity
  8
0
  6
BYBLOCK
 62
     1
100
AcDbLine
 10
-887.888546
 20
684.874904
 30
0.0
 11
-887.888546
 21
652.668656
 31
0.0
  0
LINE
  5
474B
100
AcDbEntity
  8
0
  6
BYBLOCK
 62
     1
100
AcDbLine
 10
-908.888546
 20
654.668656
 30
0.0
 11
-889.888546
 21
654.668656
 31
0.0
  0
INSERT
  5
474C
100
AcDbEntity
  8
0
  6
BYBLOCK
 62
     1
100
AcDbBlockReference
  2
_OPEN30
 10
-910.888546
 20
654.668656
 30
0.0
 41
2.0
 42
2.0
 43
2.0
 50
180.0
  0
INSERT
  5
474D
100
AcDbEntity
  8
0
  6
BYBLOCK
 62
     1
100
AcDbBlockReference
  2
_OPEN30
 10
-887.888546
 20
654.668656
 30
0.0
 41
2.0
 42
2.0
 43
2.0
  0
MTEXT
  5
474E
100
AcDbEntity
  8
0
  6
BYBLOCK
 62
     3
100
AcDbMText
 10
-899.388546
 20
657.168656
 30
0.0
 40
3.0
 41
0.0
 71
     5
 72
     1
  1
\A1;23
  0
POINT
  5
474F
100
AcDbEntity
  8
DEFPOINTS
  6
BYBLOCK
 62
     0
100
AcDbPoint
 10
-910.888546
 20
685.874904
 30
0.0
  0
POINT
  5
4750
100
AcDbEntity
  8
DEFPOINTS
  6
BYBLOCK
 62
     0
100
AcDbPoint
 10
-887.888546
 20
685.874904
 30
0.0
  0
POINT
  5
4751
100
AcDbEntity
  8
DEFPOINTS
  6
BYBLOCK
 62
     0
100
AcDbPoint
 10
-887.888546
 20
654.668656
 30
0.0
  0
ENDBLK
  5
4752
100
AcDbEntity
  8
0
100
AcDbBlockEnd
  0
BLOCK
  5
49E5
100
AcDbEntity
  8
0
100
AcDbBlockBegin
  2
*D3
 70
     1
 10
0.0
 20
0.0
 30
0.0
  3
*D3
  1

  0
LINE
  5
49E6
100
AcDbEntity
  8
0
  6
BYBLOCK
 62
     1
100
AcDbLine
 10
-1058.705742
 20
683.789856
 30
0.0
 11
-1058.705742
 21
650.947455
 31
0.0
  0
LINE
  5
49E7
100
AcDbEntity
  8
0
  6
BYBLOCK
 62
     1
100
AcDbLine
 10
-808.705742
 20
688.696911
 30
0.0
 11
-808.705742
 21
650.947455
 31
0.0
  0
LINE
  5
49E8
100
AcDbEntity
  8
0
  6
BYBLOCK
 62
     1
100
AcDbLine
 10
-1056.705742
 20
652.947455
 30
0.0
 11
-810.705742
 21
652.947455
 31
0.0
  0
INSERT
  5
49E9
100
AcDbEntity
  8
0
  6
BYBLOCK
 62
     1
100
AcDbBlockReference
  2
_OPEN30
 10
-1058.705742
 20
652.947455
 30
0.0
 41
2.0
 42
2.0
 43
2.0
 50
180.0
  0
INSERT
  5
49EA
100
AcDbEntity
  8
0
  6
BYBLOCK
 62
     1
100
AcDbBlockReference
  2
_OPEN30
 10
-808.705742
 20
652.947455
 30
0.0
 41
2.0
 42
2.0
 43
2.0
  0
MTEXT
  5
49EB
100
AcDbEntity
  8
0
  6
BYBLOCK
 62
     3
100
AcDbMText
 10
-933.705742
 20
655.447455
 30
0.0
 40
3.0
 41
0.0
 71
     5
 72
     1
  1
\A1;250
  0
POINT
  5
49EC
100
AcDbEntity
  8
DEFPOINTS
  6
BYBLOCK
 62
     0
100
AcDbPoint
 10
-1058.705742
 20
684.789856
 30
0.0
  0
POINT
  5
49ED
100
AcDbEntity
  8
DEFPOINTS
  6
BYBLOCK
 62
     0
100
AcDbPoint
 10
-808.705742
 20
689.696911
 30
0.0
  0
POINT
  5
49EE
100
AcDbEntity
  8
DEFPOINTS
  6
BYBLOCK
 62
     0
100
AcDbPoint
 10
-808.705742
 20
652.947455
 30
0.0
  0
ENDBLK
  5
49EF
100
AcDbEntity
  8
0
100
AcDbBlockEnd
  0
BLOCK
  5
48EE
100
AcDbEntity
  8
0
100
AcDbBlockBegin
  2
*D4
 70
     1
 10
0.0
 20
0.0
 30
0.0
  3
*D4
  1

  0
LINE
  5
48EF
100
AcDbEntity
  8
0
  6
BYBLOCK
 62
     1
100
AcDbLine
 10
-1059.705742
 20
684.196911
 30
0.0
 11
-1076.923808
 21
684.196911
 31
0.0
  0
LINE
  5
48F0
100
AcDbEntity
  8
0
  6
BYBLOCK
 62
     1
100
AcDbLine
 10
-1072.60433
 20
700.196911
 30
0.0
 11
-1076.923808
 21
700.196911
 31
0.0
  0
LINE
  5
48F1
100
AcDbEntity
  8
0
  6
BYBLOCK
 62
     1
100
AcDbLine
 10
-1074.923808
 20
686.196911
 30
0.0
 11
-1074.923808
 21
698.196911
 31
0.0
  0
MTEXT
  5
48F2
100
AcDbEntity
  8
0
  6
BYBLOCK
 62
     3
100
AcDbMText
 10
-1077.423808
 20
692.196911
 30
0.0
 40
3.0
 41
0.0
 71
     5
 72
     1
  1
\A1;16
 11
0.0
 21
1.0
 31
0.0
  0
INSERT
  5
48F3
100
AcDbEntity
  8
0
  6
BYBLOCK
 62
     1
100
AcDbBlockReference
  2
_OPEN30
 10
-1074.923808
 20
684.196911
 30
0.0
 41
2.0
 42
2.0
 43
2.0
 50
270.0
  0
INSERT
  5
48F4
100
AcDbEntity
  8
0
  6
BYBLOCK
 62
     1
100
AcDbBlockReference
  2
_OPEN30
 10
-1074.923808
 20
700.196911
 30
0.0
 41
2.0
 42
2.0
 43
2.0
 50
90.0
  0
POINT
  5
48F5
100
AcDbEntity
  8
DEFPOINTS
  6
BYBLOCK
 62
     0
100
AcDbPoint
 10
-1058.705742
 20
684.196911
 30
0.0
  0
POINT
  5
48F6
100
AcDbEntity
  8
DEFPOINTS
  6
BYBLOCK
 62
     0
100
AcDbPoint
 10
-1071.60433
 20
700.196911
 30
0.0
  0
POINT
  5
48F7
100
AcDbEntity
  8
DEFPOINTS
  6
BYBLOCK
 62
     0
100
AcDbPoint
 10
-1074.923808
 20
700.196911
 30
0.0
  0
ENDBLK
  5
48F8
100
AcDbEntity
  8
0
100
AcDbBlockEnd
  0
BLOCK
  5
4B4C
100
AcDbEntity
  8
0
100
AcDbBlockBegin
  2
*D5
 70
     1
 10
0.0
 20
0.0
 30
0.0
  3
*D5
  1

  0
LINE
  5
4B4D
100
AcDbEntity
  8
0
  6
BYBLOCK
 62
     1
100
AcDbLine
 10
-1025.705742
 20
594.602882
 30
0.0
 11
-1025.705742
 21
572.428318
 31
0.0
  0
LINE
  5
4B4E
100
AcDbEntity
  8
0
  6
BYBLOCK
 62
     1
100
AcDbLine
 10
-1058.705742
 20
591.602882
 30
0.0
 11
-1058.705742
 21
572.428318
 31
0.0
  0
LINE
  5
4B4F
100
AcDbEntity
  8
0
  6
BYBLOCK
 62
     1
100
AcDbLine
 10
-1027.705742
 20
574.428318
 30
0.0
 11
-1056.705742
 21
574.428318
 31
0.0
  0
INSERT
  5
4B50
100
AcDbEntity
  8
0
  6
BYBLOCK
 62
     1
100
AcDbBlockReference
  2
_OPEN30
 10
-1025.705742
 20
574.428318
 30
0.0
 41
2.0
 42
2.0
 43
2.0
  0
INSERT
  5
4B51
100
AcDbEntity
  8
0
  6
BYBLOCK
 62
     1
100
AcDbBlockReference
  2
_OPEN30
 10
-1058.705742
 20
574.428318
 30
0.0
 41
2.0
 42
2.0
 43
2.0
 50
180.0
  0
MTEXT
  5
4B52
100
AcDbEntity
  8
0
  6
BYBLOCK
 62
     3
100
AcDbMText
 10
-1042.205742
 20
576.928318
 30
0.0
 40
3.0
 41
0.0
 71
     5
 72
     1
  1
\A1;33
  0
POINT
  5
4B53
100
AcDbEntity
  8
DEFPOINTS
  6
BYBLOCK
 62
     0
100
AcDbPoint
 10
-1025.705742
 20
595.602882
 30
0.0
  0
POINT
  5
4B54
100
AcDbEntity
  8
DEFPOINTS
  6
BYBLOCK
 62
     0
100
AcDbPoint
 10
-1058.705742
 20
592.602882
 30
0.0
  0
POINT
  5
4B55
100
AcDbEntity
  8
DEFPOINTS
  6
BYBLOCK
 62
     0
100
AcDbPoint
 10
-1058.705742
 20
574.428318
 30
0.0
  0
ENDBLK
  5
4B56
100
AcDbEntity
  8
0
100
AcDbBlockEnd
  0
BLOCK
  5
4B2C
100
AcDbEntity
  8
0
100
AcDbBlockBegin
  2
*D6
 70
     1
 10
0.0
 20
0.0
 30
0.0
  3
*D6
  1

  0
LINE
  5
4B2D
100
AcDbEntity
  8
0
  6
BYBLOCK
 62
     1
100
AcDbLine
 10
-1062.60822
 20
607.976927
 30
0.0
 11
-1077.073369
 21
609.242501
 31
0.0
  0
LINE
  5
4B2E
100
AcDbEntity
  8
0
  6
BYBLOCK
 62
     1
100
AcDbLine
 10
-1071.952799
 20
607.625312
 30
0.0
 11
-1077.143979
 21
607.625312
 31
0.0
  0
ARC
  5
4B2F
100
AcDbEntity
  8
0
  6
BYBLOCK
 62
     1
100
AcDbCircle
 10
-1058.589375
 20
607.625312
 30
0.0
 40
16.554604
100
AcDbArc
 50
161.147345
 51
168.073597
  0
ARC
  5
4B30
100
AcDbEntity
  8
0
  6
BYBLOCK
 62
     1
100
AcDbCircle
 10
-1058.589375
 20
607.625312
 30
0.0
 40
16.554604
100
AcDbArc
 50
186.926252
 51
193.852504
  0
ARC
  5
4B31
100
AcDbEntity
  8
0
  6
BYBLOCK
 62
     1
100
AcDbCircle
 10
-1058.589375
 20
607.625312
 30
0.0
 40
16.554604
100
AcDbArc
 50
174.999849
 51
180.0
  0
INSERT
  5
4B32
100
AcDbEntity
  8
0
  6
BYBLOCK
 62
     1
100
AcDbBlockReference
  2
_OPEN30
 10
-1075.08098
 20
609.068185
 30
0.0
 41
2.0
 42
2.0
 43
2.0
 50
261.536723
  0
INSERT
  5
4B33
100
AcDbEntity
  8
0
  6
BYBLOCK
 62
     1
100
AcDbBlockReference
  2
_OPEN30
 10
-1075.143979
 20
607.625312
 30
0.0
 41
2.0
 42
2.0
 43
2.0
 50
93.463126
  0
MTEXT
  5
4B34
100
AcDbEntity
  8
0
  6
BYBLOCK
 62
     3
100
AcDbMText
 10
-1076.44434
 20
608.481184
 30
0.0
 40
3.0
 41
0.0
 71
     5
 72
     1
  1
\A1;5°
  0
POINT
  5
4B35
100
AcDbEntity
  8
DEFPOINTS
  6
BYBLOCK
 62
     0
100
AcDbPoint
 10
-1075.136975
 20
608.106813
 30
0.0
  0
POINT
  5
4B36
100
AcDbEntity
  8
DEFPOINTS
  6
BYBLOCK
 62
     0
100
AcDbPoint
 10
-1061.612026
 20
607.889768
 30
0.0
  0
POINT
  5
4B37
100
AcDbEntity
  8
DEFPOINTS
  6
BYBLOCK
 62
     0
100
AcDbPoint
 10
-793.386291
 20
607.625312
 30
0.0
  0
POINT
  5
4B38
100
AcDbEntity
  8
DEFPOINTS
  6
BYBLOCK
 62
     0
100
AcDbPoint
 10
-1070.952799
 20
607.625312
 30
0.0
  0
POINT
  5
4B39
100
AcDbEntity
  8
DEFPOINTS
  6
BYBLOCK
 62
     0
100
AcDbPoint
 10
-1049.770662
 20
606.853752
 30
0.0
  0
ENDBLK
  5
4B3A
100
AcDbEntity
  8
0
100
AcDbBlockEnd
  0
BLOCK
  5
48E1
100
AcDbEntity
  8
0
100
AcDbBlockBegin
  2
*D7
 70
     1
 10
0.0
 20
0.0
 30
0.0
  3
*D7
  1

  0
LINE
  5
48E2
100
AcDbEntity
  8
0
  6
BYBLOCK
 62
     1
100
AcDbLine
 10
-1061.837453
 20
696.477558
 30
0.0
 11
-1067.2962
 21
716.849882
 31
0.0
  0
LINE
  5
48E3
100
AcDbEntity
  8
0
  6
BYBLOCK
 62
     1
100
AcDbLine
 10
-1059.705742
 20
684.196911
 30
0.0
 11
-1092.351706
 21
684.196911
 31
0.0
  0
ARC
  5
48E4
100
AcDbEntity
  8
0
  6
BYBLOCK
 62
     1
100
AcDbCircle
 10
-1058.546863
 20
684.196911
 30
0.0
 40
31.804843
100
AcDbArc
 50
108.603553
 51
176.396447
  0
INSERT
  5
48E5
100
AcDbEntity
  8
0
  6
BYBLOCK
 62
     1
100
AcDbBlockReference
  2
_OPEN30
 10
-1066.778562
 20
714.91803
 30
0.0
 41
2.0
 42
2.0
 43
2.0
 50
16.801777
  0
INSERT
  5
48E6
100
AcDbEntity
  8
0
  6
BYBLOCK
 62
     1
100
AcDbBlockReference
  2
_OPEN30
 10
-1090.351706
 20
684.196911
 30
0.0
 41
2.0
 42
2.0
 43
2.0
 50
268.198223
  0
MTEXT
  5
48E7
100
AcDbEntity
  8
0
  6
BYBLOCK
 62
     3
100
AcDbMText
 10
-1085.762725
 20
705.080376
 30
0.0
 40
3.0
 41
0.0
 71
     5
 72
     1
  1
\A1;75°
 11
0.608761
 21
0.793353
 31
0.0
  0
POINT
  5
48E8
100
AcDbEntity
  8
DEFPOINTS
  6
BYBLOCK
 62
     0
100
AcDbPoint
 10
-1078.990622
 20
708.560834
 30
0.0
  0
POINT
  5
48E9
100
AcDbEntity
  8
DEFPOINTS
  6
BYBLOCK
 62
     0
100
AcDbPoint
 10
-1057.933001
 20
684.196911
 30
0.0
  0
POINT
  5
48EA
100
AcDbEntity
  8
DEFPOINTS
  6
BYBLOCK
 62
     0
100
AcDbPoint
 10
-1061.578634
 20
695.511632
 30
0.0
  0
POINT
  5
48EB
100
AcDbEntity
  8
DEFPOINTS
  6
BYBLOCK
 62
     0
100
AcDbPoint
 10
-1058.705742
 20
684.789856
 30
0.0
  0
POINT
  5
48EC
100
AcDbEntity
  8
DEFPOINTS
  6
BYBLOCK
 62
     0
100
AcDbPoint
 10
-1058.705742
 20
684.196911
 30
0.0
  0
ENDBLK
  5
48ED
100
AcDbEntity
  8
0
100
AcDbBlockEnd
  0
ENDSEC
  0
SECTION
  2
ENTITIES
  0
LINE
  5
1FF7
100
AcDbEntity
  8
外形
  6
CONTINUOUS
100
AcDbLine
 10
-808.705742
 20
710.696911
 30
0.0
 11
-808.705742
 21
689.696911
 31
0.0
  0
LINE
  5
2000
100
AcDbEntity
  8
外形
  6
CONTINUOUS
100
AcDbLine
 10
-810.705742
 20
712.696911
 30
0.0
 11
-808.705742
 21
710.696911
 31
0.0
  0
LINE
  5
2029
100
AcDbEntity
  8
外形
  6
CONTINUOUS
100
AcDbLine
 10
-949.940719
 20
705.09589
 30
0.0
 11
-1028.755742
 21
705.09589
 31
0.0
  0
LINE
  5
202A
100
AcDbEntity
  8
外形
  6
CONTINUOUS
100
AcDbLine
 10
-949.940719
 20
695.297931
 30
0.0
 11
-1020.905742
 21
695.297931
 31
0.0
  0
ARC
  5
202E
100
AcDbEntity
  8
外形
  6
CONTINUOUS
100
AcDbCircle
 10
-822.205742
 20
700.196911
 30
0.0
 40
12.5
100
AcDbArc
 50
336.926082
 51
23.073918
  0
LINE
  5
218D
100
AcDbEntity
  8
外形
  6
CENTER
 62
     1
100
AcDbLine
 10
-1132.347925
 20
700.196911
 30
0.0
 11
-1141.844014
 21
700.196911
 31
0.0
  0
LINE
  5
218E
100
AcDbEntity
  8
外形
  6
CENTER
 62
     1
100
AcDbLine
 10
-1149.585306
 20
720.563403
 30
0.0
 11
-1149.585306
 21
697.391126
 31
0.0
  0
LINE
  5
2445
102
{ACAD_REACTORS
330
47C2
102
}
100
AcDbEntity
  8
外形
  6
CENTER
 62
     1
100
AcDbLine
 10
-800.024695
 20
700.196911
 30
0.0
 11
-1072.60433
 21
700.196911
 31
0.0
  0
TEXT
  5
249B
100
AcDbEntity
  8
外形
  6
CONTINUOUS
 62
     2
100
AcDbText
 10
-1013.789963
 20
540.646561
 30
0.0
 40
6.0
  1
 S25S-CSKP R12
100
AcDbText
  0
LINE
  5
253B
100
AcDbEntity
  8
外形
  6
CONTINUOUS
100
AcDbLine
 10
-949.940719
 20
687.696911
 30
0.0
 11
-1029.705742
 21
687.696911
 31
0.0
  0
LINE
  5
256B
100
AcDbEntity
  8
外形
  6
CONTINUOUS
100
AcDbLine
 10
-949.940719
 20
712.696911
 30
0.0
 11
-1029.705742
 21
712.696911
 31
0.0
  0
LINE
  5
25BA
100
AcDbEntity
  8
外形
  6
CENTER
 62
     1
100
AcDbLine
 10
-799.711187
 20
607.602882
 30
0.0
 11
-1071.708569
 21
607.602882
 31
0.0
  0
LINE
  5
25E8
100
AcDbEntity
  8
外形
  6
CONTINUOUS
100
AcDbLine
 10
-808.705742
 20
618.102882
 30
0.0
 11
-808.705742
 21
597.102882
 31
0.0
  0
LINE
  5
25F9
100
AcDbEntity
  8
外形
  6
CONTINUOUS
100
AcDbLine
 10
-810.705742
 20
695.297931
 30
0.0
 11
-921.393883
 21
695.297931
 31
0.0
  0
LINE
  5
25FA
100
AcDbEntity
  8
外形
  6
CONTINUOUS
100
AcDbLine
 10
-810.705742
 20
705.09589
 30
0.0
 11
-921.393883
 21
705.09589
 31
0.0
  0
TEXT
  5
33E0
100
AcDbEntity
  8
寸法
  6
CONTINUOUS
 62
     3
100
AcDbText
 10
-1128.273027
 20
722.521188
 30
0.0
 40
4.0
  1
%%C32　最小加工径
100
AcDbText
  0
LINE
  5
33E1
100
AcDbEntity
  8
寸法
  6
CONTINUOUS
 62
     1
100
AcDbLine
 10
-1130.132731
 20
720.927683
 30
0.0
 11
-1087.374298
 21
720.927683
 31
0.0
  0
LINE
  5
33E2
100
AcDbEntity
  8
寸法
  6
BYBLOCK
 62
     1
100
AcDbLine
 10
-1130.132731
 20
720.927683
 30
0.0
 11
-1138.637014
 21
711.864597
 31
0.0
  0
LINE
  5
33E3
100
AcDbEntity
  8
寸法
  6
BYBLOCK
 62
     1
100
AcDbLine
 10
-1160.429085
 20
688.640605
 30
0.0
 11
-1160.429085
 21
688.640605
 31
0.0
  0
INSERT
  5
33E4
100
AcDbEntity
  8
寸法
  6
BYBLOCK
 62
     1
100
AcDbBlockReference
  2
_OPEN30
 10
-1160.533597
 20
688.529225
 30
0.0
 41
2.0
 42
2.0
 43
2.0
 50
46.821915
  0
INSERT
  5
33E6
100
AcDbEntity
  8
寸法
  6
BYBLOCK
 62
     1
100
AcDbBlockReference
  2
_OPEN30
 10
-1138.637014
 20
711.864597
 30
0.0
 41
2.0
 42
2.0
 43
2.0
 50
226.821915
  0
LINE
  5
3457
100
AcDbEntity
  8
寸法
  6
BYBLOCK
 62
     1
100
AcDbLine
 10
-1160.533597
 20
688.529225
 30
0.0
 11
-1138.637014
 21
711.864597
 31
0.0
  0
DIMENSION
  5
34A1
100
AcDbEntity
  8
寸法
  6
CONTINUOUS
 62
     7
100
AcDbDimension
  2
*D2
 10
-924.259534
 20
664.091684
 30
0.0
 11
-935.759534
 21
666.591684
 31
0.0
 12
-36.370987
 22
9.423028
 32
0.0
 70
    32
  3
STANDARD
100
AcDbAlignedDimension
 13
-947.259534
 23
695.297931
 33
0.0
 14
-924.259534
 24
695.297931
 34
0.0
100
AcDbRotatedDimension
1001
ACAD
1000
DSTYLE
1002
{
1070
    77
1070
     3
1070
    40
1040
1.0
1070
   287
1070
     4
1002
}
  0
DIMENSION
  5
34A2
100
AcDbEntity
  8
寸法
  6
CONTINUOUS
 62
     7
100
AcDbDimension
  2
*D1
 10
-942.598071
 20
689.733431
 30
0.0
 11
-922.356001
 21
720.705331
 31
0.0
 12
-36.370987
 22
9.423028
 32
0.0
 70
   163
  3
STANDARD
100
AcDbDiametricDimension
 15
-928.920996
 25
710.660391
 35
0.0
 40
0.0
1001
ACAD
1000
DSTYLE
1002
{
1070
   288
1070
     1
1070
    77
1070
     3
1070
    76
1070
     1
1070
    75
1070
     1
1070
    40
1040
1.0
1070
   287
1070
     4
1002
}
  0
DIMENSION
  5
355A
100
AcDbEntity
  8
寸法
  6
CONTINUOUS
 62
     7
100
AcDbDimension
  2
*D3
 10
-808.705742
 20
652.947455
 30
0.0
 11
-933.705742
 21
655.447455
 31
0.0
 70
    32
  3
STANDARD
100
AcDbAlignedDimension
 13
-1058.705742
 23
684.789856
 33
0.0
 14
-808.705742
 24
689.696911
 34
0.0
100
AcDbRotatedDimension
1001
ACAD
1000
DSTYLE
1002
{
1070
    77
1070
     3
1070
    40
1040
1.0
1070
   287
1070
     4
1002
}
  0
DIMENSION
  5
355E
100
AcDbEntity
  8
寸法
  6
CONTINUOUS
 62
     7
100
AcDbDimension
  2
*D4
 10
-1074.923808
 20
700.196911
 30
0.0
 11
-1074.923808
 21
692.196911
 31
0.0
 70
   160
  3
STANDARD
100
AcDbAlignedDimension
 13
-1058.705742
 23
684.196911
 33
0.0
 14
-1071.60433
 24
700.196911
 34
0.0
 50
90.0
100
AcDbRotatedDimension
1001
ACAD
1000
DSTYLE
1002
{
1070
    77
1070
     3
1070
    40
1040
1.0
1070
   287
1070
     4
1002
}
  0
LINE
  5
37C9
100
AcDbEntity
  8
外形
  6
CONTINUOUS
100
AcDbLine
 10
-809.705742
 20
619.102882
 30
0.0
 11
-808.705742
 21
618.102882
 31
0.0
  0
LINE
  5
37EB
100
AcDbEntity
  8
外形
  6
CONTINUOUS
100
AcDbLine
 10
-809.705742
 20
596.102882
 30
0.0
 11
-808.705742
 21
597.102882
 31
0.0
  0
LINE
  5
3810
100
AcDbEntity
  8
外形
  6
CONTINUOUS
100
AcDbLine
 10
-810.705742
 20
712.696911
 30
0.0
 11
-921.393883
 21
712.696911
 31
0.0
  0
LINE
  5
3813
102
{ACAD_REACTORS
330
47C2
102
}
100
AcDbEntity
  8
外形
  6
CENTER
 62
     1
100
AcDbLine
 10
-935.759534
 20
717.504162
 30
0.0
 11
-935.759534
 21
681.746969
 31
0.0
  0
LINE
  5
3814
100
AcDbEntity
  8
外形
  6
CONTINUOUS
100
AcDbLine
 10
-810.705742
 20
687.696911
 30
0.0
 11
-921.393883
 21
687.696911
 31
0.0
  0
LINE
  5
39DD
100
AcDbEntity
  8
寸法
  6
CONTINUOUS
 62
     2
100
AcDbLine
 10
-1058.705742
 20
684.789856
 30
0.0
 11
-1058.705742
 21
684.196911
 31
0.0
  0
LINE
  5
39DE
100
AcDbEntity
  8
外形
  6
CONTINUOUS
100
AcDbLine
 10
-1058.705742
 20
604.444414
 30
0.0
 11
-1058.705742
 21
592.602882
 31
0.0
  0
ARC
  5
3B0B
100
AcDbEntity
  8
外形
  6
CONTINUOUS
100
AcDbCircle
 10
-1047.211225
 20
687.869802
 30
0.0
 40
0.8
100
AcDbArc
 50
285.0
 51
15.0
  0
ARC
  5
3B0C
100
AcDbEntity
  8
外形
  6
CONTINUOUS
100
AcDbCircle
 10
-1057.933001
 20
684.996911
 30
0.0
 40
0.8
100
AcDbArc
 50
195.0
 51
285.0
  0
ARC
  5
3B14
100
AcDbEntity
  8
外形
  6
CONTINUOUS
100
AcDbCircle
 10
-1060.805893
 20
695.718688
 30
0.0
 40
0.8
100
AcDbArc
 50
105.0
 51
195.0
  0
LINE
  5
3B15
100
AcDbEntity
  8
外形
  6
CONTINUOUS
100
AcDbLine
 10
-1061.578634
 20
695.511632
 30
0.0
 11
-1058.705742
 21
684.789856
 31
0.0
  0
LINE
  5
3B19
100
AcDbEntity
  8
外形
  6
CONTINUOUS
100
AcDbLine
 10
-1047.00417
 20
687.097062
 30
0.0
 11
-1057.725946
 21
684.22417
 31
0.0
  0
LINE
  5
3B5D
100
AcDbEntity
  8
寸法
  6
CONTINUOUS
 62
     2
100
AcDbLine
 10
-1057.933001
 20
684.196911
 30
0.0
 11
-1058.705742
 21
684.196911
 31
0.0
  0
LINE
  5
3B92
100
AcDbEntity
  8
外形
  6
CONTINUOUS
100
AcDbLine
 10
-1029.705742
 20
712.696911
 30
0.0
 11
-1029.955742
 21
712.446911
 31
0.0
  0
LINE
  5
3B93
100
AcDbEntity
  8
外形
  6
CONTINUOUS
100
AcDbLine
 10
-1029.955742
 20
687.946911
 30
0.0
 11
-1029.705742
 21
687.696911
 31
0.0
  0
LINE
  5
3B9C
100
AcDbEntity
  8
外形
  6
CONTINUOUS
100
AcDbLine
 10
-1029.705742
 20
705.59589
 30
0.0
 11
-1029.955742
 21
705.477758
 31
0.0
  0
LINE
  5
3BDA
100
AcDbEntity
  8
外形
  6
CONTINUOUS
100
AcDbLine
 10
-1054.479268
 20
694.54941
 30
0.0
 11
-1052.598157
 21
689.3811
 31
0.0
  0
LINE
  5
3BFA
100
AcDbEntity
  8
外形
  6
CONTINUOUS
100
AcDbLine
 10
-1041.70368
 20
694.250918
 30
0.0
 11
-1039.642061
 21
695.001286
 31
0.0
  0
LINE
  5
3BFB
100
AcDbEntity
  8
外形
  6
CONTINUOUS
100
AcDbLine
 10
-1039.642061
 20
695.001286
 30
0.0
 11
-1039.261089
 21
697.161885
 31
0.0
  0
LINE
  5
3BFC
100
AcDbEntity
  8
外形
  6
CONTINUOUS
100
AcDbLine
 10
-1039.261089
 20
697.161885
 30
0.0
 11
-1040.941737
 21
698.572116
 31
0.0
  0
LINE
  5
3BFD
100
AcDbEntity
  8
外形
  6
CONTINUOUS
100
AcDbLine
 10
-1040.941737
 20
698.572116
 30
0.0
 11
-1043.003356
 21
697.821748
 31
0.0
  0
LINE
  5
3BFE
100
AcDbEntity
  8
外形
  6
CONTINUOUS
100
AcDbLine
 10
-1043.003356
 20
697.821748
 30
0.0
 11
-1043.384328
 21
695.661149
 31
0.0
  0
LINE
  5
3BFF
100
AcDbEntity
  8
外形
  6
CONTINUOUS
100
AcDbLine
 10
-1043.384328
 20
695.661149
 30
0.0
 11
-1041.70368
 21
694.250918
 31
0.0
  0
LINE
  5
3D62
100
AcDbEntity
  8
外形
  6
CONTINUOUS
100
AcDbLine
 10
-1061.612026
 20
607.889768
 30
0.0
 11
-1061.294288
 21
604.670889
 31
0.0
  0
LINE
  5
3D65
100
AcDbEntity
  8
外形
  6
CONTINUOUS
100
AcDbLine
 10
-1052.598157
 20
608.908009
 30
0.0
 11
-1052.598157
 21
607.101133
 31
0.0
  0
LINE
  5
3D66
100
AcDbEntity
  8
外形
  6
CONTINUOUS
100
AcDbLine
 10
-1054.479268
 20
609.07259
 30
0.0
 11
-1054.479268
 21
607.265714
 31
0.0
  0
LINE
  5
3D6B
100
AcDbEntity
  8
外形
  6
CONTINUOUS
100
AcDbLine
 10
-1058.333001
 20
607.602882
 30
0.0
 11
-1058.705742
 21
604.444414
 31
0.0
  0
LINE
  5
3D6E
100
AcDbEntity
  8
外形
  6
CONTINUOUS
100
AcDbLine
 10
-1061.612026
 20
607.889768
 30
0.0
 11
-1046.43171
 21
606.561622
 31
0.0
  0
LINE
  5
3D6F
100
AcDbEntity
  8
外形
  6
CONTINUOUS
100
AcDbLine
 10
-1058.705742
 20
604.444414
 30
0.0
 11
-1046.708781
 21
603.394784
 31
0.0
  0
LINE
  5
3D76
100
AcDbEntity
  8
外形
  6
CONTINUOUS
100
AcDbLine
 10
-1058.705742
 20
604.444414
 30
0.0
 11
-1061.294288
 21
604.670889
 31
0.0
  0
LINE
  5
3D79
100
AcDbEntity
  8
外形
  6
CONTINUOUS
100
AcDbLine
 10
-1039.920458
 20
610.613254
 30
0.0
 11
-1049.010345
 21
611.450513
 31
0.0
  0
ARC
  5
3D82
100
AcDbEntity
  8
外形
  6
CONTINUOUS
100
AcDbCircle
 10
-1048.947151
 20
607.535604
 30
0.0
 40
3.915419
100
AcDbArc
 50
90.924781
 51
114.388054
  0
ARC
  5
3D83
100
AcDbEntity
  8
外形
  6
CONTINUOUS
100
AcDbCircle
 10
-1048.295481
 20
606.957984
 30
0.0
 40
4.723941
100
AcDbArc
 50
118.698015
 51
155.619388
  0
ARC
  5
3D84
100
AcDbEntity
  8
外形
  6
CONTINUOUS
100
AcDbCircle
 10
-1050.709752
 20
606.905651
 30
0.0
 40
4.347974
100
AcDbArc
 50
102.959267
 51
150.107187
  0
ARC
  5
3D85
100
AcDbEntity
  8
外形
  6
CONTINUOUS
100
AcDbCircle
 10
-1049.218586
 20
601.481482
 30
0.0
 40
9.971206
100
AcDbArc
 50
88.803337
 51
104.319907
  0
LINE
  5
3D8F
100
AcDbEntity
  8
外形
  6
CONTINUOUS
100
AcDbLine
 10
-1051.011828
 20
606.962343
 30
0.0
 11
-1049.695606
 21
608.291337
 31
0.0
  0
LINE
  5
3D90
100
AcDbEntity
  8
外形
  6
CONTINUOUS
100
AcDbLine
 10
-1044.979962
 20
607.974962
 30
0.0
 11
-1049.695606
 21
608.291337
 31
0.0
  0
LINE
  5
3D95
100
AcDbEntity
  8
外形
  6
CONTINUOUS
100
AcDbLine
 10
-1058.705742
 20
592.602882
 30
0.0
 11
-1061.294288
 21
602.161339
 31
0.0
  0
ARC
  5
3D98
100
AcDbEntity
  8
外形
  6
CONTINUOUS
100
AcDbCircle
 10
-1007.242634
 20
536.047253
 30
0.0
 40
81.208166
100
AcDbArc
 50
116.185589
 51
118.443704
  0
ARC
  5
3D99
100
AcDbEntity
  8
外形
  6
CONTINUOUS
100
AcDbCircle
 10
-1355.558356
 20
1337.482941
 30
0.0
 40
792.746109
100
AcDbArc
 50
293.214489
 51
294.270361
  0
LINE
  5
3DAC
100
AcDbEntity
  8
外形
  6
CONTINUOUS
100
AcDbLine
 10
-1025.705742
 20
596.102882
 30
0.0
 11
-1025.705742
 21
595.602882
 31
0.0
  0
ARC
  5
3DB1
100
AcDbEntity
  8
外形
  6
CONTINUOUS
100
AcDbCircle
 10
-1006.368511
 20
516.863686
 30
0.0
 40
104.661556
100
AcDbArc
 50
102.351071
 51
115.876751
  0
ARC
  5
3DB8
100
AcDbEntity
  8
外形
  6
CONTINUOUS
100
AcDbCircle
 10
-1000.415725
 20
527.524085
 30
0.0
 40
91.974618
100
AcDbArc
 50
117.192174
 51
119.654351
  0
ARC
  5
3DB9
100
AcDbEntity
  8
外形
  6
CONTINUOUS
100
AcDbCircle
 10
-924.67675
 20
380.046022
 30
0.0
 40
257.764157
100
AcDbArc
 50
116.395738
 51
117.186442
  0
ARC
  5
3DBB
100
AcDbEntity
  8
外形
  6
CONTINUOUS
100
AcDbCircle
 10
-1055.077596
 20
640.993181
 30
0.0
 40
33.95938
100
AcDbArc
 50
297.740522
 51
304.140239
  0
LINE
  5
3E51
100
AcDbEntity
  8
外形
  6
CONTINUOUS
100
AcDbLine
 10
-1025.705742
 20
595.602882
 30
0.0
 11
-1045.355742
 21
595.602882
 31
0.0
  0
DIMENSION
  5
3E53
100
AcDbEntity
  8
寸法
  6
CONTINUOUS
 62
     7
100
AcDbDimension
  2
*D5
 10
-1058.705742
 20
574.428318
 30
0.0
 11
-1042.205742
 21
576.928318
 31
0.0
 70
    32
  1
33
  3
STANDARD
100
AcDbAlignedDimension
 13
-1025.705742
 23
595.602882
 33
0.0
 14
-1058.705742
 24
592.602882
 34
0.0
100
AcDbRotatedDimension
1001
ACAD
1000
DSTYLE
1002
{
1070
    77
1070
     3
1070
    40
1040
1.0
1070
   287
1070
     4
1002
}
  0
DIMENSION
  5
3F9F
100
AcDbEntity
  8
寸法
  6
BYBLOCK
 62
     3
100
AcDbDimension
  2
*D6
 10
-1049.770662
 20
606.853752
 30
0.0
 11
-1072.034635
 21
608.269807
 31
0.0
 70
   162
  3
STANDARD
100
AcDb2LineAngularDimension
 13
-793.386291
 23
607.625312
 33
0.0
 14
-1070.952799
 24
607.625312
 34
0.0
 15
-1061.612026
 25
607.889768
 35
0.0
 16
-1075.136975
 26
608.106813
 36
0.0
1001
ACAD
1000
DSTYLE
1002
{
1070
    77
1070
     3
1070
    40
1040
1.0
1070
   287
1070
     4
1070
   271
1070
     3
1002
}
  0
LINE
  5
406C
100
AcDbEntity
  8
外形
  6
CONTINUOUS
100
AcDbLine
 10
-1152.748456
 20
684.734914
 30
0.0
 11
-1149.585306
 21
684.196911
 31
0.0
  0
LINE
  5
408F
100
AcDbEntity
  8
外形
  6
CONTINUOUS
100
AcDbLine
 10
-1149.585306
 20
694.54941
 30
0.0
 11
-1148.185306
 21
694.54941
 31
0.0
  0
LINE
  5
4090
100
AcDbEntity
  8
外形
  6
CONTINUOUS
100
AcDbLine
 10
-1148.185306
 20
689.3811
 30
0.0
 11
-1149.585306
 21
689.3811
 31
0.0
  0
LINE
  5
4098
100
AcDbEntity
  8
外形
  6
CONTINUOUS
100
AcDbLine
 10
-1148.827368
 20
697.384486
 30
0.0
 11
-1152.158892
 21
696.790032
 31
0.0
  0
ARC
  5
40A0
100
AcDbEntity
  8
外形
  6
CONTINUOUS
100
AcDbCircle
 10
-1157.003645
 20
700.314619
 30
0.0
 40
13.839342
100
AcDbArc
 50
325.594949
 51
343.339644
  0
LINE
  5
40A4
100
AcDbEntity
  8
外形
  6
CONTINUOUS
100
AcDbLine
 10
-1149.085306
 20
705.196911
 30
0.0
 11
-1148.585306
 21
707.696911
 31
0.0
  0
LINE
  5
4354
100
AcDbEntity
  8
外形
  6
CONTINUOUS
100
AcDbLine
 10
-1029.705742
 20
712.696911
 30
0.0
 11
-1029.705742
 21
705.59589
 31
0.0
  0
LINE
  5
435C
100
AcDbEntity
  8
外形
  6
CONTINUOUS
100
AcDbLine
 10
-1029.705742
 20
689.896911
 30
0.0
 11
-1029.705742
 21
687.696911
 31
0.0
  0
ARC
  5
4361
100
AcDbEntity
  8
外形
  6
CONTINUOUS
100
AcDbCircle
 10
-1031.512688
 20
702.710533
 30
0.0
 40
12.9404
100
AcDbArc
 50
278.026784
 51
325.052453
  0
ARC
  5
4363
100
AcDbEntity
  8
外形
  6
CONTINUOUS
100
AcDbCircle
 10
-1039.79919
 20
713.655862
 30
0.0
 40
25.717334
100
AcDbArc
 50
268.537106
 51
292.504463
  0
LINE
  5
4367
100
AcDbEntity
  8
外形
  6
CONTINUOUS
100
AcDbLine
 10
-1028.755742
 20
705.09589
 30
0.0
 11
-1020.905742
 21
695.297931
 31
0.0
  0
LINE
  5
436B
100
AcDbEntity
  8
外形
  6
CONTINUOUS
100
AcDbLine
 10
-1061.294288
 20
705.196911
 30
0.0
 11
-1048.736919
 21
712.446911
 31
0.0
  0
LINE
  5
4370
100
AcDbEntity
  8
外形
  6
CONTINUOUS
100
AcDbLine
 10
-1056.341218
 20
708.056567
 30
0.0
 11
-1051.635061
 21
699.905264
 31
0.0
  0
ARC
  5
4374
100
AcDbEntity
  8
外形
  6
CONTINUOUS
100
AcDbCircle
 10
-1056.278274
 20
655.477015
 30
0.0
 40
56.506195
100
AcDbArc
 50
62.23576
 51
83.745857
  0
ARC
  5
4457
100
AcDbEntity
  8
外形
  6
CONTINUOUS
100
AcDbCircle
 10
-1044.792013
 20
594.162092
 30
0.0
 40
4.054156
100
AcDbArc
 50
20.817097
 51
173.083565
  0
LINE
  5
4462
100
AcDbEntity
  8
外形
  6
CONTINUOUS
100
AcDbLine
 10
-1035.308215
 20
614.043898
 30
0.0
 11
-1034.447068
 21
614.541081
 31
0.0
  0
LINE
  5
4463
100
AcDbEntity
  8
外形
  6
CONTINUOUS
100
AcDbLine
 10
-1036.691045
 20
614.961244
 30
0.0
 11
-1035.399343
 21
615.707008
 31
0.0
  0
ARC
  5
4464
100
AcDbEntity
  8
外形
  6
CONTINUOUS
100
AcDbCircle
 10
-1035.78851
 20
616.50358
 30
0.0
 40
2.377155
100
AcDbArc
 50
304.35407
 51
330.333029
  0
ARC
  5
4466
100
AcDbEntity
  8
外形
  6
CONTINUOUS
100
AcDbCircle
 10
-1034.038292
 20
615.578512
 30
0.0
 40
0.40336
100
AcDbArc
 50
321.422512
 51
35.813685
  0
ARC
  5
4467
100
AcDbEntity
  8
外形
  6
CONTINUOUS
100
AcDbCircle
 10
-1034.123899
 20
612.889666
 30
0.0
 40
3.0926
100
AcDbArc
 50
90.689227
 51
114.356811
  0
ARC
  5
4468
100
AcDbEntity
  8
外形
  6
CONTINUOUS
100
AcDbCircle
 10
-1034.151829
 20
615.318989
 30
0.0
 40
0.663118
100
AcDbArc
 50
48.357307
 51
90.801061
  0
ARC
  5
4469
100
AcDbEntity
  8
外形
  6
CONTINUOUS
100
AcDbCircle
 10
-1060.373849
 20
617.493161
 30
0.0
 40
9.694851
100
AcDbArc
 50
268.688668
 51
292.102703
  0
ARC
  5
446A
100
AcDbEntity
  8
外形
  6
CONTINUOUS
100
AcDbCircle
 10
-1006.686899
 20
501.594093
 30
0.0
 40
119.145441
100
AcDbArc
 50
112.940339
 51
112.940687
  0
ARC
  5
446E
100
AcDbEntity
  8
外形
  6
CONTINUOUS
100
AcDbCircle
 10
-992.802025
 20
521.290343
 30
0.0
 40
104.568428
100
AcDbArc
 50
118.888153
 51
120.712196
  0
ARC
  5
446F
100
AcDbEntity
  8
外形
  6
CONTINUOUS
100
AcDbCircle
 10
-1036.786115
 20
610.626735
 30
0.0
 40
4.335551
100
AcDbArc
 50
88.743511
 51
104.348426
  0
LINE
  5
4470
100
AcDbEntity
  8
外形
  6
CONTINUOUS
100
AcDbLine
 10
-1036.579572
 20
614.835061
 30
0.0
 11
-1036.745545
 21
612.503515
 31
0.0
  0
LINE
  5
4471
100
AcDbEntity
  8
外形
  6
CONTINUOUS
100
AcDbLine
 10
-1036.154713
 20
615.080354
 30
0.0
 11
-1036.154713
 21
612.924262
 31
0.0
  0
ARC
  5
4476
100
AcDbEntity
  8
外形
  6
CONTINUOUS
100
AcDbCircle
 10
-1036.690722
 20
614.849343
 30
0.0
 40
0.111901
100
AcDbArc
 50
351.650946
 51
90.16535
  0
ARC
  5
4477
100
AcDbEntity
  8
外形
  6
CONTINUOUS
100
AcDbCircle
 10
-1036.265984
 20
615.096282
 30
0.0
 40
0.111901
100
AcDbArc
 50
351.650946
 51
88.669567
  0
ARC
  5
4478
100
AcDbEntity
  8
外形
  6
CONTINUOUS
100
AcDbCircle
 10
-1036.005234
 20
612.92677
 30
0.0
 40
0.149501
100
AcDbArc
 50
180.961369
 51
224.065217
  0
LINE
  5
4551
100
AcDbEntity
  8
寸法
  6
BYBLOCK
 62
     1
100
AcDbLine
 10
-1161.902134
 20
687.070764
 30
0.0
 11
-1163.345621
 21
685.514757
 31
0.0
  0
ARC
  5
463D
100
AcDbEntity
  8
外形
  6
CONTINUOUS
100
AcDbCircle
 10
-1149.362946
 20
700.199688
 30
0.0
 40
5.215605
100
AcDbArc
 50
106.638749
 51
180.030506
  0
LINE
  5
465A
100
AcDbEntity
  8
外形
  6
CONTINUOUS
100
AcDbLine
 10
-1149.085306
 20
700.196911
 30
0.0
 11
-1148.827368
 21
697.384486
 31
0.0
  0
LINE
  5
4660
100
AcDbEntity
  8
外形
  6
CONTINUOUS
100
AcDbLine
 10
-1150.856363
 20
705.196911
 30
0.0
 11
-1162.021859
 21
706.396911
 31
0.0
  0
LINE
  5
4662
100
AcDbEntity
  8
外形
  6
CONTINUOUS
100
AcDbLine
 10
-1146.781303
 20
700.472125
 30
0.0
 11
-1145.348826
 21
701.699475
 31
0.0
  0
ARC
  5
466D
100
AcDbEntity
  8
外形
  6
CONTINUOUS
100
AcDbCircle
 10
-1147.0914
 20
700.347284
 30
0.0
 40
3.954995
100
AcDbArc
 50
357.821036
 51
23.883522
  0
ARC
  5
4671
100
AcDbEntity
  8
外形
  6
CONTINUOUS
100
AcDbCircle
 10
-1144.336257
 20
701.590973
 30
0.0
 40
0.932483
100
AcDbArc
 50
22.550428
 51
61.992002
  0
ARC
  5
4672
100
AcDbEntity
  8
外形
  6
CONTINUOUS
100
AcDbCircle
 10
-1144.030652
 20
701.361556
 30
0.0
 40
1.060968
100
AcDbArc
 50
82.837532
 51
126.599683
  0
ARC
  5
472B
102
{ACAD_REACTORS
330
47C2
102
}
100
AcDbEntity
  8
外形
  6
CONTINUOUS
100
AcDbCircle
 10
-935.759534
 20
700.196911
 30
0.0
 40
12.5
100
AcDbArc
 50
23.073918
 51
156.926082
  0
ARC
  5
472C
102
{ACAD_REACTORS
330
47C2
102
}
100
AcDbEntity
  8
外形
  6
CONTINUOUS
100
AcDbCircle
 10
-935.759534
 20
700.196911
 30
0.0
 40
12.5
100
AcDbArc
 50
203.073918
 51
336.926082
  0
LINE
  5
472D
102
{ACAD_REACTORS
330
47C2
102
}
100
AcDbEntity
  8
外形
  6
CONTINUOUS
100
AcDbLine
 10
-924.259534
 20
705.09589
 30
0.0
 11
-924.259534
 21
695.297931
 31
0.0
  0
LINE
  5
472E
102
{ACAD_REACTORS
330
47C2
102
}
100
AcDbEntity
  8
外形
  6
CONTINUOUS
100
AcDbLine
 10
-947.259534
 20
705.09589
 30
0.0
 11
-947.259534
 21
695.297931
 31
0.0
  0
HATCH
  5
47C2
100
AcDbEntity
  8
外形
  6
CONTINUOUS
 62
     7
100
AcDbHatch
 10
0.0
 20
0.0
 30
0.0
210
0.0
220
0.0
230
1.0
  2
ANSI31
 70
     0
 71
     1
 91
        4
 92
        7
 72
     1
 73
     1
 93
        4
 10
-935.7595335956371
 20
700.1969109570801
 42
0.0
 10
-935.7595335956371
 20
687.6969109570794
 42
0.30061413009175
 10
-924.2595335956364
 20
695.2979314715134
 42
0.0
 10
-924.2595335956364
 20
700.1969109570801
 42
0.0
 97
        4
330
2445
330
3813
330
472C
330
472D
 92
        7
 72
     1
 73
     1
 93
        4
 10
-924.2595335956362
 20
700.19691095708
 42
0.0
 10
-924.2595335956364
 20
705.0958904426466
 42
0.3006141300917531
 10
-935.7595335956371
 20
712.6969109570808
 42
0.0
 10
-935.7595335956368
 20
700.1969109570801
 42
0.0
 97
        4
330
472B
330
3813
330
2445
330
472D
 92
        7
 72
     1
 73
     1
 93
        4
 10
-935.7595335956371
 20
700.19691095708
 42
0.0
 10
-935.7595335956371
 20
712.6969109570808
 42
0.3006141300917662
 10
-947.2595335956381
 20
705.0958904426461
 42
0.0
 10
-947.2595335956381
 20
700.1969109570801
 42
0.0
 97
        4
330
472B
330
472E
330
2445
330
3813
 92
        7
 72
     1
 73
     1
 93
        4
 10
-947.2595335956375
 20
700.19691095708
 42
0.0
 10
-947.2595335956377
 20
695.2979314715134
 42
0.3006141300917501
 10
-935.7595335956371
 20
687.6969109570794
 42
0.0
 10
-935.7595335956371
 20
700.19691095708
 42
0.0
 97
        4
330
2445
330
472E
330
472C
330
3813
 75
     0
 76
     1
 52
0.0
 41
20.0
 77
     0
 78
     1
 53
45.0
 43
4.167017
 44
156.342642
 45
-1.767766952966368
 46
1.767766952966368
 79
     0
 47
0.091872
 98
        4
 10
-930.815487
 20
695.783809
 10
-928.976775
 20
702.766093
 10
-939.73322
 20
703.868557
 10
-940.376767
 20
696.335041
  0
LINE
  5
47EF
100
AcDbEntity
  8
外形
  6
CONTINUOUS
100
AcDbLine
 10
-809.705742
 20
596.102882
 30
0.0
 11
-1025.705742
 21
596.102882
 31
0.0
  0
LINE
  5
47F0
100
AcDbEntity
  8
外形
  6
CONTINUOUS
100
AcDbLine
 10
-809.705742
 20
619.102882
 30
0.0
 11
-1028.755742
 21
619.102882
 31
0.0
  0
LINE
  5
486A
100
AcDbEntity
  8
外形
  6
CONTINUOUS
100
AcDbLine
 10
-1049.311376
 20
698.798634
 30
0.0
 11
-1049.165941
 21
698.255865
 31
0.0
  0
LINE
  5
486B
100
AcDbEntity
  8
外形
  6
CONTINUOUS
100
AcDbLine
 10
-1050.291171
 20
699.36432
 30
0.0
 11
-1061.012948
 21
696.491428
 31
0.0
  0
ARC
  5
4888
100
AcDbEntity
  8
外形
  6
CONTINUOUS
100
AcDbCircle
 10
-1050.084116
 20
698.591579
 30
0.0
 40
0.8
100
AcDbArc
 50
15.0
 51
105.0
  0
ARC
  5
488F
100
AcDbEntity
  8
外形
  6
CONTINUOUS
100
AcDbCircle
 10
-1041.322708
 20
696.411517
 30
0.0
 40
6.0
100
AcDbArc
 50
275.101259
 51
124.898741
  0
ARC
  5
4891
100
AcDbEntity
  8
外形
  6
CONTINUOUS
100
AcDbCircle
 10
-1035.590583
 20
698.49784
 30
0.0
 40
2.0
100
AcDbArc
 50
290.0
 51
110.0
  0
LINE
  5
4894
100
AcDbEntity
  8
外形
  6
CONTINUOUS
100
AcDbLine
 10
-1036.691045
 20
700.22566
 30
0.0
 11
-1036.274624
 21
700.377225
 31
0.0
  0
LINE
  5
4895
100
AcDbEntity
  8
外形
  6
CONTINUOUS
100
AcDbLine
 10
-1035.322964
 20
696.46689
 30
0.0
 11
-1034.906543
 21
696.618455
 31
0.0
  0
CIRCLE
  5
4896
100
AcDbEntity
  8
外形
  6
CONTINUOUS
100
AcDbCircle
 10
-1041.322708
 20
696.411517
 30
0.0
 40
3.75
  0
ARC
  5
4899
100
AcDbEntity
  8
外形
  6
CONTINUOUS
100
AcDbCircle
 10
-1049.758559
 20
699.155461
 30
0.0
 40
2.0
100
AcDbArc
 50
2.321566
 51
150.0
  0
LINE
  5
489A
100
AcDbEntity
  8
外形
  6
CONTINUOUS
100
AcDbLine
 10
-1051.519138
 20
700.106048
 30
0.0
 11
-1052.250482
 21
698.839324
 31
0.0
  0
LINE
  5
489F
100
AcDbEntity
  8
外形
  6
CONTINUOUS
100
AcDbLine
 10
-1044.755476
 20
701.332504
 30
0.0
 11
-1054.479268
 21
694.54941
 31
0.0
  0
LINE
  5
48A0
100
AcDbEntity
  8
外形
  6
CONTINUOUS
100
AcDbLine
 10
-1040.789211
 20
690.435282
 30
0.0
 11
-1052.598157
 21
689.3811
 31
0.0
  0
LINE
  5
48D1
100
AcDbEntity
  8
外形
  6
CONTINUOUS
100
AcDbLine
 10
-1061.294288
 20
705.196911
 30
0.0
 11
-1061.294288
 21
696.352305
 31
0.0
  0
DIMENSION
  5
48E0
100
AcDbEntity
  8
寸法
  6
CONTINUOUS
 62
     7
100
AcDbDimension
  2
*D7
 10
-1058.705742
 20
684.196911
 30
0.0
 11
-1085.762725
 21
705.080376
 31
0.0
 70
    34
  3
STANDARD
100
AcDb2LineAngularDimension
 13
-1061.578634
 23
695.511632
 33
0.0
 14
-1058.705742
 24
684.789856
 34
0.0
 15
-1057.933001
 25
684.196911
 35
0.0
 16
-1078.990622
 26
708.560834
 36
0.0
1001
ACAD
1000
DSTYLE
1002
{
1070
    77
1070
     3
1070
    40
1040
1.0
1070
   287
1070
     4
1070
   271
1070
     3
1002
}
  0
LINE
  5
48FB
100
AcDbEntity
  8
外形
  6
CONTINUOUS
100
AcDbLine
 10
-1060.49814
 20
705.656567
 30
0.0
 11
-1055.984542
 21
697.838786
 31
0.0
  0
LINE
  5
48FC
100
AcDbEntity
  8
外形
  6
CONTINUOUS
100
AcDbLine
 10
-1043.374829
 20
702.049673
 30
0.0
 11
-1048.469446
 21
700.684574
 31
0.0
  0
LINE
  5
48FD
100
AcDbEntity
  8
外形
  6
CONTINUOUS
100
AcDbLine
 10
-1039.270588
 20
690.773361
 30
0.0
 11
-1046.632452
 21
688.800756
 31
0.0
  0
LINE
  5
48FF
100
AcDbEntity
  8
外形
  6
CONTINUOUS
100
AcDbLine
 10
-1046.923687
 20
689.887659
 30
0.0
 11
-1046.438484
 21
688.076858
 31
0.0
  0
LINE
  5
4900
100
AcDbEntity
  8
外形
  6
CONTINUOUS
100
AcDbLine
 10
-1029.955742
 20
687.946911
 30
0.0
 11
-1045.355742
 21
687.946911
 31
0.0
  0
LINE
  5
4901
100
AcDbEntity
  8
外形
  6
CONTINUOUS
100
AcDbLine
 10
-1029.955742
 20
712.446911
 30
0.0
 11
-1048.736919
 21
712.446911
 31
0.0
  0
LINE
  5
4902
100
AcDbEntity
  8
外形
  6
CONTINUOUS
100
AcDbLine
 10
-1029.955742
 20
712.446911
 30
0.0
 11
-1029.955742
 21
705.477758
 31
0.0
  0
LINE
  5
4908
100
AcDbEntity
  8
外形
  6
CONTINUOUS
100
AcDbLine
 10
-1045.355742
 20
712.446911
 30
0.0
 11
-1045.355742
 21
710.917508
 31
0.0
  0
LINE
  5
4909
100
AcDbEntity
  8
外形
  6
CONTINUOUS
100
AcDbLine
 10
-1029.955742
 20
689.896911
 30
0.0
 11
-1029.955742
 21
687.946911
 31
0.0
  0
LINE
  5
490C
100
AcDbEntity
  8
外形
  6
CONTINUOUS
100
AcDbLine
 10
-1029.705742
 20
689.896911
 30
0.0
 11
-1029.955742
 21
689.896911
 31
0.0
  0
LINE
  5
490E
100
AcDbEntity
  8
外形
  6
CONTINUOUS
100
AcDbLine
 10
-1045.355742
 20
687.946911
 30
0.0
 11
-1046.43171
 21
687.689924
 31
0.0
  0
LINE
  5
4910
100
AcDbEntity
  8
外形
  6
CONTINUOUS
100
AcDbLine
 10
-1045.355742
 20
689.142849
 30
0.0
 11
-1045.355742
 21
687.946911
 31
0.0
  0
LINE
  5
4914
100
AcDbEntity
  8
外形
  6
CONTINUOUS
100
AcDbLine
 10
-1028.755742
 20
705.09589
 30
0.0
 11
-1029.705742
 21
705.59589
 31
0.0
  0
ARC
  5
491B
100
AcDbEntity
  8
外形
  6
CONTINUOUS
100
AcDbCircle
 10
-1149.585306
 20
700.196911
 30
0.0
 40
12.5
100
AcDbArc
 50
23.073918
 51
90.0
  0
ARC
  5
491C
100
AcDbEntity
  8
外形
  6
CONTINUOUS
100
AcDbCircle
 10
-1150.189494
 20
699.731375
 30
0.0
 40
12.979606
100
AcDbArc
 50
21.163441
 51
87.331972
  0
CIRCLE
  5
491D
100
AcDbEntity
  8
寸法
  6
PHANTOM
 62
     1
100
AcDbCircle
 10
-1149.585306
 20
700.196911
 30
0.0
 40
16.0
  0
LINE
  5
4934
100
AcDbEntity
  8
外形
  6
CONTINUOUS
100
AcDbLine
 10
-1138.085306
 20
705.09589
 30
0.0
 11
-1138.085306
 21
695.297931
 31
0.0
  0
LINE
  5
4983
100
AcDbEntity
  8
外形
  6
CONTINUOUS
100
AcDbLine
 10
-1149.585306
 20
697.249245
 30
0.0
 11
-1149.585306
 21
684.173083
 31
0.0
  0
LINE
  5
4984
100
AcDbEntity
  8
外形
  6
CONTINUOUS
100
AcDbLine
 10
-1152.765306
 20
696.893173
 30
0.0
 11
-1152.765306
 21
684.73778
 31
0.0
  0
LINE
  5
4986
100
AcDbEntity
  8
寸法
  6
BYBLOCK
 62
     1
100
AcDbLine
 10
-1149.585306
 20
684.173083
 30
0.0
 11
-1149.585306
 21
668.365508
 31
0.0
  0
POINT
  5
498E
100
AcDbEntity
  8
DEFPOINTS
  6
BYBLOCK
 62
     0
100
AcDbPoint
 10
-1149.268925
 20
696.756856
 30
0.0
  0
POINT
  5
498F
100
AcDbEntity
  8
DEFPOINTS
  6
BYBLOCK
 62
     0
100
AcDbPoint
 10
-1149.585306
 20
715.792936
 30
0.0
  0
POINT
  5
4990
100
AcDbEntity
  8
DEFPOINTS
  6
BYBLOCK
 62
     0
100
AcDbPoint
 10
-1149.585306
 20
683.374544
 30
0.0
  0
POINT
  5
4991
100
AcDbEntity
  8
DEFPOINTS
  6
BYBLOCK
 62
     0
100
AcDbPoint
 10
-1149.585306
 20
687.696911
 30
0.0
  0
TEXT
  5
4992
100
AcDbEntity
  8
寸法
  6
CONTINUOUS
 62
     3
100
AcDbText
 10
-1153.765861
 20
671.850158
 30
0.0
 40
3.0
  1
0°
100
AcDbText
  0
LINE
  5
4993
100
AcDbEntity
  8
寸法
  6
BYBLOCK
 62
     1
100
AcDbLine
 10
-1147.55025
 20
669.983756
 30
0.0
 11
-1149.585306
 21
670.365508
 31
0.0
  0
LINE
  5
4994
100
AcDbEntity
  8
寸法
  6
BYBLOCK
 62
     1
100
AcDbLine
 10
-1149.585306
 20
670.365508
 30
0.0
 11
-1147.63202
 21
671.052429
 31
0.0
  0
LINE
  5
4995
100
AcDbEntity
  8
寸法
  6
BYBLOCK
 62
     1
100
AcDbLine
 10
-1149.585306
 20
670.365508
 30
0.0
 11
-1146.883156
 21
670.572264
 31
0.0
  0
LINE
  5
499B
100
AcDbEntity
  8
寸法
  6
BYBLOCK
 62
     1
100
AcDbLine
 10
-1149.585306
 20
670.365508
 30
0.0
 11
-1152.543246
 21
670.591836
 31
0.0
  0
LINE
  5
499C
100
AcDbEntity
  8
寸法
  6
BYBLOCK
 62
     1
100
AcDbLine
 10
-1149.585306
 20
670.365508
 30
0.0
 11
-1151.538592
 21
671.052429
 31
0.0
  0
LINE
  5
499D
100
AcDbEntity
  8
寸法
  6
BYBLOCK
 62
     1
100
AcDbLine
 10
-1151.620362
 20
669.983756
 30
0.0
 11
-1149.585306
 21
670.365508
 31
0.0
  0
LINE
  5
49CB
100
AcDbEntity
  8
外形
  6
CONTINUOUS
100
AcDbLine
 10
-810.705742
 20
619.102882
 30
0.0
 11
-810.705742
 21
596.102882
 31
0.0
  0
LINE
  5
49CC
100
AcDbEntity
  8
外形
  6
CONTINUOUS
100
AcDbLine
 10
-810.705742
 20
695.297931
 30
0.0
 11
-810.705742
 21
687.696911
 31
0.0
  0
LINE
  5
49CD
100
AcDbEntity
  8
外形
  6
CONTINUOUS
100
AcDbLine
 10
-810.705742
 20
712.696911
 30
0.0
 11
-810.705742
 21
705.09589
 31
0.0
  0
LINE
  5
49D9
100
AcDbEntity
  8
外形
  6
CONTINUOUS
100
AcDbLine
 10
-810.705742
 20
687.696911
 30
0.0
 11
-808.705742
 21
689.696911
 31
0.0
  0
ARC
  5
4A50
100
AcDbEntity
  8
外形
  6
CONTINUOUS
100
AcDbCircle
 10
-1149.585306
 20
700.196911
 30
0.0
 40
12.25
100
AcDbArc
 50
270.0
 51
339.846926
  0
ARC
  5
4A51
100
AcDbEntity
  8
外形
  6
CONTINUOUS
100
AcDbCircle
 10
-1149.585306
 20
700.196911
 30
0.0
 40
12.5
100
AcDbArc
 50
270.0
 51
336.926082
  0
LINE
  5
4A5A
100
AcDbEntity
  8
外形
  6
CONTINUOUS
100
AcDbLine
 10
-1145.585306
 20
696.756856
 30
0.0
 11
-1145.585306
 21
691.178602
 31
0.0
  0
LINE
  5
4A5B
100
AcDbEntity
  8
外形
  6
CONTINUOUS
100
AcDbLine
 10
-1148.185306
 20
694.54941
 30
0.0
 11
-1148.185306
 21
689.3811
 31
0.0
  0
LINE
  5
4A5C
100
AcDbEntity
  8
外形
  6
CONTINUOUS
100
AcDbLine
 10
-1146.785306
 20
694.891265
 30
0.0
 11
-1146.785306
 21
689.722955
 31
0.0
  0
LINE
  5
4A5D
100
AcDbEntity
  8
外形
  6
CONTINUOUS
100
AcDbLine
 10
-1148.185306
 20
694.54941
 30
0.0
 11
-1146.785306
 21
694.891265
 31
0.0
  0
LINE
  5
4A5E
100
AcDbEntity
  8
外形
  6
CONTINUOUS
100
AcDbLine
 10
-1148.185306
 20
689.3811
 30
0.0
 11
-1146.785306
 21
689.722955
 31
0.0
  0
LINE
  5
4A63
100
AcDbEntity
  8
外形
  6
CONTINUOUS
100
AcDbLine
 10
-1148.781547
 20
689.443363
 30
0.0
 11
-1149.585306
 21
688.800756
 31
0.0
  0
ARC
  5
4A65
100
AcDbEntity
  8
外形
  6
CONTINUOUS
100
AcDbCircle
 10
-1147.867907
 20
697.006184
 30
0.0
 40
2.375902
100
AcDbArc
 50
297.107347
 51
343.889936
  0
LINE
  5
4A67
100
AcDbEntity
  8
外形
  6
CONTINUOUS
100
AcDbLine
 10
-1152.765306
 20
696.893173
 30
0.0
 11
-1149.585306
 21
696.352305
 31
0.0
  0
LINE
  5
4A68
100
AcDbEntity
  8
外形
  6
CONTINUOUS
100
AcDbLine
 10
-1149.085306
 20
705.196911
 30
0.0
 11
-1150.856363
 21
705.196911
 31
0.0
  0
ARC
  5
4A69
100
AcDbEntity
  8
外形
  6
CONTINUOUS
100
AcDbCircle
 10
-1149.362946
 20
700.194134
 30
0.0
 40
5.215605
100
AcDbArc
 50
179.969494
 51
229.28156
  0
ARC
  5
4A6C
100
AcDbEntity
  8
外形
  6
CONTINUOUS
100
AcDbCircle
 10
-1150.021858
 20
698.133463
 30
0.0
 40
14.569989
100
AcDbArc
 50
88.283021
 51
181.716979
  0
ARC
  5
4A6E
100
AcDbEntity
  8
外形
  6
CONTINUOUS
100
AcDbCircle
 10
-1149.79688
 20
699.315341
 30
0.0
 40
14.876722
100
AcDbArc
 50
186.245537
 51
258.490236
  0
LINE
  5
4A70
100
AcDbEntity
  8
外形
  6
CONTINUOUS
100
AcDbLine
 10
-1149.085306
 20
705.196911
 30
0.0
 11
-1149.085306
 21
700.196911
 31
0.0
  0
LINE
  5
4A74
100
AcDbEntity
  8
外形
  6
CONTINUOUS
100
AcDbLine
 10
-1148.085306
 20
708.152761
 30
0.0
 11
-1148.303701
 21
700.196911
 31
0.0
  0
LINE
  5
4A75
100
AcDbEntity
  8
外形
  6
CONTINUOUS
100
AcDbLine
 10
-1148.585306
 20
707.696911
 30
0.0
 11
-1148.085306
 21
708.043857
 31
0.0
  0
LINE
  5
4A78
100
AcDbEntity
  8
外形
  6
CONTINUOUS
100
AcDbLine
 10
-1148.085306
 20
708.152761
 30
0.0
 11
-1145.085306
 21
711.858815
 31
0.0
  0
LINE
  5
4A79
100
AcDbEntity
  8
外形
  6
CONTINUOUS
100
AcDbLine
 10
-1145.988356
 20
701.151524
 30
0.0
 11
-1145.585306
 21
696.756856
 31
0.0
  0
LINE
  5
4A7C
100
AcDbEntity
  8
外形
  6
CONTINUOUS
100
AcDbLine
 10
-1143.603561
 20
696.346911
 30
0.0
 11
-1145.585306
 21
696.346911
 31
0.0
  0
LINE
  5
4A7D
100
AcDbEntity
  8
外形
  6
CENTER
 62
     1
100
AcDbLine
 10
-1170.262027
 20
696.346911
 30
0.0
 11
-1170.406574
 21
696.346911
 31
0.0
  0
ARC
  5
4A7E
100
AcDbEntity
  8
外形
  6
CONTINUOUS
100
AcDbCircle
 10
-1148.81333
 20
700.434084
 30
0.0
 40
6.621683
100
AcDbArc
 50
321.885077
 51
349.341113
  0
LINE
  5
4A81
100
AcDbEntity
  8
外形
  6
CONTINUOUS
100
AcDbLine
 10
-1142.41294
 20
700.196911
 30
0.0
 11
-1145.900805
 21
700.196911
 31
0.0
  0
LINE
  5
4A82
100
AcDbEntity
  8
外形
  6
CENTER
 62
     1
100
AcDbLine
 10
-1146.189565
 20
700.196911
 30
0.0
 11
-1170.406574
 21
700.196911
 31
0.0
  0
LINE
  5
4A84
100
AcDbEntity
  8
外形
  6
CONTINUOUS
100
AcDbLine
 10
-1142.502821
 20
699.044286
 30
0.0
 11
-1145.795094
 21
699.044286
 31
0.0
  0
ARC
  5
4A87
100
AcDbEntity
  8
外形
  6
CONTINUOUS
100
AcDbCircle
 10
-1149.071947
 20
700.410466
 30
0.0
 40
6.871836
100
AcDbArc
 50
349.933477
 51
356.446233
  0
LINE
  5
4A88
100
AcDbEntity
  8
外形
  6
CONTINUOUS
100
AcDbLine
 10
-1145.348826
 20
701.699475
 30
0.0
 11
-1144.663223
 21
702.213324
 31
0.0
  0
LINE
  5
4A89
100
AcDbEntity
  8
外形
  6
CONTINUOUS
100
AcDbLine
 10
-1149.028001
 20
699.572092
 30
0.0
 11
-1147.820817
 21
700.613473
 31
0.0
  0
LINE
  5
4A8B
100
AcDbEntity
  8
外形
  6
CONTINUOUS
100
AcDbLine
 10
-1147.386503
 20
700.568487
 30
0.0
 11
-1147.359368
 21
700.532983
 31
0.0
  0
ARC
  5
4AA0
100
AcDbEntity
  8
外形
  6
CONTINUOUS
100
AcDbCircle
 10
-1147.624859
 20
700.386315
 30
0.0
 40
0.3
100
AcDbArc
 50
37.3901
 51
130.78279
  0
ARC
  5
4AA2
100
AcDbEntity
  8
外形
  6
CONTINUOUS
100
AcDbCircle
 10
-1147.04156
 20
700.775878
 30
0.0
 40
0.4
100
AcDbArc
 50
217.3901
 51
310.590052
  0
ARC
  5
4AA3
100
AcDbEntity
  8
外形
  6
CONTINUOUS
100
AcDbCircle
 10
-1147.867907
 20
691.837875
 30
0.0
 40
2.375902
100
AcDbArc
 50
297.107347
 51
343.889936
  0
ARC
  5
4AA4
100
AcDbEntity
  8
外形
  6
CONTINUOUS
100
AcDbCircle
 10
-1142.41294
 20
699.996911
 30
0.0
 40
0.2
100
AcDbArc
 50
356.446233
 51
90.0
  0
ARC
  5
4AA5
100
AcDbEntity
  8
外形
  6
CONTINUOUS
100
AcDbCircle
 10
-1142.502821
 20
699.244286
 30
0.0
 40
0.2
100
AcDbArc
 50
270.0
 51
349.933477
  0
LINE
  5
4AB1
100
AcDbEntity
  8
外形
  6
CONTINUOUS
100
AcDbLine
 10
-1029.955742
 20
614.692657
 30
0.0
 11
-1029.955742
 21
595.602882
 31
0.0
  0
LINE
  5
4AB2
100
AcDbEntity
  8
外形
  6
CONTINUOUS
100
AcDbLine
 10
-1029.705742
 20
614.802882
 30
0.0
 11
-1029.705742
 21
595.602882
 31
0.0
  0
ARC
  5
4AD9
100
AcDbEntity
  8
外形
  6
CONTINUOUS
100
AcDbCircle
 10
-1048.983307
 20
665.409294
 30
0.0
 40
54.153794
100
AcDbArc
 50
290.853402
 51
301.230231
  0
LINE
  5
4ADA
100
AcDbEntity
  8
外形
  6
CONTINUOUS
100
AcDbLine
 10
-1045.355742
 20
607.75609
 30
0.0
 11
-1045.355742
 21
598.176864
 31
0.0
  0
LINE
  5
4ADB
100
AcDbEntity
  8
外形
  6
CONTINUOUS
100
AcDbLine
 10
-1045.355742
 20
595.602882
 30
0.0
 11
-1056.255354
 21
592.602882
 31
0.0
  0
LINE
  5
4AFD
100
AcDbEntity
  8
外形
  6
CONTINUOUS
100
AcDbLine
 10
-1056.255354
 20
592.602882
 30
0.0
 11
-1058.705742
 21
592.602882
 31
0.0
  0
LINE
  5
4B2B
100
AcDbEntity
  8
外形
  6
CONTINUOUS
100
AcDbLine
 10
-1061.294288
 20
604.670889
 30
0.0
 11
-1061.294288
 21
602.161339
 31
0.0
  0
LINE
  5
4B3C
100
AcDbEntity
  8
外形
  6
CONTINUOUS
100
AcDbLine
 10
-1054.479268
 20
609.07259
 30
0.0
 11
-1052.598157
 21
608.908009
 31
0.0
  0
LINE
  5
4B3E
100
AcDbEntity
  8
外形
  6
CONTINUOUS
100
AcDbLine
 10
-1046.43171
 20
606.561622
 30
0.0
 11
-1046.708781
 21
603.394784
 31
0.0
  0
LINE
  5
4B3F
100
AcDbEntity
  8
外形
  6
CONTINUOUS
100
AcDbLine
 10
-1045.921681
 20
607.452418
 30
0.0
 11
-1046.708781
 21
603.394784
 31
0.0
  0
LINE
  5
4B44
100
AcDbEntity
  8
外形
  6
CONTINUOUS
100
AcDbLine
 10
-1059.112026
 20
607.67104
 30
0.0
 11
-1058.705742
 21
604.444414
 31
0.0
  0
LINE
  5
4B45
100
AcDbEntity
  8
外形
  6
CONTINUOUS
100
AcDbLine
 10
-1056.725987
 20
608.510777
 30
0.0
 11
-1054.479268
 21
608.287682
 31
0.0
  0
ARC
  5
4B46
100
AcDbEntity
  8
外形
  6
CONTINUOUS
100
AcDbCircle
 10
-1086.192829
 20
668.818488
 30
0.0
 40
67.121642
100
AcDbArc
 50
296.040514
 51
299.014395
  0
ARC
  5
4B9F
100
AcDbEntity
  8
外形
  6
CONTINUOUS
100
AcDbCircle
 10
-1046.236687
 20
606.771047
 30
0.0
 40
0.286169
100
AcDbArc
 50
227.039287
 51
297.866525
  0
ARC
  5
4BA6
100
AcDbEntity
  8
外形
  6
CONTINUOUS
100
AcDbCircle
 10
-1036.768273
 20
614.143147
 30
0.0
 40
1.463427
100
AcDbArc
 50
300.801653
 51
356.11126
  0
ARC
  5
4BA7
100
AcDbEntity
  8
外形
  6
CONTINUOUS
100
AcDbCircle
 10
-1031.571975
 20
588.979471
 30
0.0
 40
26.601564
100
AcDbArc
 50
103.674068
 51
116.205887
  0
ARC
  5
4BA8
100
AcDbEntity
  8
外形
  6
CONTINUOUS
100
AcDbCircle
 10
-1036.596066
 20
612.506024
 30
0.0
 40
0.149501
100
AcDbArc
 50
180.961369
 51
213.719424
  0
LINE
  5
4BA9
100
AcDbEntity
  8
外形
  6
CONTINUOUS
100
AcDbLine
 10
-1044.590747
 20
612.133529
 30
0.0
 11
-1044.590747
 21
611.043429
 31
0.0
  0
LINE
  5
4BAA
100
AcDbEntity
  8
外形
  6
CONTINUOUS
100
AcDbLine
 10
-1041.363047
 20
610.74613
 30
0.0
 11
-1041.363047
 21
609.886551
 31
0.0
  0
LINE
  5
4BAB
100
AcDbEntity
  8
外形
  6
CONTINUOUS
100
AcDbLine
 10
-1049.308547
 20
608.265369
 30
0.0
 11
-1049.308547
 21
606.813321
 31
0.0
  0
LINE
  5
4BAC
100
AcDbEntity
  8
外形
  6
CONTINUOUS
100
AcDbLine
 10
-1048.437767
 20
608.206948
 30
0.0
 11
-1048.437767
 21
606.737135
 31
0.0
  0
LINE
  5
4BAF
100
AcDbEntity
  8
外形
  6
CONTINUOUS
100
AcDbLine
 10
-1053.551647
 20
610.196321
 30
0.0
 11
-1051.867772
 21
610.048997
 31
0.0
  0
ENDSEC
  0
SECTION
  2
OBJECTS
  0
DICTIONARY
  5
1E
100
AcDbDictionary
  3
ACAD_GROUP
350
1C
  3
ACAD_MLINESTYLE
350
1D
  3
ACDBVARIABLEDICTIONARY
350
147A
  3
DRAWINGVARIABLESDICT
350
C58
  0
DICTIONARY
  5
38
100
AcDbDictionary
280
     1
  3
ACAD_XREC_ROUNDTRIP
360
39
  0
DICTIONARY
  5
22
100
AcDbDictionary
280
     1
  3
ACAD_XREC_ROUNDTRIP
360
23
  0
DICTIONARY
  5
3
100
AcDbDictionary
280
     1
  3
ACAD_LAYOUTSELFREF
360
4
  0
DICTIONARY
  5
A
100
AcDbDictionary
280
     1
  3
ACAD_LAYOUTSELFREF
360
B
  0
DICTIONARY
  5
1C
102
{ACAD_REACTORS
330
1E
102
}
100
AcDbDictionary
  0
DICTIONARY
  5
1D
102
{ACAD_REACTORS
330
1E
102
}
100
AcDbDictionary
  3
STANDARD
350
20
  0
DICTIONARY
  5
147A
102
{ACAD_REACTORS
330
1E
102
}
100
AcDbDictionary
  3
SORTENTS
350
147B
  0
DICTIONARY
  5
C58
102
{ACAD_REACTORS
330
1E
102
}
100
AcDbDictionary
1001
DRAWINGVARIABLESXDATA
1000
POLARMODE
1000
0
  0
XRECORD
  5
39
102
{ACAD_REACTORS
330
38
102
}
100
AcDbXrecord
102
PLOTBIT
280
     0
  0
XRECORD
  5
23
102
{ACAD_REACTORS
330
22
102
}
100
AcDbXrecord
102
ACADR14ROUNDTRIP
1000
DSTYLE
1002
{
1070
   341
340
0
1070
   343
340
0
1070
   344
340
0
1002
}
  0
XRECORD
  5
4
102
{ACAD_REACTORS
330
3
102
}
100
AcDbXrecord
340
2
  0
XRECORD
  5
B
102
{ACAD_REACTORS
330
A
102
}
100
AcDbXrecord
340
9
  0
MLINESTYLE
  5
20
102
{ACAD_REACTORS
330
1D
102
}
100
AcDbMlineStyle
  2
STANDARD
 70
     0
  3

 62
     0
 51
90.0
 52
90.0
 71
     2
 49
0.5
 62
   256
  6
BYLAYER
 49
-0.5
 62
   256
  6
BYLAYER
  0
DICTIONARYVAR
  5
147B
102
{ACAD_REACTORS
330
147A
102
}
100
DictionaryVariables
280
     0
  1
96
  0
ENDSEC
  0
EOF
