  0
SECTION
  2
HEADER
  9
$ACADVER
  1
AC1015
  9
$ACADMAINTVER
 70
     6
  9
$DWGCODEPAGE
  3
ANSI_932
  9
$INSBASE
 10
0.0
 20
0.0
 30
0.0
  9
$EXTMIN
 10
-77.14683897949669
 20
-127.0850432398972
 30
-0.0000000000000152
  9
$EXTMAX
 10
258.8585208357713
 20
38.50988954529873
 30
0.0000000000000153
  9
$LIMMIN
 10
0.0
 20
0.0
  9
$LIMMAX
 10
420.0
 20
297.0
  9
$ORTHOMODE
 70
     0
  9
$REGENMODE
 70
     1
  9
$FILLMODE
 70
     1
  9
$QTEXTMODE
 70
     0
  9
$MIRRTEXT
 70
     1
  9
$LTSCALE
 40
1.0
  9
$ATTMODE
 70
     1
  9
$TEXTSIZE
 40
2.5
  9
$TRACEWID
 40
1.0
  9
$TEXTSTYLE
  7
STANDARD
  9
$CLAYER
  8
AM_0
  9
$CELTYPE
  6
ByLayer
  9
$CECOLOR
 62
   256
  9
$CELTSCALE
 40
1.0
  9
$DISPSILH
 70
     0
  9
$DIMSCALE
 40
1.0
  9
$DIMASZ
 40
2.5
  9
$DIMEXO
 40
0.0
  9
$DIMDLI
 40
10.0
  9
$DIMRND
 40
0.0
  9
$DIMDLE
 40
0.0
  9
$DIMEXE
 40
1.0
  9
$DIMTP
 40
0.1
  9
$DIMTM
 40
0.1000000001
  9
$DIMTXT
 40
3.8
  9
$DIMCEN
 40
0.0
  9
$DIMTSZ
 40
0.0
  9
$DIMTOL
 70
     0
  9
$DIMLIM
 70
     0
  9
$DIMTIH
 70
     0
  9
$DIMTOH
 70
     0
  9
$DIMSE1
 70
     0
  9
$DIMSE2
 70
     0
  9
$DIMTAD
 70
     3
  9
$DIMZIN
 70
     1
  9
$DIMBLK
  1
Open30
  9
$DIMASO
 70
     1
  9
$DIMSHO
 70
     1
  9
$DIMPOST
  1

  9
$DIMAPOST
  1
"
  9
$DIMALT
 70
     0
  9
$DIMALTD
 70
     2
  9
$DIMALTF
 40
0.0393701
  9
$DIMLFAC
 40
1.0
  9
$DIMTOFL
 70
     1
  9
$DIMTVP
 40
0.0
  9
$DIMTIX
 70
     0
  9
$DIMSOXD
 70
     0
  9
$DIMSAH
 70
     0
  9
$DIMBLK1
  1

  9
$DIMBLK2
  1

  9
$DIMSTYLE
  2
AM_JIS
  9
$DIMCLRD
 70
   256
  9
$DIMCLRE
 70
   256
  9
$DIMCLRT
 70
     2
  9
$DIMTFAC
 40
0.71
  9
$DIMGAP
 40
1.5
  9
$DIMJUST
 70
     0
  9
$DIMSD1
 70
     0
  9
$DIMSD2
 70
     0
  9
$DIMTOLJ
 70
     0
  9
$DIMTZIN
 70
     8
  9
$DIMALTZ
 70
     0
  9
$DIMALTTZ
 70
     0
  9
$DIMUPT
 70
     0
  9
$DIMDEC
 70
     0
  9
$DIMTDEC
 70
     2
  9
$DIMALTU
 70
     2
  9
$DIMALTTD
 70
     2
  9
$DIMTXSTY
  7
STANDARD
  9
$DIMAUNIT
 70
     1
  9
$DIMADEC
 70
     0
  9
$DIMALTRND
 40
0.0
  9
$DIMAZIN
 70
     2
  9
$DIMDSEP
 70
    46
  9
$DIMATFIT
 70
     3
  9
$DIMFRAC
 70
     0
  9
$DIMLDRBLK
  1
Open30
  9
$DIMLUNIT
 70
     2
  9
$DIMLWD
 70
    -1
  9
$DIMLWE
 70
    -1
  9
$DIMTMOVE
 70
     0
  9
$LUNITS
 70
     2
  9
$LUPREC
 70
     2
  9
$SKETCHINC
 40
1.0
  9
$FILLETRAD
 40
0.8
  9
$AUNITS
 70
     1
  9
$AUPREC
 70
     5
  9
$MENU
  1
.
  9
$ELEVATION
 40
0.0
  9
$PELEVATION
 40
0.0
  9
$THICKNESS
 40
0.0
  9
$LIMCHECK
 70
     0
  9
$CHAMFERA
 40
10.0
  9
$CHAMFERB
 40
10.0
  9
$CHAMFERC
 40
20.0
  9
$CHAMFERD
 40
0.0
  9
$SKPOLY
 70
     0
  9
$TDCREATE
 40
2451943.610431667
  9
$TDUCREATE
 40
2451943.235431667
  9
$TDUPDATE
 40
2455468.574031389
  9
$TDUUPDATE
 40
2455468.199031389
  9
$TDINDWG
 40
1.9603985417
  9
$TDUSRTIMER
 40
1.9603983681
  9
$USRTIMER
 70
     1
  9
$ANGBASE
 50
0.0
  9
$ANGDIR
 70
     0
  9
$PDMODE
 70
     0
  9
$PDSIZE
 40
0.0
  9
$PLINEWID
 40
0.0
  9
$SPLFRAME
 70
     0
  9
$SPLINETYPE
 70
     6
  9
$SPLINESEGS
 70
     8
  9
$HANDSEED
  5
1F5E9
  9
$SURFTAB1
 70
     6
  9
$SURFTAB2
 70
     6
  9
$SURFTYPE
 70
     6
  9
$SURFU
 70
     6
  9
$SURFV
 70
     6
  9
$UCSBASE
  2

  9
$UCSNAME
  2

  9
$UCSORG
 10
0.0
 20
0.0
 30
0.0
  9
$UCSXDIR
 10
1.0
 20
0.0
 30
0.0
  9
$UCSYDIR
 10
0.0
 20
1.0
 30
0.0
  9
$UCSORTHOREF
  2

  9
$UCSORTHOVIEW
 70
     0
  9
$UCSORGTOP
 10
0.0
 20
0.0
 30
0.0
  9
$UCSORGBOTTOM
 10
0.0
 20
0.0
 30
0.0
  9
$UCSORGLEFT
 10
0.0
 20
0.0
 30
0.0
  9
$UCSORGRIGHT
 10
0.0
 20
0.0
 30
0.0
  9
$UCSORGFRONT
 10
0.0
 20
0.0
 30
0.0
  9
$UCSORGBACK
 10
0.0
 20
0.0
 30
0.0
  9
$PUCSBASE
  2

  9
$PUCSNAME
  2

  9
$PUCSORG
 10
0.0
 20
0.0
 30
0.0
  9
$PUCSXDIR
 10
1.0
 20
0.0
 30
0.0
  9
$PUCSYDIR
 10
0.0
 20
1.0
 30
0.0
  9
$PUCSORTHOREF
  2

  9
$PUCSORTHOVIEW
 70
     0
  9
$PUCSORGTOP
 10
0.0
 20
0.0
 30
0.0
  9
$PUCSORGBOTTOM
 10
0.0
 20
0.0
 30
0.0
  9
$PUCSORGLEFT
 10
0.0
 20
0.0
 30
0.0
  9
$PUCSORGRIGHT
 10
0.0
 20
0.0
 30
0.0
  9
$PUCSORGFRONT
 10
0.0
 20
0.0
 30
0.0
  9
$PUCSORGBACK
 10
0.0
 20
0.0
 30
0.0
  9
$USERI1
 70
     0
  9
$USERI2
 70
     0
  9
$USERI3
 70
     0
  9
$USERI4
 70
     0
  9
$USERI5
 70
     0
  9
$USERR1
 40
0.0
  9
$USERR2
 40
0.0
  9
$USERR3
 40
0.0
  9
$USERR4
 40
0.0
  9
$USERR5
 40
0.0
  9
$WORLDVIEW
 70
     1
  9
$SHADEDGE
 70
     3
  9
$SHADEDIF
 70
    70
  9
$TILEMODE
 70
     1
  9
$MAXACTVP
 70
    64
  9
$PINSBASE
 10
0.0
 20
0.0
 30
0.0
  9
$PLIMCHECK
 70
     0
  9
$PEXTMIN
 10
1.000000000000000E+20
 20
1.000000000000000E+20
 30
1.000000000000000E+20
  9
$PEXTMAX
 10
-1.000000000000000E+20
 20
-1.000000000000000E+20
 30
-1.000000000000000E+20
  9
$PLIMMIN
 10
0.0
 20
0.0
  9
$PLIMMAX
 10
420.0
 20
297.0
  9
$UNITMODE
 70
     0
  9
$VISRETAIN
 70
     1
  9
$PLINEGEN
 70
     0
  9
$PSLTSCALE
 70
     1
  9
$TREEDEPTH
 70
  3020
  9
$CMLSTYLE
  2
Standard
  9
$CMLJUST
 70
     0
  9
$CMLSCALE
 40
20.0
  9
$PROXYGRAPHICS
 70
     1
  9
$MEASUREMENT
 70
     1
  9
$CELWEIGHT
370
    -1
  9
$ENDCAPS
280
     0
  9
$JOINSTYLE
280
     0
  9
$LWDISPLAY
290
     0
  9
$INSUNITS
 70
     4
  9
$HYPERLINKBASE
  1

  9
$STYLESHEET
  1
sei_cad.ctb
  9
$XEDIT
290
     1
  9
$CEPSNTYPE
380
     0
  9
$PSTYLEMODE
290
     1
  9
$FINGERPRINTGUID
  2
{C77AB3BE-9CA2-11D3-BAF3-006094EB760E}
  9
$VERSIONGUID
  2
{3F48EF27-8A7A-4DC2-96AE-E467178B784B}
  9
$EXTNAMES
290
     1
  9
$PSVPSCALE
 40
0.0
  9
$OLESTARTUP
290
     0
  0
ENDSEC
  0
SECTION
  2
CLASSES
  0
CLASS
  1
ACDBDICTIONARYWDFLT
  2
AcDbDictionaryWithDefault
  3
ObjectDBX Classes
 90
        0
280
     0
281
     0
  0
CLASS
  1
ACDBPLACEHOLDER
  2
AcDbPlaceHolder
  3
ObjectDBX Classes
 90
        0
280
     0
281
     0
  0
CLASS
  1
LAYOUT
  2
AcDbLayout
  3
ObjectDBX Classes
 90
        0
280
     0
281
     0
  0
CLASS
  1
ACME_DOCUMENT
  2
AcMeDbDoc
  3
AcMeServices
 90
        0
280
     1
281
     0
  0
CLASS
  1
ACMESCOPE
  2
AcMeScope
  3
AcMeServices
 90
        0
280
     1
281
     0
  0
CLASS
  1
ACMECOMMANDHISTORY
  2
AcMeCommandHistory
  3
AcMeServices
 90
        0
280
     1
281
     0
  0
CLASS
  1
DICTIONARYVAR
  2
AcDbDictionaryVar
  3
ObjectDBX Classes
 90
        0
280
     0
281
     0
  0
CLASS
  1
ACIMSYSVARMAN
  2
AcImSysVarManager
  3
AcMeServices
 90
        0
280
     1
281
     0
  0
CLASS
  1
ACIMREALSYSVAR
  2
AcImRealSysVar
  3
AcMeServices
 90
        0
280
     1
281
     0
  0
CLASS
  1
ACIMINTSYSVAR
  2
AcImIntSysVar
  3
AcMeServices
 90
        0
280
     1
281
     0
  0
CLASS
  1
ACMEDRAWINGMAN
  2
AcMeDrawingMan
  3
AcMeServices
 90
        0
280
     1
281
     0
  0
CLASS
  1
ACMEVIEW
  2
AcMeView
  3
AcMeServices
 90
        0
280
     1
281
     0
  0
CLASS
  1
ACDBENTITYCACHE
  2
AcMeEntityCache
  3
AcMeServices
 90
        0
280
     1
281
     0
  0
CLASS
  1
GSMANAGER
  2
AcMeGSManager
  3
AcMeServices
 90
        0
280
     1
281
     0
  0
CLASS
  1
AMDTINTERNALREACTOR
  2
AmdtInternalReactor
  3
AcMeServices
 90
        0
280
     1
281
     0
  0
CLASS
  1
ACMESTATEMGR
  2
AcMeStateMgr
  3
AcMeServices
 90
        0
280
     1
281
     0
  0
CLASS
  1
ACME_DATABASE
  2
AcMeDbDatabase
  3
AcMeServices
 90
        0
280
     1
281
     0
  0
CLASS
  1
ACRFINSADJUSTERMGR
  2
AcRfInsAdjusterMgr
  3
AcMeServices
 90
        0
280
     1
281
     0
  0
CLASS
  1
AMGSETTINGSOBJ
  2
AmgSettingsObj
  3
"AcadM|Product Description: AutoCAD Mechanical 2000|Company: Autodesk"
 90
        0
280
     1
281
     0
  0
CLASS
  1
AMGOBJPROPCFG
  2
AmgObjPropCfg
  3
"AmgLay|Product Description: AutoCAD Mechanical 2000|Company: Autodesk"
 90
        1
280
     1
281
     0
  0
CLASS
  1
ACMDATADICTIONARY
  2
AcmDataDictionary
  3
"AcmSymBB|Product Description: AutoCAD Mechanical 2004 DX|Company: Autodesk"
 90
        0
280
     1
281
     0
  0
CLASS
  1
ACMDATAENTRYBLOCK
  2
AcmDataEntryBlock
  3
"AcmSymBB|Product Description: AutoCAD Mechanical 2004 DX|Company: Autodesk"
 90
        0
280
     1
281
     0
  0
CLASS
  1
ACIMSTRSYSVAR
  2
AcImStrSysVar
  3
AcMeServices
 90
        0
280
     1
281
     0
  0
CLASS
  1
ACAMGFILTERDAT
  2
AcAmgFilterDat
  3
"AcadM|Product Description: AutoCAD Mechanical 2000|Company: Autodesk"
 90
        0
280
     1
281
     0
  0
CLASS
  1
LAYER_INDEX
  2
AcDbLayerIndex
  3
ObjectDBX Classes
 90
        0
280
     0
281
     0
  0
CLASS
  1
IDBUFFER
  2
AcDbIdBuffer
  3
ObjectDBX Classes
 90
        0
280
     0
281
     0
  0
CLASS
  1
ACMSTANDARDJIS
  2
AcmStandardJIS
  3
"Amdt_StdImp|Product Description: AutoCAD Mechanical 2004 DX|Company: Autodesk"
 90
        0
280
     1
281
     0
  0
CLASS
  1
ACMSURFSTANDARDJIS
  2
AcmSurfTextStdJIS
  3
"Amdt_StdImp|Product Description: AutoCAD Mechanical 2004 DX|Company: Autodesk"
 90
        0
280
     1
281
     0
  0
CLASS
  1
ACMFCFSTANDARDJIS
  2
AcmFCFStdJIS
  3
"Amdt_StdImp|Product Description: AutoCAD Mechanical 2004 DX|Company: Autodesk"
 90
        0
280
     1
281
     0
  0
CLASS
  1
ACMWELDSTANDARDJIS
  2
AcmWeldingStdJIS
  3
"Amdt_StdImp|Product Description: AutoCAD Mechanical 2004 DX|Company: Autodesk"
 90
        0
280
     1
281
     0
  0
CLASS
  1
ACMIDSTANDARDJIS
  2
AcmIdStdJIS
  3
"Amdt_StdImp|Product Description: AutoCAD Mechanical 2004 DX|Company: Autodesk"
 90
        0
280
     1
281
     0
  0
CLASS
  1
ACMDATUMSTANDARDJIS
  2
AcmDatumStdJIS
  3
"Amdt_StdImp|Product Description: AutoCAD Mechanical 2004 DX|Company: Autodesk"
 90
        0
280
     1
281
     0
  0
CLASS
  1
ACMBOMSTANDARDJIS
  2
AcmBOMStdJIS
  3
"Amdt_StdImp|Product Description: AutoCAD Mechanical 2004 DX|Company: Autodesk"
 90
        0
280
     1
281
     0
  0
CLASS
  1
AMDTNOTE
  2
AmdtNote
  3
"AcmSymBB|Product Description: AutoCAD Mechanical 2004 DX|Company: Autodesk"
 90
     1023
280
     1
281
     1
  0
CLASS
  1
TABLESTYLE
  2
AcDbTableStyle
  3
ObjectDBX Classes
 90
     2047
280
     0
281
     0
  0
CLASS
  1
ACGREFMASTER
  2
AcGrefMaster
  3
AcAttribServices
 90
        0
280
     1
281
     0
  0
CLASS
  1
AM_DRAWING_MGR
  2
AcDmDwgMgr
  3
AcMechDwgViewMgmt
 90
        0
280
     1
281
     0
  0
CLASS
  1
AM_DWG_DOCUMENT
  2
AcDmDwgDocument
  3
AcMechDwgViewMgmt
 90
        0
280
     1
281
     0
  0
CLASS
  1
AM_DWG_SHEET
  2
AcDmSheet
  3
AcMechDwgViewMgmt
 90
        0
280
     1
281
     0
  0
CLASS
  1
AM_VIEWDIMPARMAP
  2
AcDmViewDimParMap
  3
AcMechDwgViewMgmt
 90
        0
280
     1
281
     0
  0
CLASS
  1
AM_DWGMGR_NAME
  2
AcDmDwgMgrName
  3
AcMechDwgViewMgmt
 90
        0
280
     1
281
     0
  0
CLASS
  1
ACGREFACADMASTER
  2
AcGrefacadMaster
  3
AcGrefServices
 90
        0
280
     1
281
     0
  0
CLASS
  1
AMDTMENUSTATEMGR
  2
AmdtMenuStateMgr
  3
McadcomServices
 90
        0
280
     1
281
     0
  0
CLASS
  1
AMDTMCOMMENUSTATE
  2
AmdtMcomMenuState
  3
McadcomServices
 90
        0
280
     1
281
     0
  0
CLASS
  1
AMIMASTER
  2
AmiMaster
  3
AmiServices
 90
        0
280
     1
281
     0
  0
CLASS
  1
MAPIAMMOUDLE
  2
MApiAmModule
  3
MApiAmServices
 90
        0
280
     1
281
     0
  0
CLASS
  1
AMDTADMENUSTATE
  2
AmdtAdMenuState
  3
DesignerServices
 90
        0
280
     1
281
     0
  0
CLASS
  1
ADAPPL
  2
AcAdAppl
  3
DesignerServices
 90
        0
280
     1
281
     0
  0
CLASS
  1
DEPMGR
  2
AcAdDepMgr
  3
DesignerServices
 90
        0
280
     1
281
     0
  0
CLASS
  1
PARAMMGR
  2
AcAdParamMgr
  3
DesignerServices
 90
        0
280
     1
281
     0
  0
CLASS
  1
PARAMSCOPE
  2
AcAdParamScope
  3
DesignerServices
 90
        0
280
     1
281
     0
  0
CLASS
  1
NAMEDAPPL
  2
AcAdNamedAppl
  3
DesignerServices
 90
        0
280
     1
281
     0
  0
CLASS
  1
AMDTDMMENUSTATE
  2
AmdtDmMenuState
  3
AcMechDwgViewMgmt
 90
        0
280
     1
281
     0
  0
CLASS
  1
AMDTAMMENUSTATE
  2
AmdtAmMenuState
  3
DesignerAssemblies
 90
        0
280
     1
281
     0
  0
CLASS
  1
ACAMPROJECT
  2
AcAmProject
  3
DesignerAssemblies
 90
        0
280
     1
281
     0
  0
CLASS
  1
ACAMGRCOMPDEF
  2
AcAmGrCompDef
  3
DesignerAssemblies
 90
        0
280
     1
281
     0
  0
CLASS
  1
ACCMCONTEXT
  2
AcCmContext
  3
DesignerAssemblies
 90
        0
280
     1
281
     0
  0
CLASS
  1
ACAMCOMPDEF
  2
AcAmCompDef
  3
DesignerAssemblies
 90
        0
280
     1
281
     0
  0
CLASS
  1
ACAMCOMPDEFMGR
  2
AcAmCompDefMgr
  3
DesignerAssemblies
 90
        0
280
     1
281
     0
  0
CLASS
  1
AMCONTEXTMGR
  2
AcAmContextMgr
  3
DesignerAssemblies
 90
        0
280
     1
281
     0
  0
CLASS
  1
ACAMCONTEXTMODELER
  2
AcAmContextModeler
  3
DesignerAssemblies
 90
        0
280
     1
281
     0
  0
CLASS
  1
ACAMGTITLESTD
  2
AcAmgTitleStd
  3
"TITLEAPP"
 90
        0
280
     1
281
     0
  0
CLASS
  1
ACMDETAILSTANDARDJIS
  2
AmdtDetailSymStdJIS
  3
"Amdt_StdImp|Product Description: AutoCAD Mechanical 2004 DX|Company: Autodesk"
 90
        0
280
     1
281
     0
  0
CLASS
  1
ACMSECTIONSTANDARDJIS
  2
AmdtSectionSymStdJIS
  3
"Amdt_StdImp|Product Description: AutoCAD Mechanical 2004 DX|Company: Autodesk"
 90
        0
280
     1
281
     0
  0
CLASS
  1
ACMCENTERLINESTANDARDJIS
  2
AmdtCenterLineStdJIS
  3
"Amdt_StdImp|Product Description: AutoCAD Mechanical 2004 DX|Company: Autodesk"
 90
        0
280
     1
281
     0
  0
CLASS
  1
ACMTHREADLINESTANDARDJIS
  2
AmdtThreadLineStdJIS
  3
"Amdt_StdImp|Product Description: AutoCAD Mechanical 2004 DX|Company: Autodesk"
 90
        0
280
     1
281
     0
  0
CLASS
  1
ACMNOTESTANDARDJIS
  2
AmdtNoteStdJIS
  3
"Amdt_StdImp|Product Description: AutoCAD Mechanical 2004 DX|Company: Autodesk"
 90
        0
280
     1
281
     0
  0
CLASS
  1
AMDTNOTETEMPLATEDB
  2
AmdtNoteTemplateDB
  3
AMDT_STDIMP_MODULE_NAME
 90
        0
280
     1
281
     0
  0
CLASS
  1
ACAMGLAYSTD
  2
AcAmgLayStd
  3
"AcAmgLayStd|Product Description: AutoCAD Mechanical 2000|Company: Autodesk"
 90
        0
280
     1
281
     0
  0
CLASS
  1
ACAMGDIMSTD
  2
AcAmgDimStd
  3
"AcAmgDimStd|Product Description: AutoCAD Mechanical 2000|Company: Autodesk"
 90
        0
280
     1
281
     0
  0
CLASS
  1
ACAMGHOLECHARTSTDJIS
  2
AcAmgHoleChartStdJIS
  3
ACMSYMBB_MODULE_NAME
 90
        0
280
     1
281
     0
  0
CLASS
  1
CATALOGSTATE
  2
AcAmCatalogState
  3
DesignerAssemblies
 90
        0
280
     1
281
     0
  0
CLASS
  1
ACAMGRCOMPDEFSET
  2
AcAmGrCompDefSet
  3
DesignerAssemblies
 90
        0
280
     1
281
     0
  0
CLASS
  1
AMDTBROWSERDBTAB
  2
AmdtBrowserDbTab
  3
McadcomServices
 90
        0
280
     1
281
     0
  0
CLASS
  1
CBROWSERAPPOBJECT
  2
CBrowserAppObject
  3
McadcomServices
 90
        0
280
     1
281
     0
  0
CLASS
  1
DM_PLACEHOLDER
  2
AcDmSelsetPlaceholder
  3
AcMechDwgViewMgmt
 90
        0
280
     1
281
     0
  0
CLASS
  1
SORTENTSTABLE
  2
AcDbSortentsTable
  3
ObjectDBX Classes
 90
        0
280
     0
281
     0
  0
CLASS
  1
ACMSTANDARDISO
  2
AcmStandardISO
  3
"Amdt_StdImp|Product Description: AutoCAD Mechanical 2004 DX|Company: Autodesk"
 90
        0
280
     1
281
     0
  0
CLASS
  1
AMDTEDGESTANDARDISO13715
  2
AmdtEdgeStdISO13715
  3
"Amdt_StdImp|Product Description: AutoCAD Mechanical 2004 DX|Company: Autodesk"
 90
        0
280
     1
281
     0
  0
CLASS
  1
ACMSURFSTANDARDISO
  2
AcmSurfTextStdISO
  3
"Amdt_StdImp|Product Description: AutoCAD Mechanical 2004 DX|Company: Autodesk"
 90
        0
280
     1
281
     0
  0
CLASS
  1
ACMFCFSTANDARDISO
  2
AcmFCFStdISO
  3
"Amdt_StdImp|Product Description: AutoCAD Mechanical 2004 DX|Company: Autodesk"
 90
        0
280
     1
281
     0
  0
CLASS
  1
ACMWELDSTANDARDISO
  2
AcmWeldingStdISO
  3
"Amdt_StdImp|Product Description: AutoCAD Mechanical 2004 DX|Company: Autodesk"
 90
        0
280
     1
281
     0
  0
CLASS
  1
ACMIDSTANDARDISO
  2
AcmIdStdISO
  3
"Amdt_StdImp|Product Description: AutoCAD Mechanical 2004 DX|Company: Autodesk"
 90
        0
280
     1
281
     0
  0
CLASS
  1
ACMDATUMSTANDARDISO
  2
AcmDatumStdISO
  3
"Amdt_StdImp|Product Description: AutoCAD Mechanical 2004 DX|Company: Autodesk"
 90
        0
280
     1
281
     0
  0
CLASS
  1
ACMBOMSTANDARDISO
  2
AcmBOMStdISO
  3
"Amdt_StdImp|Product Description: AutoCAD Mechanical 2004 DX|Company: Autodesk"
 90
        0
280
     1
281
     0
  0
CLASS
  1
ACMDETAILSTANDARDISO
  2
AmdtDetailSymStdISO
  3
"Amdt_StdImp|Product Description: AutoCAD Mechanical 2004 DX|Company: Autodesk"
 90
        0
280
     1
281
     0
  0
CLASS
  1
ACMSECTIONSTANDARDISO
  2
AmdtSectionSymStdISO
  3
"Amdt_StdImp|Product Description: AutoCAD Mechanical 2004 DX|Company: Autodesk"
 90
        0
280
     1
281
     0
  0
CLASS
  1
ACMCENTERLINESTANDARDISO
  2
AmdtCenterLineStdISO
  3
"Amdt_StdImp|Product Description: AutoCAD Mechanical 2004 DX|Company: Autodesk"
 90
        0
280
     1
281
     0
  0
CLASS
  1
ACMTHREADLINESTANDARDISO
  2
AmdtThreadLineStdISO
  3
"Amdt_StdImp|Product Description: AutoCAD Mechanical 2004 DX|Company: Autodesk"
 90
        0
280
     1
281
     0
  0
CLASS
  1
ACMNOTESTANDARDISO
  2
AmdtNoteStdISO
  3
"Amdt_StdImp|Product Description: AutoCAD Mechanical 2004 DX|Company: Autodesk"
 90
        0
280
     1
281
     0
  0
CLASS
  1
ACAMGHOLECHARTSTDISO
  2
AcAmgHoleChartStdISO
  3
ACMSYMBB_MODULE_NAME
 90
        0
280
     1
281
     0
  0
CLASS
  1
AMDTFORMULAUPDATEDISPATCHER
  2
AmdtFormulaUpdateDispatcher
  3
AcMeServices
 90
        0
280
     1
281
     0
  0
CLASS
  1
DIMASSOC
  2
AcDbDimAssoc
  3
"AcDbDimAssoc|Product Desc:     AcDim ARX App For Dimension|Company:          Autodesk, Inc.|WEB Address:      www.autodesk.com"
 90
        0
280
     0
281
     0
  0
ENDSEC
  0
SECTION
  2
TABLES
  0
TABLE
  2
VPORT
  5
8
330
0
100
AcDbSymbolTable
 70
    14
  0
VPORT
  5
1F5E2
330
8
100
AcDbSymbolTableRecord
100
AcDbViewportTableRecord
  2
*Active
 70
     0
 10
0.0
 20
0.0
 11
1.0
 21
1.0
 12
90.8558409281373
 22
-44.28757684729925
 13
0.0
 23
0.0
 14
2.5
 24
2.5
 15
10.0
 25
10.0
 16
0.0
 26
0.0
 36
1.0
 17
0.0
 27
0.0
 37
0.0
 40
199.0206731394112
 41
1.697058823529412
 42
50.0
 43
0.0
 44
0.0
 50
0.0
 51
0.0
 71
    16
 72
 20000
 73
     1
 74
     3
 75
     0
 76
     0
 77
     0
 78
     0
281
     0
 65
     1
110
0.0
120
0.0
130
0.0
111
1.0
121
0.0
131
0.0
112
0.0
122
1.0
132
0.0
 79
     0
146
0.0
  0
ENDTAB
  0
TABLE
  2
LTYPE
  5
5
330
0
100
AcDbSymbolTable
 70
    17
  0
LTYPE
  5
14
330
5
100
AcDbSymbolTableRecord
100
AcDbLinetypeTableRecord
  2
ByBlock
 70
     0
  3

 72
    65
 73
     0
 40
0.0
  0
LTYPE
  5
15
330
5
100
AcDbSymbolTableRecord
100
AcDbLinetypeTableRecord
  2
ByLayer
 70
     0
  3

 72
    65
 73
     0
 40
0.0
  0
LTYPE
  5
16
330
5
100
AcDbSymbolTableRecord
100
AcDbLinetypeTableRecord
  2
Continuous
 70
     0
  3
Solid line
 72
    65
 73
     0
 40
0.0
  0
LTYPE
  5
43
330
5
100
AcDbSymbolTableRecord
100
AcDbLinetypeTableRecord
  2
AM_ISO02W050
 70
     0
  3
__ __ __ __ __ __ __ __ __ __ __ __ __ __ __
 72
    65
 73
     2
 40
7.5
 49
6.0
 74
     0
 49
-1.5
 74
     0
  0
LTYPE
  5
44
330
5
100
AcDbSymbolTableRecord
100
AcDbLinetypeTableRecord
  2
AM_ISO08W050
 70
     0
  3
____ . ____ . ____ . ____ . ____ . ____ . ____
 72
    65
 73
     4
 40
18.0
 49
12.0
 74
     0
 49
-1.5
 74
     0
 49
3.0
 74
     0
 49
-1.5
 74
     0
  0
LTYPE
  5
45
330
5
100
AcDbSymbolTableRecord
100
AcDbLinetypeTableRecord
  2
AM_ISO09W050
 70
     0
  3
_____ . . _____ . . _____ . . ____ .. ____
 72
    65
 73
     6
 40
22.5
 49
12.0
 74
     0
 49
-1.5
 74
     0
 49
3.0
 74
     0
 49
-1.5
 74
     0
 49
3.0
 74
     0
 49
-1.5
 74
     0
  0
LTYPE
  5
46
330
5
100
AcDbSymbolTableRecord
100
AcDbLinetypeTableRecord
  2
Amconstr
 70
     0
  3
_______________________
 72
    65
 73
     2
 40
9999.0
 49
9999.0
 74
     0
 49
0.0
 74
     0
  0
LTYPE
  5
47
330
5
100
AcDbSymbolTableRecord
100
AcDbLinetypeTableRecord
  2
AM_ISO02W050x2
 70
     0
  3
 _ _ _ _ _ _ _ _ _ _ _ _
 72
    65
 73
     2
 40
3.75
 49
3.0
 74
     0
 49
-0.75
 74
     0
  0
LTYPE
  5
48
330
5
100
AcDbSymbolTableRecord
100
AcDbLinetypeTableRecord
  2
AM_ISO08W050x2
 70
     0
  3
__ . __ . __ . __ . __ . __
 72
    65
 73
     4
 40
9.0
 49
6.0
 74
     0
 49
-0.75
 74
     0
 49
1.5
 74
     0
 49
-0.75
 74
     0
  0
LTYPE
  5
4B
330
5
100
AcDbSymbolTableRecord
100
AcDbLinetypeTableRecord
  2
Amzigzag
 70
     0
  3
/\/-/\/-/\/-/\/-/\/-/\/
 72
    65
 73
     2
 40
11.0001
 49
0.0001
 74
     4
 75
   135
340
4A
 46
0.04
 50
0.0
 44
0.0
 45
0.0
 49
-11.0
 74
     0
  0
LTYPE
  5
188
330
5
100
AcDbSymbolTableRecord
100
AcDbLinetypeTableRecord
  2
ACJISTGB
 70
     0
  3
__ . . __ . .
 72
    65
 73
     6
 40
9.0
 49
4.0
 74
     0
 49
-1.0
 74
     0
 49
1.0
 74
     0
 49
-1.0
 74
     0
 49
1.0
 74
     0
 49
-1.0
 74
     0
  0
LTYPE
  5
189
330
5
100
AcDbSymbolTableRecord
100
AcDbLinetypeTableRecord
  2
ACJISTGL
 70
     0
  3
_ _ _ _ _
 72
    65
 73
     2
 40
3.0
 49
2.0
 74
     0
 49
-1.0
 74
     0
  0
LTYPE
  5
652
330
5
100
AcDbSymbolTableRecord
100
AcDbLinetypeTableRecord
  2
CENTER
 70
     0
  3
____ _ ____ _ ____ _ ____ _ ____ _ ____ _ ____
 72
    65
 73
     4
 40
17.5
 49
13.0
 74
     0
 49
-1.5
 74
     0
 49
1.5
 74
     0
 49
-1.5
 74
     0
  0
LTYPE
  5
12AB
330
5
100
AcDbSymbolTableRecord
100
AcDbLinetypeTableRecord
  2
HIDDEN
 70
     0
  3
Hidden __ __ __ __ __ __ __ __ __ __ __ __ __ _
 72
    65
 73
     2
 40
0.375
 49
0.25
 74
     0
 49
-0.125
 74
     0
  0
LTYPE
  5
12AC
330
5
100
AcDbSymbolTableRecord
100
AcDbLinetypeTableRecord
  2
PHANTOM2
 70
     0
  3
Phantom (.5x) ___ _ _ ___ _ _ ___ _ _ ___ _ _
 72
    65
 73
     6
 40
1.25
 49
0.625
 74
     0
 49
-0.125
 74
     0
 49
0.125
 74
     0
 49
-0.125
 74
     0
 49
0.125
 74
     0
 49
-0.125
 74
     0
  0
LTYPE
  5
F5A5
330
5
100
AcDbSymbolTableRecord
100
AcDbLinetypeTableRecord
  2
ACISOWELD
 70
     0
  3
_ _ _ _ _
 72
    65
 73
     2
 40
2.0
 49
2.0
 74
     0
 49
-1.0
 74
     0
  0
LTYPE
  5
F5A6
330
5
100
AcDbSymbolTableRecord
100
AcDbLinetypeTableRecord
  2
ACISOTGB
 70
     0
  3
__ . . __ . .
 72
    65
 73
     6
 40
9.0
 49
4.0
 74
     0
 49
-1.0
 74
     0
 49
1.0
 74
     0
 49
-1.0
 74
     0
 49
1.0
 74
     0
 49
-1.0
 74
     0
  0
LTYPE
  5
F5A7
330
5
100
AcDbSymbolTableRecord
100
AcDbLinetypeTableRecord
  2
ACISOTGL
 70
     0
  3
_ _ _ _ _
 72
    65
 73
     2
 40
3.0
 49
2.0
 74
     0
 49
-1.0
 74
     0
  0
ENDTAB
  0
TABLE
  2
LAYER
  5
2
102
{ACAD_XDICTIONARY
360
EDC8
102
}
330
0
100
AcDbSymbolTable
 70
    11
  0
LAYER
  5
10
330
2
100
AcDbSymbolTableRecord
100
AcDbLayerTableRecord
  2
0
 70
     0
 62
     7
  6
Continuous
370
    -3
390
F
  0
LAYER
  5
7D
330
2
100
AcDbSymbolTableRecord
100
AcDbLayerTableRecord
  2
AM_5
 70
     0
 62
     3
  6
Continuous
370
    13
390
F
  0
LAYER
  5
7F
330
2
100
AcDbSymbolTableRecord
100
AcDbLayerTableRecord
  2
Defpoints
 70
     0
 62
     7
  6
Continuous
290
     0
370
    -3
390
F
  0
LAYER
  5
12B1
330
2
100
AcDbSymbolTableRecord
100
AcDbLayerTableRecord
  2
AM_0
 70
     0
 62
     7
  6
Continuous
370
    30
390
F
  0
LAYER
  5
18A4
330
2
100
AcDbSymbolTableRecord
100
AcDbLayerTableRecord
  2
AM_7
 70
     0
 62
     4
  6
AM_ISO08W050
370
    13
390
F
  0
LAYER
  5
18A5
330
2
100
AcDbSymbolTableRecord
100
AcDbLayerTableRecord
  2
AM_6
 70
     0
 62
     2
  6
Continuous
370
    30
390
F
  0
ENDTAB
  0
TABLE
  2
STYLE
  5
3
330
0
100
AcDbSymbolTable
 70
     7
  0
STYLE
  5
11
330
3
100
AcDbSymbolTableRecord
100
AcDbTextStyleTableRecord
  2
STANDARD
 70
     0
 40
0.0
 41
1.0
 50
0.0
 71
     0
 42
2.5
  3
ISOCP.SHX
  4
EXTFONT.SHX
  0
STYLE
  5
4A
330
3
100
AcDbSymbolTableRecord
100
AcDbTextStyleTableRecord
  2

 70
     1
 40
0.0
 41
1.0
 50
0.0
 71
     0
 42
2.5
  3
ltypeshp.shx
  4

  0
STYLE
  5
180
330
3
100
AcDbSymbolTableRecord
100
AcDbTextStyleTableRecord
  2
ACJISTS
 70
     0
 40
1.0
 41
1.0
 50
0.0
 71
     0
 42
2.5
  3
isocp.shx
  4
bigfont.shx
  0
STYLE
  5
187
330
3
100
AcDbSymbolTableRecord
100
AcDbTextStyleTableRecord
  2
ACJISGDT
 70
     0
 40
0.0
 41
1.0
 50
0.0
 71
     0
 42
2.5
  3
amgdt.shx
  4

  0
STYLE
  5
F5A9
330
3
100
AcDbSymbolTableRecord
100
AcDbTextStyleTableRecord
  2
ACISOTS
 70
     0
 40
1.0
 41
1.0
 50
0.0
 71
     0
 42
1.0
  3
isocp.shx
  4
extfont.shx
  0
STYLE
  5
F5AA
330
3
100
AcDbSymbolTableRecord
100
AcDbTextStyleTableRecord
  2
ACISOGDT
 70
     0
 40
0.0
 41
1.0
 50
0.0
 71
     0
 42
1.0
  3
amgdt.shx
  4

  0
ENDTAB
  0
TABLE
  2
VIEW
  5
6
330
0
100
AcDbSymbolTable
 70
     6
  0
VIEW
  5
A30
330
6
100
AcDbSymbolTableRecord
100
AcDbViewTableRecord
  2
AM_VIEW1
 70
     0
 40
148.5
 10
109.5616966580977
 20
222.75
 41
219.1233933161954
 11
0.0
 21
0.0
 31
1.0
 12
0.0
 22
0.0
 32
0.0
 42
50.0
 43
0.0
 44
0.0
 50
0.0
 71
    16
281
     0
 72
     0
  0
VIEW
  5
A31
330
6
100
AcDbSymbolTableRecord
100
AcDbViewTableRecord
  2
AM_VIEW2
 70
     0
 40
148.5
 10
310.4383033419023
 20
222.75
 41
219.1233933161954
 11
0.0
 21
0.0
 31
1.0
 12
0.0
 22
0.0
 32
0.0
 42
50.0
 43
0.0
 44
0.0
 50
0.0
 71
    16
281
     0
 72
     0
  0
VIEW
  5
A32
330
6
100
AcDbSymbolTableRecord
100
AcDbViewTableRecord
  2
AM_VIEW3
 70
     0
 40
148.5
 10
109.5616966580977
 20
74.25
 41
219.1233933161954
 11
0.0
 21
0.0
 31
1.0
 12
0.0
 22
0.0
 32
0.0
 42
50.0
 43
0.0
 44
0.0
 50
0.0
 71
    16
281
     0
 72
     0
  0
VIEW
  5
A33
330
6
100
AcDbSymbolTableRecord
100
AcDbViewTableRecord
  2
AM_VIEW4
 70
     0
 40
148.5
 10
310.4383033419023
 20
74.25
 41
219.1233933161954
 11
0.0
 21
0.0
 31
1.0
 12
0.0
 22
0.0
 32
0.0
 42
50.0
 43
0.0
 44
0.0
 50
0.0
 71
    16
281
     0
 72
     0
  0
VIEW
  5
A34
330
6
100
AcDbSymbolTableRecord
100
AcDbViewTableRecord
  2
AM_VIEW5
 70
     0
 40
148.5
 10
210.0
 20
148.5
 41
219.1233933161954
 11
0.0
 21
0.0
 31
1.0
 12
0.0
 22
0.0
 32
0.0
 42
50.0
 43
0.0
 44
0.0
 50
0.0
 71
    16
281
     0
 72
     0
  0
VIEW
  5
A35
330
6
100
AcDbSymbolTableRecord
100
AcDbViewTableRecord
  2
AM_VIEW6
 70
     0
 40
296.99703
 10
210.0
 20
148.5
 41
438.2424041645245
 11
0.0
 21
0.0
 31
1.0
 12
0.0
 22
0.0
 32
0.0
 42
50.0
 43
0.0
 44
0.0
 50
0.0
 71
    16
281
     0
 72
     0
  0
ENDTAB
  0
TABLE
  2
UCS
  5
7
330
0
100
AcDbSymbolTable
 70
     0
  0
ENDTAB
  0
TABLE
  2
APPID
  5
9
330
0
100
AcDbSymbolTable
 70
    51
  0
APPID
  5
12
330
9
100
AcDbSymbolTableRecord
100
AcDbRegAppTableRecord
  2
ACAD
 70
     0
  0
APPID
  5
2C
330
9
100
AcDbSymbolTableRecord
100
AcDbRegAppTableRecord
  2
MCAD_NO_VIS
 70
     0
  0
APPID
  5
2D
330
9
100
AcDbSymbolTableRecord
100
AcDbRegAppTableRecord
  2
ACAD_TEMP_GRAPHIC
 70
     0
  0
APPID
  5
B9
330
9
100
AcDbSymbolTableRecord
100
AcDbRegAppTableRecord
  2
GENIUS_GENDTOL_13
 70
     0
  0
APPID
  5
359
330
9
100
AcDbSymbolTableRecord
100
AcDbRegAppTableRecord
  2
GENIUS_GENREC_14
 70
     0
  0
APPID
  5
35A
330
9
100
AcDbSymbolTableRecord
100
AcDbRegAppTableRecord
  2
GENIUS_GENODEF_13
 70
     0
  0
APPID
  5
35B
330
9
100
AcDbSymbolTableRecord
100
AcDbRegAppTableRecord
  2
GENIUS_GENOBJ-N-REC_13
 70
     0
  0
APPID
  5
667
330
9
100
AcDbSymbolTableRecord
100
AcDbRegAppTableRecord
  2
GENIUS_GENCFG_13
 70
     0
  0
APPID
  5
668
330
9
100
AcDbSymbolTableRecord
100
AcDbRegAppTableRecord
  2
GENIUS_GENCFG0_13
 70
     0
  0
APPID
  5
669
330
9
100
AcDbSymbolTableRecord
100
AcDbRegAppTableRecord
  2
GENIUS_GENCFG1_13
 70
     0
  0
APPID
  5
66A
330
9
100
AcDbSymbolTableRecord
100
AcDbRegAppTableRecord
  2
GENIUS_GENCFG2_13
 70
     0
  0
APPID
  5
66B
330
9
100
AcDbSymbolTableRecord
100
AcDbRegAppTableRecord
  2
GENIUS_GENCFG3_13
 70
     0
  0
APPID
  5
66C
330
9
100
AcDbSymbolTableRecord
100
AcDbRegAppTableRecord
  2
GENIUS_GENCFG4_13
 70
     0
  0
APPID
  5
A76
330
9
100
AcDbSymbolTableRecord
100
AcDbRegAppTableRecord
  2
GENIUS_GENBLLY_14
 70
     0
  0
APPID
  5
A77
330
9
100
AcDbSymbolTableRecord
100
AcDbRegAppTableRecord
  2
GENIUS_GENOBJ-N-CEN_13
 70
     0
  0
APPID
  5
A83
330
9
100
AcDbSymbolTableRecord
100
AcDbRegAppTableRecord
  2
GENIUS_GENTRA_14
 70
     0
  0
APPID
  5
A8D
330
9
100
AcDbSymbolTableRecord
100
AcDbRegAppTableRecord
  2
GENIUS_GENOBJ-N-TIT_13
 70
     0
  0
APPID
  5
A8E
330
9
100
AcDbSymbolTableRecord
100
AcDbRegAppTableRecord
  2
GENIUS_GENTITLE_13
 70
     0
  0
APPID
  5
A8F
330
9
100
AcDbSymbolTableRecord
100
AcDbRegAppTableRecord
  2
GENIUS_GENOENT_13
 70
     0
  0
APPID
  5
A90
330
9
100
AcDbSymbolTableRecord
100
AcDbRegAppTableRecord
  2
GENIUS_GENOREF_13
 70
     0
  0
APPID
  5
A91
330
9
100
AcDbSymbolTableRecord
100
AcDbRegAppTableRecord
  2
GENIUS_GENOLIS_13
 70
     0
  0
APPID
  5
A92
330
9
100
AcDbSymbolTableRecord
100
AcDbRegAppTableRecord
  2
GENIUS_GENZVEED_13
 70
     0
  0
APPID
  5
A93
330
9
100
AcDbSymbolTableRecord
100
AcDbRegAppTableRecord
  2
GENIUS_GENSCREG_15
 70
     0
  0
APPID
  5
A94
330
9
100
AcDbSymbolTableRecord
100
AcDbRegAppTableRecord
  2
GENIUS_GENOBJ-N-SDF_13
 70
     0
  0
APPID
  5
12B5
330
9
100
AcDbSymbolTableRecord
100
AcDbRegAppTableRecord
  2
GENIUS_GENOBJ-N-RSBK_13
 70
     0
  0
APPID
  5
12B6
330
9
100
AcDbSymbolTableRecord
100
AcDbRegAppTableRecord
  2
GENIUS_GENOBJ-N-LIB_13
 70
     0
  0
APPID
  5
12B7
330
9
100
AcDbSymbolTableRecord
100
AcDbRegAppTableRecord
  2
GENIUS_GENSCALE_13
 70
     0
  0
APPID
  5
12B8
330
9
100
AcDbSymbolTableRecord
100
AcDbRegAppTableRecord
  2
GENIUS_GENOBJ-N-HTC_13
 70
     0
  0
APPID
  5
12B9
330
9
100
AcDbSymbolTableRecord
100
AcDbRegAppTableRecord
  2
GENIUS_GENHATCH_13
 70
     0
  0
APPID
  5
18AA
330
9
100
AcDbSymbolTableRecord
100
AcDbRegAppTableRecord
  2
BASE_TYPE
 70
     0
  0
APPID
  5
18AB
330
9
100
AcDbSymbolTableRecord
100
AcDbRegAppTableRecord
  2
GENIUS_GENOBJ-N-FIL_13
 70
     0
  0
APPID
  5
1E91
330
9
100
AcDbSymbolTableRecord
100
AcDbRegAppTableRecord
  2
GENIUS_GENOBJ-N-CRS_13
 70
     0
  0
APPID
  5
3B24
330
9
100
AcDbSymbolTableRecord
100
AcDbRegAppTableRecord
  2
GENIUS_GENDIMSH_14
 70
     0
  0
APPID
  5
4D78
330
9
100
AcDbSymbolTableRecord
100
AcDbRegAppTableRecord
  2
GENIUS_GENOBJ-N-DIM_13
 70
     0
  0
APPID
  5
4D79
330
9
100
AcDbSymbolTableRecord
100
AcDbRegAppTableRecord
  2
GENIUS_GENDIM_13
 70
     0
  0
APPID
  5
517C
330
9
100
AcDbSymbolTableRecord
100
AcDbRegAppTableRecord
  2
GENIUS_GENFIL_13
 70
     0
  0
APPID
  5
517D
330
9
100
AcDbSymbolTableRecord
100
AcDbRegAppTableRecord
  2
GENIUS_GENOBJ-N-CHA_13
 70
     0
  0
APPID
  5
ED83
330
9
100
AcDbSymbolTableRecord
100
AcDbRegAppTableRecord
  2
AD_DRAW
 70
     0
  0
APPID
  5
ED86
330
9
100
AcDbSymbolTableRecord
100
AcDbRegAppTableRecord
  2
ACATTRIBSERVICES
 70
     0
  0
APPID
  5
EDA4
330
9
100
AcDbSymbolTableRecord
100
AcDbRegAppTableRecord
  2
DESIGNERASSEMBLIES
 70
     0
  0
APPID
  5
EDB7
330
9
100
AcDbSymbolTableRecord
100
AcDbRegAppTableRecord
  2
ACADM_DIM_EDIT
 70
     0
  0
APPID
  5
EDB8
330
9
100
AcDbSymbolTableRecord
100
AcDbRegAppTableRecord
  2
AMDT_DM_ADJ
 70
     0
  0
APPID
  5
F08C
330
9
100
AcDbSymbolTableRecord
100
AcDbRegAppTableRecord
  2
ACAD_PSEXT
 70
     0
  0
APPID
  5
F2B1
330
9
100
AcDbSymbolTableRecord
100
AcDbRegAppTableRecord
  2
GENIUS_GENCEN_19
 70
     0
  0
APPID
  5
10513
330
9
100
AcDbSymbolTableRecord
100
AcDbRegAppTableRecord
  2
ACAD_DSTYLE_DIMTEXT_FILL
 70
     0
  0
APPID
  5
11AB4
330
9
100
AcDbSymbolTableRecord
100
AcDbRegAppTableRecord
  2
ACAD_DSTYLE_DIMARC_LENGTH_SYMBOL
 70
     0
  0
APPID
  5
11AB5
330
9
100
AcDbSymbolTableRecord
100
AcDbRegAppTableRecord
  2
ACAD_DSTYLE_DIMJOGGED_JOGANGLE_SYMBOL
 70
     0
  0
APPID
  5
11AB6
330
9
100
AcDbSymbolTableRecord
100
AcDbRegAppTableRecord
  2
AcAecLayerStandard
 70
     0
  0
APPID
  5
1813B
330
9
100
AcDbSymbolTableRecord
100
AcDbRegAppTableRecord
  2
ACAD_DIMASSOC_DIMLFAC
 70
     0
  0
APPID
  5
1813C
330
9
100
AcDbSymbolTableRecord
100
AcDbRegAppTableRecord
  2
ACAD_DIMASSOC_CALC_DIMLFAC
 70
     0
  0
APPID
  5
1813D
330
9
100
AcDbSymbolTableRecord
100
AcDbRegAppTableRecord
  2
ACAD_DIMASSOC_OVERRIDDEN_DIMLFAC
 70
     0
  0
ENDTAB
  0
TABLE
  2
DIMSTYLE
  5
A
330
0
100
AcDbSymbolTable
 70
    17
100
AcDbDimStyleTable
  0
DIMSTYLE
105
58
330
A
100
AcDbSymbolTableRecord
100
AcDbDimStyleTableRecord
  2
AM_JIS
 70
     0
  4
"
 41
2.5
 42
0.0
 43
10.0
 44
1.0
 47
0.1
 48
0.1000000001
 73
     0
 74
     0
 77
     3
 78
     1
 79
     2
140
3.8
141
0.0
143
0.0393701
146
0.71
147
1.5
172
     1
176
   256
177
   256
178
     2
179
     1
271
     2
272
     2
275
     1
283
     0
284
     8
340
11
341
59
342
59
371
    -1
372
    -1
  0
DIMSTYLE
105
5F
102
{ACAD_REACTORS
330
1E960
330
1EDBC
102
}
330
A
100
AcDbSymbolTableRecord
100
AcDbDimStyleTableRecord
  2
AM_JIS$3
 70
     0
  4
"
 41
2.5
 42
0.0
 43
10.0
 44
1.0
 47
0.1
 48
0.1000000001
 73
     0
 77
     3
 78
     1
 79
     2
140
3.8
141
0.0
143
0.0393701
146
0.71
147
1.5
172
     1
176
   256
177
   256
178
     2
179
     1
271
     2
272
     2
275
     1
283
     0
284
     8
288
     1
289
     0
340
11
341
59
342
59
371
    -1
372
    -1
  0
DIMSTYLE
105
60
330
A
100
AcDbSymbolTableRecord
100
AcDbDimStyleTableRecord
  2
AM_JIS$4
 70
     0
  4
"
 41
2.5
 42
0.0
 43
10.0
 44
1.0
 47
0.1
 48
0.1000000001
 73
     0
 77
     3
 78
     1
 79
     2
140
3.8
141
0.0
143
0.0393701
146
0.71
147
1.5
172
     1
176
   256
177
   256
178
     2
179
     1
271
     2
272
     2
275
     1
283
     0
284
     8
288
     1
289
     0
340
11
341
59
342
59
371
    -1
372
    -1
  0
DIMSTYLE
105
61
330
A
100
AcDbSymbolTableRecord
100
AcDbDimStyleTableRecord
  2
AM_JIS$6
 70
     0
  4
"
 41
2.5
 42
0.0
 43
10.0
 44
1.0
 47
0.1
 48
0.1000000001
 73
     0
 74
     0
 78
     1
 79
     2
140
3.8
141
0.0
143
0.0393701
146
0.71
147
1.5
172
     1
176
   256
177
   256
178
     2
179
     1
271
     2
272
     2
275
     1
283
     0
284
     8
340
11
341
59
342
59
371
    -1
372
    -1
  0
DIMSTYLE
105
62
330
A
100
AcDbSymbolTableRecord
100
AcDbDimStyleTableRecord
  2
AM_JIS$7
 70
     0
  4
"
 41
2.5
 42
0.0
 43
10.0
 44
1.0
 47
0.1
 48
0.1000000001
 73
     0
 74
     0
 77
     3
 78
     1
 79
     2
140
5.0
141
0.0
143
0.0393701
146
0.71
147
1.5
172
     1
176
   256
177
   256
178
     2
179
     1
271
     2
272
     2
275
     1
283
     0
284
     8
340
11
341
59
342
59
371
    -1
372
    -1
  0
DIMSTYLE
105
63
330
A
100
AcDbSymbolTableRecord
100
AcDbDimStyleTableRecord
  2
AM_JIS$SF
 70
     0
  4
"
 41
2.5
 42
1.0
 43
10.0
 44
1.0
 47
0.1
 48
0.1
 73
     0
 74
     0
 75
     1
 76
     1
 77
     3
 78
     8
 79
     2
140
3.5
141
0.0
143
0.0393701
146
0.71
147
1.5
176
   256
177
   256
178
     2
271
     2
272
     3
274
     4
340
11
341
59
342
59
343
59
344
59
371
    -1
372
    -1
  0
DIMSTYLE
105
68
330
A
100
AcDbSymbolTableRecord
100
AcDbDimStyleTableRecord
  2
AM_JIS$SH
 70
     0
  4
"
 41
2.5
 42
1.0
 43
10.0
 44
1.0
 47
0.1
 48
0.1
 73
     0
 74
     0
 75
     1
 76
     1
 77
     3
 78
     8
 79
     2
140
3.5
141
0.0
143
0.0393701
144
2.0
146
0.71
147
1.5
173
     1
176
   256
177
   256
178
     2
271
     2
272
     3
274
     4
340
11
341
59
342
59
343
64
344
59
371
    -1
372
    -1
  0
DIMSTYLE
105
65F
330
A
100
AcDbSymbolTableRecord
100
AcDbDimStyleTableRecord
  2
STANDARD
 70
     0
340
11
  0
DIMSTYLE
105
18A8
102
{ACAD_REACTORS
330
1C7B1
330
1C7D9
330
1C81C
330
1C8D1
330
1CA4B
102
}
330
A
100
AcDbSymbolTableRecord
100
AcDbDimStyleTableRecord
  2
AM_JIS$0
 70
     0
  4
"
 41
2.5
 42
0.0
 43
10.0
 44
1.0
 47
0.1
 48
0.1000000001
 73
     0
 74
     0
 77
     3
 78
     1
 79
     2
140
3.8
141
0.0
143
0.0393701
146
0.71
147
1.5
172
     1
176
     3
177
     3
178
     2
271
     2
272
     2
275
     1
283
     0
284
     8
289
     0
340
11
341
59
342
59
371
    13
372
    13
  0
DIMSTYLE
105
18A9
102
{ACAD_REACTORS
330
1F425
102
}
330
A
100
AcDbSymbolTableRecord
100
AcDbDimStyleTableRecord
  2
AM_JIS$2
 70
     0
  4
"
 41
2.5
 42
0.0
 43
10.0
 44
1.0
 47
0.1
 48
0.1000000001
 73
     0
 74
     0
 77
     3
 78
     1
 79
     2
140
3.8
141
0.0
143
0.0393701
146
0.71
147
1.5
172
     1
176
     3
177
     3
178
     2
271
     2
272
     2
275
     1
283
     0
284
     8
289
     0
340
11
341
59
342
59
371
    13
372
    13
  0
DIMSTYLE
105
F5AE
330
A
100
AcDbSymbolTableRecord
100
AcDbDimStyleTableRecord
  2
AM_ISO
 70
     0
  4
"
 41
2.5
 42
1.0
 43
10.0
 44
1.0
 47
0.1
 48
0.1
 73
     0
 74
     0
 77
     1
 78
     8
 79
     2
140
3.5
141
0.0
143
0.0393701
146
0.71
147
1.5
172
     1
176
   256
177
   256
178
     2
271
     2
272
     3
274
     4
283
     0
284
     8
340
11
371
    -1
372
    -1
  0
DIMSTYLE
105
F5AF
330
A
100
AcDbSymbolTableRecord
100
AcDbDimStyleTableRecord
  2
AM_ISO$3
 70
     0
  4
"
 41
2.5
 42
1.0
 43
10.0
 44
1.0
 47
0.1
 48
0.1
 73
     0
 77
     1
 78
     8
 79
     2
140
3.5
141
0.0
143
0.0393701
146
0.71
147
1.5
176
   256
177
   256
178
     2
271
     2
272
     3
274
     4
283
     0
284
     8
288
     1
289
     0
340
11
371
    -1
372
    -1
  0
DIMSTYLE
105
F5B0
330
A
100
AcDbSymbolTableRecord
100
AcDbDimStyleTableRecord
  2
AM_ISO$4
 70
     0
  4
"
 41
2.5
 42
1.0
 43
10.0
 44
1.0
 47
0.1
 48
0.1
 73
     0
 77
     1
 78
     8
 79
     2
140
3.5
141
0.0
143
0.0393701
146
0.71
147
1.5
176
   256
177
   256
178
     2
271
     2
272
     3
274
     4
283
     0
284
     8
288
     1
289
     0
340
11
371
    -1
372
    -1
  0
DIMSTYLE
105
F5B1
330
A
100
AcDbSymbolTableRecord
100
AcDbDimStyleTableRecord
  2
AM_ISO$6
 70
     0
  4
"
 41
2.5
 42
1.0
 43
10.0
 44
1.0
 47
0.1
 48
0.1
 73
     0
 74
     0
 78
     8
 79
     2
140
3.5
141
0.0
143
0.0393701
146
0.71
147
1.5
172
     1
176
   256
177
   256
178
     2
271
     2
272
     3
274
     4
283
     0
284
     8
340
11
371
    -1
372
    -1
  0
DIMSTYLE
105
F5B2
330
A
100
AcDbSymbolTableRecord
100
AcDbDimStyleTableRecord
  2
AM_ISO$7
 70
     0
  4
"
 41
2.5
 42
1.0
 43
10.0
 44
1.0
 47
0.1
 48
0.1
 73
     0
 74
     0
 77
     1
 78
     8
 79
     2
140
5.0
141
0.0
143
0.0393701
146
0.71
147
1.5
172
     1
176
   256
177
   256
178
     2
271
     2
272
     3
274
     4
283
     0
284
     8
340
11
371
    -1
372
    -1
  0
DIMSTYLE
105
F5B3
330
A
100
AcDbSymbolTableRecord
100
AcDbDimStyleTableRecord
  2
AM_ISO$SF
 70
     0
  4
"
 41
2.5
 42
1.0
 43
10.0
 44
1.0
 47
0.1
 48
0.1
 73
     0
 74
     0
 75
     1
 76
     1
 77
     1
 78
     8
 79
     2
140
3.5
141
0.0
143
0.0393701
146
0.71
147
1.5
172
     1
176
   256
177
   256
178
     2
271
     2
272
     3
274
     4
283
     0
284
     8
340
11
371
    -1
372
    -1
  0
DIMSTYLE
105
F5B4
330
A
100
AcDbSymbolTableRecord
100
AcDbDimStyleTableRecord
  2
AM_ISO$SH
 70
     0
  4
"
 41
2.5
 42
1.0
 43
10.0
 44
1.0
 47
0.1
 48
0.1
 73
     0
 74
     0
 75
     1
 76
     1
 77
     1
 78
     8
 79
     2
140
3.5
141
0.0
143
0.0393701
144
2.0
146
0.71
147
1.5
172
     1
173
     1
176
   256
177
   256
178
     2
271
     2
272
     3
274
     4
283
     0
284
     8
340
11
343
64
371
    -1
372
    -1
  0
ENDTAB
  0
TABLE
  2
BLOCK_RECORD
  5
1
330
0
100
AcDbSymbolTable
 70
    16
  0
BLOCK_RECORD
  5
1F
102
{ACAD_XDICTIONARY
360
165
102
}
330
1
100
AcDbSymbolTableRecord
100
AcDbBlockTableRecord
  2
*Model_Space
340
22
  0
BLOCK_RECORD
  5
1B
330
1
100
AcDbSymbolTableRecord
100
AcDbBlockTableRecord
  2
*Paper_Space
340
1E
  0
BLOCK_RECORD
  5
23
330
1
100
AcDbSymbolTableRecord
100
AcDbBlockTableRecord
  2
*Paper_Space0
340
26
  0
BLOCK_RECORD
  5
59
330
1
100
AcDbSymbolTableRecord
100
AcDbBlockTableRecord
  2
_Open30
340
0
102
{BLKREFS
331
1F583
331
1F584
331
1F4D9
331
1F4DA
331
1F4E2
331
1F4E3
331
1F4EB
331
1F4EC
331
1F5A6
331
1F5A7
331
1F500
331
1F501
331
1F54B
331
1F54C
331
1F511
331
1F512
102
}
  0
BLOCK_RECORD
  5
64
330
1
100
AcDbSymbolTableRecord
100
AcDbBlockTableRecord
  2
GENAXEH
340
0
  0
BLOCK_RECORD
  5
ED9B
330
1
100
AcDbSymbolTableRecord
100
AcDbBlockTableRecord
  2
*U6
340
0
  0
BLOCK_RECORD
  5
1C7B2
330
1
100
AcDbSymbolTableRecord
100
AcDbBlockTableRecord
  2
*D8
340
0
  0
BLOCK_RECORD
  5
1C7DA
330
1
100
AcDbSymbolTableRecord
100
AcDbBlockTableRecord
  2
*D9
340
0
  0
BLOCK_RECORD
  5
1C81D
330
1
100
AcDbSymbolTableRecord
100
AcDbBlockTableRecord
  2
*D10
340
0
  0
BLOCK_RECORD
  5
1C8D2
330
1
100
AcDbSymbolTableRecord
100
AcDbBlockTableRecord
  2
*D11
340
0
  0
BLOCK_RECORD
  5
1CA4C
330
1
100
AcDbSymbolTableRecord
100
AcDbBlockTableRecord
  2
*D12
340
0
  0
BLOCK_RECORD
  5
1E961
330
1
100
AcDbSymbolTableRecord
100
AcDbBlockTableRecord
  2
*D13
340
0
  0
BLOCK_RECORD
  5
1EDBD
330
1
100
AcDbSymbolTableRecord
100
AcDbBlockTableRecord
  2
*D14
340
0
  0
BLOCK_RECORD
  5
1F426
330
1
100
AcDbSymbolTableRecord
100
AcDbBlockTableRecord
  2
*D15
340
0
  0
ENDTAB
  0
ENDSEC
  0
SECTION
  2
BLOCKS
  0
BLOCK
  5
20
330
1F
100
AcDbEntity
  8
0
100
AcDbBlockBegin
  2
*Model_Space
 70
     0
 71
     0
 10
0.0
 20
0.0
 30
0.0
  3
*Model_Space
  1

  0
ENDBLK
  5
21
330
1F
100
AcDbEntity
  8
0
100
AcDbBlockEnd
  0
BLOCK
  5
1C
330
1B
100
AcDbEntity
 67
     1
  8
0
100
AcDbBlockBegin
  2
*Paper_Space
 70
     0
 71
     0
 10
0.0
 20
0.0
 30
0.0
  3
*Paper_Space
  1

  0
ENDBLK
  5
1D
330
1B
100
AcDbEntity
 67
     1
  8
0
100
AcDbBlockEnd
  0
BLOCK
  5
24
330
23
100
AcDbEntity
  8
0
100
AcDbBlockBegin
  2
*Paper_Space0
 70
     0
 71
     0
 10
0.0
 20
0.0
 30
0.0
  3
*Paper_Space0
  1

  0
ENDBLK
  5
25
330
23
100
AcDbEntity
  8
0
100
AcDbBlockEnd
  0
BLOCK
  5
5D
330
59
100
AcDbEntity
  8
0
100
AcDbBlockBegin
  2
_Open30
 70
     0
 71
     0
 10
0.0
 20
0.0
 30
0.0
  3
_Open30
  1

  0
LINE
  5
5A
330
59
100
AcDbEntity
  8
0
 62
     0
370
    -2
100
AcDbLine
 10
-1.0
 20
0.26794919
 30
0.0
 11
0.0
 21
0.0
 31
0.0
  0
LINE
  5
5B
330
59
100
AcDbEntity
  8
0
 62
     0
370
    -2
100
AcDbLine
 10
0.0
 20
0.0
 30
0.0
 11
-1.0
 21
-0.26794919
 31
0.0
  0
LINE
  5
5C
330
59
100
AcDbEntity
  8
0
 62
     0
370
    -2
100
AcDbLine
 10
0.0
 20
0.0
 30
0.0
 11
-1.0
 21
0.0
 31
0.0
  0
ENDBLK
  5
5E
330
59
100
AcDbEntity
  8
0
100
AcDbBlockEnd
  0
BLOCK
  5
66
330
64
100
AcDbEntity
  8
0
100
AcDbBlockBegin
  2
GENAXEH
 70
     0
 71
     0
 10
0.0
 20
0.0
 30
0.0
  3
GENAXEH
  1

  0
LINE
  5
65
330
64
100
AcDbEntity
  8
0
100
AcDbLine
 10
-1.0
 20
0.0
 30
0.0
 11
1.0
 21
0.0
 31
0.0
  0
ENDBLK
  5
67
330
64
100
AcDbEntity
  8
0
100
AcDbBlockEnd
  0
BLOCK
  5
ED9C
330
ED9B
100
AcDbEntity
  8
0
100
AcDbBlockBegin
  2
*U6
 70
     1
 71
     0
 10
0.0
 20
0.0
 30
0.0
  3
*U6
  1

  0
ENDBLK
  5
ED9D
330
ED9B
100
AcDbEntity
  8
0
100
AcDbBlockEnd
  0
BLOCK
  5
1C7C8
330
1C7B2
100
AcDbEntity
  8
0
100
AcDbBlockBegin
  2
*D8
 70
     1
 71
     0
 10
0.0
 20
0.0
 30
0.0
  3
*D8
  1

  0
LINE
  5
1F580
330
1C7B2
100
AcDbEntity
  8
AM_5
 62
     3
370
    13
100
AcDbLine
 10
0.0
 20
-5.178621898548272
 30
0.0
 11
-0.0000000000000031
 21
-55.02712758243615
 31
0.0
  0
LINE
  5
1F581
330
1C7B2
100
AcDbEntity
  8
AM_5
 62
     3
370
    13
100
AcDbLine
 10
249.9999999999996
 20
-11.50000000000011
 30
0.0
 11
249.9999999999996
 21
-55.02712758243615
 31
0.0
  0
LINE
  5
1F582
330
1C7B2
100
AcDbEntity
  8
AM_5
 62
     3
370
    13
100
AcDbLine
 10
2.499999999999997
 20
-54.02712758243615
 30
0.0
 11
247.4999999999996
 21
-54.02712758243615
 31
0.0
  0
INSERT
  5
1F583
330
1C7B2
100
AcDbEntity
  8
AM_5
 62
     3
370
    13
100
AcDbBlockReference
  2
_Open30
 10
-0.000000000000003
 20
-54.02712758243615
 30
0.0
 41
2.5
 42
2.5
 43
2.5
 50
180.0
  0
INSERT
  5
1F584
330
1C7B2
100
AcDbEntity
  8
AM_5
 62
     3
370
    13
100
AcDbBlockReference
  2
_Open30
 10
249.9999999999996
 20
-54.02712758243615
 30
0.0
 41
2.5
 42
2.5
 43
2.5
  0
MTEXT
  5
1F585
330
1C7B2
100
AcDbEntity
  8
AM_5
 62
     2
370
    13
100
AcDbMText
 10
124.9999999999998
 20
-50.62675356668812
 30
0.0
 40
3.8
 41
0.0
 71
     5
 72
     1
  1
250
 73
     1
 44
1.0
  0
POINT
  5
1F586
330
1C7B2
100
AcDbEntity
  8
Defpoints
 62
     0
100
AcDbPoint
 10
0.0
 20
-5.178621898548272
 30
0.0
  0
POINT
  5
1F587
330
1C7B2
100
AcDbEntity
  8
Defpoints
 62
     0
100
AcDbPoint
 10
249.9999999999996
 20
-11.50000000000011
 30
0.0
  0
POINT
  5
1F588
330
1C7B2
100
AcDbEntity
  8
Defpoints
 62
     0
100
AcDbPoint
 10
249.9999999999996
 20
-54.02712758243615
 30
0.0
  0
ENDBLK
  5
1C7C9
330
1C7B2
100
AcDbEntity
  8
0
100
AcDbBlockEnd
  0
BLOCK
  5
1C7F0
330
1C7DA
100
AcDbEntity
  8
0
100
AcDbBlockBegin
  2
*D9
 70
     1
 71
     0
 10
0.0
 20
0.0
 30
0.0
  3
*D9
  1

  0
LINE
  5
1F4D6
330
1C7DA
100
AcDbEntity
  8
AM_5
 62
     3
370
    13
100
AcDbLine
 10
49.99999999999943
 20
-12.00000000000011
 30
0.0
 11
49.99999999999943
 21
-45.02712758243666
 31
0.0
  0
LINE
  5
1F4D7
330
1C7DA
100
AcDbEntity
  8
AM_5
 62
     3
370
    13
100
AcDbLine
 10
0.0
 20
-5.178621898548272
 30
0.0
 11
-0.0000000000000024
 21
-45.02712758243666
 31
0.0
  0
LINE
  5
1F4D8
330
1C7DA
100
AcDbEntity
  8
AM_5
 62
     3
370
    13
100
AcDbLine
 10
47.49999999999943
 20
-44.02712758243666
 30
0.0
 11
2.499999999999998
 21
-44.02712758243666
 31
0.0
  0
INSERT
  5
1F4D9
330
1C7DA
100
AcDbEntity
  8
AM_5
 62
     3
370
    13
100
AcDbBlockReference
  2
_Open30
 10
49.99999999999943
 20
-44.02712758243666
 30
0.0
 41
2.5
 42
2.5
 43
2.5
  0
INSERT
  5
1F4DA
330
1C7DA
100
AcDbEntity
  8
AM_5
 62
     3
370
    13
100
AcDbBlockReference
  2
_Open30
 10
-0.0000000000000024
 20
-44.02712758243666
 30
0.0
 41
2.5
 42
2.5
 43
2.5
 50
180.0
  0
MTEXT
  5
1F4DB
330
1C7DA
100
AcDbEntity
  8
AM_5
 62
     2
370
    13
100
AcDbMText
 10
24.99999999999972
 20
-40.62712758243666
 30
0.0
 40
3.8
 41
0.0
 71
     5
 72
     1
  1
50
 73
     1
 44
1.0
  0
POINT
  5
1F4DC
330
1C7DA
100
AcDbEntity
  8
Defpoints
 62
     0
100
AcDbPoint
 10
49.99999999999943
 20
-12.00000000000011
 30
0.0
  0
POINT
  5
1F4DD
330
1C7DA
100
AcDbEntity
  8
Defpoints
 62
     0
100
AcDbPoint
 10
0.0
 20
-5.178621898548272
 30
0.0
  0
POINT
  5
1F4DE
330
1C7DA
100
AcDbEntity
  8
Defpoints
 62
     0
100
AcDbPoint
 10
-0.0000000000000024
 20
-44.02712758243666
 30
0.0
  0
ENDBLK
  5
1C7F1
330
1C7DA
100
AcDbEntity
  8
0
100
AcDbBlockEnd
  0
BLOCK
  5
1C83C
330
1C81D
100
AcDbEntity
  8
0
100
AcDbBlockBegin
  2
*D10
 70
     1
 71
     0
 10
0.0
 20
0.0
 30
0.0
  3
*D10
  1

  0
LINE
  5
1F4DF
330
1C81D
100
AcDbEntity
  8
AM_5
 62
     3
370
    13
100
AcDbLine
 10
35.99999999999938
 20
-25.66900000000013
 30
0.0
 11
35.99999999999938
 21
-35.02712758243672
 31
0.0
  0
LINE
  5
1F4E0
330
1C81D
100
AcDbEntity
  8
AM_5
 62
     3
370
    13
100
AcDbLine
 10
0.0
 20
-5.178621898548272
 30
0.0
 11
-0.0000000000000018
 21
-35.02712758243672
 31
0.0
  0
LINE
  5
1F4E1
330
1C81D
100
AcDbEntity
  8
AM_5
 62
     3
370
    13
100
AcDbLine
 10
33.49999999999938
 20
-34.02712758243672
 30
0.0
 11
2.499999999999998
 21
-34.02712758243672
 31
0.0
  0
INSERT
  5
1F4E2
330
1C81D
100
AcDbEntity
  8
AM_5
 62
     3
370
    13
100
AcDbBlockReference
  2
_Open30
 10
35.99999999999938
 20
-34.02712758243672
 30
0.0
 41
2.5
 42
2.5
 43
2.5
  0
INSERT
  5
1F4E3
330
1C81D
100
AcDbEntity
  8
AM_5
 62
     3
370
    13
100
AcDbBlockReference
  2
_Open30
 10
-0.0000000000000018
 20
-34.02712758243672
 30
0.0
 41
2.5
 42
2.5
 43
2.5
 50
180.0
  0
MTEXT
  5
1F4E4
330
1C81D
100
AcDbEntity
  8
AM_5
 62
     2
370
    13
100
AcDbMText
 10
17.99999999999969
 20
-30.62712758243672
 30
0.0
 40
3.8
 41
0.0
 71
     5
 72
     1
  1
36
 73
     1
 44
1.0
  0
POINT
  5
1F4E5
330
1C81D
100
AcDbEntity
  8
Defpoints
 62
     0
100
AcDbPoint
 10
35.99999999999938
 20
-25.66900000000013
 30
0.0
  0
POINT
  5
1F4E6
330
1C81D
100
AcDbEntity
  8
Defpoints
 62
     0
100
AcDbPoint
 10
0.0
 20
-5.178621898548272
 30
0.0
  0
POINT
  5
1F4E7
330
1C81D
100
AcDbEntity
  8
Defpoints
 62
     0
100
AcDbPoint
 10
-0.0000000000000018
 20
-34.02712758243672
 30
0.0
  0
ENDBLK
  5
1C83D
330
1C81D
100
AcDbEntity
  8
0
100
AcDbBlockEnd
  0
BLOCK
  5
1C90A
330
1C8D2
100
AcDbEntity
  8
0
100
AcDbBlockBegin
  2
*D11
 70
     1
 71
     0
 10
0.0
 20
0.0
 30
0.0
  3
*D11
  1

  0
LINE
  5
1F4E8
330
1C8D2
100
AcDbEntity
  8
AM_5
 62
     3
370
    13
100
AcDbLine
 10
117.9999999999996
 20
-3.5
 30
0.0
 11
117.9999999999996
 21
-32.85901290057234
 31
0.0
  0
LINE
  5
1F4E9
330
1C8D2
100
AcDbEntity
  8
AM_5
 62
     3
370
    13
100
AcDbLine
 10
141.9999999999994
 20
-3.500000000000455
 30
0.0
 11
141.9999999999994
 21
-32.85901290057234
 31
0.0
  0
LINE
  5
1F4EA
330
1C8D2
100
AcDbEntity
  8
AM_5
 62
     3
370
    13
100
AcDbLine
 10
120.4999999999996
 20
-31.85901290057234
 30
0.0
 11
139.4999999999994
 21
-31.85901290057234
 31
0.0
  0
INSERT
  5
1F4EB
330
1C8D2
100
AcDbEntity
  8
AM_5
 62
     3
370
    13
100
AcDbBlockReference
  2
_Open30
 10
117.9999999999996
 20
-31.85901290057234
 30
0.0
 41
2.5
 42
2.5
 43
2.5
 50
180.0
  0
INSERT
  5
1F4EC
330
1C8D2
100
AcDbEntity
  8
AM_5
 62
     3
370
    13
100
AcDbBlockReference
  2
_Open30
 10
141.9999999999994
 20
-31.85901290057234
 30
0.0
 41
2.5
 42
2.5
 43
2.5
  0
MTEXT
  5
1F4ED
330
1C8D2
100
AcDbEntity
  8
AM_5
 62
     2
370
    13
100
AcDbMText
 10
130.1716672254051
 20
-28.45863888482431
 30
0.0
 40
3.8
 41
0.0
 71
     5
 72
     1
  1
24
 73
     1
 44
1.0
  0
POINT
  5
1F4EE
330
1C8D2
100
AcDbEntity
  8
Defpoints
 62
     0
100
AcDbPoint
 10
117.9999999999996
 20
-3.5
 30
0.0
  0
POINT
  5
1F4EF
330
1C8D2
100
AcDbEntity
  8
Defpoints
 62
     0
100
AcDbPoint
 10
141.9999999999994
 20
-3.500000000000455
 30
0.0
  0
POINT
  5
1F4F0
330
1C8D2
100
AcDbEntity
  8
Defpoints
 62
     0
100
AcDbPoint
 10
141.9999999999994
 20
-31.85901290057234
 30
0.0
  0
ENDBLK
  5
1C90B
330
1C8D2
100
AcDbEntity
  8
0
100
AcDbBlockEnd
  0
BLOCK
  5
1CA87
330
1CA4C
100
AcDbEntity
  8
0
100
AcDbBlockBegin
  2
*D12
 70
     1
 71
     0
 10
0.0
 20
0.0
 30
0.0
  3
*D12
  1

  0
LINE
  5
1F5A1
330
1CA4C
100
AcDbEntity
  8
AM_5
 62
     3
370
    13
100
AcDbLine
 10
-2.716630692164131
 20
0.0
 30
0.0
 11
-10.22411117082152
 21
0.0000000000000021
 31
0.0
  0
LINE
  5
1F5A2
330
1CA4C
100
AcDbEntity
  8
AM_5
 62
     3
370
    13
100
AcDbLine
 10
-1.889392982128811
 20
-3.5
 30
0.0
 11
-10.22411117082152
 21
-3.499999999999998
 31
0.0
  0
LINE
  5
1F5A3
330
1CA4C
100
AcDbEntity
  8
AM_5
 62
     3
370
    13
100
AcDbLine
 10
-9.224111170821516
 20
2.500000000000002
 30
0.0
 11
-9.224111170821514
 21
5.000000000000002
 31
0.0
  0
LINE
  5
1F5A4
330
1CA4C
100
AcDbEntity
  8
AM_5
 62
     3
370
    13
100
AcDbLine
 10
-9.224111170821518
 20
-5.999999999999998
 30
0.0
 11
-9.224111170821518
 21
-8.499999999999998
 31
0.0
  0
LINE
  5
1F5A5
330
1CA4C
100
AcDbEntity
  8
AM_5
 62
     3
370
    13
100
AcDbLine
 10
-9.224111170821516
 20
0.0000000000000018
 30
0.0
 11
-9.224111170821516
 21
-3.499999999999998
 31
0.0
  0
INSERT
  5
1F5A6
330
1CA4C
100
AcDbEntity
  8
AM_5
 62
     3
370
    13
100
AcDbBlockReference
  2
_Open30
 10
-9.224111170821516
 20
0.0000000000000018
 30
0.0
 41
2.5
 42
2.5
 43
2.5
 50
270.0
  0
INSERT
  5
1F5A7
330
1CA4C
100
AcDbEntity
  8
AM_5
 62
     3
370
    13
100
AcDbBlockReference
  2
_Open30
 10
-9.224111170821516
 20
-3.499999999999998
 30
0.0
 41
2.5
 42
2.5
 43
2.5
 50
90.0
  0
MTEXT
  5
1F5A8
330
1CA4C
100
AcDbEntity
  8
AM_5
 62
     2
370
    13
100
AcDbMText
 10
-12.62411117082152
 20
-1.749999999999999
 30
0.0
 40
3.8
 41
0.0
 71
     5
 72
     1
  1
{3.5
 11
6.123031769111886E-17
 21
1.0
 31
0.0
 73
     1
 44
1.0
  0
POINT
  5
1F5A9
330
1CA4C
100
AcDbEntity
  8
Defpoints
 62
     0
100
AcDbPoint
 10
-2.716630692164131
 20
0.0
 30
0.0
  0
POINT
  5
1F5AA
330
1CA4C
100
AcDbEntity
  8
Defpoints
 62
     0
100
AcDbPoint
 10
-1.889392982128811
 20
-3.5
 30
0.0
  0
POINT
  5
1F5AB
330
1CA4C
100
AcDbEntity
  8
Defpoints
 62
     0
100
AcDbPoint
 10
-9.224111170821516
 20
-3.499999999999998
 30
0.0
  0
ENDBLK
  5
1CA88
330
1CA4C
100
AcDbEntity
  8
0
100
AcDbBlockEnd
  0
BLOCK
  5
1E9C0
330
1E961
100
AcDbEntity
  8
0
100
AcDbBlockBegin
  2
*D13
 70
     1
 71
     0
 10
0.0
 20
0.0
 30
0.0
  3
*D13
  1

  0
LINE
  5
1F4FC
330
1E961
100
AcDbEntity
  8
AM_5
100
AcDbLine
 10
123.0063135432579
 20
-13.26982854993941
 30
0.0
 11
121.840699133801
 21
-15.48146664159599
 31
0.0
  0
LINE
  5
1F4FD
330
1E961
100
AcDbEntity
  8
AM_5
100
AcDbLine
 10
136.9936864567411
 20
13.2698285499396
 30
0.0
 11
139.9588932584444
 21
18.89601527093397
 31
0.0
  0
LINE
  5
1F4FE
330
1E961
100
AcDbEntity
  8
AM_5
100
AcDbLine
 10
139.9588932584444
 20
18.89601527093397
 30
0.0
 11
149.2162944121462
 21
18.89601527093397
 31
0.0
  0
LINE
  5
1F4FF
330
1E961
100
AcDbEntity
  8
AM_5
100
AcDbLine
 10
124.1719279527149
 20
-11.05819045828282
 30
0.0
 11
135.8280720472842
 21
11.05819045828301
 31
0.0
  0
INSERT
  5
1F500
330
1E961
100
AcDbEntity
  8
AM_5
100
AcDbBlockReference
  2
_Open30
 10
124.1719279527149
 20
-11.05819045828282
 30
0.0
 41
2.5
 42
2.5
 43
2.5
 50
62.20912442565221
  0
INSERT
  5
1F501
330
1E961
100
AcDbEntity
  8
AM_5
100
AcDbBlockReference
  2
_Open30
 10
135.8280720472842
 20
11.05819045828301
 30
0.0
 41
2.5
 42
2.5
 43
2.5
 50
242.2091244256522
  0
MTEXT
  5
1F502
330
1E961
100
AcDbEntity
  8
AM_5
 62
     2
370
    13
100
AcDbMText
 10
145.3375938352953
 20
22.29638928668199
 30
0.0
 40
3.8
 41
0.0
 71
     5
 72
     1
  1
\U+220525{
 73
     1
 44
1.0
  0
POINT
  5
1F503
330
1E961
100
AcDbEntity
  8
Defpoints
 62
     0
100
AcDbPoint
 10
135.8280720472842
 20
11.05819045828301
 30
0.0
  0
POINT
  5
1F504
330
1E961
100
AcDbEntity
  8
Defpoints
 62
     0
100
AcDbPoint
 10
124.1719279527149
 20
-11.05819045828282
 30
0.0
  0
ENDBLK
  5
1E9C1
330
1E961
100
AcDbEntity
  8
0
100
AcDbBlockEnd
  0
BLOCK
  5
1EDE4
330
1EDBD
100
AcDbEntity
  8
0
100
AcDbBlockBegin
  2
*D14
 70
     1
 71
     0
 10
0.0
 20
0.0
 30
0.0
  3
*D14
  1

  0
LINE
  5
1F547
330
1EDBD
100
AcDbEntity
  8
AM_5
100
AcDbLine
 10
-71.27803041798029
 20
-1.293661180439337
 30
0.0
 11
-72.98379635163313
 21
-3.121327063359246
 31
0.0
  0
LINE
  5
1F548
330
1EDBD
100
AcDbEntity
  8
AM_5
100
AcDbLine
 10
-47.39730734684034
 20
24.29366118043946
 30
0.0
 11
-39.10082125717842
 21
33.18304293853515
 31
0.0
  0
LINE
  5
1F549
330
1EDBD
100
AcDbEntity
  8
AM_5
100
AcDbLine
 10
-39.10082125717842
 20
33.18304293853515
 30
0.0
 11
-6.627829131194174
 21
33.18304293853515
 31
0.0
  0
LINE
  5
1F54A
330
1EDBD
100
AcDbEntity
  8
AM_5
100
AcDbLine
 10
-69.57226448432743
 20
0.5340047024805799
 30
0.0
 11
-49.10307328049319
 21
22.46599529751954
 31
0.0
  0
INSERT
  5
1F54B
330
1EDBD
100
AcDbEntity
  8
AM_5
100
AcDbBlockReference
  2
_Open30
 10
-69.57226448432743
 20
0.5340047024805799
 30
0.0
 41
2.5
 42
2.5
 43
2.5
 50
46.97586484477299
  0
INSERT
  5
1F54C
330
1EDBD
100
AcDbEntity
  8
AM_5
100
AcDbBlockReference
  2
_Open30
 10
-49.10307328049319
 20
22.46599529751954
 30
0.0
 41
2.5
 42
2.5
 43
2.5
 50
226.975864844773
  0
MTEXT
  5
1F54D
330
1EDBD
100
AcDbEntity
  8
AM_5
 62
     2
370
    13
100
AcDbMText
 10
-22.11432519418629
 20
36.58304293853515
 30
0.0
 40
3.8
 41
0.0
 71
     5
 72
     1
  1
最小加工径\U+220530
 73
     1
 44
1.0
  0
POINT
  5
1F54E
330
1EDBD
100
AcDbEntity
  8
Defpoints
 62
     0
100
AcDbPoint
 10
-49.10307328049319
 20
22.46599529751954
 30
0.0
  0
POINT
  5
1F54F
330
1EDBD
100
AcDbEntity
  8
Defpoints
 62
     0
100
AcDbPoint
 10
-69.57226448432743
 20
0.5340047024805799
 30
0.0
  0
ENDBLK
  5
1EDE5
330
1EDBD
100
AcDbEntity
  8
0
100
AcDbBlockEnd
  0
BLOCK
  5
1F436
330
1F426
100
AcDbEntity
  8
0
100
AcDbBlockBegin
  2
*D15
 70
     1
 71
     0
 10
0.0
 20
0.0
 30
0.0
  3
*D15
  1

  0
LINE
  5
1F50E
330
1F426
100
AcDbEntity
  8
AM_5
 62
     3
370
    13
100
AcDbLine
 10
7.818358811651393
 20
3.203071333384685
 30
0.0
 11
16.21452136551055
 21
9.762872454528683
 31
0.0
  0
LINE
  5
1F50F
330
1F426
100
AcDbEntity
  8
AM_5
 62
     3
370
    13
100
AcDbLine
 10
0.0
 20
-2.905300029030588
 30
0.0
 11
-0.0000000000000009
 21
17.67122293248568
 31
0.0
  0
ARC
  5
1F510
330
1F426
100
AcDbEntity
  8
AM_5
 62
     3
370
    13
100
AcDbCircle
 10
0.0
 20
-2.905300029030588
 30
0.0
 40
19.57652296151627
100
AcDbArc
 50
45.32188045432323
 51
82.67811954567634
  0
INSERT
  5
1F511
330
1F426
100
AcDbEntity
  8
AM_5
 62
     3
370
    13
100
AcDbBlockReference
  2
_Open30
 10
15.42651061190382
 20
9.147210979203029
 30
0.0
 41
2.5
 42
2.5
 43
2.5
 50
311.6609402271614
  0
INSERT
  5
1F512
330
1F426
100
AcDbEntity
  8
AM_5
 62
     3
370
    13
100
AcDbBlockReference
  2
_Open30
 10
-0.0000000000000018
 20
16.67122293248568
 30
0.0
 41
2.5
 42
2.5
 43
2.5
 50
176.3390597728382
  0
MTEXT
  5
1F513
330
1F426
100
AcDbEntity
  8
AM_5
 62
     2
370
    13
100
AcDbMText
 10
12.12062541214839
 20
16.61464449758628
 30
0.0
 40
3.8
 41
0.0
 71
     5
 72
     1
  1
52°
 11
0.8495465922109462
 21
-0.5275135900266156
 31
0.0
 73
     1
 44
1.0
  0
POINT
  5
1F514
330
1F426
100
AcDbEntity
  8
Defpoints
 62
     0
100
AcDbPoint
 10
5.832438987680886
 20
15.78220667244657
 30
0.0
  0
POINT
  5
1F515
330
1F426
100
AcDbEntity
  8
Defpoints
 62
     0
100
AcDbPoint
 10
0.0
 20
-3.098486089853395
 30
0.0
  0
POINT
  5
1F516
330
1F426
100
AcDbEntity
  8
Defpoints
 62
     0
100
AcDbPoint
 10
0.151675937279407
 20
-2.786797799347255
 30
0.0
  0
POINT
  5
1F517
330
1F426
100
AcDbEntity
  8
Defpoints
 62
     0
100
AcDbPoint
 10
7.818358811651393
 20
3.203071333384685
 30
0.0
  0
POINT
  5
1F518
330
1F426
100
AcDbEntity
  8
Defpoints
 62
     0
100
AcDbPoint
 10
0.0
 20
-5.303621898548499
 30
0.0
  0
ENDBLK
  5
1F437
330
1F426
100
AcDbEntity
  8
0
100
AcDbBlockEnd
  0
ENDSEC
  0
SECTION
  2
ENTITIES
  0
TEXT
  5
17604
330
1F
100
AcDbEntity
  8
AM_6
100
AcDbText
 10
217.362835492669
 20
-5.649660075781441
 30
0.0
 40
3.0
  1

 41
0.8947931617610168
100
AcDbText
  0
ACAD_PROXY_ENTITY
  5
1814D
330
1F
100
AcDbEntity
  8
AM_5
100
AcDbProxyEntity
 90
      498
 91
      533
 95
       25
 70
     0
 92
      824
310
38030000300000000C00000016000000000000C00C00000013000000010000000C00000016000000000000C00C00000017000000FFFFFFFF3C000000060000000200000038F4DE5A24B33EC0006CD61721DA46C0000000000000000050ADA260C5EC40C0006CD61721DA46C000000000000000000C00000016000000000000
310
C00C00000010000000FFFFFFFF0C00000012000000FFFFFFFF0C00000017000000000000000C00000014000000010000000C00000013000000020000000C00000016000000000000C00C00000017000000FFFFFFFF3C000000060000000200000050ADA260C5EC40C0006CD61721DA46C0000000000000000053ADA260C5EC
310
40C0339F094B546D42C000000000000000000C00000016000000000000C00C00000010000000FFFFFFFF0C00000012000000FFFFFFFF0C00000017000000000000000C00000014000000010000000C00000013000000030000000C00000016000000000000C00C00000017000000FFFFFFFF3C000000060000000200000053
310
ADA260C5EC40C0339F094B546D42C0000000000000000054ADA260C5EC40C0006CD61721DA40C000000000000000000C00000016000000000000C00C00000010000000FFFFFFFF0C00000012000000FFFFFFFF0C00000017000000000000000C00000014000000010000000C00000013000000040000000C00000016000000
310
000000C00C00000017000000FFFFFFFF3C0000000600000002000000AA6BE34FB0B740C0339F094B546D42C0000000000000000054ADA260C5EC40C0006CD61721DA40C000000000000000000C00000016000000000000C00C00000010000000FFFFFFFF0C00000012000000FFFFFFFF0C00000017000000000000000C0000
310
0014000000010000000C00000013000000050000000C00000016000000000000C00C00000017000000FFFFFFFF3C000000060000000200000054ADA260C5EC40C0006CD61721DA40C00000000000000000FCEE6171DA2141C0339F094B546D42C000000000000000000C00000016000000000000C00C00000010000000FFFF
310
FFFF0C00000012000000FFFFFFFF0C00000017000000000000000C00000014000000010000000C00000013000000060000000C00000016000000000000C0
 93
     1537
310
5DC50ADA260C5EC40C00E354A1D903A4FB024000000000000D4BC8000000000000D43C6A54051F8000000C8000F0CCCCCCCCCC2500000000000000F0BCA142B6898317B10300006CD61721DA46C09018FFFFFFFF152B6898317B10300006CD61721DA40C0A8FFFFFFFF1FFFFFFFF0A15B44C18BD8818000366B0B90ED23604
310
5409C87038F4DE5A24B33EC01A348F1FA1C411B02A5000000000000352F28333333333333094041D050000000000003C2FC000000000000F0BF40401015213500500
340
17F
340
EDAB
330
0
330
0
340
0
340
0
340
180
330
0
330
0
 94
        0
  0
ACAD_PROXY_ENTITY
  5
1814E
330
1F
100
AcDbEntity
  8
AM_5
100
AcDbProxyEntity
 90
      498
 91
      533
 95
       25
 70
     0
 92
      668
310
9C020000270000000C00000016000000000000C00C00000013000000010000000C00000016000000000000C00C00000017000000FFFFFFFF3C000000060000000200000050ADA260C5EC40C0006CD61721DA46C00000000000000000FEC0AB27F1FF38C0FA6BD61721DA46C000000000000000000C00000016000000000000
310
C00C00000010000000FFFFFFFF0C00000012000000FFFFFFFF0C00000017000000000000000C00000014000000010000000C00000013000000020000000C00000016000000000000C00C00000017000000FFFFFFFF3C0000000600000002000000FEC0AB27F1FF38C0FA6BD61721DA46C00000000000000000985A45C18AD9
310
35C0F86BD61721DA46C000000000000000000C00000016000000000000C00C00000010000000FFFFFFFF0C00000012000000FFFFFFFF0C00000017000000000000000C00000014000000010000000C00000013000000030000000C00000016000000000000C00C00000017000000FFFFFFFF3C0000000600000002000000FE
310
C0AB27F1FF38C0A3AD9528360F47C00000000000000000985A45C18AD935C0F86BD61721DA46C000000000000000000C00000016000000000000C00C00000010000000FFFFFFFF0C00000012000000FFFFFFFF0C00000017000000000000000C00000014000000010000000C00000013000000040000000C00000016000000
310
000000C00C00000017000000FFFFFFFF3C0000000600000002000000985A45C18AD935C0F86BD61721DA46C00000000000000000FFC0AB27F1FF38C0512A17070CA546C000000000000000000C00000016000000000000C00C00000010000000FFFFFFFF0C00000012000000FFFFFFFF0C00000017000000000000000C0000
310
0014000000010000000C00000013000000050000000C00000016000000000000C0
 93
     1537
310
5DCD857C107890E33C0001B3585C87691B023FBFFFFFFFFFF5EF0000000000000F0BF93FBFFFFFFFFFF5EF2A54051F8000000C800AA142B6898317B10300006CD61721DA46C09018FFFFFFFF2616917062B64D700F86BD61721DA46C0A8FFFFFFFF1FFFFFFFF0A15B44C18BD8818000366B0B90ED236045409C870BC1309C7
310
2B2340C00BA7C252D51B52302A4FEFFFFFFFFFFD7BC0000000000003C2FE8333333333333094041D050000000000003C2FC000000000000F0BF40401015213500500
340
17F
340
EDAB
330
0
330
0
340
0
340
0
340
180
330
0
330
0
 94
        0
  0
TEXT
  5
1814F
330
1F
100
AcDbEntity
  8
AM_6
 62
     0
370
    30
100
AcDbText
 10
-20.47718531078647
 20
-47.22043460184057
 30
0.0
 40
4.0
  1
-5%%d
100
AcDbText
  0
TEXT
  5
18151
330
1F
100
AcDbEntity
  8
AM_6
 62
     0
370
    30
100
AcDbText
 10
-38.24633168587218
 20
-32.27869060252294
 30
0.0
 40
4.0
  1
-5%%d
100
AcDbText
  0
TEXT
  5
1BAC8
330
1F
100
AcDbEntity
  8
AM_6
100
AcDbText
 10
457.2220181335996
 20
181.3583159154434
 30
0.0
 40
3.0
  1

 41
0.816434387114763
100
AcDbText
  0
TEXT
  5
1BACB
330
1F
100
AcDbEntity
  8
AM_6
100
AcDbText
 10
457.2220181335996
 20
175.3583159154434
 30
0.0
 40
3.0
  1

 41
0.6407426409886019
100
AcDbText
  0
TEXT
  5
1BACC
330
1F
100
AcDbEntity
  8
AM_6
100
AcDbText
 10
457.2220181335996
 20
169.3583159154434
 30
0.0
 40
3.0
  1

 41
0.6407426409886019
100
AcDbText
  0
LINE
  5
1C724
330
1F
100
AcDbEntity
  8
AM_7
  6
CENTER
370
    13
100
AcDbLine
 10
-59.3376688824103
 20
-15.38240400153111
 30
0.0
 11
-59.3376688824103
 21
30.02204552621561
 31
0.0
1001
GENIUS_GENODEF_13
1002
{
1000
HIER
1070
     0
1002
}
1002
{
1000
MANEDIT
1070
     0
1002
}
1002
{
1000
NOSEL
1070
     0
1002
}
1002
{
1000
BEHIND
1070
     0
1002
}
1002
{
1000
OTHER
1070
     0
1002
}
1002
{
1000
REACTOR
1002
}
1001
GENIUS_GENOBJ-N-CEN_13
1002
{
1000
OWNER
1000
GEN
1002
}
1001
GENIUS_GENCEN_19
1002
{
1040
2.794
1002
}
  0
DIMENSION
  5
1C7B1
330
1F
100
AcDbEntity
  8
AM_5
370
    13
100
AcDbDimension
  2
*D8
 10
249.9999999999996
 20
-54.02712758243615
 30
0.0
 11
124.9999999999998
 21
-50.62675356668812
 31
0.0
 70
    32
  1
<>
 71
     5
 42
249.9999999999996
  3
AM_JIS$0
100
AcDbAlignedDimension
 13
0.0
 23
-5.178621898548272
 33
0.0
 14
249.9999999999996
 24
-11.50000000000011
 34
0.0
100
AcDbRotatedDimension
1001
ACAD
1000
DSTYLE
1002
{
1070
   179
1070
     0
1070
   271
1070
     0
1002
}
  0
DIMENSION
  5
1C7D9
330
1F
100
AcDbEntity
  8
AM_5
370
    13
100
AcDbDimension
  2
*D9
 10
-0.0000000000000024
 20
-44.02712758243666
 30
0.0
 11
24.99999999999972
 21
-40.62712758243666
 31
0.0
 70
    32
 71
     5
 42
49.99999999999943
  3
AM_JIS$0
100
AcDbAlignedDimension
 13
49.99999999999943
 23
-12.00000000000011
 33
0.0
 14
0.0
 24
-5.178621898548272
 34
0.0
100
AcDbRotatedDimension
1001
ACAD
1000
DSTYLE
1002
{
1070
   179
1070
     0
1070
   271
1070
     0
1002
}
  0
CIRCLE
  5
1C7F2
330
1F
100
AcDbEntity
  8
AM_5
  6
AM_ISO09W050
100
AcDbCircle
 10
35.99999999999938
 20
-12.87500000000011
 30
0.0
 40
10.0
  0
LINE
  5
1C7FF
330
1F
100
AcDbEntity
  8
AM_7
  6
CENTER
100
AcDbLine
 10
48.79399999999939
 20
-12.87500000000011
 30
0.0
 11
23.20599999999936
 21
-12.87500000000011
 31
0.0
1001
GENIUS_GENOBJ-N-CEN_13
1002
{
1000
OWNER
1000
GEN
1002
}
1001
GENIUS_GENODEF_13
1002
{
1000
HIER
1070
     0
1002
}
1002
{
1000
MANEDIT
1070
     0
1002
}
1002
{
1000
NOSEL
1070
     0
1002
}
1002
{
1000
BEHIND
1070
     0
1002
}
1002
{
1000
OTHER
1070
     0
1002
}
1002
{
1000
REACTOR
1002
}
1001
GENIUS_GENCEN_19
1002
{
1040
2.794
1002
}
  0
LINE
  5
1C80C
330
1F
100
AcDbEntity
  8
AM_7
  6
CENTER
100
AcDbLine
 10
35.99999999999938
 20
-25.66900000000013
 30
0.0
 11
35.99999999999938
 21
-2.216846290347206
 31
0.0
1001
GENIUS_GENODEF_13
1002
{
1000
HIER
1070
     0
1002
}
1002
{
1000
MANEDIT
1070
     0
1002
}
1002
{
1000
NOSEL
1070
     0
1002
}
1002
{
1000
BEHIND
1070
     0
1002
}
1002
{
1000
OTHER
1070
     0
1002
}
1002
{
1000
REACTOR
1002
}
1001
GENIUS_GENOBJ-N-CEN_13
1002
{
1000
OWNER
1000
GEN
1002
}
1001
GENIUS_GENCEN_19
1002
{
1040
2.794
1002
}
  0
DIMENSION
  5
1C81C
330
1F
100
AcDbEntity
  8
AM_5
370
    13
100
AcDbDimension
  2
*D10
 10
-0.0000000000000018
 20
-34.02712758243672
 30
0.0
 11
17.99999999999969
 21
-30.62712758243672
 31
0.0
 70
    32
 71
     5
 42
35.99999999999938
  3
AM_JIS$0
100
AcDbAlignedDimension
 13
35.99999999999938
 23
-25.66900000000013
 33
0.0
 14
0.0
 24
-5.178621898548272
 34
0.0
100
AcDbRotatedDimension
1001
ACAD
1000
DSTYLE
1002
{
1070
   271
1070
     0
1002
}
  0
DIMENSION
  5
1C8D1
330
1F
100
AcDbEntity
  8
AM_5
370
    13
100
AcDbDimension
  2
*D11
 10
141.9999999999994
 20
-31.85901290057234
 30
0.0
 11
130.1716672254051
 21
-31.85901290057234
 31
0.0
 70
   160
 71
     5
 42
23.99999999999989
  3
AM_JIS$0
100
AcDbAlignedDimension
 13
117.9999999999996
 23
-3.5
 33
0.0
 14
141.9999999999994
 24
-3.500000000000455
 34
0.0
100
AcDbRotatedDimension
1001
ACAD
1000
DSTYLE
1002
{
1070
   179
1070
     0
1070
   271
1070
     0
1002
}
  0
DIMENSION
  5
1CA4B
330
1F
100
AcDbEntity
  8
AM_5
370
    13
100
AcDbDimension
  2
*D12
 10
-9.224111170821516
 20
-3.499999999999998
 30
0.0
 11
-9.224111170821516
 21
-1.749999999999999
 31
0.0
 70
   160
  1
{<>
 71
     5
 42
3.5
  3
AM_JIS$0
100
AcDbAlignedDimension
 13
-2.716630692164131
 23
0.0
 33
0.0
 14
-1.889392982128811
 24
-3.5
 34
0.0
 50
90.0
100
AcDbRotatedDimension
1001
ACAD
1000
DSTYLE
1002
{
1070
   271
1070
     1
1002
}
  0
SPLINE
  5
1E066
330
1F
100
AcDbEntity
  8
AM_0
100
AcDbSpline
210
0.0
220
0.0
230
1.0
 70
    12
 71
     2
 72
     6
 73
     3
 74
     0
 42
0.0000000001
 43
0.0000000001
 40
0.0
 40
0.0
 40
0.0
 40
7.071067811865479
 40
7.071067811865479
 40
7.071067811865479
 10
248.9999999999996
 20
3.499999999999886
 30
0.0
 41
1.0
 10
249.9799999999998
 20
-0.0000000000003411
 30
0.0
 41
1.041666666666689
 10
248.9999999999996
 20
-3.500000000000114
 30
0.0
 41
1.0
  0
LINE
  5
1E067
330
1F
100
AcDbEntity
  8
AM_0
100
AcDbLine
 10
248.9999999999996
 20
-3.500000000000085
 30
0.0
 11
151.9999999999996
 21
-3.500000000000114
 31
0.0
  0
LINE
  5
1E07A
330
1F
100
AcDbEntity
  8
AM_0
100
AcDbLine
 10
249.9999999999996
 20
11.49999999999989
 30
0.0
 11
248.9999999999996
 21
12.49999999999989
 31
0.0
  0
LINE
  5
1E07B
330
1F
100
AcDbEntity
  8
AM_0
100
AcDbLine
 10
249.9999999999996
 20
-11.50000000000011
 30
0.0
 11
248.9999999999996
 21
-12.50000000000011
 31
0.0
  0
LINE
  5
1E085
330
1F
100
AcDbEntity
  8
AM_0
100
AcDbLine
 10
249.9999999999996
 20
-11.50000000000011
 30
0.0
 11
249.9999999999996
 21
11.49999999999989
 31
0.0
  0
LINE
  5
1E086
330
1F
100
AcDbEntity
  8
AM_0
100
AcDbLine
 10
248.9999999999996
 20
3.499999999999886
 30
0.0
 11
248.9999999999996
 21
12.49999999999989
 31
0.0
  0
LINE
  5
1E087
330
1F
100
AcDbEntity
  8
AM_0
100
AcDbLine
 10
248.9999999999996
 20
-12.50000000000011
 30
0.0
 11
248.9999999999996
 21
-3.500000000000114
 31
0.0
  0
LINE
  5
1E0AB
330
1F
100
AcDbEntity
  8
AM_0
100
AcDbLine
 10
248.9999999999996
 20
-75.7767157162117
 30
0.0
 11
249.4999999999996
 21
-75.7767157162117
 31
0.0
  0
LINE
  5
1E0AE
330
1F
100
AcDbEntity
  8
AM_0
100
AcDbLine
 10
248.9999999999996
 20
-99.7767157162117
 30
0.0
 11
249.4999999999996
 21
-99.7767157162117
 31
0.0
  0
LINE
  5
1E0C3
330
1F
100
AcDbEntity
  8
AM_0
100
AcDbLine
 10
249.9999999999996
 20
-76.2767157162117
 30
0.0
 11
249.4999999999996
 21
-75.7767157162117
 31
0.0
  0
LINE
  5
1E0C4
330
1F
100
AcDbEntity
  8
AM_0
100
AcDbLine
 10
249.9999999999996
 20
-99.2767157162117
 30
0.0
 11
249.4999999999996
 21
-99.7767157162117
 31
0.0
  0
LINE
  5
1E0C7
330
1F
100
AcDbEntity
  8
AM_0
100
AcDbLine
 10
249.9999999999996
 20
-99.2767157162117
 30
0.0
 11
249.9999999999996
 21
-76.2767157162117
 31
0.0
  0
LINE
  5
1E0C8
330
1F
100
AcDbEntity
  8
AM_0
100
AcDbLine
 10
248.9999999999996
 20
-99.7767157162117
 30
0.0
 11
248.9999999999996
 21
-75.7767157162117
 31
0.0
  0
LINE
  5
1E4FA
330
1F
100
AcDbEntity
  8
AM_5
370
    13
100
AcDbLine
 10
0.0
 20
-2.90530002903057
 30
0.0
 11
0.0
 21
-5.303621898548499
 31
0.0
  0
LINE
  5
1E4FB
330
1F
100
AcDbEntity
  8
AM_5
370
    13
100
AcDbLine
 10
-1.889392982128811
 20
-3.5
 30
0.0
 11
0.4015194537896605
 21
-3.5
 31
0.0
  0
LINE
  5
1E803
330
1F
100
AcDbEntity
  8
AM_0
100
AcDbLine
 10
151.9999999999996
 20
12.49999999999989
 30
0.0
 11
248.9999999999995
 21
12.49999999999986
 31
0.0
  0
LINE
  5
1E804
330
1F
100
AcDbEntity
  8
AM_0
100
AcDbLine
 10
151.9999999999996
 20
3.499999999999886
 30
0.0
 11
248.9999999999995
 21
3.499999999999915
 31
0.0
  0
LINE
  5
1E806
330
1F
100
AcDbEntity
  8
AM_0
100
AcDbLine
 10
151.9999999999996
 20
-12.50000000000011
 30
0.0
 11
248.9999999999996
 21
-12.50000000000011
 31
0.0
  0
LINE
  5
1E81D
102
{ACAD_REACTORS
330
1F4A9
102
}
330
1F
100
AcDbEntity
  8
AM_7
  6
CENTER
100
AcDbLine
 10
-2.716630692164131
 20
0.0
 30
0.0
 11
258.8341962537511
 21
0.0
 31
0.0
1001
GENIUS_GENOBJ-N-CEN_13
1002
{
1000
OWNER
1000
GEN
1002
}
1001
GENIUS_GENODEF_13
1002
{
1000
HIER
1070
     0
1002
}
1002
{
1000
MANEDIT
1070
     0
1002
}
1002
{
1000
NOSEL
1070
     0
1002
}
1002
{
1000
BEHIND
1070
     0
1002
}
1002
{
1000
OTHER
1070
     0
1002
}
1002
{
1000
REACTOR
1002
}
1001
GENIUS_GENCEN_19
1002
{
1040
2.794
1002
}
  0
ARC
  5
1E83A
102
{ACAD_REACTORS
330
1F4A9
102
}
330
1F
100
AcDbEntity
  8
AM_0
100
AcDbCircle
 10
129.9999999999996
 20
0.0
 30
0.0
 40
12.5
100
AcDbArc
 50
196.2602047083119
 51
343.739795291688
  0
ARC
  5
1E876
102
{ACAD_REACTORS
330
1F4A9
102
}
330
1F
100
AcDbEntity
  8
AM_0
100
AcDbCircle
 10
129.9999999999996
 20
0.0
 30
0.0
 40
12.5
100
AcDbArc
 50
16.26020470831196
 51
163.739795291688
  0
LINE
  5
1E878
102
{ACAD_REACTORS
330
1F4A9
102
}
330
1F
100
AcDbEntity
  8
AM_0
100
AcDbLine
 10
117.9999999999996
 20
3.5
 30
0.0
 11
117.9999999999996
 21
-3.5
 31
0.0
  0
LINE
  5
1E879
102
{ACAD_REACTORS
330
1F4A9
102
}
330
1F
100
AcDbEntity
  8
AM_0
100
AcDbLine
 10
141.9999999999996
 20
3.5
 30
0.0
 11
141.9999999999996
 21
-3.5
 31
0.0
  0
LINE
  5
1E886
102
{ACAD_REACTORS
330
1F4A9
102
}
330
1F
100
AcDbEntity
  8
AM_7
  6
CENTER
100
AcDbLine
 10
129.9999999999996
 20
19.01985316263324
 30
0.0
 11
129.9999999999996
 21
-19.44864412400625
 31
0.0
1001
GENIUS_GENOBJ-N-CEN_13
1002
{
1000
OWNER
1000
GEN
1002
}
1001
GENIUS_GENODEF_13
1002
{
1000
HIER
1070
     0
1002
}
1002
{
1000
MANEDIT
1070
     0
1002
}
1002
{
1000
NOSEL
1070
     0
1002
}
1002
{
1000
BEHIND
1070
     0
1002
}
1002
{
1000
OTHER
1070
     0
1002
}
1002
{
1000
REACTOR
1002
}
1001
GENIUS_GENCEN_19
1002
{
1040
2.794
1002
}
  0
LINE
  5
1E8D6
330
1F
100
AcDbEntity
  8
AM_7
  6
CENTER
370
    13
100
AcDbLine
 10
-2.716630692164131
 20
-87.77671571621158
 30
0.0
 11
258.8341962537511
 21
-87.77671571621158
 31
0.0
1001
GENIUS_GENOBJ-N-CEN_13
1002
{
1000
OWNER
1000
GEN
1002
}
1001
GENIUS_GENODEF_13
1002
{
1000
HIER
1070
     0
1002
}
1002
{
1000
MANEDIT
1070
     0
1002
}
1002
{
1000
NOSEL
1070
     0
1002
}
1002
{
1000
BEHIND
1070
     0
1002
}
1002
{
1000
OTHER
1070
     0
1002
}
1002
{
1000
REACTOR
1002
}
1001
GENIUS_GENCEN_19
1002
{
1040
2.794
1002
}
  0
ARC
  5
1E93F
330
1F
100
AcDbEntity
  8
AM_5
  6
AM_ISO09W050
370
    13
100
AcDbCircle
 10
14.9999999999999
 20
-87.77671571621158
 30
0.0
 40
15.0
100
AcDbArc
 50
90.0
 51
270.0
  0
DIMENSION
  5
1E960
330
1F
100
AcDbEntity
  8
AM_5
370
    13
100
AcDbDimension
  2
*D13
 10
124.1719279527149
 20
-11.05819045828282
 30
0.0
 11
145.3375938352953
 21
18.89601527093396
 31
0.0
 70
   163
  1
<>{
 71
     5
 42
25.0
  3
AM_JIS$3
100
AcDbDiametricDimension
 15
135.8280720472842
 25
11.05819045828301
 35
0.0
 40
0.0
1001
ACAD
1000
DSTYLE
1002
{
1070
   179
1070
     0
1070
   271
1070
     0
1070
   272
1070
     3
1070
   274
1070
     3
1002
}
  0
CIRCLE
  5
1ED89
330
1F
100
AcDbEntity
  8
AM_5
  6
AM_ISO09W050
370
    13
100
AcDbCircle
 10
-59.3376688824103
 20
11.5
 30
0.0
 40
15.0
  0
LINE
  5
1ED9E
330
1F
100
AcDbEntity
  8
AM_7
  6
CENTER
370
    13
100
AcDbLine
 10
-41.5436688824103
 20
11.5
 30
0.0
 11
-77.1316688824103
 21
11.5
 31
0.0
1001
GENIUS_GENODEF_13
1002
{
1000
HIER
1070
     0
1002
}
1002
{
1000
MANEDIT
1070
     0
1002
}
1002
{
1000
NOSEL
1070
     0
1002
}
1002
{
1000
BEHIND
1070
     0
1002
}
1002
{
1000
OTHER
1070
     0
1002
}
1002
{
1000
REACTOR
1002
}
1001
GENIUS_GENOBJ-N-CEN_13
1002
{
1000
OWNER
1000
GEN
1002
}
1001
GENIUS_GENCEN_19
1002
{
1040
2.794
1002
}
  0
LINE
  5
1EDAB
330
1F
100
AcDbEntity
  8
AM_7
  6
CENTER
370
    13
100
AcDbLine
 10
-76.35134285416063
 20
-0.0000000000000284
 30
0.0
 11
-41.82701494768629
 21
-0.0000000000000284
 31
0.0
1001
GENIUS_GENOBJ-N-CEN_13
1002
{
1000
OWNER
1000
GEN
1002
}
1001
GENIUS_GENODEF_13
1002
{
1000
HIER
1070
     0
1002
}
1002
{
1000
MANEDIT
1070
     0
1002
}
1002
{
1000
NOSEL
1070
     0
1002
}
1002
{
1000
BEHIND
1070
     0
1002
}
1002
{
1000
OTHER
1070
     0
1002
}
1002
{
1000
REACTOR
1002
}
1001
GENIUS_GENCEN_19
1002
{
1040
2.794
1002
}
  0
DIMENSION
  5
1EDBC
330
1F
100
AcDbEntity
  8
AM_5
370
    13
100
AcDbDimension
  2
*D14
 10
-69.57226448432743
 20
0.5340047024805799
 30
0.0
 11
-22.11432519418629
 21
33.18304293853515
 31
0.0
 70
   163
  1
最小加工径<>
 71
     5
 42
30.00000000000005
  3
AM_JIS$3
100
AcDbDiametricDimension
 15
-49.10307328049319
 25
22.46599529751954
 35
0.0
 40
0.0
1001
ACAD
1000
DSTYLE
1002
{
1070
   179
1070
     0
1070
   271
1070
     0
1002
}
  0
LINE
  5
1F0C3
330
1F
100
AcDbEntity
  8
AM_0
100
AcDbLine
 10
18.89434864682923
 20
-85.1070784047472
 30
0.0
 11
12.92118461315874
 21
-86.03795001896441
 31
0.0
  0
ARC
  5
1F0C4
330
1F
100
AcDbEntity
  8
AM_0
100
AcDbCircle
 10
19.58936493324984
 20
-87.7767157162117
 30
0.0
 40
27.45245896500114
100
AcDbArc
 50
335.9580599423866
 51
24.04194005760984
  0
SPLINE
  5
1F0C5
330
1F
100
AcDbEntity
  8
AM_0
100
AcDbSpline
210
0.0
220
0.0
230
1.0
 70
     8
 71
     3
 72
    14
 73
    10
 74
     0
 42
0.0000000001
 43
0.0000000001
 40
0.0
 40
0.0
 40
0.0
 40
0.0
 40
3.071327501220854
 40
3.071327501220854
 40
6.361878883363113
 40
6.361878883363113
 40
9.076042853386394
 40
9.076042853386394
 40
12.30054251974088
 40
12.30054251974088
 40
12.30054251974088
 40
12.30054251974088
 10
35.99999999999938
 20
-76.14828469663394
 30
0.0
 10
37.02377583373968
 20
-76.14828469663394
 30
0.0
 10
38.03221316240919
 20
-76.09386852260303
 30
0.0
 10
39.99369787046899
 20
-75.93398072689098
 30
0.0
 10
40.90062207155259
 20
-75.83136032752185
 30
0.0
 10
42.33895832277801
 20
-75.76017842526011
 30
0.0
 10
42.88821293923425
 20
-75.7739041652016
 30
0.0
 10
43.90929250393495
 20
-75.98773302816886
 30
0.0
 10
44.32967295025614
 20
-76.21898278289893
 30
0.0
 10
44.66025403784369
 20
-76.59244002530392
 30
0.0
  0
SPLINE
  5
1F0C6
330
1F
100
AcDbEntity
  8
AM_0
100
AcDbSpline
210
0.0
220
0.0
230
1.0
 70
     8
 71
     3
 72
    14
 73
    10
 74
     0
 42
0.0000000001
 43
0.0000000001
 40
0.0
 40
0.0
 40
0.0
 40
0.0
 40
3.643189228897799
 40
3.643189228897799
 40
7.062315744137941
 40
7.062315744137941
 40
9.798472871860959
 40
9.798472871860959
 40
12.40940524140626
 40
12.40940524140626
 40
12.40940524140626
 40
12.40940524140626
 10
44.66025403784369
 20
-98.96099140711948
 30
0.0
 10
44.28930419362618
 20
-99.38005320797134
 30
0.0
 10
43.80683155714718
 20
-99.61850982334914
 30
0.0
 10
42.53622214719266
 20
-99.81220598426518
 30
0.0
 10
41.79352285674602
 20
-99.78085411954504
 30
0.0
 10
40.17997042169552
 20
-99.64736720177592
 30
0.0
 10
39.38700602080297
 20
-99.56432272274009
 30
0.0
 10
37.71594710977982
 20
-99.4429248072629
 30
0.0
 10
36.8624757894485
 20
-99.40514673578946
 30
0.0
 10
35.99999999999938
 20
-99.40514673578946
 30
0.0
  0
SPLINE
  5
1F0C7
330
1F
100
AcDbEntity
  8
AM_0
100
AcDbSpline
210
0.0
220
0.0
230
1.0
 70
    11
 71
     3
 72
    48
 73
    44
 74
     0
 42
0.0000000001
 43
0.0000000001
 40
0.0
 40
0.0
 40
0.0
 40
0.0
 40
0.2165828549249428
 40
0.2165828549249428
 40
0.4331657098498857
 40
0.4331657098498857
 40
0.7610656139788639
 40
0.7610656139788639
 40
1.088965518107842
 40
1.088965518107842
 40
1.819307024543671
 40
1.819307024543671
 40
2.5496485309795
 40
2.5496485309795
 40
3.227384040158181
 40
3.227384040158181
 40
3.905119549336861
 40
3.905119549336861
 40
4.434203016215138
 40
4.434203016215138
 40
4.698744749654276
 40
4.698744749654276
 40
4.963286483093415
 40
4.963286483093415
 40
5.189279576193868
 40
5.189279576193868
 40
5.41527266929432
 40
5.41527266929432
 40
5.867258855495225
 40
5.867258855495225
 40
6.58211166456706
 40
6.58211166456706
 40
7.296964473638894
 40
7.296964473638894
 40
8.1463341351079
 40
8.1463341351079
 40
8.995703796576905
 40
8.995703796576905
 40
9.494989887374487
 40
9.494989887374487
 40
9.744632932773278
 40
9.744632932773278
 40
9.99427597817207
 40
9.99427597817207
 40
9.99427597817207
 40
9.99427597817207
 10
9.814062559088853
 20
-96.16005122831302
 30
0.0
 10
9.741868274113898
 20
-96.16005122831302
 30
0.0
 10
9.664539108826119
 20
-96.17095130027542
 30
0.0
 10
9.519043821867257
 20
-96.2146033566853
 30
0.0
 10
9.450760787547807
 20
-96.24707726211312
 30
0.0
 10
9.305682305135491
 20
-96.33539729326895
 30
0.0
 10
9.224338046399254
 20
-96.40514581817706
 30
0.0
 10
9.084291355850127
 20
-96.5580699933152
 30
0.0
 10
9.0253472117098
 20
-96.64107322970909
 30
0.0
 10
8.874062983925086
 20
-96.89192226085385
 30
0.0
 10
8.798459984882385
 20
-97.08855470482257
 30
0.0
 10
8.711315305361069
 20
-97.48116534719952
 30
0.0
 10
8.700323681265104
 20
-97.67716748570092
 30
0.0
 10
8.732012492612256
 20
-98.01394506899072
 30
0.0
 10
8.773581391489216
 20
-98.18541517776475
 30
0.0
 10
8.924359845974692
 20
-98.50239020309965
 30
0.0
 10
9.033804650378642
 20
-98.6479612391675
 30
0.0
 10
9.277823570620086
 20
-98.85662455148366
 30
0.0
 10
9.416315012683555
 20
-98.94227050324264
 30
0.0
 10
9.654563916262674
 20
-99.03134569443523
 30
0.0
 10
9.738978660997276
 20
-99.05473901684786
 30
0.0
 10
9.91242487745572
 20
-99.08621837297216
 30
0.0
 10
10.00145835090282
 20
-99.09430641278573
 30
0.0
 10
10.16496995974936
 20
-99.09430641278573
 30
0.0
 10
10.24186608994768
 20
-99.0883602120166
 30
0.0
 10
10.3922184121127
 20
-99.06381712053826
 30
0.0
 10
10.46567652093296
 20
-99.04522180289717
 30
0.0
 10
10.67258920567997
 20
-98.97280364151675
 30
0.0
 10
10.79228152929281
 20
-98.90122977351388
 30
0.0
 10
11.02675074351788
 20
-98.70020927824646
 30
0.0
 10
11.1235742577766
 20
-98.54443095965377
 30
0.0
 10
11.231491679279
 20
-98.20581522781066
 30
0.0
 10
11.24230978834819
 20
-98.02282261930765
 30
0.0
 10
11.20710691931174
 20
-97.64869886221584
 30
0.0
 10
11.14677843503725
 20
-97.42447462227796
 30
0.0
 10
10.94810774740247
 20
-96.98553231484397
 30
0.0
 10
10.81086176222311
 20
-96.77063007114049
 30
0.0
 10
10.54360308014154
 20
-96.48358088513095
 30
0.0
 10
10.42044199220268
 20
-96.37548404171184
 30
0.0
 10
10.20924484171289
 20
-96.25412137330255
 30
0.0
 10
10.13447912194116
 20
-96.22042767001852
 30
0.0
 10
9.978490637524914
 20
-96.17339862832921
 30
0.0
 10
9.897276907555124
 20
-96.16005122831302
 30
0.0
 10
9.814062559088853
 20
-96.16005122831302
 30
0.0
  0
ELLIPSE
  5
1F0C8
330
1F
100
AcDbEntity
  8
AM_0
100
AcDbEllipse
 10
19.11231878155721
 20
-87.7767157162117
 30
0.0
 11
-18.83939359999499
 21
3.035076951095406
 31
-8.747814950615557E-16
210
-4.525897838567861E-17
220
7.291343078502004E-18
230
1.0
 40
0.752614342634417
 41
0.4239887762118937
 42
1.141445363999506
  0
ELLIPSE
  5
1F0C9
330
1F
100
AcDbEntity
  8
AM_0
100
AcDbEllipse
 10
21.62640016310189
 20
-87.7767157162117
 30
0.0
 11
166.5028206048898
 21
14.44553566421296
 31
9.740731676564960E-17
210
-5.806484559435894E-19
220
-5.037619151574303E-20
230
1.0
 40
0.0075409368923475
 41
4.610442614226685
 42
4.642466810384191
  0
ELLIPSE
  5
1F0CA
330
1F
100
AcDbEntity
  8
AM_0
100
AcDbEllipse
 10
28.41986294657377
 20
-87.7767157162117
 30
0.0
 11
-18.48387824267347
 21
-0.7144731344052742
 31
8.265120382544343E-16
210
4.464858301032005E-17
220
1.725839817343627E-18
230
1.0
 40
0.7835145111085857
 41
6.191564268945338
 42
6.3905143134156
  0
ELLIPSE
  5
1F0CB
330
1F
100
AcDbEntity
  8
AM_0
100
AcDbEllipse
 10
-11.5696783626934
 20
-87.7767157162117
 30
0.0
 11
166.5028206048906
 21
14.44553566421297
 31
9.740731676553882E-17
210
-5.806484559429263E-19
220
-5.037619151568514E-20
230
1.0
 40
0.0075409368923471
 41
4.841416854853796
 42
4.927293893402638
  0
ARC
  5
1F0CC
330
1F
100
AcDbEntity
  8
AM_0
100
AcDbCircle
 10
23.01736796691384
 20
-75.83715975005225
 30
0.0
 40
10.13782417120206
100
AcDbArc
 50
275.8134660629599
 51
358.2413439538357
  0
LINE
  5
1F0CD
330
1F
100
AcDbEntity
  8
AM_0
100
AcDbLine
 10
33.150416875996
 20
-76.14828469663394
 30
0.0
 11
35.99999999999938
 21
-76.14828469663394
 31
0.0
  0
LINE
  5
1F0CE
330
1F
100
AcDbEntity
  8
AM_0
100
AcDbLine
 10
35.99999999999938
 20
-99.40514673578946
 30
0.0
 11
9.19292591283633
 21
-99.40514673578946
 31
0.0
  0
LINE
  5
1F0D1
330
1F
100
AcDbEntity
  8
AM_0
100
AcDbLine
 10
42.26713457773872
 20
-99.7767157162117
 30
0.0
 11
48.99999999999943
 21
-99.7767157162117
 31
0.0
  0
LINE
  5
1F0D2
330
1F
100
AcDbEntity
  8
AM_0
100
AcDbLine
 10
42.26713457773869
 20
-75.7767157162117
 30
0.0
 11
48.99999999999943
 21
-75.7767157162117
 31
0.0
  0
LINE
  5
1F0D5
330
1F
100
AcDbEntity
  8
AM_0
100
AcDbLine
 10
50.49999999999943
 20
-99.7767157162117
 30
0.0
 11
50.49999999999943
 21
-75.7767157162117
 31
0.0
  0
LINE
  5
1F0D6
330
1F
100
AcDbEntity
  8
AM_0
100
AcDbLine
 10
49.99999999999943
 20
-99.7767157162117
 30
0.0
 11
49.99999999999943
 21
-75.7767157162117
 31
0.0
  0
ELLIPSE
  5
1F0D7
330
1F
100
AcDbEntity
  8
AM_0
100
AcDbEllipse
 10
17.77645101107882
 20
-85.9230012576337
 30
0.0
 11
1.494301091678941
 21
0.1306301933211763
 31
1.036580100810080E-16
210
-6.884279005569636E-17
220
-6.018162620520222E-18
230
1.0
 40
0.0869150343313904
 41
5.067304864634709
 42
7.703729429356741
  0
LINE
  5
1F0D8
330
1F
100
AcDbEntity
  8
AM_0
100
AcDbLine
 10
-57.98692111490087
 20
1.803017862077496
 30
0.0
 11
-58.0861641982321
 21
1.811709365510666
 31
0.0
  0
LINE
  5
1F0D9
330
1F
100
AcDbEntity
  8
AM_0
100
AcDbLine
 10
-58.28791287800928
 20
-1.633827196772387
 30
0.0
 11
-58.38715596134048
 21
-1.625135693339217
 31
0.0
  0
LINE
  5
1F0DA
330
1F
100
AcDbEntity
  8
AM_0
100
AcDbLine
 10
-58.13628053278532
 20
0.701833487496657
 30
0.0
 11
-58.15977386412251
 21
0.7038909847359776
 31
0.0
  0
LINE
  5
1F0DB
330
1F
100
AcDbEntity
  8
AM_0
100
AcDbLine
 10
-58.0312461871234
 20
0.6926347973181066
 30
0.0
 11
-58.13628053278535
 21
0.7018334874966001
 31
0.0
  0
LINE
  5
1F0DC
330
1F
100
AcDbEntity
  8
AM_0
100
AcDbLine
 10
-58.1385534601248
 20
-0.5326428221915478
 30
0.0
 11
-58.24358780578675
 21
-0.5234441320130543
 31
0.0
  0
LINE
  5
1F0DD
330
1F
100
AcDbEntity
  8
AM_0
100
AcDbLine
 10
-58.24358780578672
 20
-0.5234441320129974
 30
0.0
 11
-58.26708113712388
 21
-0.5213866347736769
 31
0.0
  0
ELLIPSE
  5
1F0DE
330
1F
100
AcDbEntity
  8
AM_0
100
AcDbEllipse
 10
-58.13741699645507
 20
0.084595332652583
 30
0.0
 11
0.1504958815541789
 21
1.718422529424948
 31
-7.210530685788641E-17
210
3.646814272736713E-18
220
4.164079270596632E-17
230
1.0
 40
0.0867572354295478
 41
3.931698328389883
 42
10.21488363556947
  0
ELLIPSE
  5
1F0DF
330
1F
100
AcDbEntity
  8
AM_0
100
AcDbEllipse
 10
-58.09811128746361
 20
1.137665288437773
 30
0.0
 11
0.03816924532171202
 21
0.4358318009411097
 31
-1.714984227441286E-17
210
3.419932928003814E-18
220
3.905017022335126E-17
230
1.0
 40
0.0867572354295478
 41
2.854157034900476
 42
4.476225823475543
  0
ELLIPSE
  5
1F0E0
330
1F
100
AcDbEntity
  8
AM_0
100
AcDbEllipse
 10
-58.0583521311458
 20
0.9873897774592422
 30
0.0
 11
0.01635824799501865
 21
0.1867850575461614
 31
-1.295734333750413E-17
210
6.029068392435467E-18
220
6.884232877345602E-17
230
1.0
 40
0.0867572354295477
 41
4.948552137293547
 42
7.617818477065569
  0
ELLIPSE
  5
1F0E1
330
1F
100
AcDbEntity
  8
AM_0
100
AcDbEllipse
 10
-57.99307694180169
 20
1.128466598259223
 30
0.0
 11
0.03816924532171202
 21
0.4358318009411097
 31
-1.714984227441286E-17
210
3.419932928003814E-18
220
3.905017022335126E-17
230
1.0
 40
0.0867572354295478
 41
1.806959483703741
 42
3.429028272279023
  0
ELLIPSE
  5
1F0E2
330
1F
100
AcDbEntity
  8
AM_0
100
AcDbEllipse
 10
-58.03005403320893
 20
0.5300520978499606
 30
0.0
 11
0.01635824799501865
 21
0.1867850575461614
 31
-1.295734333750413E-17
210
6.029068392435467E-18
220
6.884232877345602E-17
230
1.0
 40
0.0867572354295477
 41
3.901354586096943
 42
6.570620925868968
  0
ELLIPSE
  5
1F0E3
330
1F
100
AcDbEntity
  8
AM_0
100
AcDbEllipse
 10
-58.03238265079312
 20
0.0753966424740895
 30
0.0
 11
0.03816924532171202
 21
0.4358318009411097
 31
-1.714984227441286E-17
210
3.419932928003814E-18
220
3.905017022335126E-17
230
1.0
 40
0.0867572354295478
 41
0.7597619325072675
 42
2.381830721082754
  0
ELLIPSE
  5
1F0E4
330
1F
100
AcDbEntity
  8
AM_0
100
AcDbEllipse
 10
-58.10911889851818
 20
-0.3727423469566986
 30
0.0
 11
0.01635824799501865
 21
0.1867850575461614
 31
-1.295734333750413E-17
210
6.029068392435467E-18
220
6.884232877345602E-17
230
1.0
 40
0.0867572354295477
 41
2.854157034900307
 42
5.523423374672403
  0
ELLIPSE
  5
1F0E5
330
1F
100
AcDbEntity
  8
AM_0
100
AcDbEllipse
 10
-58.17672270544651
 20
-0.9684746231326074
 30
0.0
 11
0.03816924532171202
 21
0.4358318009411097
 31
-1.714984227441286E-17
210
3.419932928003814E-18
220
3.905017022335126E-17
230
1.0
 40
0.0867572354295478
 41
5.995749688489982
 42
7.617818477065605
  0
ELLIPSE
  5
1F0E6
330
1F
100
AcDbEntity
  8
AM_0
100
AcDbEllipse
 10
-58.21648186176435
 20
-0.818199112154133
 30
0.0
 11
0.01635824799501865
 21
0.1867850575461614
 31
-1.295734333750413E-17
210
6.029068392435467E-18
220
6.884232877345602E-17
230
1.0
 40
0.0867572354295477
 41
1.806959483703754
 42
4.476225823475775
  0
ELLIPSE
  5
1F0E7
330
1F
100
AcDbEntity
  8
AM_0
100
AcDbEllipse
 10
-58.28175705110843
 20
-0.9592759329541138
 30
0.0
 11
0.03816924532171202
 21
0.4358318009411097
 31
-1.714984227441286E-17
210
3.419932928003814E-18
220
3.905017022335126E-17
230
1.0
 40
0.0867572354295478
 41
4.948552137293407
 42
6.570620925868753
  0
ELLIPSE
  5
1F0E8
330
1F
100
AcDbEntity
  8
AM_0
100
AcDbEllipse
 10
-58.24477995970122
 20
-0.3608614325447945
 30
0.0
 11
0.01635824799501865
 21
0.1867850575461614
 31
-1.295734333750413E-17
210
6.029068392435467E-18
220
6.884232877345602E-17
230
1.0
 40
0.0867572354295477
 41
0.7597619325071509
 42
3.429028272278985
  0
ELLIPSE
  5
1F0E9
330
1F
100
AcDbEntity
  8
AM_0
100
AcDbEllipse
 10
-58.24245134211699
 20
0.0937940228311334
 30
0.0
 11
0.03816924532171202
 21
0.4358318009411097
 31
-1.714984227441286E-17
210
3.419932928003814E-18
220
3.905017022335126E-17
230
1.0
 40
0.0867572354295478
 41
3.901354586096876
 42
5.52342337467227
  0
ELLIPSE
  5
1F0EA
330
1F
100
AcDbEntity
  8
AM_0
100
AcDbEllipse
 10
-58.16571509439194
 20
0.5419330122618078
 30
0.0
 11
0.01635824799501865
 21
0.1867850575461614
 31
-1.295734333750413E-17
210
6.029068392435467E-18
220
6.884232877345602E-17
230
1.0
 40
0.0867572354295477
 41
5.995749688490101
 42
8.665016028262304
  0
LINE
  5
1F0EB
330
1F
100
AcDbEntity
  8
AM_0
100
AcDbLine
 10
-59.26192075889736
 20
-2.78679779934717
 30
0.0
 11
-58.06712727545559
 21
3.20307133338477
 31
0.0
  0
LINE
  5
1F0EC
330
1F
100
AcDbEntity
  8
AM_0
100
AcDbLine
 10
-61.23791288165441
 20
3.206961794942544
 30
0.0
 11
-62.42201413467382
 21
-2.729303880911999
 31
0.0
  0
LINE
  5
1F0ED
330
1F
100
AcDbEntity
  8
AM_0
100
AcDbLine
 10
-58.06712727545559
 20
3.203071333384713
 30
0.0
 11
-57.17254510806754
 21
3.686085906235547
 31
0.0
  0
LINE
  5
1F0EE
330
1F
100
AcDbEntity
  8
AM_0
100
AcDbLine
 10
-58.06712727545559
 20
3.203071333384713
 30
0.0
 11
-61.23791288165441
 21
3.206961794942544
 31
0.0
  0
LINE
  5
1F0EF
330
1F
100
AcDbEntity
  8
AM_0
100
AcDbLine
 10
-60.9820618809172
 20
3.345104233211117
 30
0.0
 11
-61.23791288165441
 21
3.206961794942544
 31
0.0
  0
LINE
  5
1F0F0
330
1F
100
AcDbEntity
  8
AM_0
100
AcDbLine
 10
-57.21139940067505
 20
2.973371471519471
 30
0.0
 11
-58.40619288411679
 21
-3.016497661212469
 31
0.0
  0
LINE
  5
1F0F1
330
1F
100
AcDbEntity
  8
AM_0
100
AcDbLine
 10
-58.40619288411679
 20
-3.016497661212412
 30
0.0
 11
-59.30077505150487
 21
-3.499512234063246
 31
0.0
  0
LINE
  5
1F0F2
330
1F
100
AcDbEntity
  8
AM_0
100
AcDbLine
 10
-57.75888027062786
 20
3.686431030312264
 30
0.0
 11
-57.17078042090236
 21
3.686573672082687
 31
0.0
  0
LINE
  5
1F0F3
330
1F
100
AcDbEntity
  8
AM_0
100
AcDbLine
 10
-62.43454158554761
 20
-2.946435031575476
 30
0.0
 11
-59.303066525182
 21
-3.499953865040112
 31
0.0
  0
ELLIPSE
  5
1F0F4
330
1F
100
AcDbEntity
  8
AM_0
100
AcDbEllipse
 10
-57.20541361046574
 20
3.28808738095367
 30
0.0
 11
0.03489759572271174
 21
0.3984747894318714
 31
-2.240874891476534E-17
210
4.887571626745223E-18
220
5.580825940776744E-17
230
1.0
 40
0.0867572354295477
 41
3.809539029499486
 42
6.340266444891329
  0
ELLIPSE
  5
1F0F5
330
1F
100
AcDbEntity
  8
AM_0
100
AcDbEllipse
 10
-59.26790654910664
 20
-3.101513708781369
 30
0.0
 11
0.03489759572271174
 21
0.3984747894318714
 31
-2.240874891476534E-17
210
4.887571626745223E-18
220
5.580825940776744E-17
230
1.0
 40
0.0867572354295477
 41
0.6679463759096941
 42
3.19867379130146
  0
ELLIPSE
  5
1F0F6
330
1F
100
AcDbEntity
  8
AM_0
100
AcDbEllipse
 10
-62.42383659903791
 20
-2.825123899607519
 30
0.0
 11
0.01062510084282865
 21
0.1213216765613326
 31
-2.546965816780956E-18
210
1.824572342289138E-18
220
2.083370114302132E-17
230
1.0
 40
0.0867572354295478
 41
0.6679463759094677
 42
3.133973577716012
  0
LINE
  5
1F0F7
330
1F
100
AcDbEntity
  8
AM_0
100
AcDbLine
 10
-47.3376688824103
 20
3.499999999999972
 30
0.0
 11
-47.3376688824103
 21
-0.0000000000000284
 31
0.0
  0
LINE
  5
1F0F8
330
1F
100
AcDbEntity
  8
AM_0
100
AcDbLine
 10
-47.3376688824103
 20
-0.0000000000000284
 30
0.0
 11
-47.3376688824103
 21
-3.500000000000028
 31
0.0
  0
LINE
  5
1F0F9
330
1F
100
AcDbEntity
  8
AM_0
100
AcDbLine
 10
-71.3376688824103
 20
3.499999999999972
 30
0.0
 11
-71.3376688824103
 21
-0.0000000000000284
 31
0.0
  0
LINE
  5
1F0FA
330
1F
100
AcDbEntity
  8
AM_0
100
AcDbLine
 10
-71.3376688824103
 20
-0.0000000000000284
 30
0.0
 11
-71.3376688824103
 21
-3.500000000000028
 31
0.0
  0
ARC
  5
1F0FB
330
1F
100
AcDbEntity
  8
AM_0
100
AcDbCircle
 10
-59.33775075397722
 20
-0.0000808401001962
 30
0.0
 40
12.0000992978182
100
AcDbArc
 50
14.29559405189132
 51
74.97782890207957
  0
LINE
  5
1F0FC
330
1F
100
AcDbEntity
  8
AM_0
100
AcDbLine
 10
-57.81949219791736
 20
3.498655339349028
 30
0.0
 11
-57.40756719114029
 21
4.774798604075244
 31
0.0
  0
LINE
  5
1F0FD
330
1F
100
AcDbEntity
  8
AM_0
100
AcDbLine
 10
-57.81949219791736
 20
3.498655339349085
 30
0.0
 11
-58.33431401750431
 21
3.220685969572656
 31
0.0
  0
ARC
  5
1F0FE
330
1F
100
AcDbEntity
  8
AM_0
100
AcDbCircle
 10
-59.3376688824103
 20
-0.0000000000000284
 30
0.0
 40
12.0
100
AcDbArc
 50
74.97810640694682
 51
77.14586364206042
  0
ARC
  5
1F0FF
330
1F
100
AcDbEntity
  8
AM_0
100
AcDbCircle
 10
-59.3376688824103
 20
-0.0000000000000284
 30
0.0
 40
12.0
100
AcDbArc
 50
77.14586364206042
 51
165.7046834566093
  0
LINE
  5
1F100
330
1F
100
AcDbEntity
  8
AM_0
100
AcDbLine
 10
-56.64418830327554
 20
11.69380871956709
 30
0.0
 11
-58.33431401750431
 21
3.2206859695726
 31
0.0
  0
LINE
  5
1F101
330
1F
100
AcDbEntity
  8
AM_0
100
AcDbLine
 10
-58.33431401750431
 20
3.220685969572656
 30
0.0
 11
-59.71031531831525
 21
3.222374283078892
 31
0.0
  0
LINE
  5
1F102
330
1F
100
AcDbEntity
  8
AM_0
100
AcDbLine
 10
-61.17808081143176
 20
3.364021047515536
 30
0.0
 11
-59.71031531831528
 21
3.222374283078892
 31
0.0
  0
LINE
  5
1F103
330
1F
100
AcDbEntity
  8
AM_0
100
AcDbLine
 10
-61.20596890613734
 20
3.224209406455515
 30
0.0
 11
-61.17808081143176
 21
3.364021047515593
 31
0.0
  0
ARC
  5
1F104
330
1F
100
AcDbEntity
  8
AM_0
100
AcDbCircle
 10
-59.3376688824103
 20
-0.0000000000000284
 30
0.0
 40
11.99999999999999
100
AcDbArc
 50
201.2476120144157
 51
338.7523879855842
  0
ARC
  5
1F105
330
1F
100
AcDbEntity
  8
AM_0
100
AcDbCircle
 10
-59.33728409093845
 20
-0.0000233740705937
 30
0.0
 40
11.99963289534049
100
AcDbArc
 50
338.7518261691992
 51
14.2958783597725
  0
ARC
  5
1F106
330
1F
100
AcDbEntity
  8
AM_0
100
AcDbCircle
 10
-59.33539960052505
 20
0.0001378470127236
 30
0.0
 40
12.00216499855764
100
AcDbArc
 50
165.7079960320276
 51
201.2442994390005
  0
ARC
  5
1F107
330
1F
100
AcDbEntity
  8
AM_0
100
AcDbCircle
 10
-59.3376688824103
 20
11.49999999999974
 30
0.0
 40
14.5
100
AcDbArc
 50
216.6822488145996
 51
257.7658513458924
  0
ARC
  5
1F108
330
1F
100
AcDbEntity
  8
AM_0
100
AcDbCircle
 10
-59.3376688824103
 20
11.49999999999974
 30
0.0
 40
14.5
100
AcDbArc
 50
273.7203668448457
 51
277.345554232438
  0
ARC
  5
1F109
330
1F
100
AcDbEntity
  8
AM_0
100
AcDbCircle
 10
-59.33777096234019
 20
11.50017446685732
 30
0.0
 40
14.50018608648623
100
AcDbArc
 50
277.3458661388572
 51
323.3174392831481
  0
ARC
  5
1F10A
330
1F
100
AcDbEntity
  8
AM_0
100
AcDbCircle
 10
-59.3376688824103
 20
-0.0000000000000284
 30
0.0
 40
12.5
100
AcDbArc
 50
16.26020470831033
 51
163.7397952916897
  0
ARC
  5
1F10B
330
1F
100
AcDbEntity
  8
AM_0
100
AcDbCircle
 10
-59.3376688824103
 20
-0.0000000000000284
 30
0.0
 40
12.5
100
AcDbArc
 50
196.2602047083103
 51
343.7397952916896
  0
ELLIPSE
  5
1F10C
330
1F
100
AcDbEntity
  8
AM_0
100
AcDbEllipse
 10
-57.4839544238323
 20
3.373607648997762
 30
0.0
 11
0.1308659839601628
 21
1.494280460369519
 31
-1.036587467000011E-16
210
6.029068392432406E-18
220
6.884232877342437E-17
230
0.9999999999999998
 40
0.0867572354295473
 41
4.930959311535866
 42
6.645699063990273
  0
LINE
  5
1F18C
330
1F
100
AcDbEntity
  8
AM_0
100
AcDbLine
 10
10.20667610059036
 20
-1.134055086705644
 30
0.0
 11
10.21535182413331
 21
-1.125363583272474
 31
0.0
  0
LINE
  5
1F18D
330
1F
100
AcDbEntity
  8
AM_0
100
AcDbLine
 10
7.764942163079354
 20
1.303245752010582
 30
0.0
 11
7.773617886622304
 21
1.311937255443752
 31
0.0
  0
LINE
  5
1F18E
330
1F
100
AcDbEntity
  8
AM_0
100
AcDbLine
 10
8.690088685035192
 20
0.8285872835280657
 30
0.0
 11
8.776845920464751
 21
0.9155023178594774
 31
0.0
  0
LINE
  5
1F18F
330
1F
100
AcDbEntity
  8
AM_0
100
AcDbLine
 10
9.886890198669562
 20
0.3844746473836835
 30
0.0
 11
9.907464477771583
 21
0.4050863481328406
 31
0.0
  0
LINE
  5
1F190
330
1F
100
AcDbEntity
  8
AM_0
100
AcDbLine
 10
9.281529578634689
 20
-0.6593966182230133
 30
0.0
 11
9.368286814064248
 21
-0.5724815838916015
 31
0.0
  0
LINE
  5
1F191
330
1F
100
AcDbEntity
  8
AM_0
100
AcDbLine
 10
8.084728065000348
 20
-0.2152839820786312
 30
0.0
 11
8.171485300429907
 21
-0.1283689477472194
 31
0.0
  0
ELLIPSE
  5
1F192
330
1F
100
AcDbEntity
  8
AM_0
100
AcDbEllipse
 10
8.985809131834856
 20
0.0845953326524977
 30
0.0
 11
1.220866968755508
 21
-1.218650419358127
 31
0.0
210
0.0
220
0.0
230
1.0
 40
0.9924308333117198
 41
-0.0000000000000089
 42
6.283185307179577
  0
ELLIPSE
  5
1F193
330
1F
100
AcDbEntity
  8
AM_0
100
AcDbEllipse
 10
8.380448511800097
 20
1.137665288437745
 30
0.0
 11
0.3096401732350926
 21
-0.3090780049096699
 31
0.0
210
0.0
220
0.0
230
1.0
 40
0.9924308333117198
 41
5.20564401369017
 42
6.827712802265237
  0
ELLIPSE
  5
1F194
330
1F
100
AcDbEntity
  8
AM_0
100
AcDbEllipse
 10
8.467205747229627
 20
1.224580322769157
 30
0.0
 11
-0.3096401732350926
 21
0.3090780049096699
 31
0.0
210
0.0
220
0.0
230
1.0
 40
0.9924308333117198
 41
3.141592653589773
 42
3.68612014867538
  0
ELLIPSE
  5
1F195
330
1F
100
AcDbEntity
  8
AM_0
100
AcDbEllipse
 10
8.985809131834941
 20
0.9873897774591569
 30
0.0
 11
-0.1327029313864482
 21
0.1324620021041242
 31
0.0
210
0.0
220
0.0
230
0.9999999999999999
 40
0.99243083331172
 41
4.158446462493472
 42
6.827712802265495
  0
ELLIPSE
  5
1F196
330
1F
100
AcDbEntity
  8
AM_0
100
AcDbEllipse
 10
9.072566367264471
 20
1.074304811790512
 30
0.0
 11
0.1327029313864482
 21
-0.1324620021041242
 31
0.0
210
0.0
220
0.0
230
0.9999999999999999
 40
0.99243083331172
 41
3.477872246614776
 42
3.686120148675701
  0
ELLIPSE
  5
1F197
330
1F
100
AcDbEntity
  8
AM_0
100
AcDbEllipse
 10
9.591169751869813
 20
1.128466598259138
 30
0.0
 11
0.3096401732350926
 21
-0.3090780049096699
 31
0.0
210
0.0
220
0.0
230
1.0
 40
0.9924308333117198
 41
4.158446462493435
 42
5.780515251068717
  0
ELLIPSE
  5
1F198
330
1F
100
AcDbEntity
  8
AM_0
100
AcDbEllipse
 10
9.76768541806112
 20
0.5300520978498753
 30
0.0
 11
-0.1327029313864482
 21
0.1324620021041242
 31
0.0
210
0.0
220
0.0
230
0.9999999999999999
 40
0.99243083331172
 41
3.111248911296869
 42
5.780515251068893
  0
ELLIPSE
  5
1F199
330
1F
100
AcDbEntity
  8
AM_0
100
AcDbEllipse
 10
10.19653037190466
 20
0.0753966424740611
 30
0.0
 11
0.3096401732350926
 21
-0.3090780049096699
 31
0.0
210
0.0
220
0.0
230
1.0
 40
0.9924308333117198
 41
3.111248911296961
 42
4.733317699872446
  0
ELLIPSE
  5
1F19A
330
1F
100
AcDbEntity
  8
AM_0
100
AcDbEllipse
 10
9.767685418061205
 20
-0.3727423469567839
 30
0.0
 11
-0.1327029313864482
 21
0.1324620021041242
 31
0.0
210
0.0
220
0.0
230
0.9999999999999999
 40
0.99243083331172
 41
2.064051360100233
 42
4.733317699872328
  0
ELLIPSE
  5
1F19B
330
1F
100
AcDbEntity
  8
AM_0
100
AcDbEllipse
 10
9.854442653490764
 20
-0.2858273126253721
 30
0.0
 11
0.1327029313864482
 21
-0.1324620021041242
 31
0.0
210
0.0
220
0.0
230
0.9999999999999999
 40
0.99243083331172
 41
5.205644013690026
 42
5.946905714154689
  0
ELLIPSE
  5
1F19C
330
1F
100
AcDbEntity
  8
AM_0
100
AcDbEllipse
 10
9.591169751869757
 20
-0.9684746231326926
 30
0.0
 11
0.3096401732350926
 21
-0.3090780049096699
 31
0.0
210
0.0
220
0.0
230
1.0
 40
0.9924308333117198
 41
2.06405136010009
 42
3.686120148675713
  0
ELLIPSE
  5
1F19D
330
1F
100
AcDbEntity
  8
AM_0
100
AcDbEllipse
 10
9.677926987299315
 20
-0.8815595888012808
 30
0.0
 11
-0.3096401732350926
 21
0.3090780049096699
 31
0.0
210
0.0
220
0.0
230
1.0
 40
0.9924308333117198
 41
5.205644013689883
 42
6.283185307179473
  0
ELLIPSE
  5
1F19E
330
1F
100
AcDbEntity
  8
AM_0
100
AcDbEllipse
 10
8.985809131834884
 20
-0.8181991121541614
 30
0.0
 11
-0.1327029313864482
 21
0.1324620021041242
 31
0.0
210
0.0
220
0.0
230
0.9999999999999999
 40
0.99243083331172
 41
1.016853808903679
 42
3.6861201486757
  0
ELLIPSE
  5
1F19F
330
1F
100
AcDbEntity
  8
AM_0
100
AcDbEllipse
 10
9.072566367264443
 20
-0.7312840778228065
 30
0.0
 11
0.1327029313864482
 21
-0.1324620021041242
 31
0.0
210
0.0
220
0.0
230
0.9999999999999999
 40
0.99243083331172
 41
4.158446462493619
 42
5.946905714154689
  0
ELLIPSE
  5
1F1A0
330
1F
100
AcDbEntity
  8
AM_0
100
AcDbEllipse
 10
8.380448511799983
 20
-0.9592759329541423
 30
0.0
 11
0.3096401732350926
 21
-0.3090780049096699
 31
0.0
210
0.0
220
0.0
230
1.0
 40
0.9924308333117198
 41
1.016853808903515
 42
2.638922597478861
  0
ELLIPSE
  5
1F1A1
330
1F
100
AcDbEntity
  8
AM_0
100
AcDbEllipse
 10
8.467205747229542
 20
-0.8723608986227873
 30
0.0
 11
-0.3096401732350926
 21
0.3090780049096699
 31
0.0
210
0.0
220
0.0
230
1.0
 40
0.9924308333117198
 41
4.158446462493307
 42
5.780515251068653
  0
ELLIPSE
  5
1F1A2
330
1F
100
AcDbEntity
  8
AM_0
100
AcDbEllipse
 10
8.203932845608733
 20
-0.3608614325448798
 30
0.0
 11
-0.1327029313864482
 21
0.1324620021041242
 31
0.0
210
0.0
220
0.0
230
0.9999999999999999
 40
0.99243083331172
 41
6.252841564886662
 42
8.9221079046585
  0
ELLIPSE
  5
1F1A3
330
1F
100
AcDbEntity
  8
AM_0
100
AcDbEllipse
 10
8.290690081038264
 20
-0.2739463982135248
 30
0.0
 11
0.1327029313864482
 21
-0.1324620021041242
 31
0.0
210
0.0
220
0.0
230
0.9999999999999999
 40
0.99243083331172
 41
3.196997454898633
 42
5.780515251068707
  0
ELLIPSE
  5
1F1A4
330
1F
100
AcDbEntity
  8
AM_0
100
AcDbEllipse
 10
7.775087891765253
 20
0.0937940228310481
 30
0.0
 11
0.3096401732350926
 21
-0.3090780049096699
 31
0.0
210
0.0
220
0.0
230
1.0
 40
0.9924308333117198
 41
6.25284156488657
 42
7.874910353461964
  0
ELLIPSE
  5
1F1A5
330
1F
100
AcDbEntity
  8
AM_0
100
AcDbEllipse
 10
7.861845127194812
 20
0.180709057162403
 30
0.0
 11
-0.3096401732350926
 21
0.3090780049096699
 31
0.0
210
0.0
220
0.0
230
1.0
 40
0.9924308333117198
 41
3.141592653589727
 42
4.733317699872216
  0
ELLIPSE
  5
1F1A6
330
1F
100
AcDbEntity
  8
AM_0
100
AcDbEllipse
 10
8.203932845608762
 20
0.5419330122617794
 30
0.0
 11
-0.1327029313864482
 21
0.1324620021041242
 31
0.0
210
0.0
220
0.0
230
0.9999999999999999
 40
0.99243083331172
 41
5.205644013690026
 42
7.87491035346223
  0
ELLIPSE
  5
1F1A7
330
1F
100
AcDbEntity
  8
AM_0
100
AcDbEllipse
 10
8.290690081038292
 20
0.6288480465931343
 30
0.0
 11
0.1327029313864482
 21
-0.1324620021041242
 31
0.0
210
0.0
220
0.0
230
0.9999999999999999
 40
0.99243083331172
 41
3.477872246614914
 42
4.733317699872329
  0
LINE
  5
1F1A8
330
1F
100
AcDbEntity
  8
AM_0
100
AcDbLine
 10
0.151675937279407
 20
-2.786797799347255
 30
0.0
 11
7.818358811651393
 21
3.203071333384685
 31
0.0
  0
LINE
  5
1F1A9
330
1F
100
AcDbEntity
  8
AM_0
100
AcDbLine
 10
7.818358811651365
 20
3.203071333384685
 30
0.0
 11
17.56774390301598
 21
3.686085906235519
 31
0.0
  0
LINE
  5
1F1AA
330
1F
100
AcDbEntity
  8
AM_0
100
AcDbLine
 10
17.83729377347743
 20
2.973371471519442
 30
0.0
 11
10.1706108991055
 21
-3.016497661212497
 31
0.0
  0
LINE
  5
1F1AB
330
1F
100
AcDbEntity
  8
AM_0
100
AcDbLine
 10
10.1706108991055
 20
-3.016497661212497
 30
0.0
 11
0.4212258077408535
 21
-3.499512234063332
 31
0.0
  0
LINE
  5
1F1AC
330
1F
100
AcDbEntity
  8
AM_0
100
AcDbLine
 10
17.86578119627174
 20
3.685801900299225
 30
0.0
 11
17.58855740186993
 21
3.686572134122685
 31
0.0
  0
LINE
  5
1F1AD
330
1F
100
AcDbEntity
  8
AM_0
100
AcDbLine
 10
17.98769149878669
 20
3.564112932470664
 30
0.0
 11
17.98896550288777
 21
3.286890995466706
 31
0.0
  0
ELLIPSE
  5
1F1AE
330
1F
100
AcDbEntity
  8
AM_0
100
AcDbEllipse
 10
17.59047791769709
 20
3.288087380953584
 30
0.0
 11
-0.283099586957799
 21
0.2825856044888409
 31
0.0
210
0.0
220
0.0
230
1.0
 40
0.99243083331172
 41
3.019433354699357
 42
5.550160770091199
  0
ELLIPSE
  5
1F1AF
330
1F
100
AcDbEntity
  8
AM_0
100
AcDbEllipse
 10
17.86636592636305
 20
3.564477190127434
 30
0.0
 11
0.08619395112175146
 21
-0.08603746138510829
 31
0.0
210
0.0
220
0.0
230
1.0
 40
0.99243083331172
 41
0.7852861947122944
 42
2.356306458877875
  0
ELLIPSE
  5
1F1B0
330
1F
100
AcDbEntity
  8
AM_0
100
AcDbEllipse
 10
0.398491793059776
 20
-3.101513708781454
 30
0.0
 11
-0.283099586957799
 21
0.2825856044888409
 31
0.0
210
0.0
220
0.0
230
1.0
 40
0.99243083331172
 41
6.16102600828915
 42
8.69175342368092
  0
LINE
  5
1F1B1
330
1F
100
AcDbEntity
  8
AM_0
100
AcDbLine
 10
50.4999999999994
 20
3.499999999999858
 30
0.0
 11
107.9999999999996
 21
3.499999999999886
 31
0.0
  0
LINE
  5
1F1B3
330
1F
100
AcDbEntity
  8
AM_0
100
AcDbLine
 10
107.9999999999996
 20
-3.500000000000114
 30
0.0
 11
50.4999999999994
 21
-3.500000000000142
 31
0.0
  0
SPLINE
  5
1F1B4
330
1F
100
AcDbEntity
  8
AM_0
100
AcDbSpline
210
0.0
220
0.0
230
1.0
 70
    12
 71
     2
 72
     6
 73
     3
 74
     0
 42
0.0000000001
 43
0.0000000001
 40
3.543925354178017
 40
3.543925354178017
 40
3.543925354178017
 40
7.087850708356035
 40
7.087850708356035
 40
7.087850708356035
 10
49.99999999999943
 20
-0.0000000000001137
 30
0.0
 41
1.0
 10
49.99999999999945
 20
1.714285714285609
 30
0.0
 41
1.010362971081878
 10
50.49999999999943
 20
3.499999999999886
 30
0.0
 41
1.0
  0
SPLINE
  5
1F1B5
330
1F
100
AcDbEntity
  8
AM_0
100
AcDbSpline
210
0.0
220
0.0
230
1.0
 70
    12
 71
     2
 72
     6
 73
     3
 74
     0
 42
0.0000000001
 43
0.0000000001
 40
0.0
 40
0.0
 40
0.0
 40
3.543925354178017
 40
3.543925354178017
 40
3.543925354178017
 10
50.49999999999943
 20
-3.500000000000114
 30
0.0
 41
1.0
 10
49.9999999999994
 20
-1.714285714285467
 30
0.0
 41
1.010362971081878
 10
49.99999999999943
 20
-0.0000000000001137
 30
0.0
 41
1.0
  0
SPLINE
  5
1F1B6
330
1F
100
AcDbEntity
  8
AM_0
100
AcDbSpline
210
0.0
220
0.0
230
1.0
 70
     8
 71
     3
 72
    28
 73
    24
 74
     0
 42
0.0000000001
 43
0.0000000001
 40
22.34496089380897
 40
22.34496089380897
 40
22.34496089380897
 40
22.34496089380897
 40
23.32186594969724
 40
23.32186594969724
 40
25.15509363572701
 40
25.15509363572701
 40
26.98832132175679
 40
26.98832132175679
 40
28.82154900778657
 40
28.82154900778657
 40
29.86420608898596
 40
29.86420608898596
 40
30.90686317018535
 40
30.90686317018535
 40
31.94952025138474
 40
31.94952025138474
 40
32.99217733258413
 40
32.99217733258413
 40
35.48845213127184
 40
35.48845213127184
 40
37.98472692995955
 40
37.98472692995955
 40
39.05299049948313
 40
39.05299049948313
 40
39.05299049948313
 40
39.05299049948313
 10
24.04422937705991
 20
11.58992228472187
 30
0.0
 10
24.3774524237086
 20
11.58228449887713
 30
0.0
 10
24.7133462270601
 20
11.57006335627864
 30
0.0
 10
25.67658400284793
 20
11.51953721440088
 30
0.0
 10
26.30126014549953
 20
11.46787617609675
 30
0.0
 10
27.49766124748425
 20
11.31266525625028
 30
0.0
 10
28.07038115072712
 20
11.20865083914174
 30
0.0
 10
29.12639116241928
 20
10.93267783828048
 30
0.0
 10
29.60960974894252
 20
10.76020701587811
 30
0.0
 10
30.27825187635611
 20
10.43304570427335
 30
0.0
 10
30.516785570932
 20
10.29571154955477
 30
0.0
 10
30.96692283070232
 20
9.982169040383269
 30
0.0
 10
31.17852918222761
 20
9.805873339723462
 30
0.0
 10
31.56333812958135
 20
9.418513419576982
 30
0.0
 10
31.73675604337939
 20
9.207227102497427
 30
0.0
 10
32.04169405774459
 20
8.760703939243058
 30
0.0
 10
32.17330102540942
 20
8.525459986734859
 30
0.0
 10
32.55335047594687
 20
7.717815191053433
 30
0.0
 10
32.74096157619451
 20
7.064785418205702
 30
0.0
 10
32.99870289102958
 20
5.629479361335541
 30
0.0
 10
33.06979120164638
 20
4.847356094790712
 30
0.0
 10
33.12910613631007
 20
3.680203846723771
 30
0.0
 10
33.14148750888981
 20
3.323705589444728
 30
0.0
 10
33.150416875996
 20
2.963037634911188
 30
0.0
  0
LINE
  5
1F1B7
330
1F
100
AcDbEntity
  8
AM_0
100
AcDbLine
 10
18.30638392955996
 20
1.972416693919854
 30
0.0
 11
14.96808322116189
 21
0.731698507573924
 31
0.0
  0
LINE
  5
1F1B8
330
1F
100
AcDbEntity
  8
AM_0
100
AcDbLine
 10
13.81726102040508
 20
3.500275429928365
 30
0.0
 11
17.24651809259743
 21
4.774798604075272
 31
0.0
  0
ELLIPSE
  5
1F1B9
330
1F
100
AcDbEntity
  8
AM_0
100
AcDbEllipse
 10
0.0764658361142381
 20
-0.0000000000001137
 30
0.0
 11
-137.7954368476833
 21
1.054866287986864
 31
0.0
210
0.0
220
0.0
230
0.9999999999999999
 40
0.0867484879774433
 41
4.538226610047973
 42
4.576061111184626
  0
LINE
  5
1F1BA
330
1F
100
AcDbEntity
  8
AM_0
100
AcDbLine
 10
15.35246404356474
 20
1.03200971922206
 30
0.0
 11
18.55624476759709
 21
2.222731992794252
 31
0.0
  0
ELLIPSE
  5
1F1BB
330
1F
100
AcDbEntity
  8
AM_0
100
AcDbEllipse
 10
3.959577499882727
 20
-0.0000000000001137
 30
0.0
 11
15.69674102798121
 21
11.98051697588725
 31
0.0
210
0.0
220
0.0
230
1.0
 40
0.0435459692536278
 41
0.0569916637986834
 42
0.2813386657450449
  0
LINE
  5
1F1BC
330
1F
100
AcDbEntity
  8
AM_0
100
AcDbLine
 10
18.89434864682923
 20
11.69927504699473
 30
0.0
 11
8.033335984785708
 21
3.213721964832814
 31
0.0
  0
LINE
  5
1F1BD
330
1F
100
AcDbEntity
  8
AM_0
100
AcDbLine
 10
44.68080992636331
 20
-4.342373646153533
 30
0.0
 11
47.06858807733383
 21
-11.99164535861132
 31
0.0
  0
SPLINE
  5
1F1BE
330
1F
100
AcDbEntity
  8
AM_0
100
AcDbSpline
210
0.0
220
0.0
230
1.0
 70
     8
 71
     3
 72
    14
 73
    10
 74
     0
 42
0.0000000001
 43
0.0000000001
 40
0.0
 40
0.0
 40
0.0
 40
0.0
 40
3.071327501220854
 40
3.071327501220854
 40
6.361878883363113
 40
6.361878883363113
 40
9.076042853386394
 40
9.076042853386394
 40
12.30054251974088
 40
12.30054251974088
 40
12.30054251974088
 40
12.30054251974088
 10
35.99999999999938
 20
2.963037634408465
 30
0.0
 10
37.02377583373968
 20
2.963037634408465
 30
0.0
 10
38.03221316240919
 20
2.767952771866476
 30
0.0
 10
39.99369787046899
 20
1.980494302582201
 30
0.0
 10
40.90062207155259
 20
1.375749848433259
 30
0.0
 10
42.33895832277801
 20
-0.0172123781842402
 30
0.0
 10
42.88821293923425
 20
-0.7339222008510546
 30
0.0
 10
43.90929250393495
 20
-2.423918200449521
 30
0.0
 10
44.32967295025614
 20
-3.388328114012893
 30
0.0
 10
44.66025403784369
 20
-4.348790322580499
 30
0.0
  0
ELLIPSE
  5
1F1BF
330
1F
100
AcDbEntity
  8
AM_0
100
AcDbEllipse
 10
-11.5696783626934
 20
11.62499999999989
 30
0.0
 11
166.502819524284
 21
-1.274630097984129
 31
0.0
210
0.0
220
0.0
230
1.0
 40
0.0867484879774433
 41
4.845207023869616
 42
4.928612219870862
  0
SPLINE
  5
1F1C0
330
1F
100
AcDbEntity
  8
AM_0
100
AcDbSpline
210
0.0
220
0.0
230
1.0
 70
     8
 71
     3
 72
    26
 73
    22
 74
     0
 42
0.0000000001
 43
0.0000000001
 40
0.9869809862503072
 40
0.9869809862503072
 40
0.9869809862503072
 40
0.9869809862503072
 40
2.510289401837402
 40
2.510289401837402
 40
4.895978421437038
 40
4.895978421437038
 40
7.281667441036674
 40
7.281667441036674
 40
8.474511950836492
 40
8.474511950836492
 40
9.667356460636309
 40
9.667356460636309
 40
10.82478320528274
 40
10.82478320528274
 40
11.98220994992917
 40
11.98220994992917
 40
13.1396366945756
 40
13.1396366945756
 40
14.29706343922203
 40
14.29706343922203
 40
16.78708868164425
 40
16.78708868164425
 40
16.78708868164425
 40
16.78708868164425
 10
24.04422937706011
 20
-2.756000003131248
 30
0.0
 10
24.5570381777961
 20
-2.750155031594886
 30
0.0
 10
25.0714373994004
 20
-2.738999080819156
 30
0.0
 10
26.37021925931049
 20
-2.690888045577822
 30
0.0
 10
27.14249990337939
 20
-2.643151215628507
 30
0.0
 10
28.57790796665594
 20
-2.47845294435183
 30
0.0
 10
29.24306986883519
 20
-2.360440407233909
 30
0.0
 10
30.1212869110708
 20
-2.102577500185362
 30
0.0
 10
30.39438876128202
 20
-2.003174369859096
 30
0.0
 10
30.89746183385719
 20
-1.774768776472968
 30
0.0
 10
31.1274333639565
 20
-1.645734764983274
 30
0.0
 10
31.53683402601146
 20
-1.362000208388167
 30
0.0
 10
31.72745274083837
 20
-1.200985903669846
 30
0.0
 10
32.07200603571553
 20
-0.8366732593302118
 30
0.0
 10
32.22599130799151
 20
-0.633307640269436
 30
0.0
 10
32.49222516603257
 20
-0.1911123962859165
 30
0.0
 10
32.60467576224434
 20
0.0479134640099801
 30
0.0
 10
32.79079967403979
 20
0.5478595109516391
 30
0.0
 10
32.86458662937508
 20
0.8087685658850319
 30
0.0
 10
33.04825153771606
 20
1.632851383921206
 30
0.0
 10
33.11740511695231
 20
2.268495443726238
 30
0.0
 10
33.150416875996
 20
2.963037634911188
 30
0.0
  0
LINE
  5
1F1C1
330
1F
100
AcDbEntity
  8
AM_0
100
AcDbLine
 10
33.150416875996
 20
2.963037634408465
 30
0.0
 11
35.99999999999938
 21
2.963037634408465
 31
0.0
  0
LINE
  5
1F1C4
330
1F
100
AcDbEntity
  8
AM_0
100
AcDbLine
 10
50.49999999999943
 20
12.49999999999992
 30
0.0
 11
107.9999999999996
 21
12.49999999999989
 31
0.0
  0
LINE
  5
1F1C5
330
1F
100
AcDbEntity
  8
AM_0
100
AcDbLine
 10
50.49999999999943
 20
-12.50000000000009
 30
0.0
 11
107.9999999999996
 21
-12.50000000000011
 31
0.0
  0
LINE
  5
1F1C6
330
1F
100
AcDbEntity
  8
AM_0
100
AcDbLine
 10
49.99999999999943
 20
11.99999999999989
 30
0.0
 11
50.49999999999943
 21
12.49999999999989
 31
0.0
  0
LINE
  5
1F1C7
330
1F
100
AcDbEntity
  8
AM_0
100
AcDbLine
 10
49.99999999999943
 20
-12.00000000000011
 30
0.0
 11
50.49999999999943
 21
-12.50000000000011
 31
0.0
  0
LINE
  5
1F1C8
330
1F
100
AcDbEntity
  8
AM_0
100
AcDbLine
 10
47.04182389825101
 20
-12.00000000000011
 30
0.0
 11
49.99999999999943
 21
-12.00000000000011
 31
0.0
  0
LINE
  5
1F1C9
330
1F
100
AcDbEntity
  8
AM_0
100
AcDbLine
 10
19.6011168874177
 20
11.99999999999989
 30
0.0
 11
49.99999999999943
 21
11.99999999999989
 31
0.0
  0
LINE
  5
1F1CA
330
1F
100
AcDbEntity
  8
AM_0
100
AcDbLine
 10
44.66025403784369
 20
-7.875
 30
0.0
 11
47.04182389825101
 21
-12.00000000000011
 31
0.0
  0
LINE
  5
1F1CB
330
1F
100
AcDbEntity
  8
AM_0
100
AcDbLine
 10
35.9999999999994
 20
-2.875000000000114
 30
0.0
 11
10.3517196465492
 21
-2.875000000000114
 31
0.0
  0
LINE
  5
1F1CF
330
1F
100
AcDbEntity
  8
AM_0
100
AcDbLine
 10
50.49999999999943
 20
3.499999999999886
 30
0.0
 11
50.49999999999943
 21
12.49999999999989
 31
0.0
  0
LINE
  5
1F1D0
330
1F
100
AcDbEntity
  8
AM_0
100
AcDbLine
 10
50.49999999999943
 20
-12.50000000000011
 30
0.0
 11
50.49999999999943
 21
-3.500000000000114
 31
0.0
  0
LINE
  5
1F1D1
330
1F
100
AcDbEntity
  8
AM_0
100
AcDbLine
 10
49.99999999999943
 20
-0.0000000000001137
 30
0.0
 11
49.99999999999943
 21
11.99999999999989
 31
0.0
  0
LINE
  5
1F1D2
330
1F
100
AcDbEntity
  8
AM_0
100
AcDbLine
 10
49.99999999999943
 20
-12.00000000000011
 30
0.0
 11
49.99999999999943
 21
-0.0000000000001137
 31
0.0
  0
ELLIPSE
  5
1F1D3
330
1F
100
AcDbEntity
  8
AM_0
100
AcDbEllipse
 10
17.77645101107882
 20
3.373607648997677
 30
0.0
 11
-1.061623451091724
 21
1.059696016833177
 31
0.0
210
0.0
220
0.0
230
1.0
 40
0.9924308333117202
 41
2.714000735600154
 42
5.855593389190152
  0
ELLIPSE
  5
1F1D4
330
1F
100
AcDbEntity
  8
AM_0
100
AcDbEllipse
 10
18.0263118491159
 20
3.623922947872131
 30
0.0
 11
1.061623451091752
 21
-1.059696016833149
 31
0.0
210
0.0
220
0.0
230
1.0
 40
0.9924308333117198
 41
5.855593389189921
 42
6.164112279317905
  0
ARC
  5
1F1D5
330
1F
100
AcDbEntity
  8
AM_0
100
AcDbCircle
 10
35.99999999999938
 20
-12.87500000000011
 30
0.0
 40
10.0
100
AcDbArc
 50
30.00000000000054
 51
90.0
  0
LINE
  5
1F1D6
330
1F
100
AcDbEntity
  8
AM_0
100
AcDbLine
 10
7.267362876404036
 20
-86.72668855257587
 30
0.0
 11
7.276038599946986
 21
-86.82593163590707
 31
0.0
  0
LINE
  5
1F1D7
330
1F
100
AcDbEntity
  8
AM_0
100
AcDbLine
 10
10.70425538726565
 20
-86.42623910793708
 30
0.0
 11
10.7129311108086
 21
-86.52548219126828
 31
0.0
  0
LINE
  5
1F1D8
330
1F
100
AcDbEntity
  8
AM_0
100
AcDbLine
 10
9.760692553498302
 20
-86.50952995764652
 30
0.0
 11
9.765516424796545
 21
-86.56471104529425
 31
0.0
  0
LINE
  5
1F1D9
330
1F
100
AcDbEntity
  8
AM_0
100
AcDbLine
 10
8.210925710171608
 20
-86.64339770286637
 30
0.0
 11
8.215797133185561
 21
-86.6991227427115
 31
0.0
  0
ELLIPSE
  5
1F1DA
330
1F
100
AcDbEntity
  8
AM_0
100
AcDbEllipse
 10
8.985809131834856
 20
-86.57646383025644
 30
0.0
 11
1.71844625543078
 21
0.1502247223193689
 31
7.210413458521390E-17
210
-4.164069063777787E-17
220
-3.640184363332798E-18
230
1.0
 40
0.0869150343313945
 41
5.494896782624292
 42
11.77808208980388
  0
ELLIPSE
  5
1F1DB
330
1F
100
AcDbEntity
  8
AM_0
100
AcDbEllipse
 10
8.380448511800097
 20
-86.53715812126501
 30
0.0
 11
0.4358378184063573
 21
0.03810047305201385
 31
1.714953710475364E-17
210
-3.905001450273802E-17
220
-3.413710243600593E-18
230
1.0
 40
0.0869150343313945
 41
4.417355489134887
 42
6.039424277709954
  0
ELLIPSE
  5
1F1DC
330
1F
100
AcDbEntity
  8
AM_0
100
AcDbEllipse
 10
8.985809131834941
 20
-86.4973989649472
 30
0.0
 11
0.1867876364598393
 21
0.01632877416514464
 31
1.295725126012999E-17
210
-6.884279005572799E-17
220
-6.018162620523020E-18
230
1.0
 40
0.0869150343313946
 41
0.2285652843483712
 42
2.897831624120395
  0
ELLIPSE
  5
1F1DD
330
1F
100
AcDbEntity
  8
AM_0
100
AcDbEllipse
 10
9.591169751869813
 20
-86.43212377560309
 30
0.0
 11
0.4358378184063573
 21
0.03810047305201385
 31
1.714953710475364E-17
210
-3.905001450273802E-17
220
-3.413710243600593E-18
230
1.0
 40
0.0869150343313945
 41
3.370157937938151
 42
4.992226726513435
  0
ELLIPSE
  5
1F1DE
330
1F
100
AcDbEntity
  8
AM_0
100
AcDbEllipse
 10
9.76768541806112
 20
-86.4691008670103
 30
0.0
 11
0.1867876364598393
 21
0.01632877416514464
 31
1.295725126012999E-17
210
-6.884279005572799E-17
220
-6.018162620523020E-18
230
1.0
 40
0.0869150343313946
 41
5.464553040331356
 42
8.133819380103379
  0
ELLIPSE
  5
1F1DF
330
1F
100
AcDbEntity
  8
AM_0
100
AcDbEllipse
 10
10.19653037190466
 20
-86.47142948459452
 30
0.0
 11
0.4358378184063573
 21
0.03810047305201385
 31
1.714953710475364E-17
210
-3.905001450273802E-17
220
-3.413710243600593E-18
230
1.0
 40
0.0869150343313945
 41
2.322960386741678
 42
3.945029175317163
  0
ELLIPSE
  5
1F1E0
330
1F
100
AcDbEntity
  8
AM_0
100
AcDbEllipse
 10
9.767685418061205
 20
-86.5481657323196
 30
0.0
 11
0.1867876364598393
 21
0.01632877416514464
 31
1.295725126012999E-17
210
-6.884279005572799E-17
220
-6.018162620523020E-18
230
1.0
 40
0.0869150343313946
 41
4.417355489134718
 42
7.086621828906814
  0
ELLIPSE
  5
1F1E1
330
1F
100
AcDbEntity
  8
AM_0
100
AcDbEllipse
 10
9.591169751869757
 20
-86.61576953924788
 30
0.0
 11
0.4358378184063573
 21
0.03810047305201385
 31
1.714953710475364E-17
210
-3.905001450273802E-17
220
-3.413710243600593E-18
230
1.0
 40
0.0869150343313945
 41
1.275762835544807
 42
2.897831624120429
  0
ELLIPSE
  5
1F1E2
330
1F
100
AcDbEntity
  8
AM_0
100
AcDbEllipse
 10
8.985809131834884
 20
-86.65552869556575
 30
0.0
 11
0.1867876364598393
 21
0.01632877416514464
 31
1.295725126012999E-17
210
-6.884279005572799E-17
220
-6.018162620523020E-18
230
1.0
 40
0.0869150343313946
 41
3.370157937938166
 42
6.039424277710186
  0
ELLIPSE
  5
1F1E3
330
1F
100
AcDbEntity
  8
AM_0
100
AcDbEllipse
 10
8.380448511799983
 20
-86.72080388490986
 30
0.0
 11
0.4358378184063573
 21
0.03810047305201385
 31
1.714953710475364E-17
210
-3.905001450273802E-17
220
-3.413710243600593E-18
230
1.0
 40
0.0869150343313945
 41
0.2285652843482322
 42
1.850634072923578
  0
ELLIPSE
  5
1F1E4
330
1F
100
AcDbEntity
  8
AM_0
100
AcDbEllipse
 10
8.203932845608733
 20
-86.68382679350259
 30
0.0
 11
0.1867876364598393
 21
0.01632877416514464
 31
1.295725126012999E-17
210
-6.884279005572799E-17
220
-6.018162620523020E-18
230
1.0
 40
0.0869150343313946
 41
2.32296038674156
 42
4.992226726513398
  0
ELLIPSE
  5
1F1E5
330
1F
100
AcDbEntity
  8
AM_0
100
AcDbEllipse
 10
7.775087891765253
 20
-86.68149817591836
 30
0.0
 11
0.4358378184063573
 21
0.03810047305201385
 31
1.714953710475364E-17
210
-3.905001450273802E-17
220
-3.413710243600593E-18
230
1.0
 40
0.0869150343313945
 41
5.464553040331287
 42
7.086621828906682
  0
ELLIPSE
  5
1F1E6
330
1F
100
AcDbEntity
  8
AM_0
100
AcDbEllipse
 10
8.203932845608762
 20
-86.60476192819334
 30
0.0
 11
0.1867876364598393
 21
0.01632877416514464
 31
1.295725126012999E-17
210
-6.884279005572799E-17
220
-6.018162620523020E-18
230
1.0
 40
0.0869150343313946
 41
1.275762835544925
 42
3.945029175317127
  0
LINE
  5
1F1E7
330
1F
100
AcDbEntity
  8
AM_0
100
AcDbLine
 10
0.151675937279407
 20
-87.70096759269876
 30
0.0
 11
7.818358811651393
 21
-86.50617410925702
 31
0.0
  0
LINE
  5
1F1E8
330
1F
100
AcDbEntity
  8
AM_0
100
AcDbLine
 10
7.818358811651365
 20
-86.50617410925696
 30
0.0
 11
17.56774390301598
 21
-85.61159194186888
 31
0.0
  0
LINE
  5
1F1E9
330
1F
100
AcDbEntity
  8
AM_0
100
AcDbLine
 10
17.83729377347743
 20
-85.65044623447642
 30
0.0
 11
10.1706108991055
 21
-86.84523971791816
 31
0.0
  0
LINE
  5
1F1EA
330
1F
100
AcDbEntity
  8
AM_0
100
AcDbLine
 10
10.1706108991055
 20
-86.84523971791822
 30
0.0
 11
0.4212258077408535
 21
-87.7398218853063
 31
0.0
  0
LINE
  5
1F1EB
330
1F
100
AcDbEntity
  8
AM_0
100
AcDbLine
 10
10.1706108991055
 20
-86.84523971791822
 30
0.0
 11
10.18691545281746
 21
-87.14156750033908
 31
0.0
  0
LINE
  5
1F1EC
330
1F
100
AcDbEntity
  8
AM_0
100
AcDbLine
 10
0.6813015163466503
 20
-90.8728907455295
 30
0.0
 11
10.09711741210677
 21
-90.00891615504821
 31
0.0
  0
LINE
  5
1F1ED
330
1F
100
AcDbEntity
  8
AM_0
100
AcDbLine
 10
17.98879800707101
 20
-86.03748872597009
 30
0.0
 11
17.98896971051056
 21
-85.6098911004118
 31
0.0
  0
LINE
  5
1F1EE
330
1F
100
AcDbEntity
  8
AM_0
100
AcDbLine
 10
0.5530670206237858
 20
-90.87356956897895
 30
0.0
 11
0.0000462203055065
 21
-87.74205144591514
 31
0.0
  0
ELLIPSE
  5
1F1EF
330
1F
100
AcDbEntity
  8
AM_0
100
AcDbEllipse
 10
17.59047791769709
 20
-85.64446044426717
 30
0.0
 11
0.3984802911143842
 21
0.03483471821898051
 31
2.240851635405267E-17
210
-5.580845075127712E-17
220
-4.878714705617756E-18
230
0.9999999999999999
 40
0.0869150343313946
 41
5.372737483733907
 42
7.90346489912575
  0
ELLIPSE
  5
1F1F0
330
1F
100
AcDbEntity
  8
AM_0
100
AcDbEllipse
 10
0.398491793059776
 20
-87.70695338290801
 30
0.0
 11
0.3984802911143842
 21
0.03483471821898051
 31
2.240851635405267E-17
210
-5.580845075127712E-17
220
-4.878714705617756E-18
230
0.9999999999999999
 40
0.0869150343313946
 41
2.231144830144115
 42
4.761872245535885
  0
ELLIPSE
  5
1F1F1
330
1F
100
AcDbEntity
  8
AM_0
100
AcDbEllipse
 10
0.6743798017257348
 20
-90.86288343283928
 30
0.0
 11
0.1213233516317862
 21
0.01060595683579956
 31
2.546865493612407E-18
210
-2.083316815488108E-17
220
-1.821213140189359E-18
230
0.9999999999999999
 40
0.0869150343313946
 41
3.149225693121262
 42
4.761872245535809
  0
LINE
  5
1F1F3
330
1F
100
AcDbEntity
  8
AM_0
100
AcDbLine
 10
248.9999999999996
 20
-75.77671571621166
 30
0.0
 11
49.49999999999949
 21
-75.7767157162117
 31
0.0
  0
LINE
  5
1F1F4
330
1F
100
AcDbEntity
  8
AM_0
100
AcDbLine
 10
48.9999999999994
 20
-75.7767157162117
 30
0.0
 11
49.4999999999994
 21
-75.7767157162117
 31
0.0
  0
LINE
  5
1F1F6
330
1F
100
AcDbEntity
  8
AM_0
100
AcDbLine
 10
48.9999999999994
 20
-99.7767157162117
 30
0.0
 11
49.4999999999994
 21
-99.7767157162117
 31
0.0
  0
LINE
  5
1F1F7
330
1F
100
AcDbEntity
  8
AM_0
100
AcDbLine
 10
49.49999999999946
 20
-99.7767157162117
 30
0.0
 11
248.9999999999996
 21
-99.77671571621168
 31
0.0
  0
ARC
  5
1F1F8
330
1F
100
AcDbEntity
  8
AM_0
100
AcDbCircle
 10
23.34956476017206
 20
-74.79735763414823
 30
0.0
 40
9.893518389546127
100
AcDbArc
 50
274.0262852415024
 51
352.1519337429868
  0
LINE
  5
1F1F9
330
1F
100
AcDbEntity
  8
AM_0
100
AcDbLine
 10
9.977556734144997
 20
-87.16077779663533
 30
0.0
 11
10.18691545281709
 21
-87.14156750033908
 31
0.0
  0
LINE
  5
1F1FA
330
1F
100
AcDbEntity
  8
AM_0
100
AcDbLine
 10
10.18691545281709
 20
-87.14156750033908
 30
0.0
 11
14.87276780985005
 21
-86.41131349710281
 31
0.0
  0
LINE
  5
1F1FB
330
1F
100
AcDbEntity
  8
AM_0
100
AcDbLine
 10
18.30638392955996
 20
-85.9993884903256
 30
0.0
 11
14.87276780985002
 21
-86.41131349710281
 31
0.0
  0
ELLIPSE
  5
1F1FC
330
1F
100
AcDbEntity
  8
AM_0
100
AcDbEllipse
 10
0.0764658361142381
 20
-87.7767157162117
 30
0.0
 11
-137.7954377419784
 21
-11.95492606693487
 31
8.017793459011550E-17
210
5.775150627470224E-19
220
5.010434300887306E-20
230
1.0
 40
0.0075409368923471
 41
4.536908283579763
 42
4.574742784716416
  0
LINE
  5
1F1FD
330
1F
100
AcDbEntity
  8
AM_0
100
AcDbLine
 10
9.977556734144969
 20
-87.16077779663533
 30
0.0
 11
9.962293381755558
 21
-87.16315647255937
 31
0.0
  0
DIMENSION
  5
1F425
330
1F
100
AcDbEntity
  8
AM_5
370
    13
100
AcDbDimension
  2
*D15
 10
0.0
 20
-5.303621898548499
 30
0.0
 11
10.32688190766793
 21
13.72586834026489
 31
0.0
 70
   162
 71
     5
 42
0.9075712110370587
  3
AM_JIS$2
100
AcDb2LineAngularDimension
 13
0.151675937279407
 23
-2.786797799347255
 33
0.0
 14
7.818358811651393
 24
3.203071333384685
 34
0.0
 15
0.0
 25
-3.098486089853395
 35
0.0
 16
5.832438987680886
 26
15.78220667244657
 36
0.0
1001
ACAD
1000
DSTYLE
1002
{
1070
   271
1070
     0
1002
}
  0
HATCH
  5
1F4A9
330
1F
100
AcDbEntity
  8
AM_5
370
    13
100
AcDbHatch
 10
0.0
 20
0.0
 30
0.0
210
0.0
220
0.0
230
1.0
  2
LINE
 70
     0
 71
     1
 91
        4
 92
        7
 72
     1
 73
     1
 93
        4
 10
129.9999999999996
 20
12.5
 42
0.3333333333333333
 10
117.9999999999996
 20
3.499999999999997
 42
0.0
 10
117.9999999999995
 20
0.0
 42
0.0
 10
129.9999999999996
 20
0.0
 42
0.0
 97
        4
330
1E876
330
1E878
330
1E81D
330
1E886
 92
        7
 72
     1
 73
     1
 93
        4
 10
141.9999999999996
 20
0.0
 42
0.0
 10
141.9999999999996
 20
3.5
 42
0.3333333333333334
 10
129.9999999999996
 20
12.5
 42
0.0
 10
129.9999999999996
 20
0.0
 42
0.0
 97
        4
330
1E886
330
1E81D
330
1E879
330
1E876
 92
        7
 72
     1
 73
     1
 93
        4
 10
129.9999999999996
 20
0.0
 42
0.0
 10
117.9999999999996
 20
0.0
 42
0.0
 10
117.9999999999996
 20
-3.5
 42
0.3333333333333336
 10
129.9999999999996
 20
-12.50000000000001
 42
0.0
 97
        4
330
1E81D
330
1E878
330
1E83A
330
1E886
 92
        7
 72
     1
 73
     1
 93
        4
 10
129.9999999999995
 20
0.0
 42
0.0
 10
129.9999999999996
 20
-12.5
 42
0.3333333333333333
 10
141.9999999999996
 20
-3.5
 42
0.0
 10
141.9999999999996
 20
0.0
 42
0.0
 97
        4
330
1E81D
330
1E886
330
1E83A
330
1E879
 75
     0
 76
     1
 52
45.0
 41
0.5
 77
     0
 78
     1
 53
45.0
 43
-112.1908449031586
 44
-173.9922859107905
 45
-1.122532015133644
 46
1.122532015133644
 79
     0
 47
0.1597135204394148
 98
        4
 10
127.1410319146892
 20
6.48181870720498
 10
135.9292788625401
 20
4.565255991115578
 10
127.6203905973664
 20
-3.260706315760444
 10
133.8520567962466
 20
-3.42041993592477
  0
TEXT
  5
1F57B
330
1F
100
AcDbEntity
  8
AM_6
  6
Continuous
 62
     0
370
    30
100
AcDbText
 10
112.8874248959673
 20
-127.0890536234433
 30
0.0
 40
3.8
  1
S25S-SVJBR1103-30
  7
ACISOTS
100
AcDbText
  0
ENDSEC
  0
SECTION
  2
OBJECTS
  0
DICTIONARY
  5
C
330
0
100
AcDbDictionary
281
     1
  3
ACAD_COLOR
350
ED4C
  3
ACAD_GROUP
350
D
  3
ACAD_LAYOUT
350
1A
  3
ACAD_MATERIAL
350
ED4B
  3
ACAD_MLINESTYLE
350
17
  3
ACAD_PLOTSETTINGS
350
19
  3
ACAD_PLOTSTYLENAME
350
E
  3
ACAD_TABLESTYLE
350
ED4D
  3
AcAmCatalogState
350
EDB4
  3
ACDBHEADERROUNDTRIPXREC
350
1F5E5
  3
AcDbVariableDictionary
350
30
  3
ACDMSYSVARMGR
350
ED67
  3
ACGREF_MASTER
350
ED5F
  3
ACGREFACAD_MASTER
350
ED87
  3
AcmDictionary
350
4D
  3
ACME_BOM_MANAGER_NAME
350
36
  3
ACME_COMMAND_HISTORY
350
2F
  3
ACME_SCOPE_NAME
350
2E
  3
ACMESTATEMGR
350
3B
  3
AcmeSysVarManager
350
32
  3
AcmSystemVariableManager
350
6A
  3
AD_APPL
350
ED92
  3
ADSYSVARMGR
350
ED91
  3
AmdtNamedDwgMgr
350
ED82
  3
AMG
350
3F
  3
AMGSNAPSETTINGS
350
73
  3
AMI_MASTER
350
ED8A
  3
AUTOCAD_ASSEMBLIES_PROJECT
350
ED9A
  3
Designer_Assemblies_SysVars
350
ED95
  3
DWGPROPS
350
1F5E8
  3
FILENAME
350
217A
  3
GREFAM_MODULE
350
ED8B
  3
ZWKSIZE
350
217C
  0
DICTIONARY
  5
EDC8
330
2
100
AcDbDictionary
280
     1
281
     1
  3
ACAD_LAYERSTATES
360
F5B5
  3
AMLAYER_GROUPCOLORS
360
EDC9
  0
DICTIONARY
  5
165
330
1F
100
AcDbDictionary
280
     1
281
     1
  3
ACAD_SORTENTS
360
F11C
  0
DICTIONARY
  5
ED4C
102
{ACAD_REACTORS
330
C
102
}
330
C
100
AcDbDictionary
281
     1
  0
DICTIONARY
  5
D
102
{ACAD_REACTORS
330
C
102
}
330
C
100
AcDbDictionary
281
     1
  0
DICTIONARY
  5
1A
102
{ACAD_REACTORS
330
C
102
}
330
C
100
AcDbDictionary
281
     1
  3
Model
350
22
  3
ﾚｲｱｳﾄ1
350
1E
  3
ﾚｲｱｳﾄ2
350
26
  0
DICTIONARY
  5
ED4B
102
{ACAD_REACTORS
330
C
102
}
330
C
100
AcDbDictionary
281
     1
  0
DICTIONARY
  5
17
102
{ACAD_REACTORS
330
C
102
}
330
C
100
AcDbDictionary
281
     1
  3
Standard
350
18
  0
DICTIONARY
  5
19
102
{ACAD_REACTORS
330
C
102
}
330
C
100
AcDbDictionary
281
     1
  0
ACDBDICTIONARYWDFLT
  5
E
102
{ACAD_REACTORS
330
C
102
}
330
C
100
AcDbDictionary
281
     1
  3
Normal
350
F
100
AcDbDictionaryWithDefault
340
F
  0
DICTIONARY
  5
ED4D
102
{ACAD_REACTORS
330
C
102
}
330
C
100
AcDbDictionary
281
     1
  3
Standard
350
ED4E
  0
ACAD_PROXY_OBJECT
  5
EDB4
102
{ACAD_REACTORS
330
C
102
}
330
C
100
AcDbProxyObject
 90
      499
 91
      571
 95
       25
 70
     0
 93
      184
310
3FFFFFFFE00A028140285221D2E31B0B2483ECB65400AA
  0
DICTIONARY
  5
1F5E5
102
{ACAD_REACTORS
330
C
102
}
330
C
100
AcDbDictionary
281
     1
  3
COLORDICT
350
1F5E6
  3
MATERIALDICT
350
1F5E7
  0
DICTIONARY
  5
30
102
{ACAD_REACTORS
330
C
102
}
330
C
100
AcDbDictionary
281
     1
  3
CTABLESTYLE
350
EE09
  3
HIDETEXT
350
1F5E4
  3
INDEXCTL
350
1F5E3
  0
ACAD_PROXY_OBJECT
  5
ED67
102
{ACAD_REACTORS
330
C
102
}
330
C
100
AcDbProxyObject
 90
      499
 91
      507
 95
       25
 70
     0
 93
      240
310
4C51A47A0000000000000000000000000000000000000000000000000000
330
ED68
330
ED69
330
ED6A
330
ED6B
330
ED6C
330
ED6D
330
ED6E
330
ED6F
330
ED70
330
ED71
330
ED72
330
ED73
330
ED74
330
ED75
330
ED76
330
ED77
330
ED78
330
ED79
330
ED7A
330
ED7B
330
ED7C
330
ED7D
330
ED7E
330
ED7F
330
ED80
330
ED81
 94
        0
  0
ACAD_PROXY_OBJECT
  5
ED5F
102
{ACAD_REACTORS
330
C
102
}
330
C
100
AcDbProxyObject
 90
      499
 91
      535
 95
       25
 70
     0
 93
       34
310
0400004280
  0
ACAD_PROXY_OBJECT
  5
ED87
102
{ACAD_REACTORS
330
C
102
}
330
C
100
AcDbProxyObject
 90
      499
 91
      541
 95
       25
 70
     0
 93
      114
310
04000041C080000000000000000000
  0
DICTIONARY
  5
4D
102
{ACAD_REACTORS
330
C
102
}
330
C
100
AcDbDictionary
281
     1
  3
AcmBOMDATA
350
4E
  3
AcmStdDictionary
350
17E
  3
AMDTSECTSYM_ARROWCOLOR
350
EDA8
  0
ACAD_PROXY_OBJECT
  5
36
102
{ACAD_REACTORS
330
C
102
}
330
C
100
AcDbProxyObject
 90
      499
 91
      510
 95
       25
 70
     0
 93
       50
310
00010040400000
330
0
330
0
330
37
 94
        0
  0
ACAD_PROXY_OBJECT
  5
2F
102
{ACAD_REACTORS
330
C
102
}
330
C
100
AcDbProxyObject
 90
      499
 91
      505
 95
       25
 70
     0
 93
     5016
310
4780504554E444F8050C475249505F5354524554434840405184D5347202D20436F6D6D616E642043414E43454C4C45442E014115539113D0101461354D1C80B4810DBDB5B585B990810D05390D1531311510B80505584C494E45805044D4F564580505455241534580506455854454E4440405184D5347202D20436F6D6D6
310
16E642043414E43454C4C45442E01415454D05591501014B5354D1C80B481414104E88080819195CDADD1BDC0B985C9E08119A5B1955995C9CDA5BDB8E880E4B8C8B8C0B8D005055153415645404052D4D5347202D205050413A2020206465736B746F702E6172782046696C6556657273696F6E3A20392E322E302E340141
310
5454D05591501014B5354D1C80B481414104E88080819195CDADD1BDC0B985C9E08119A5B1955995C9CDA5BDB8E880E4B8C8B8C0B8D005055153415645404052D4D5347202D205050413A2020206465736B746F702E6172782046696C6556657273696F6E3A20392E322E302E34014390535115149154D15511109353D1102
310
014213880B4815539113C05084E202D20554E444F014115539113E014115539113E0142541054D51150D31254201419111115112552014151549054D1601411353D591601411353D591601411353D591601411353D5916014151549054D16014151549054D16014115539113E014151549054D16014390535413D5D1549112
310
5357D05391D0101461354D1C80B4810DBDB5B585B990810D05390D1531311510B8050E414D504F57455244494D5F414E47805045A4F4F4D805055055524745805055153415645404052D4D5347202D205050413A2020206465736B746F702E6172782046696C6556657273696F6E3A20392E322E302E34
  0
ACAD_PROXY_OBJECT
  5
2E
102
{ACAD_REACTORS
330
C
102
}
330
C
100
AcDbProxyObject
 90
      499
 91
      504
 95
       25
 70
     0
 93
      594
310
09000046408000000000000000001354E60000000000000000000000000000000000000000000000000000000000000000000000000000000000000000000000000000000000AAA406AA80
360
33
360
34
360
35
360
37
360
6B
360
6C
360
ED60
360
ED61
360
ED62
360
ED63
360
ED64
360
ED65
360
ED68
360
ED69
360
ED6A
360
ED6B
360
ED6C
360
ED6D
360
ED6E
360
ED6F
360
ED70
360
ED71
360
ED72
360
ED73
360
ED74
360
ED75
360
ED76
360
ED77
360
ED78
360
ED79
360
ED7A
360
ED7B
360
ED7C
360
ED7D
360
ED7E
360
ED7F
360
ED80
360
ED81
360
ED8D
360
ED8E
360
ED8F
360
ED90
360
ED96
360
ED97
360
ED98
360
ED99
360
ED9E
360
ED9F
360
EDA0
360
EDA1
360
EDA2
360
EDA3
360
EDCB
 94
        0
  0
ACAD_PROXY_OBJECT
  5
3B
102
{ACAD_REACTORS
330
C
102
}
330
C
100
AcDbProxyObject
 90
      499
 91
      515
 95
       25
 70
     0
 93
       50
310
09000042641280
  0
ACAD_PROXY_OBJECT
  5
32
102
{ACAD_REACTORS
330
C
102
}
330
C
100
AcDbProxyObject
 90
      499
 91
      507
 95
       25
 70
     0
 93
       48
310
903412000000
330
33
330
34
330
35
 94
        0
  0
ACAD_PROXY_OBJECT
  5
6A
102
{ACAD_REACTORS
330
C
102
}
330
C
100
AcDbProxyObject
 90
      499
 91
      507
 95
       25
 70
     0
 93
       48
310
903412000000
330
6B
330
6C
330
EDCB
 94
        0
  0
ACAD_PROXY_OBJECT
  5
ED92
102
{ACAD_REACTORS
330
C
102
}
330
C
100
AcDbProxyObject
 90
      499
 91
      551
 95
       25
 70
     0
 93
       42
310
000900004040
330
ED8D
 94
        0
  0
ACAD_PROXY_OBJECT
  5
ED91
102
{ACAD_REACTORS
330
C
102
}
330
C
100
AcDbProxyObject
 90
      499
 91
      507
 95
       25
 70
     0
 93
        8
310
AA
  0
ACAD_PROXY_OBJECT
  5
ED82
102
{ACAD_REACTORS
330
C
102
}
330
C
100
AcDbProxyObject
 90
      499
 91
      540
 95
       25
 70
     0
 93
       42
310
000100005E80
330
ED60
 94
        0
  0
DICTIONARY
  5
3F
102
{ACAD_REACTORS
330
C
102
}
330
C
100
AcDbDictionary
281
     1
  3
AcMgSettings
350
40
  3
AMGLAYCFG
350
42
  0
DICTIONARY
  5
73
102
{ACAD_REACTORS
330
C
102
}
330
C
100
AcDbDictionary
281
     1
  3
DIMENSION
350
62F
  3
FEA
350
630
  3
HATCH (1)
350
631
  3
HATCH (2)
350
632
  3
SYMBOLS
350
633
  0
ACAD_PROXY_OBJECT
  5
ED8A
102
{ACAD_REACTORS
330
C
102
}
330
C
100
AcDbProxyObject
 90
      499
 91
      544
 95
       25
 70
     0
 93
       34
310
0500004280
  0
ACAD_PROXY_OBJECT
  5
ED9A
102
{ACAD_REACTORS
330
C
102
}
330
C
100
AcDbProxyObject
 90
      499
 91
      554
 95
       25
 70
     0
 93
       98
310
0900004E400000000000000000
330
EDA1
330
0
330
EDA2
330
0
330
0
330
0
330
0
330
0
 94
        0
  0
ACAD_PROXY_OBJECT
  5
ED95
102
{ACAD_REACTORS
330
C
102
}
330
C
100
AcDbProxyObject
 90
      499
 91
      507
 95
       25
 70
     0
 93
       56
310
90441600000000
330
ED96
330
ED97
330
ED98
330
ED99
 94
        0
  0
XRECORD
  5
1F5E8
102
{ACAD_REACTORS
330
C
102
}
330
C
100
AcDbXrecord
280
     1
  1
DWGPROPS COOKIE
  2

  3

  4

  6

  7

  8

  9

300
AmdtFileType=84
301
=
302
=
303
=
304
=
305
=
306
=
307
=
308
=
309
=
 40
0.0
 41
2451943.235431667
 42
2455468.199031389
  1

 90
        1
  0
DICTIONARY
  5
217A
102
{ACAD_REACTORS
330
C
102
}
330
C
100
AcDbDictionary
281
     1
  3
FILENAME
350
217B
  0
ACAD_PROXY_OBJECT
  5
ED8B
102
{ACAD_REACTORS
330
C
102
}
330
C
100
AcDbProxyObject
 90
      499
 91
      545
 95
       25
 70
     0
 93
        8
310
05
  0
DICTIONARY
  5
217C
102
{ACAD_REACTORS
330
C
102
}
330
C
100
AcDbDictionary
281
     1
  3
ZWKSIZE
350
217D
  0
DICTIONARY
  5
F5B5
102
{ACAD_REACTORS
330
EDC8
102
}
330
EDC8
100
AcDbDictionary
281
     1
  0
DICTIONARY
  5
EDC9
102
{ACAD_REACTORS
330
EDC8
102
}
330
EDC8
100
AcDbDictionary
280
     1
281
     1
  3
基本画層グループ
360
EDCA
  0
SORTENTSTABLE
  5
F11C
102
{ACAD_REACTORS
330
165
102
}
330
165
100
AcDbSortentsTable
330
1F
331
0
  5
1C533
331
17604
  5
17B10
331
1814D
  5
1814E
331
1814E
  5
1814F
331
1814F
  5
18150
331
18151
  5
18152
331
1BAC8
  5
1BAC8
331
1BACB
  5
1BACB
331
1BACC
  5
1BACC
331
1C724
  5
1C731
331
1C7B1
  5
1C7D9
331
1C7D9
  5
1C7F2
331
1C7F2
  5
1C7FF
331
1C7FF
  5
1C80C
331
1C80C
  5
1C81C
331
1C81C
  5
1C84E
331
1C8D1
  5
1C8F3
331
1CA4B
  5
1CAA4
331
1E066
  5
1E069
331
1E067
  5
1E06A
331
1E07A
  5
1E07E
331
1E07B
  5
1E07F
331
1E085
  5
1E08B
331
1E086
  5
1E08C
331
1E087
  5
1E08D
331
1E0AB
  5
1E0B1
331
1E0AE
  5
1E0B5
331
1E0C3
  5
1E0CB
331
1E0C4
  5
1E0CC
331
1E0C7
  5
1E0CF
331
1E0C8
  5
1E0D0
331
1E4FA
  5
1E672
331
1E4FB
  5
1E673
331
1E803
  5
1E081
331
1E804
  5
1E068
331
1E806
  5
1E083
331
1E81D
  5
1E8CE
331
1E83A
  5
1E8CF
331
1E876
  5
1E8D6
331
1E878
  5
1E93F
331
1E879
  5
1E960
331
1E886
  5
1ED1F
331
1E8D6
  5
1ED21
331
1E93F
  5
1ED5B
331
1E960
  5
1EDFE
331
1ED89
  5
1EE0D
331
1ED9E
  5
1EEC0
331
1EDAB
  5
1EEC1
331
1EDBC
  5
1F0C3
331
1F0C3
  5
1F0C4
331
1F0C4
  5
1F0C5
331
1F0C5
  5
1F0C6
331
1F0C6
  5
1F0C7
331
1F0C7
  5
1F0C8
331
1F0C8
  5
1F0C9
331
1F0C9
  5
1F0CA
331
1F0CA
  5
1F0CB
331
1F0CB
  5
1F0CC
331
1F0CC
  5
1F0CD
331
1F0CD
  5
1F0CE
331
1F0CE
  5
1F0D1
331
1F0D1
  5
1F0D2
331
1F0D2
  5
1F0D5
331
1F0D5
  5
1F0D6
331
1F0D6
  5
1F0D7
331
1F0D7
  5
1F0D8
331
1F0D8
  5
1F0D9
331
1F0D9
  5
1F0DA
331
1F0DA
  5
1F0DB
331
1F0DB
  5
1F0DC
331
1F0DC
  5
1F0DD
331
1F0DD
  5
1F0DE
331
1F0DE
  5
1F0DF
331
1F0DF
  5
1F0E0
331
1F0E0
  5
1F0E1
331
1F0E1
  5
1F0E2
331
1F0E2
  5
1F0E3
331
1F0E3
  5
1F0E4
331
1F0E4
  5
1F0E5
331
1F0E5
  5
1F0E6
331
1F0E6
  5
1F0E7
331
1F0E7
  5
1F0E8
331
1F0E8
  5
1F0E9
331
1F0E9
  5
1F0EA
331
1F0EA
  5
1F0EB
331
1F0EB
  5
1F0EC
331
1F0EC
  5
1F0ED
331
1F0ED
  5
1F0EE
331
1F0EE
  5
1F0EF
331
1F0EF
  5
1F0F0
331
1F0F0
  5
1F0F1
331
1F0F1
  5
1F0F2
331
1F0F2
  5
1F0F3
331
1F0F3
  5
1F0F4
331
1F0F4
  5
1F0F5
331
1F0F5
  5
1F0F6
331
1F0F6
  5
1F0F7
331
1F0F7
  5
1F0F8
331
1F0F8
  5
1F0F9
331
1F0F9
  5
1F0FA
331
1F0FA
  5
1F0FB
331
1F0FB
  5
1F0FC
331
1F0FC
  5
1F0FD
331
1F0FD
  5
1F0FE
331
1F0FE
  5
1F0FF
331
1F0FF
  5
1F100
331
1F100
  5
1F101
331
1F101
  5
1F102
331
1F102
  5
1F103
331
1F103
  5
1F104
331
1F104
  5
1F105
331
1F105
  5
1F106
331
1F106
  5
1F107
331
1F107
  5
1F108
331
1F108
  5
1F109
331
1F109
  5
1F10A
331
1F10A
  5
1F10B
331
1F10B
  5
1F10C
331
1F10C
  5
1F18C
331
1F18C
  5
1F18D
331
1F18D
  5
1F18E
331
1F18E
  5
1F18F
331
1F18F
  5
1F190
331
1F190
  5
1F191
331
1F191
  5
1F192
331
1F192
  5
1F193
331
1F193
  5
1F194
331
1F194
  5
1F195
331
1F195
  5
1F196
331
1F196
  5
1F197
331
1F197
  5
1F198
331
1F198
  5
1F199
331
1F199
  5
1F19A
331
1F19A
  5
1F19B
331
1F19B
  5
1F19C
331
1F19C
  5
1F19D
331
1F19D
  5
1F19E
331
1F19E
  5
1F19F
331
1F19F
  5
1F1A0
331
1F1A0
  5
1F1A1
331
1F1A1
  5
1F1A2
331
1F1A2
  5
1F1A3
331
1F1A3
  5
1F1A4
331
1F1A4
  5
1F1A5
331
1F1A5
  5
1F1A6
331
1F1A6
  5
1F1A7
331
1F1A7
  5
1F1A8
331
1F1A8
  5
1F1A9
331
1F1A9
  5
1F1AA
331
1F1AA
  5
1F1AB
331
1F1AB
  5
1F1AC
331
1F1AC
  5
1F1AD
331
1F1AD
  5
1F1AE
331
1F1AE
  5
1F1AF
331
1F1AF
  5
1F1B0
331
1F1B0
  5
1F1B1
331
1F1B1
  5
1F1B3
331
1F1B3
  5
1F1B4
331
1F1B4
  5
1F1B5
331
1F1B5
  5
1F1B6
331
1F1B6
  5
1F1B7
331
1F1B7
  5
1F1B8
331
1F1B8
  5
1F1B9
331
1F1B9
  5
1F1BA
331
1F1BA
  5
1F1BB
331
1F1BB
  5
1F1BC
331
1F1BC
  5
1F1BD
331
1F1BD
  5
1F1BE
331
1F1BE
  5
1F1BF
331
1F1BF
  5
1F1C0
331
1F1C0
  5
1F1C1
331
1F1C1
  5
1F1C4
331
1F1C4
  5
1F1C5
331
1F1C5
  5
1F1C6
331
1F1C6
  5
1F1C7
331
1F1C7
  5
1F1C8
331
1F1C8
  5
1F1C9
331
1F1C9
  5
1F1CA
331
1F1CA
  5
1F1CB
331
1F1CB
  5
1F1CF
331
1F1CF
  5
1F1D0
331
1F1D0
  5
1F1D1
331
1F1D1
  5
1F1D2
331
1F1D2
  5
1F1D3
331
1F1D3
  5
1F1D4
331
1F1D4
  5
1F1D5
331
1F1D5
  5
1F1D6
331
1F1D6
  5
1F1D7
331
1F1D7
  5
1F1D8
331
1F1D8
  5
1F1D9
331
1F1D9
  5
1F1DA
331
1F1DA
  5
1F1DB
331
1F1DB
  5
1F1DC
331
1F1DC
  5
1F1DD
331
1F1DD
  5
1F1DE
331
1F1DE
  5
1F1DF
331
1F1DF
  5
1F1E0
331
1F1E0
  5
1F1E1
331
1F1E1
  5
1F1E2
331
1F1E2
  5
1F1E3
331
1F1E3
  5
1F1E4
331
1F1E4
  5
1F1E5
331
1F1E5
  5
1F1E6
331
1F1E6
  5
1F1E7
331
1F1E7
  5
1F1E8
331
1F1E8
  5
1F1E9
331
1F1E9
  5
1F1EA
331
1F1EA
  5
1F1EB
331
1F1EB
  5
1F1EC
331
1F1EC
  5
1F1ED
331
1F1ED
  5
1F1EE
331
1F1EE
  5
1F1EF
331
1F1EF
  5
1F1F0
331
1F1F0
  5
1F1F1
331
1F1F1
  5
1F1F3
331
1F1F3
  5
1F1F4
331
1F1F4
  5
1F1F6
331
1F1F6
  5
1F1F7
331
1F1F7
  5
1F1F8
331
1F1F8
  5
1F1F9
331
1F1F9
  5
1F1FA
331
1F1FA
  5
1F1FB
331
1F1FB
  5
1F1FC
331
1F1FC
  5
1F1FD
331
1F1FD
  5
1F425
331
1F425
  5
1F490
331
1F4A9
  5
1E886
  0
LAYOUT
  5
22
102
{ACAD_REACTORS
330
1A
102
}
330
1A
100
AcDbPlotSettings
  1

  2
SII LP-2150 (D-SCAN C2)
  4
User120
  6
AM_VIEW1
 40
3.174999952316284
 41
3.174999952316284
 42
3.17498779296875
 43
3.17498779296875
 44
296.9259948730469
 45
419.9889831542969
 46
0.0
 47
0.0
 48
0.0
 49
0.0
140
420.0
141
297.0
142
1.0
143
1.022107788374329
 70
 11952
 72
     1
 73
     1
 74
     4
  7
sei_cad.ctb
 75
     0
147
0.9783703943695685
148
0.0
149
0.0
100
AcDbLayout
  1
Model
 70
     1
 71
     0
 10
0.0
 20
0.0
 11
12.0
 21
9.0
 12
0.0
 22
0.0
 32
0.0
 14
0.0
 24
0.0
 34
0.0
 15
0.0
 25
0.0
 35
0.0
146
0.0
 13
0.0
 23
0.0
 33
0.0
 16
1.0
 26
0.0
 36
0.0
 17
0.0
 27
1.0
 37
0.0
 76
     0
330
1F
1001
ACAD_PSEXT
1000
SII LP-2150 (D-SCAN C2)
1000
SII LP-2150 (D-SCAN C2)
1000
133.153.16.130#3000
1000

1070
     0
  0
LAYOUT
  5
1E
102
{ACAD_REACTORS
330
1A
102
}
330
1A
100
AcDbPlotSettings
  1

  2
Canon LASER SHOT LBP-2030
  4

  6

 40
0.0
 41
0.0
 42
0.0
 43
0.0
 44
0.0
 45
0.0
 46
0.0
 47
0.0
 48
0.0
 49
0.0
140
0.0
141
0.0
142
1.0
143
1.0
 70
   688
 72
     0
 73
     0
 74
     5
  7
sei_cad.ctb
 75
    16
147
1.0
148
0.0
149
0.0
100
AcDbLayout
  1
ﾚｲｱｳﾄ1
 70
     1
 71
     1
 10
0.0
 20
0.0
 11
420.0
 21
297.0
 12
0.0
 22
0.0
 32
0.0
 14
1.000000000000000E+20
 24
1.000000000000000E+20
 34
1.000000000000000E+20
 15
-1.000000000000000E+20
 25
-1.000000000000000E+20
 35
-1.000000000000000E+20
146
0.0
 13
0.0
 23
0.0
 33
0.0
 16
1.0
 26
0.0
 36
0.0
 17
0.0
 27
1.0
 37
0.0
 76
     0
330
1B
  0
LAYOUT
  5
26
102
{ACAD_REACTORS
330
1A
102
}
330
1A
100
AcDbPlotSettings
  1

  2
Canon LASER SHOT LBP-2030
  4

  6

 40
0.0
 41
0.0
 42
0.0
 43
0.0
 44
0.0
 45
0.0
 46
0.0
 47
0.0
 48
0.0
 49
0.0
140
0.0
141
0.0
142
1.0
143
1.0
 70
   688
 72
     0
 73
     0
 74
     5
  7
sei_cad.ctb
 75
    16
147
1.0
148
0.0
149
0.0
100
AcDbLayout
  1
ﾚｲｱｳﾄ2
 70
     1
 71
     2
 10
0.0
 20
0.0
 11
12.0
 21
9.0
 12
0.0
 22
0.0
 32
0.0
 14
0.0
 24
0.0
 34
0.0
 15
0.0
 25
0.0
 35
0.0
146
0.0
 13
0.0
 23
0.0
 33
0.0
 16
1.0
 26
0.0
 36
0.0
 17
0.0
 27
1.0
 37
0.0
 76
     0
330
23
  0
MLINESTYLE
  5
18
102
{ACAD_REACTORS
330
17
102
}
330
17
100
AcDbMlineStyle
  2
STANDARD
 70
     0
  3

 62
   256
 51
90.0
 52
90.0
 71
     2
 49
0.5
 62
   256
  6
BYLAYER
 49
-0.5
 62
   256
  6
BYLAYER
  0
ACDBPLACEHOLDER
  5
F
102
{ACAD_REACTORS
330
E
102
}
330
E
  0
TABLESTYLE
  5
ED4E
102
{ACAD_REACTORS
330
ED4D
102
}
330
ED4D
100
AcDbTableStyle
  3
Standard
 70
     0
 71
     8
 40
1.5
 41
1.5
280
     0
281
     0
  7
STANDARD
140
4.5
170
     2
 62
     0
 63
     7
283
     0
274
    -2
284
     1
 64
     0
275
    -2
285
     1
 65
     0
276
    -2
286
     1
 66
     0
277
    -2
287
     1
 67
     0
278
    -2
288
     1
 68
     0
279
    -2
289
     1
 69
     0
  7
STANDARD
140
6.0
170
     5
 62
     0
 63
     7
283
     0
274
    -2
284
     1
 64
     0
275
    -2
285
     1
 65
     0
276
    -2
286
     1
 66
     0
277
    -2
287
     1
 67
     0
278
    -2
288
     1
 68
     0
279
    -2
289
     1
 69
     0
  7
STANDARD
140
4.5
170
     5
 62
     0
 63
     7
283
     0
274
    -2
284
     1
 64
     0
275
    -2
285
     1
 65
     0
276
    -2
286
     1
 66
     0
277
    -2
287
     1
 67
     0
278
    -2
288
     1
 68
     0
279
    -2
289
     1
 69
     0
  0
XRECORD
  5
1F5E6
102
{ACAD_REACTORS
330
1F5E5
102
}
330
1F5E5
100
AcDbXrecord
280
     1
340
ED4C
  0
XRECORD
  5
1F5E7
102
{ACAD_REACTORS
330
1F5E5
102
}
330
1F5E5
100
AcDbXrecord
280
     1
340
ED4B
  0
DICTIONARYVAR
  5
EE09
102
{ACAD_REACTORS
330
30
102
}
330
30
100
DictionaryVariables
280
     0
  1
STANDARD
  0
DICTIONARYVAR
  5
1F5E4
102
{ACAD_REACTORS
330
30
102
}
330
30
100
DictionaryVariables
280
     0
  1
0
  0
DICTIONARYVAR
  5
1F5E3
102
{ACAD_REACTORS
330
30
102
}
330
30
100
DictionaryVariables
280
     0
  1
1
  0
ACAD_PROXY_OBJECT
  5
4E
102
{ACAD_REACTORS
330
4D
102
}
330
4D
100
AcDbProxyObject
 90
      499
 91
      520
 95
       25
 70
     0
 93
      118
310
405010040CA904C415CD5B075DD348
350
4F
 94
        0
  0
DICTIONARY
  5
17E
102
{ACAD_REACTORS
330
4D
102
}
330
4D
100
AcDbDictionary
281
     1
  3
ISO
350
F94D
  3
JIS
350
17F
  0
XRECORD
  5
EDA8
102
{ACAD_REACTORS
330
4D
102
}
330
4D
100
AcDbXrecord
280
     1
 90
-1023410169
  0
ACAD_PROXY_OBJECT
  5
33
330
2E
100
AcDbProxyObject
 90
      499
 91
      508
 95
       25
 70
     0
 93
      156
310
00010143D050D351505391D5531054925390D490
330
2E
 94
        0
  0
ACAD_PROXY_OBJECT
  5
34
330
2E
100
AcDbProxyObject
 90
      499
 91
      508
 95
       25
 70
     0
 93
      148
310
000101439050D351531253915054925390D490
330
2E
 94
        0
  0
ACAD_PROXY_OBJECT
  5
35
330
2E
100
AcDbProxyObject
 90
      499
 91
      509
 95
       25
 70
     0
 93
      156
310
000101439050D35154D6535093D314D256915080
330
2E
 94
        0
  0
ACAD_PROXY_OBJECT
  5
37
330
2E
100
AcDbProxyObject
 90
      499
 91
      511
 95
       25
 70
     0
 93
       88
310
000101411093D34C402B00
330
2E
330
0
330
0
 94
        0
  0
ACAD_PROXY_OBJECT
  5
6B
330
2E
100
AcDbProxyObject
 90
      499
 91
      509
 95
       25
 70
     0
 93
      108
310
00010142505351D153D35054D4E0
330
2E
 94
        0
  0
ACAD_PROXY_OBJECT
  5
6C
330
2E
100
AcDbProxyObject
 90
      499
 91
      522
 95
       25
 70
     0
 93
      140
310
00010142105350D55494D511005034A49530
330
2E
 94
        0
  0
ACAD_PROXY_OBJECT
  5
ED60
330
2E
100
AcDbProxyObject
 90
      499
 91
      536
 95
       25
 70
     0
 93
      542
310
0001014124FEA55D00507392E312E302E34014124FEA55D00507392E322E302E3240501000041131253914182D4454FB21E93F000000000000380FC000000000000F83F8
330
2E
330
ED61
330
ED67
 94
        0
  0
ACAD_PROXY_OBJECT
  5
ED61
330
2E
100
AcDbProxyObject
 90
      499
 91
      537
 95
       25
 70
     0
 93
       56
310
000190240E0000
330
2E
330
ED62
330
ED64
 94
        0
  0
ACAD_PROXY_OBJECT
  5
ED62
330
2E
100
AcDbProxyObject
 90
      499
 91
      538
 95
       25
 70
     0
 93
       48
310
0001AA000000
330
2E
330
1E
330
ED63
330
0
 94
        0
  0
ACAD_PROXY_OBJECT
  5
ED63
330
2E
100
AcDbProxyObject
 90
      499
 91
      539
 95
       25
 70
     0
 93
       28
310
0001AAA0
330
2E
 94
        0
  0
ACAD_PROXY_OBJECT
  5
ED64
330
2E
100
AcDbProxyObject
 90
      499
 91
      538
 95
       25
 70
     0
 93
       48
310
0001AA000000
330
2E
330
26
330
ED65
330
0
 94
        0
  0
ACAD_PROXY_OBJECT
  5
ED65
330
2E
100
AcDbProxyObject
 90
      499
 91
      539
 95
       25
 70
     0
 93
       28
310
0001AAA0
330
2E
 94
        0
  0
ACAD_PROXY_OBJECT
  5
ED68
330
2E
100
AcDbProxyObject
 90
      499
 91
      509
 95
       25
 70
     0
 93
      108
310
000101421053521310D05310D010
330
2E
 94
        0
  0
ACAD_PROXY_OBJECT
  5
ED69
330
2E
100
AcDbProxyObject
 90
      499
 91
      509
 95
       25
 70
     0
 93
      124
310
00010142905354915554D15112535010
330
2E
 94
        0
  0
ACAD_PROXY_OBJECT
  5
ED6A
330
2E
100
AcDbProxyObject
 90
      499
 91
      509
 95
       25
 70
     0
 93
      132
310
00010143105354D150D51253D391125360
330
2E
 94
        0
  0
ACAD_PROXY_OBJECT
  5
ED6B
330
2E
100
AcDbProxyObject
 90
      499
 91
      509
 95
       25
 70
     0
 93
      124
310
00010142905355941093D49111549010
330
2E
 94
        0
  0
ACAD_PROXY_OBJECT
  5
ED6C
330
2E
100
AcDbProxyObject
 90
      499
 91
      509
 95
       25
 70
     0
 93
      116
310
0001014290535115D1D0D3D313D4A0
330
2E
 94
        0
  0
ACAD_PROXY_OBJECT
  5
ED6D
330
2E
100
AcDbProxyObject
 90
      499
 91
      509
 95
       25
 70
     0
 93
      148
310
00010143505355925155D49151949154D21010
330
2E
 94
        0
  0
ACAD_PROXY_OBJECT
  5
ED6E
330
2E
100
AcDbProxyObject
 90
      499
 91
      509
 95
       25
 70
     0
 93
      172
310
00010144105350539393D51154149154D15495915010
330
2E
 94
        0
  0
ACAD_PROXY_OBJECT
  5
ED6F
330
2E
100
AcDbProxyObject
 90
      499
 91
      509
 95
       25
 70
     0
 93
      172
310
00010144105350555513D11253505494905391D15010
330
2E
 94
        0
  0
ACAD_PROXY_OBJECT
  5
ED70
330
2E
100
AcDbProxyObject
 90
      499
 91
      509
 95
       25
 70
     0
 93
      124
310
00010142D05351561514915191125360
330
2E
 94
        0
  0
ACAD_PROXY_OBJECT
  5
ED71
330
2E
100
AcDbProxyObject
 90
      499
 91
      509
 95
       25
 70
     0
 93
      132
310
00010142D05355105410539393D5115010
330
2E
 94
        0
  0
ACAD_PROXY_OBJECT
  5
ED72
330
2E
100
AcDbProxyObject
 90
      499
 91
      509
 95
       25
 70
     0
 93
      108
310
00010142105350555513D0D31010
330
2E
 94
        0
  0
ACAD_PROXY_OBJECT
  5
ED73
330
2E
100
AcDbProxyObject
 90
      499
 91
      509
 95
       25
 70
     0
 93
      108
310
00010142105350D3119150551050
330
2E
 94
        0
  0
ACAD_PROXY_OBJECT
  5
ED74
330
2E
100
AcDbProxyObject
 90
      499
 91
      509
 95
       25
 70
     0
 93
      108
310
00010142105350D315925155D3F0
330
2E
 94
        0
  0
ACAD_PROXY_OBJECT
  5
ED75
330
2E
100
AcDbProxyObject
 90
      499
 91
      509
 95
       25
 70
     0
 93
      148
310
0001014350535212511156915493D112535010
330
2E
 94
        0
  0
ACAD_PROXY_OBJECT
  5
ED76
330
2E
100
AcDbProxyObject
 90
      499
 91
      509
 95
       25
 70
     0
 93
      124
310
00010142905352105510D21254D3D010
330
2E
 94
        0
  0
ACAD_PROXY_OBJECT
  5
ED77
330
2E
100
AcDbProxyObject
 90
      499
 91
      509
 95
       25
 70
     0
 93
      148
310
00010143905354D25391D31152105513105660
330
2E
 94
        0
  0
ACAD_PROXY_OBJECT
  5
ED78
330
2E
100
AcDbProxyObject
 90
      499
 91
      509
 95
       25
 70
     0
 93
      124
310
00010142D0535115D1D193111254D420
330
2E
 94
        0
  0
ACAD_PROXY_OBJECT
  5
ED79
330
2E
100
AcDbProxyObject
 90
      499
 91
      509
 95
       25
 70
     0
 93
      100
310
00010142105350555513D213A0
330
2E
 94
        0
  0
ACAD_PROXY_OBJECT
  5
ED7A
330
2E
100
AcDbProxyObject
 90
      499
 91
      509
 95
       25
 70
     0
 93
      116
310
000101425053521390D3D553951010
330
2E
 94
        0
  0
ACAD_PROXY_OBJECT
  5
ED7B
330
2E
100
AcDbProxyObject
 90
      499
 91
      509
 95
       25
 70
     0
 93
      108
310
0001014210535213941493D29010
330
2E
 94
        0
  0
ACAD_PROXY_OBJECT
  5
ED7C
330
2E
100
AcDbProxyObject
 90
      499
 91
      509
 95
       25
 70
     0
 93
      108
310
0001014210535213951654115070
330
2E
 94
        0
  0
ACAD_PROXY_OBJECT
  5
ED7D
330
2E
100
AcDbProxyObject
 90
      499
 91
      509
 95
       25
 70
     0
 93
      108
310
000101421053521395925155D0F0
330
2E
 94
        0
  0
ACAD_PROXY_OBJECT
  5
ED7E
330
2E
100
AcDbProxyObject
 90
      499
 91
      509
 95
       25
 70
     0
 93
      140
310
00010143505354D150D51253D390D3D41660
330
2E
 94
        0
  0
ACAD_PROXY_OBJECT
  5
ED7F
330
2E
100
AcDbProxyObject
 90
      499
 91
      509
 95
       25
 70
     0
 93
      108
310
00010142105350D3141493D29030
330
2E
 94
        0
  0
ACAD_PROXY_OBJECT
  5
ED80
330
2E
100
AcDbProxyObject
 90
      499
 91
      508
 95
       25
 70
     0
 93
      212
310
00010143905350555513D2105510D21493D500000000000002E400
330
2E
 94
        0
  0
ACAD_PROXY_OBJECT
  5
ED81
330
2E
100
AcDbProxyObject
 90
      499
 91
      509
 95
       25
 70
     0
 93
      156
310
00010143905350555513D2105510D21111551010
330
2E
 94
        0
  0
ACAD_PROXY_OBJECT
  5
ED8D
330
2E
100
AcDbProxyObject
 90
      499
 91
      547
 95
       25
 70
     0
 93
      698
310
0001000000009AA6A9AA4051E546875204170722032312030303A33303A353620323030352028555443290141CE4B8C4B8C0B8D00518547565205365702032382031333A34363A333620323031300141CE4B8C8B8C0B8C80
330
2E
330
ED8E
330
ED8F
330
ED91
330
0
 94
        0
  0
ACAD_PROXY_OBJECT
  5
ED8E
330
2E
100
AcDbProxyObject
 90
      499
 91
      548
 95
       25
 70
     0
 93
       70
310
0001AAA80820000000
330
2E
330
ED8E
330
ED8E
 94
        0
  0
ACAD_PROXY_OBJECT
  5
ED8F
330
2E
100
AcDbProxyObject
 90
      499
 91
      549
 95
       25
 70
     0
 93
       48
310
000100000000
330
2E
330
0
330
ED90
330
0
330
0
 94
        0
  0
ACAD_PROXY_OBJECT
  5
ED90
330
2E
100
AcDbProxyObject
 90
      499
 91
      550
 95
       25
 70
     0
 93
       40
310
000100AAAA
330
2E
330
0
 94
        0
  0
ACAD_PROXY_OBJECT
  5
ED96
330
2E
100
AcDbProxyObject
 90
      499
 91
      522
 95
       25
 70
     0
 93
      180
310
00010143105050D3D35411119390535140504434F4D500
330
2E
 94
        0
  0
ACAD_PROXY_OBJECT
  5
ED97
330
2E
100
AcDbProxyObject
 90
      499
 91
      522
 95
       25
 70
     0
 93
      212
310
0001014390505193D311115491119390535140506466F6C6465720
330
2E
 94
        0
  0
ACAD_PROXY_OBJECT
  5
ED98
330
2E
100
AcDbProxyObject
 90
      499
 91
      522
 95
       25
 70
     0
 93
      180
310
00010143105050539393D1119390535140504284156290
330
2E
 94
        0
  0
ACAD_PROXY_OBJECT
  5
ED99
330
2E
100
AcDbProxyObject
 90
      499
 91
      522
 95
       25
 70
     0
 93
      436
310
00010143905050D3D35415925155D31254D50052295BD96CA0A90B396CA0A894591A496CA0A8DB691A496CA0A89BA96CA0A95E28F95310
330
2E
 94
        0
  0
ACAD_PROXY_OBJECT
  5
ED9E
330
2E
100
AcDbProxyObject
 90
      499
 91
      555
 95
       25
 70
     0
 93
       32
310
00010000
330
2E
340
ED9B
330
EDA0
330
ED9B
 94
        0
  0
ACAD_PROXY_OBJECT
  5
ED9F
330
2E
100
AcDbProxyObject
 90
      499
 91
      556
 95
       25
 70
     0
 93
       18
310
000180
330
2E
 94
        0
  0
ACAD_PROXY_OBJECT
  5
EDA0
330
2E
100
AcDbProxyObject
 90
      499
 91
      557
 95
       25
 70
     0
 93
      226
310
0001014454CC8D54CB54D59290948C4C4CCC0B4CCC1050055401550000
330
2E
330
ED9E
330
ED9F
 94
        0
  0
ACAD_PROXY_OBJECT
  5
EDA1
330
2E
100
AcDbProxyObject
 90
      499
 91
      558
 95
       25
 70
     0
 93
      178
310
000100AAAAAABAC03B2E67439410EA36E89D743EA29000
330
2E
330
EDA0
 94
        0
  0
ACAD_PROXY_OBJECT
  5
EDA2
330
2E
100
AcDbProxyObject
 90
      499
 91
      559
 95
       25
 70
     0
 93
      108
310
000190140A000000000000AAAAA0
330
2E
330
EDA3
330
EDA3
330
EDA3
330
EDA3
330
EDA3
330
0
 94
        0
  0
ACAD_PROXY_OBJECT
  5
EDA3
330
2E
100
AcDbProxyObject
 90
      499
 91
      560
 95
       25
 70
     0
 93
       51
310
00010000AAAA80
330
2E
330
EDA2
330
EDA0
 94
        0
  0
ACAD_PROXY_OBJECT
  5
EDCB
330
2E
100
AcDbProxyObject
 90
      499
 91
      509
 95
       25
 70
     0
 93
      140
310
0001014350535311D0D3D313D49353D11160
330
2E
 94
        0
  0
DICTIONARY
  5
40
102
{ACAD_REACTORS
330
3F
102
}
330
3F
100
AcDbDictionary
281
     1
  3
DWGSETTINGS
350
41
  3
FEM
350
69
  3
Shaft
350
56
  3
TRANSSETTINGS
350
4C
  0
ACAD_PROXY_OBJECT
  5
42
102
{ACAD_REACTORS
330
3F
102
}
330
3F
100
AcDbProxyObject
 90
      499
 91
      519
 95
       25
 70
     0
 93
    23232
310
41502491013041105357CC201C00030C011E441013141105357CC603800030C011E441013241105357CCA01400030C011E441013341105357CCE01800030C010D9013441105357CD200C00030C010D9013541105357CD600C00030C010D9013641105357CDA00800030C011E9013741105357CDE01000030C010D901384110
310
5357CE200400030C011E9013941105357CE63F400030C0241102324141505357CC4C201C00030C011E902344141505357CC4C600C00030C010D902495041505357CC4CA01C00030C011E40902304E41505357CC13A01C00030C011E902314E41505357CC53A03800030C011E902324E41505357CC93A01400030C011E90233
310
4E41505357CCD3A01800030C010D902344E41505357CD13A00C00030C010D902354E41505357CD53A00C00030C010D902364E41505357CD93A00800030C011E902374E41505357CDD3A01000030C010D902384E41505357CE13A00400030C011E902394E41505357CE53A3F400030C024110332414E41905357CC4C13A01C0
310
0030C011E90334414E41905357CC4C53A00C00030C010D90349504E41905357CC4C93A01C00030C011E409044B4C494E41505357D0D3200400030C011E42504494E464F42105357D410549151A01000030C010D42D055241484D3541905357D093D4A01C00030C011E425045649455742105357D5925155D4E00400030C011
310
E42D06424548494E4441905357D25395A3F400030C0243505545241494C41505357D514A00C00030C010D4250348494441905357D21251201C00030C011E4250356495341905357D59254E01C00030C011E4250650415244494D42505357D41054911253600C00030C010D4250652454644494D42505357D49151911253601
310
000030C010D425774110531514901348070000C300479034110915312501348000000C0003FFFFFFFD034110921395901398000000C0003FFFFFFFE415092139594D06424548494E448000000C0003FFFFFFFE411093125110234418000000C0003FFFFFFFD03411093D05410234418000000C0003FFFFFFFD03411093D48C
310
9055241484D358010000C30047A411093D48CD055241484D358020000C30047A411093D48D5055241484D358000000C0003FFFFFFFE411093D48DD055241484D3581E0000C30047903411094105410234418000000C0003FFFFFFFD03411094115610234418000000C0003FFFFFFFD034110951112501358000000C0003FFF
310
FFFFD034110D0530C901348000000C0003FFFFFFFE4110D0530CD01348020000C30047A4110D0530D501348070000C30047A4110D0530DD013481E0000C30047A4110D15393901378000000C0003FFFFFFFE4110D15395D01378000000C0003FFFFFFFE4110D312539044B4C494E8000000C0003FFFFFFFE4110D3D38C5013
310
08000000C0003FFFFFFFD034110D3D38C901318000000C0003FFFFFFFD034110D3D38CD01328000000C0003FFFFFFFD034110D3D38D101328000000C0003FFFFFFFD034111115494101348000000C0003FFFFFFFD034111115510501348000000C0003FFFFFFFE4111125051D01358000000C0003FFFFFFFE4111125312501
310
358000000C0003FFFFFFFE411112535410650415244494D8000000C0003FFFFFFFE411112535490652454644494D8000000C0003FFFFFFFE411156135410234418000000C0003FFFFFFFD034111915353901388000000C0003FFFFFFFE415191535413901388030000C3004364151915354D410234418000000C0003FFFFFF
310
FE4151915354D510234418030000C300436415191535593901328000000C0003FFFFFFFE415191535595101328030000C3004364111931055101308000000C0003FFFFFFFD03411194905490234418000000C0003FFFFFFFD034111D49312501358000000C0003FFFFFFFD034111D5931250234418000000C0003FFFFFFFD0
310
34112105510D01388000000C0003FFFFFFFD014112125113901338000000C0003FFFFFFFD034112125115D01338000000C0003FFFFFFFD034112131253901348000000C0003FFFFFFFD01411213D0D3901378000000C0003FFFFFFFE411213D0D5D01378000000C0003FFFFFFFE4112539193D04494E464F8000000C0003FF
310
FFFFFE4113105112501348000000C0003FFFFFFFD034113115051101358000000C0003FFFFFFFE419397D0921395902394E8000000C0003FFFFFFFE419397D0D3D38C502304E8000000C0003FFFFFFFD03419397D0D3D38C902314E8000000C0003FFFFFFFD03419397D0D3D38CD02324E8000000C0003FFFFFFFD03419397
310
D0D3D38D102324E8000000C0003FFFFFFFD03419397D0D15393902374E8000000C0003FFFFFFFE419397D0D15395D02374E8000000C0003FFFFFFFE419397D1125312502354E8000000C0003FFFFFFFE419397D2105510D02384E8000000C0003FFFFFFFD01419397D2125113902334E8000000C0003FFFFFFFD03419397D2
310
125115D02334E8000000C0003FFFFFFFD03419397D3115051102354E8000000C0003FFFFFFFE419397D391D25410349504E8000000C0003FFFFFFFE419397D412105390334414E8000000C0003FFFFFFFE419397D510D3D3902304E8000000C0003FFFFFFFD03419397D5121312502344E8000000C0003FFFFFFFD01419397
310
D5131153902304E8000000C0003FFFFFFFD03419397D516150CD02364E8000000C0003FFFFFFFD03419397D594131250332414E8000000C0003FFFFFFFE411391D25410249508000000C0003FFFFFFFE411410530C9055241484D358010000C30047A411410530CD055241484D358020000C30047A411410530D5055241484
310
D358000000C0003FFFFFFFE411410530DD055241484D3581E0000C30047903411412105390234418000000C0003FFFFFFFE411413D4D3901368070000C30047A419413D4D49151901368050000C30047903411413D4D6101368000000C0003FFFFFFFD03411414D150D0234418000000C0003FFFFFFFD03411490D1D390137
310
8000000C0003FFFFFFFE411490D1D5D01378000000C0003FFFFFFFE4114919112501348000000C0003FFFFFFFD034114945514901348070000C30047903411494D093D01348000000C0003FFFFFFFD034114D09492D01348000000C0003FFFFFFFD014114D0D153901378000000C0003FFFFFFFD034114D150D51013480000
310
00C0003FFFFFFFD014114D15313901378000000C0003FFFFFFFD034114D15315D01378000000C0003FFFFFFFD034114D4D654D01308000000C0003FFFFFFFD034114D51312501348070000C300479034114D6508C501358000000C0003FFFFFFFD034114D6508C901358000000C0003FFFFFFFD034114D6508CD0135802000
310
0C30047A4114D6508D501358070000C300479034114D65353901378000000C0003FFFFFFFD034114D65355D01378000000C0003FFFFFFFD03411510D3D3901308000000C0003FFFFFFFD034115121312501348000000C0003FFFFFFFD01411512550C9055241484D358010000C30047A411512550CD055241484D358020000
310
C30047A411512550D5055241484D358000000C0003FFFFFFFE411512550DD055241484D3581E0000C300479034115131153901308000000C0003FFFFFFFD03415514905253105545241494C8000000C0003FFFFFFFE41151492D3901378000000C0003FFFFFFFD0341151492D5D01378000000C0003FFFFFFFD03411514931
310
2501348000000C0003FFFFFFFD01411516150C501368030000C300436411516150C901368030000C300436411516150CD01368000000C0003FFFFFFFE411516150D501368070000C30047A411516150DD013681E0000C30047A4115925155D04564945578000000C0003FFFFFFFE41159151121034849448000000C0003FFF
310
FFFFD0241159151159035649538000000C0003FFFFFFFD02411594131250232418000000C0003FFFFFFFE4116925690501348000000C0003FFFFFFFD01411354D653501358020000C30047AAAA3F400030C01013F90A4051E4091E40D0D4110D4151E4190D41D1E4391E4791E7F6
340
16
340
16
340
16
340
43
340
16
340
16
340
16
340
44
340
16
340
16
340
44
340
45
340
16
340
16
340
16
340
16
340
43
340
16
340
16
340
16
340
44
340
16
340
16
340
44
340
45
340
16
340
46
340
16
340
16
340
16
340
16
340
16
340
43
340
16
340
16
340
16
340
47
340
15
340
15
340
15
340
15
340
15
340
15
340
15
340
15
340
15
340
15
340
15
340
15
340
15
340
15
340
15
340
15
340
48
340
15
340
15
340
15
340
15
340
15
340
15
340
15
340
15
340
15
340
15
340
15
340
15
340
15
340
15
340
15
340
16
340
15
340
15
340
15
340
15
340
15
340
15
340
15
340
15
340
47
340
15
340
15
340
48
340
15
340
15
340
15
340
15
340
15
340
15
340
15
340
15
340
15
340
48
340
15
340
15
340
15
340
47
340
15
340
15
340
15
340
15
340
15
340
15
340
15
340
15
340
15
340
15
340
15
340
15
340
15
340
15
340
15
340
15
340
15
340
15
340
15
340
48
340
15
340
15
340
48
340
15
340
15
340
16
340
15
340
48
340
15
340
15
340
47
340
15
340
15
340
16
340
15
340
48
340
15
340
15
340
15
340
15
340
15
340
15
340
15
340
15
340
15
340
48
340
15
340
15
340
15
340
15
340
15
340
15
340
15
340
15
340
15
340
15
340
15
340
4B
340
16
 94
        0
  0
ACAD_PROXY_OBJECT
  5
62F
102
{ACAD_REACTORS
330
73
102
}
330
73
100
AcDbProxyObject
 90
      499
 91
      523
 95
       25
 70
     0
 93
      253
310
43D1444494D454E53494F4E2C414D44545F2A5F44494D404A9012A404A9012A0
  0
ACAD_PROXY_OBJECT
  5
630
102
{ACAD_REACTORS
330
73
102
}
330
73
100
AcDbProxyObject
 90
      499
 91
      523
 95
       25
 70
     0
 93
      181
310
43D012A42D05357D191504B505357CA9012A404A9012A8
  0
ACAD_PROXY_OBJECT
  5
631
102
{ACAD_REACTORS
330
73
102
}
330
73
100
AcDbProxyObject
 90
      499
 91
      523
 95
       25
 70
     0
 93
      133
310
43D054841544348404A9012A404A9012A8
  0
ACAD_PROXY_OBJECT
  5
632
102
{ACAD_REACTORS
330
73
102
}
330
73
100
AcDbProxyObject
 90
      499
 91
      523
 95
       25
 70
     0
 93
      549
310
43D044C494E4549CE0B0E138B0A8B4E0B0A8B4E138B105357CE0B105357CE138B0A8B505357CE0B0A8B505357CE139012A404A910494E534552542C5354445041525432448
  0
ACAD_PROXY_OBJECT
  5
633
102
{ACAD_REACTORS
330
73
102
}
330
73
100
AcDbProxyObject
 90
      499
 91
      523
 95
       25
 70
     0
 93
      909
310
43D6641434D46434652414D452C41434D444154554D5441524745542C41434D444154554D49442C41434D57454C4453594D2C41434D5355524653594D2C41434D4645415449442C41434D504152545245462C41434D42414C4C4F4F4E2C414D44544544474553594D404A9012A404A9012A8
  0
XRECORD
  5
217B
102
{ACAD_REACTORS
330
217A
102
}
330
217A
100
AcDbXrecord
280
     1
  1
21000753__00___
  0

  0
XRECORD
  5
217D
102
{ACAD_REACTORS
330
217C
102
}
330
217C
100
AcDbXrecord
280
     1
  1
3
  0

  0
XRECORD
  5
EDCA
102
{ACAD_REACTORS
330
EDC9
102
}
330
EDC9
100
AcDbXrecord
280
     1
 90
-1073741824
  0
ACAD_PROXY_OBJECT
  5
4F
102
{ACAD_REACTORS
330
4E
102
}
330
4E
100
AcDbProxyObject
 90
      499
 91
      521
 95
       25
 70
     0
 93
      157
310
057356C1D77406406AA8FFFFFFFF05DD01009010
330
1F
330
0
330
EDA0
 94
        0
  0
ACAD_PROXY_OBJECT
  5
F94D
102
{ACAD_REACTORS
330
17E
102
}
330
17E
100
AcDbProxyObject
 90
      499
 91
      577
 95
       25
 70
     0
 93
     2497
310
5DC0000000000000C408030000C30040D254D3D01640600800030C0200800030C000000000000000C40C88A2085A0B6B23A22B233B2A9BA3220480A1C82C6DAA6EAE4CCA8CAF0E8A6E8C88120284A0B1B6A321A329BA3220480A1A82C6DAAECAD8C8D2DCCEA6E8C8812028420B1B6A4B229BA3220480A1682C6DA88C2E8EAD
310
AA6E8C88120284A0B1B6A127A6A9BA3220480A2082DAC8E888CAE8C2D2D8A6F2DAA6E8C88120288A0B6B23A29B2B1BA34B7B729BCB6A9BA3220480A2282DAC8E886CADCE8CAE498D2DCCAA6E8C88120288A0B6B23A2A343932B0B22634B732A9BA3220480A1682DAC8E89CDEE8CAA6E8C88120285A0B1A0B6B3A630BCA9BA3
310
220480A1682C682DACE88D2DAA6E8C88120288A0B1A0B6B3A437B632A1B430B93A29BA3220480A1A82C682DACEA8D2E8D8CAA6E8C8812032048080
340
F5A9
360
F94E
360
F94F
360
F950
360
F951
360
F952
360
F953
360
F954
360
F955
360
F956
360
F957
360
F958
360
F959
360
F95F
360
F960
360
F961
360
F962
340
0
340
0
 94
        0
  0
ACAD_PROXY_OBJECT
  5
17F
102
{ACAD_REACTORS
330
17E
102
}
330
17E
100
AcDbProxyObject
 90
      499
 91
      526
 95
       25
 70
     0
 93
     2379
310
5DC33333333333309408000000C00040D29254D01640600800030C0200800030C003333333333330940C8121E8720B1B6A9BAB9332A32BC3A29BA3220480A1282C6DA8C868CA6E8C88120286A0B1B6ABB2B63234B733A9BA3220480A1082C6DA92C8A6E8C88120285A0B1B6A230BA3AB6A9BA3220480A1282C6DA849E9AA6E
310
8C88120286A0B1A0B6B3AA34BA3632A9BA3220480A2082DAC8E888CAE8C2D2D8A6F2DAA6E8C88120288A0B6B23A29B2B1BA34B7B729BCB6A9BA3220480A2282DAC8E886CADCE8CAE498D2DCCAA6E8C88120288A0B6B23A2A343932B0B22634B732A9BA3220480A1682DAC8E89CDEE8CAA6E8C88120285A0B1A0B6B3A630BCA
310
9BA3220480A1682C682DACE88D2DAA6E8C88120288A0B1A0B6B3A437B632A1B430B93A29BA3220480C812020
340
180
360
181
360
182
360
183
360
184
360
185
360
186
360
EDA5
360
EDA6
360
EDA7
360
EDA9
360
EDAA
360
EDAB
360
EDB1
360
EDB2
360
EDB3
340
0
340
0
 94
        0
  0
ACAD_PROXY_OBJECT
  5
41
102
{ACAD_REACTORS
330
40
102
}
330
40
100
AcDbProxyObject
 90
      499
 91
      518
 95
       25
 70
     0
 93
     2962
310
4050B44574753455454494E4753A0E8482A68AA6A88882A069492A684A1A0A723A0A92920ACA0A811B1820C868A9C829C8E82A12686AF87260F862666A8321A2A72224A0A50602A2140ECC009A020E868A9C889282A682A106260F86460F8666083A1A2A72224A9AA250000000000000042020C868A9C988A9C94000000000
310
000048808321A2A727A323250000000000000122020E868A9C9E8C8C62940000000000000488083A1A2A727A32319250000000000000122021CC6D0C2DACCCAE4C8D2DADADEC8CA9FC84A1A624A720A92920ACA0A8219971A982108698929C8AA8B2A082A0AB098929C8A84A22BA3AAA9A1A0A622A50A0E9882A6A89E84948
310
2A02608426A0A5A2AB24A2ABA7E8120CA0A68682988A0C00800010652455649534941501304154D0D0531150540CC4E8C5085354414E44415244415034A4953425512535154D51053541282DE649809D0ADCD050756455253494F4E4150531352E3030441ED115D1D4D15515125391D4D153911F40
  0
ACAD_PROXY_OBJECT
  5
69
102
{ACAD_REACTORS
330
40
102
}
330
40
100
AcDbProxyObject
 90
      499
 91
      518
 95
       25
 70
     0
 93
      411
310
4050346454D21092DCC6E486DECACC942842630BCA3B937BAB820A8320A6AFA322A0A20F688AE8EA68AA8A8929C8EA68A9C88FA0
  0
ACAD_PROXY_OBJECT
  5
56
102
{ACAD_REACTORS
330
40
102
}
330
40
100
AcDbProxyObject
 90
      499
 91
      518
 95
       25
 70
     0
 93
      583
310
40505536861667421292DCE8CAE4E4EAE0E89FA0484A634B3B43A2634B732A7F21A98D2CED0E898D2DCCAACD2CAEE9FC8229B4B232A7E80A20F688AE8EA68AA8A8929C8EA68A9C88FA
  0
ACAD_PROXY_OBJECT
  5
4C
102
{ACAD_REACTORS
330
40
102
}
330
40
100
AcDbProxyObject
 90
      499
 91
      518
 95
       25
 70
     0
 93
      852
310
4050D5452414E5353455454494E4753A2488A482AE929C8EA8A4829CA69882A8929E9C0C00800050D4F524947494E414C4C595F4F4E0600400028529A7AAA921A2A620A723A0A81A52827212AAA0A48AA68AA4AC8A0C0080001107B44574753455454494E4753454E447D0
  0
ACAD_PROXY_OBJECT
  5
F94E
330
F94D
100
AcDbProxyObject
 90
      499
 91
      578
 95
       25
 70
     0
 93
       13
310
5DD8
  0
ACAD_PROXY_OBJECT
  5
F94F
330
F94D
100
AcDbProxyObject
 90
      499
 91
      579
 95
       25
 70
     0
 93
       96
310
5DEA0E80A0280A0280A0280F
  0
ACAD_PROXY_OBJECT
  5
F950
330
F94D
100
AcDbProxyObject
 90
      499
 91
      580
 95
       25
 70
     0
 93
      272
310
5DD0E4050140501405014050140501405014050140D01405012C0000000000000040
340
F5AA
 94
        0
  0
ACAD_PROXY_OBJECT
  5
F951
330
F94D
100
AcDbProxyObject
 90
      499
 91
      581
 95
       25
 70
     0
 93
      497
310
5DE8666666666667A67E199999999999E99FD22405014050140501405014050140501405014050140501405014050140501405014050140501405014050100
340
F5A5
 94
        0
  0
ACAD_PROXY_OBJECT
  5
F952
330
F94D
100
AcDbProxyObject
 90
      499
 91
      582
 95
       25
 70
     0
 93
       10
310
5DC0
  0
ACAD_PROXY_OBJECT
  5
F953
330
F94D
100
AcDbProxyObject
 90
      499
 91
      583
 95
       25
 70
     0
 93
      257
310
5DE290EA22A7D90F49F80000000000001081400000000000004204010000618000
340
F5A6
340
F5A7
 94
        0
  0
ACAD_PROXY_OBJECT
  5
F954
330
F94D
100
AcDbProxyObject
 90
      499
 91
      584
 95
       25
 70
     0
 93
    13013
310
5DD0E411255115350141236025B690140501406901000000000000091013347454E545241434F2C4A504E2C302C8D8096DA2C47454E54524154582C25732C2847454E4D53472067656E647767203232322940690120281A8AA2CA0282484A4BE52028120280A0320200000000000012202668E8A9CA8A482869E5894A09C58
310
605921292F94588E8A9CA8A482A8B0584AE658508E8A9C9AA68E40CECADCC8EECE406464665280D202405044E414D454050496BC914F4051C40640A80000000000004E404CD1D15395149050D3CB1294138B0C0B25AF2453CB11D15395149055160B095CCB0A11D1539354D1C819D95B991DD9C80C8C8D8A50192C3D494628
310
4953424C414E4B28504152543A4E414D45292C424C4F434B3A4E414D452C504152543A4E414D452940480A0A888AA686A480A09251B1DBE80A3A80C81D0000000000100A28099A3A2A72A2920A1A7962528271618164946C76F9623A2A72A2920AA2C1612B9961423A2A726A9A39033B2B7323BB39019189B94A0348090142
310
14D51053911054911014122D2E29A50147501904A000000000000125013347454E545241434F2C4A504E2C302C8B4B8A692C47454E54524154582C25732C2847454E4D53472067656E64776720323138294069012028426A0AA22A924A0A62028246EF4BDFA028EA0320B40000000000001CA02668E8A9CA8A482869E5894A
310
09C5860591BBD2F7E588E8A9CA8A482A8B0584AE658508E8A9C9AA68E40CECADCC8EECE406464625280D202405044E4F544540504928D8B4C4051D40641A80000000000003E404CD1D15395149050D3CB1294138B0C0B24A362D30B11D15395149055160B095CCB0A11D1539354D1C819D95B991DD9C80C8C8D4A501240480
310
A0CAC8A9C889EA480A1106F1072706BF02B680A3A80C83D00000000000007C809BA3A2A72A2920A1A79625282716181641BC41C9C1AFC0AD9623A2A72A2920AA2C1612B9961423A2A726A9A39033B2B7323BB39019191A14A0248090141911154D0D48C90141A43825AF880C90147501908A000000000020145013447454E5
310
45241434F2C4A504E2C302C90E096BE20322C47454E54524154582C25732C2847454E4D53472067656E6477672033362940490120284A9AA20A72220A922192028345A5C53490192028EA03213400000000000024A026A8E8A9CA8A482869E5894A09C586059169714D24064588E8A9CA8A482A8B0584AE658508E8A9C9AA6
310
8E40CECADCC8EECE4064646052809202405094D4154455249414C32405068DDE97BF20324051D40642A8713D0AD7A37045404D11D15395149050D3CB1294138B0C0B2377A5EFC80C8B11D15395149055160B095CCB0A11D1539354D1C819D95B991DD9C80D0C0A501240480A089A82A6A680A091D7F2F9480A3A80A0485A06
310
8100000000000007C809923A2A72A2920A1A796252827161816475FCBE51623A2A72A2920AA2C1612B9961423A2A726A9A39033B2B7323BB3901A1914A024809014154149250D150141226FE29A501475014090C409020000000000000F9013247454E545241434F2C4A504E2C302C89BF8A692C47454E54524154582C2573
310
2C2847454E4D53472067656E6477672034332940490120281A224A6A02824850CB202028EA028121A81A040000000000001F202648E8A9CA8A482869E5894A09C58605921432C80588E8A9CA8A482A8B0584AE658508E8A9C9AA68E40CECADCC8EECE406868528092024050E445020000000000000510201C00030C0001018
310
0000000000003E400000000000000F901073D3C4954454D3E4050180000000000003E400000000000000F901073D3C4954454D3E40501800000000000034400000000000000D101073D3C4954454D3E40501800000000000034400000000000000D101073D3C4954454D3E405029010000000000000F9000000000000003E4
310
041CF4F125511534F901418F4F1455164F9014060000000000000F9000000000000003E4041CF4F125511534F9014060000000000000D100000000000000344041CF4F125511534F901901000000000000000F9000000000000003E40A2200000000000008204018000618048220681A048120280C88214844882034852034
310
8452028521485214814000000000000F0BF0000000000003C2FD018020000C3008070000C3003373333333333B0FCCDCCCCCCCCCCEC3F000000000000031012034164050341105901A000000000000062040100006180401000061804008000618008098A02808
340
0
340
0
 94
        0
  0
ACAD_PROXY_OBJECT
  5
F955
330
F94D
100
AcDbProxyObject
 90
      499
 91
      585
 95
       25
 70
     0
 93
      898
310
5DC4000000000000144048CF4F11115510525317D3105091530F880A0F11115510525317D05094D4D0D053114F8A51141C9A9999999999B93F26A666666666724FC000000000000E03F400000000000000400000000000000510000000000000024408070000C300000000000000051000
340
16
340
F5A9
 94
        0
  0
ACAD_PROXY_OBJECT
  5
F956
330
F94D
100
AcDbProxyObject
 90
      499
 91
      586
 95
       25
 70
     0
 93
      823
310
5DC0B00000000000002880959E9E29A2A1AA24A7A72FA620A122A62FA324A929AA1F169E29A2A1AA24A7A72FA620A122A62FA620A9AA1F000000000000048803FFFE01C00030C0088C0380006180000000000000048800000000000000A2000000000000002880
340
652
340
F5A9
 94
        0
  0
ACAD_PROXY_OBJECT
  5
F957
330
F94D
100
AcDbProxyObject
 90
      499
 91
      587
 95
       25
 70
     0
 93
      152
310
5DE80000000000000840A3D0A5723F0BD1F200
  0
ACAD_PROXY_OBJECT
  5
F958
330
F94D
100
AcDbProxyObject
 90
      499
 91
      588
 95
       25
 70
     0
 93
       14
310
5DE0
340
0
 94
        0
  0
ACAD_PROXY_OBJECT
  5
F959
330
F94D
100
AcDbProxyObject
 90
      499
 91
      589
 95
       25
 70
     0
 93
     8619
310
5DD084050BA4050AA405024050E836583938376838C815B836720314043A013D2525633C486F6C653A63746469613E2078203C486F6C653A637464657074683E20555C503C696628657175616C28486F6C653A7461707065642C223022292C22252563222C486F6C653A6E6F6D696E616C202220782022293E3C6966286571
310
75616C28486F6C653A7461707065642C223022292C486F6C653A6469612C486F6C653A706974636864657363293E3C696628657175616C28486F6C653A7461707065642C223122292C22207820222C2222293E3C696628657175616C28486F6C653A7461707065642C223122292C486F6C653A74617064657074682C222229
310
3E203C696628657175616C28486F6C653A7465726D696E6174696F6E2C223022292C22202F20222C2222293E3C696628657175616C28486F6C653A7465726D696E6174696F6E2C223022292C486F6C653A64657074682C2222293E406901405034050E836583938376838C815B836720314043B013D2525633C486F6C653A6
310
3746469613E2078203C486F6C653A6374616E676C653E2525645C503C696628657175616C28486F6C653A7461707065642C223022292C22252563222C486F6C653A6E6F6D696E616C202220782022293E3C696628657175616C28486F6C653A7461707065642C223022292C486F6C653A6469612C486F6C653A70697463686
310
4657363293E3C696628657175616C28486F6C653A7461707065642C223122292C22207820222C2222293E3C696628657175616C28486F6C653A7461707065642C223122292C486F6C653A74617064657074682C2222293E203C696628657175616C28486F6C653A7465726D696E6174696F6E2C223022292C22202F20222C2
310
222293E3C696628657175616C28486F6C653A7465726D696E6174696F6E2C223022292C486F6C653A64657074682C2222293E406901405014050E836583938376838C815B8367203140416013D3C696628657175616C28486F6C653A7461707065642C223022292C22252563222C486F6C653A6E6F6D696E616C2022207820
310
22293E3C696628657175616C28486F6C653A7461707065642C223022292C486F6C653A6469612C486F6C653A706974636864657363293E3C696628657175616C28486F6C653A7461707065642C223122292C22207820222C2222293E3C696628657175616C28486F6C653A7461707065642C223122292C486F6C653A746170
310
64657074682C2222293E203C696628657175616C28486F6C653A7465726D696E6174696F6E2C223022292C22202F20222C2222293E3C696628657175616C28486F6C653A7465726D696E6174696F6E2C223022292C486F6C653A64657074682C2222293E4069014051E4090E836583938376838C815B83672032405173D3C5
310
35444503A444553433E203C535444503A5354443E40690E836583938376838C815B836720314050C3D3C535444503A444553433E40690240515AAABBA120
360
F95A
330
F95A
360
F95B
330
F95B
360
F95C
330
F95C
360
F95D
360
F95E
330
F95D
330
F95E
 94
        0
  0
ACAD_PROXY_OBJECT
  5
F95F
330
F94D
100
AcDbProxyObject
 90
      499
 91
      568
 95
       25
 70
     0
 93
       26
310
5DD02A80
340
0
 94
        0
  0
ACAD_PROXY_OBJECT
  5
F960
330
F94D
100
AcDbProxyObject
 90
      499
 91
      569
 95
       25
 70
     0
 93
      250
310
5DD020000000000000A1000000000000002440408F0F9023C3E409A0DCFFFF80
340
F5AE
340
0
340
0
340
F5AF
340
F5B0
340
F5B1
340
F5B2
340
F5B3
340
F5B4
340
0
 94
        0
  0
ACAD_PROXY_OBJECT
  5
F961
330
F94D
100
AcDbProxyObject
 90
      499
 91
      590
 95
       25
 70
     0
 93
    13889
310
5DD1D003FFFFFFFD030300030000000000000310200800030C01030300030000000000000310200800030C00050C8DC0955782CC838A83588367014ED1D15395149050D3CB1294138B0C0B23702555E0B320E2A0D620D9CB11D15395149055160B095CCB0A11D1539354D1C819D95B991A5B5E880CCC0A78000C0000000000
310
00000000000000000000010000000000000310200800030C010000000000000310200800030C020143CF4F111959985D5B1D151A5D1B194F8050A8C8A8365815B8375838B014E51D15395149050D3CB1294138B0C0B2322A0D96056E0DD60E2CB11D15395149055160B095CCB0A11D1539354D1C819D95B991A5B5E880CCC4
310
A78000C000000000000000000000000000000010000000000000310200800030C010000000000000310200800030C020143CF4F111959985D5B1D151A5D1B194F90D44111409034110541D0C4350F4050E44D03449074510F000141232D24D7C053247454E545241434F2C4A504E2C302C8CB4935F2C47454E54524154582C
310
25732C2847454E4D53472067656E64696D7A20312900010104002214000281464500A608E8A9CA8A482869E5894A09C5860591914588E8A9CA8A482A8B0584AE658508E8A9C9AA68E40CECADCC8D2DAF4406452029E9E9E27B934B3B4B71F1E24A31427A91424A9A12620A7259427B934B3B4B7149624A9A12620A7259424B
310
A32B6949496111116111711149F1E24BA32B69F00808200111A000140560052F47454E545241434F2C4A504E2C302C582C47454E54524154582C25732C2847454E4D53472067656E64696D7A20332900010100002054000280AC80A5E8E8A9CA8A482869E5894A09C586058B2588E8A9CA8A482A8B0584AE658508E8A9C9AA
310
68E40CECADCC8D2DAF4406852000202000040E800050152014BD1D15395149050D3CB1294138B0C0B148B11D15395149055160B095CCB0A11D1539354D1C819D95B991A5B5E880D8A400040400008250000A0507A6029823A2A72A2920A1A79625282716181641E99623A2A72A2920AA2C1612B9961423A2A726A9A39033B2
310
B73234B6BD101B948000808180105A000140A0F4C053047454E545241434F2C4A504E2C302C83D32C47454E54524154582C25732C2847454E4D53472067656E64696D7A203829000101010020F400028248704B5F00A668E8A9CA8A482869E5894A09C58605921C12D7C588E8A9CA8A482A8B0584AE658508E8A9C9AA68E40
310
CECADCC8D2DAF440646052000200080043280005048B4B8A69014CD1D15395149050D3CB1294138B0C0B22D2E29A4B11D15395149055160B095CCB0A11D1539354D1C819D95B991A5B5E880C8C4A4000400100086D0000A09196926BE029923A2A72A2920A1A796252827161816465A49AF9623A2A72A2920AA2C1612B9961
310
423A2A726A9A39033B2B73234B6BD10189480A02620202080043E80005048D8096DA014CD1D15395149050D3CB1294138B0C0B236025B68B11D15395149055160B095CCB0A11D1539354D1C819D95B991A5B5E880C4D0A4000404140280D0000A190687072706CD06C5069D06B0029DA3A2A72A2920A1A7962528271618164
310
1A1C1C9C1B341B141A741AC1623A2A72A2920AA2C1612B9961423A2A726A9A39033B2B73234B6BD10189A94800080828050EA000143A322A0D0E0E4E0D9A0D8A0D3A0D60053D47454E545241434F2C4A504E2C302C8C8A8343839383668362834E83582C47454E54524154582C25732C2847454E4D53472067656E64696D7A
310
2031372900010105002274000281464500A628E8A9CA8A482869E5894A09C5860591914588E8A9CA8A482A8B0584AE658508E8A9C9AA68E40CECADCC8D2DAF440626C52000202080044A8000504909497CA014CD1D15395149050D3CB1294138B0C0B242525F28B11D15395149055160B095CCB0A11D1539354D1C819D95B9
310
91A5B5E880C4E4A400040418008A521E000000000000001CA040C00000000000034408080000000000006881010000000000000D102040000000000001A204080000000000003440818000000000000728103000000000000125020600000000004028A040000000000000034408000000000000004881000000000000000D
310
102000000000000001A204000000000000003440818000000000000508143C0000000000000039408180000000000006881030000000000000D102060000000000001A2040C00000000000034408180000000000006881030000000000000E5020600000000000024A040C0000000000805140800000000000000688100000
310
00000000009102000000000000001A2040000000000000034408180000000000006881030000000000000A10284220000000878000002020000008380000020400000081800000208000000828000002028900000000
340
0
340
0
340
0
340
0
340
F5A9
340
F5A9
 94
        0
  0
ACAD_PROXY_OBJECT
  5
F962
330
F94D
100
AcDbProxyObject
 90
      499
 91
      561
 95
       25
 70
     0
 93
     7018
310
5DD9740D254D3D0649534F5F4133429254D3D7D5125513115051349534F5F42525F5265766973696F6E6C69737446111413478342028323937783834316D6D2920421254D3D7D04D1E0D11141327835202835393478323130326D6D29421254D3D7D04C9E0D51141347839202832393778313839326D6D29421254D3D7D04D
310
1E0E51141337837202834323078323038306D6D29421254D3D7D04CDE0DD1141347838202832393778313638326D6D29421254D3D7D04D1E0E11141327834202835393478313638326D6D29421254D3D7D04C9E0D10E41312028353934783834316D6D29419254D3D7D04C51141347837202832393778313437316D6D29421
310
254D3D7D04D1E0DD1141347836202832393778313236316D6D29421254D3D7D04D1E0D91141347835202832393778313035316D6D29421254D3D7D04D1E0D5104130202838343078313138396D6D2920419254D3D7D04C10E41332028323937783432306D6D29419254D3D7D04CD1141327833202835393478313236316D6D
310
29421254D3D7D04C9E0CD10413478332028323937783633306D6D29421254D3D7D04D1E0CD1141337834202834323078313138396D6D29421254D3D7D04CDE0D11141337836202834323078313738336D6D29421254D3D7D04CDE0D91141337835202834323078313438366D6D29421254D3D7D04CDE0D50E4132202834323
310
0783539346D6D29419254D3D7D04C910413378332028343230783839316D6D29421254D3D7D04CDE0CD0E41342028323937783231306D6D29419254D3D7D04D1124130783220283131383978313638326D6D29421254D3D7D04C1E0C9124130783320283131383978323532336D6D29421254D3D7D04C1E0CD114131783420
310
2838343178323337386D6D29421254D3D7D04C5E0D11141317833202838343178313738336D6D29421254D3D7D04C5E0CD02431254D3C82557247A25E4C81050A49534F5F5449544C4541431254D3C82557247A25E4C81090A49534F5F5449544C45424110E979A97F0838A835883675F42525F44D254D3D7D09497D4995D9
310
A5CDA5BDB9B1A5CDD10E979A97F0838A835883675F54525F44D254D3D7D51497D4995D9A5CDA5BDB9B1A5CDD10E979A97F0838A835883675F424C5F44D254D3D7D09317D4995D9A5CDA5BDB9B1A5CDD10E979A97F0838A835883675F544C5F44D254D3D7D51317D4995D9A5CDA5BDB9B1A5CDD00
  0
ACAD_PROXY_OBJECT
  5
181
330
17F
100
AcDbProxyObject
 90
      499
 91
      527
 95
       25
 70
     0
 93
       86
310
5DEA0C80A0280A0280A034
  0
ACAD_PROXY_OBJECT
  5
182
330
17F
100
AcDbProxyObject
 90
      499
 91
      528
 95
       25
 70
     0
 93
      282
310
5DD0E4050140501405014050140501405014050141101405014041000000000000001000
340
187
 94
        0
  0
ACAD_PROXY_OBJECT
  5
183
330
17F
100
AcDbProxyObject
 90
      499
 91
      529
 95
       25
 70
     0
 93
      323
310
5DCC199999999999E99F91740501405014050140501405014050140501405014050140501405014040
340
0
 94
        0
  0
ACAD_PROXY_OBJECT
  5
184
330
17F
100
AcDbProxyObject
 90
      499
 91
      530
 95
       25
 70
     0
 93
       10
310
5DC0
  0
ACAD_PROXY_OBJECT
  5
185
330
17F
100
AcDbProxyObject
 90
      499
 91
      531
 95
       25
 70
     0
 93
      257
310
5DE0C16A22A7D90F49F80000000000001081400000000000004204010000618000
340
188
340
189
 94
        0
  0
ACAD_PROXY_OBJECT
  5
186
330
17F
100
AcDbProxyObject
 90
      499
 91
      532
 95
       25
 70
     0
 93
     5277
310
5DD06411255115350141236025B6901405014069010000000000000910240690120281A8AA2CA0282484A4BE52028120280A032020000000000001220480D202405044E414D454050496BC914F4051C40640A80000000000004E4090193C3D3C4946284953424C414E4B28504152543A4E414D45292C424C4F434B3A4E414D
310
452C504152543A4E414D45293E3C41435F44455343524950544E3E40480A109A82A88AA492829880A091BBD2F7E80A3A80C81D0E27A15AF46E08A81203480901411393D5115014124A363B7D0147501904A0000000000000F902406428F4F1050D7D393D5114F901202832B22A72227A92028366EF6EE06F582028EA0320B4
310
0000000000001F20480C879E9E20A1AFAB27222FA620A122A61F20240506445020000000000000490201C00030C00010180000000000003E400000000000000F901073D3C4954454D3E4050180000000000003E400000000000000F901073D3C4954454D3E40501800000000000034400000000000000D101073D3C4954454
310
D3E40501800000000000034400000000000000D101073D3C4954454D3E405029010000000000000F9000000000000003E4041CF4F125511534F901418F4F1455164F9014060000000000000F9000000000000003E4041CF4F125511534F901800000000000034400000000000000D101073D3C4954454D3E40640400000000
310
0000003E400000000000000F90288800000000000020810000001800120881A068120480A032208521122080D21480D211480A1485214852050000000000003C2FC000000000000F0BF40600800030C0200400030C00CDCCCCCCCCCCEC3F3373333333333B0FC3333333333330940C80D069014090341504901A1999999999
310
9984A040100006180400800061804010000618008098A02808
340
0
340
0
 94
        0
  0
ACAD_PROXY_OBJECT
  5
EDA5
330
17F
100
AcDbProxyObject
 90
      499
 91
      561
 95
       25
 70
     0
 93
     3042
310
5DD9740D29254D064A49535F413342929254D7D512551311505134A49535F42525F5265766973696F6E6C6973744190F4134522028323937783231306D6D2941D29254D7D04D1490E41312028353934783834316D6D2941929254D7D04C50E41332028323937783432306D6D2941929254D7D04CD0F41344C2028323130783
310
239376D6D2941D29254D7D04D1310E41322028343230783539346D6D2941929254D7D04C90F4130202838343178313138396D6D2941929254D7D04C10243129254C82557247A25E4C81050A4A49535F5449544C454143129254C82557247A25E4C81090A4A49535F5449544C45424110E979A97F0838A835883675F42525F4
310
4D29254D7D09497D4995D9A5CDA5BDB9B1A5CDD10E979A97F0838A835883675F54525F44D29254D7D51497D4995D9A5CDA5BDB9B1A5CDD10E979A97F0838A835883675F424C5F44D29254D7D09317D4995D9A5CDA5BDB9B1A5CDD10E979A97F0838A835883675F544C5F44D29254D7D51317D4995D9A5CDA5BDB9B1A5CDD00
  0
ACAD_PROXY_OBJECT
  5
EDA6
330
17F
100
AcDbProxyObject
 90
      499
 91
      562
 95
       25
 70
     0
 93
      898
310
5DC4000000000000124048CF4F11115510525317D3105091530F880A0F11115510525317D05094D4D0D053114F8A50241C9A9999999999B93F26A666666666724FC000000000000E03F400000000000000400000000000000510000000000000024408070000C300000000000000049000
340
16
340
180
 94
        0
  0
ACAD_PROXY_OBJECT
  5
EDA7
330
17F
100
AcDbProxyObject
 90
      499
 91
      563
 95
       25
 70
     0
 93
      823
310
5DC0B00000000000002480959E9E29A2A1AA24A7A72FA620A122A62FA324A929AA1F169E29A2A1AA24A7A72FA620A122A62FA620A9AA1F000000000000048803FFFE01C00030C008140380006180000000000000048800000000000000A2000000000000002480
340
652
340
180
 94
        0
  0
ACAD_PROXY_OBJECT
  5
EDA9
330
17F
100
AcDbProxyObject
 90
      499
 91
      564
 95
       25
 70
     0
 93
      152
310
5DE8273108AC1C5A0640A3D0A5723F0BD1F200
  0
ACAD_PROXY_OBJECT
  5
EDAA
330
17F
100
AcDbProxyObject
 90
      499
 91
      565
 95
       25
 70
     0
 93
       14
310
5DE0
340
0
 94
        0
  0
ACAD_PROXY_OBJECT
  5
EDAB
330
17F
100
AcDbProxyObject
 90
      499
 91
      566
 95
       25
 70
     0
 93
     6059
310
5DD084050BA4050AA405024050E836583938376838C815B83672031405983D3C486F6C653A6469613E3C696628657175616C28486F6C653A7465726D696E6174696F6E2C223022292C2220905B82B320222C22208368838A838B22293E3C696628657175616C28486F6C653A7465726D696E6174696F6E2C223022292C486F
310
6C653A64657074682C2222293E2C203C486F6C653A63746469613E2082B482AE82E882CC905B82B3203C486F6C653A637464657074683E406901405034050E836583938376838C815B83672031405EF3D3C486F6C653A6374616E676C653E252564202525633C486F6C653A63746469613E208E4D8C8A2C203C69662865717
310
5616C28486F6C653A7461707065642C223022292C22252563222C486F6C653A6E6F6D696E616C202220782022293E3C696628657175616C28486F6C653A7461707065642C223022292C486F6C653A6469612C486F6C653A706974636864657363293E203C696628657175616C28486F6C653A7465726D696E6174696F6E2C2
310
23022292C22905B82B320222C222022293E3C696628657175616C28486F6C653A7465726D696E6174696F6E2C223022292C486F6C653A64657074682C2222293E406901405014050E836583938376838C815B83672031405C73D3C696628657175616C28486F6C653A7461707065642C223022292C22252563222C486F6C65
310
3A6E6F6D696E616C202220782022293E3C696628657175616C28486F6C653A7461707065642C223022292C486F6C653A6469612C486F6C653A706974636864657363293E203C696628657175616C28486F6C653A7465726D696E6174696F6E2C223022292C22905B82B320222C222022293E3C696628657175616C28486F6C
310
653A7465726D696E6174696F6E2C223022292C486F6C653A64657074682C2222293E4069014051E4090E836583938376838C815B83672032405173D3C535444503A444553433E203C535444503A5354443E40690E836583938376838C815B836720314050C3D3C535444503A444553433E40690240515AAABBA120
360
EDAF
330
EDAF
360
EDB0
330
EDB0
360
EDAE
330
EDAE
360
EDAD
360
EDAC
330
EDAD
330
EDAC
 94
        0
  0
ACAD_PROXY_OBJECT
  5
EDB1
330
17F
100
AcDbProxyObject
 90
      499
 91
      568
 95
       25
 70
     0
 93
       26
310
5DD02A80
340
42
 94
        0
  0
ACAD_PROXY_OBJECT
  5
EDB2
330
17F
100
AcDbProxyObject
 90
      499
 91
      569
 95
       25
 70
     0
 93
      250
310
5DD020000000000000A1000000000000002440408F0F9023C3E409A0DCFFFF80
340
58
340
18A8
340
18A9
340
5F
340
60
340
61
340
62
340
63
340
68
340
0
 94
        0
  0
ACAD_PROXY_OBJECT
  5
EDB3
330
17F
100
AcDbProxyObject
 90
      499
 91
      570
 95
       25
 70
     0
 93
    13889
310
5DD1D003FFFFFFFD030300030CCCCCCCCCCCC250200800030C01030300030CCCCCCCCCCCC250200800030C00050C8DC0955782CC838A83588367014ED1D15395149050D3CB1294138B0C0B23702555E0B320E2A0D620D9CB11D15395149055160B095CCB0A11D1539354D1C819D95B991A5B5E880CCC0A78000C0000000000
310
00000000000000000000010CCCCCCCCCCCC250200800030C010CCCCCCCCCCCC250200800030C020143CF4F111959985D5B1D151A5D1B194F8050A8C8A8365815B8375838B014E51D15395149050D3CB1294138B0C0B2322A0D96056E0DD60E2CB11D15395149055160B095CCB0A11D1539354D1C819D95B991A5B5E880CCC4
310
A78000C000000000000000000000000000000010CCCCCCCCCCCC250200800030C010CCCCCCCCCCCC250200800030C020143CF4F111959985D5B1D151A5D1B194F90D44111409034110541D0C4350F4050E44D03449074510F000141232D24D7C053247454E545241434F2C4A504E2C302C8CB4935F2C47454E54524154582C
310
25732C2847454E4D53472067656E64696D7A20312900010104002214000281464500A608E8A9CA8A482869E5894A09C5860591914588E8A9CA8A482A8B0584AE658508E8A9C9AA68E40CECADCC8D2DAF4406452029E9E9E27B934B3B4B71F1E24A31427A91424A9A12620A7259427B934B3B4B7149624A9A12620A7259424B
310
A32B6949496111116111711149F1E24BA32B69F00808200111A000140560052F47454E545241434F2C4A504E2C302C582C47454E54524154582C25732C2847454E4D53472067656E64696D7A20332900010100002054000280AC80A5E8E8A9CA8A482869E5894A09C586058B2588E8A9CA8A482A8B0584AE658508E8A9C9AA
310
68E40CECADCC8D2DAF4406852000202000040E800050152014BD1D15395149050D3CB1294138B0C0B148B11D15395149055160B095CCB0A11D1539354D1C819D95B991A5B5E880D8A400040400008250000A0507A6029823A2A72A2920A1A79625282716181641E99623A2A72A2920AA2C1612B9961423A2A726A9A39033B2
310
B73234B6BD101B948000808180105A000140A0F4C053047454E545241434F2C4A504E2C302C83D32C47454E54524154582C25732C2847454E4D53472067656E64696D7A203829000101010020F400028248704B5F00A668E8A9CA8A482869E5894A09C58605921C12D7C588E8A9CA8A482A8B0584AE658508E8A9C9AA68E40
310
CECADCC8D2DAF440646052000200080043280005048B4B8A69014CD1D15395149050D3CB1294138B0C0B22D2E29A4B11D15395149055160B095CCB0A11D1539354D1C819D95B991A5B5E880C8C4A4000400100086D0000A09196926BE029923A2A72A2920A1A796252827161816465A49AF9623A2A72A2920AA2C1612B9961
310
423A2A726A9A39033B2B73234B6BD10189480A02620202080043E80005048D8096DA014CD1D15395149050D3CB1294138B0C0B236025B68B11D15395149055160B095CCB0A11D1539354D1C819D95B991A5B5E880C4D0A4000404140280D0000A190687072706CD06C5069D06B0029DA3A2A72A2920A1A7962528271618164
310
1A1C1C9C1B341B141A741AC1623A2A72A2920AA2C1612B9961423A2A726A9A39033B2B73234B6BD10189A94800080820050EA000143A322A0D0E0E4E0D9A0D8A0D3A0D60053D47454E545241434F2C4A504E2C302C8C8A8343839383668362834E83582C47454E54524154582C25732C2847454E4D53472067656E64696D7A
310
2031372900010105002274000281464500A628E8A9CA8A482869E5894A09C5860591914588E8A9CA8A482A8B0584AE658508E8A9C9AA68E40CECADCC8D2DAF440626C52000202080044A8000504909497CA014CD1D15395149050D3CB1294138B0C0B242525F28B11D15395149055160B095CCB0A11D1539354D1C819D95B9
310
91A5B5E880C4E4A400040418008A521E000000000000001CA040C00000000000034408080000000000006881010000000000000D102040000000000001A204080000000000003440818000000000000728103000000000000125020600000000004028A040000000000000034408000000000000004881000000000000000D
310
102000000000000001A204000000000000003440818000000000000508143C0000000000000039408180000000000006881030000000000000D102060000000000001A2040C00000000000034408180000000000006881030000000000000E5020600000000000024A040C0000000000805140800000000000000688100000
310
00000000009102000000000000001A2040000000000000034408180000000000006881030000000000000A10284220000000878000002020000008380000020400000081800000208000000828000002028900000000
340
0
340
0
340
0
340
0
340
180
340
180
 94
        0
  0
ACAD_PROXY_OBJECT
  5
F95A
330
F959
100
AcDbProxyObject
 90
      499
 91
      567
 95
       25
 70
     0
 93
     2680
310
5DE0143A0D960E4E0DDA0E32056E0D9C80C4043A013D2525633C486F6C653A63746469613E2078203C486F6C653A637464657074683E20555C503C696628657175616C28486F6C653A7461707065642C223022292C22252563222C486F6C653A6E6F6D696E616C202220782022293E3C696628657175616C28486F6C653A74
310
61707065642C223022292C486F6C653A6469612C486F6C653A706974636864657363293E3C696628657175616C28486F6C653A7461707065642C223122292C22207820222C2222293E3C696628657175616C28486F6C653A7461707065642C223122292C486F6C653A74617064657074682C2222293E203C69662865717561
310
6C28486F6C653A7465726D696E6174696F6E2C223022292C22202F20222C2222293E3C696628657175616C28486F6C653A7465726D696E6174696F6E2C223022292C486F6C653A64657074682C2222293E
  0
ACAD_PROXY_OBJECT
  5
F95B
330
F959
100
AcDbProxyObject
 90
      499
 91
      567
 95
       25
 70
     0
 93
     2688
310
5DE0143A0D960E4E0DDA0E32056E0D9C80C4043B013D2525633C486F6C653A63746469613E2078203C486F6C653A6374616E676C653E2525645C503C696628657175616C28486F6C653A7461707065642C223022292C22252563222C486F6C653A6E6F6D696E616C202220782022293E3C696628657175616C28486F6C653A
310
7461707065642C223022292C486F6C653A6469612C486F6C653A706974636864657363293E3C696628657175616C28486F6C653A7461707065642C223122292C22207820222C2222293E3C696628657175616C28486F6C653A7461707065642C223122292C486F6C653A74617064657074682C2222293E203C696628657175
310
616C28486F6C653A7465726D696E6174696F6E2C223022292C22202F20222C2222293E3C696628657175616C28486F6C653A7465726D696E6174696F6E2C223022292C486F6C653A64657074682C2222293E
  0
ACAD_PROXY_OBJECT
  5
F95C
330
F959
100
AcDbProxyObject
 90
      499
 91
      567
 95
       25
 70
     0
 93
     2392
310
5DE0143A0D960E4E0DDA0E32056E0D9C80C40416013D3C696628657175616C28486F6C653A7461707065642C223022292C22252563222C486F6C653A6E6F6D696E616C202220782022293E3C696628657175616C28486F6C653A7461707065642C223022292C486F6C653A6469612C486F6C653A706974636864657363293E
310
3C696628657175616C28486F6C653A7461707065642C223122292C22207820222C2222293E3C696628657175616C28486F6C653A7461707065642C223122292C486F6C653A74617064657074682C2222293E203C696628657175616C28486F6C653A7465726D696E6174696F6E2C223022292C22202F20222C2222293E3C69
310
6628657175616C28486F6C653A7465726D696E6174696F6E2C223022292C486F6C653A64657074682C2222293E
  0
ACAD_PROXY_OBJECT
  5
F95D
330
F959
100
AcDbProxyObject
 90
      499
 91
      567
 95
       25
 70
     0
 93
      344
310
5DE0143A0D960E4E0DDA0E32056E0D9C80C805173D3C535444503A444553433E203C535444503A5354443E
  0
ACAD_PROXY_OBJECT
  5
F95E
330
F959
100
AcDbProxyObject
 90
      499
 91
      567
 95
       25
 70
     0
 93
      256
310
5DE0143A0D960E4E0DDA0E32056E0D9C80C4050C3D3C535444503A444553433E
  0
ACAD_PROXY_OBJECT
  5
EDAF
330
EDAB
100
AcDbProxyObject
 90
      499
 91
      567
 95
       25
 70
     0
 93
     1376
310
5DE0143A0D960E4E0DDA0E32056E0D9C80C405983D3C486F6C653A6469613E3C696628657175616C28486F6C653A7465726D696E6174696F6E2C223022292C2220905B82B320222C22208368838A838B22293E3C696628657175616C28486F6C653A7465726D696E6174696F6E2C223022292C486F6C653A64657074682C22
310
22293E2C203C486F6C653A63746469613E2082B482AE82E882CC905B82B3203C486F6C653A637464657074683E
  0
ACAD_PROXY_OBJECT
  5
EDB0
330
EDAB
100
AcDbProxyObject
 90
      499
 91
      567
 95
       25
 70
     0
 93
     2072
310
5DE0143A0D960E4E0DDA0E32056E0D9C80C405EF3D3C486F6C653A6374616E676C653E252564202525633C486F6C653A63746469613E208E4D8C8A2C203C696628657175616C28486F6C653A7461707065642C223022292C22252563222C486F6C653A6E6F6D696E616C202220782022293E3C696628657175616C28486F6C
310
653A7461707065642C223022292C486F6C653A6469612C486F6C653A706974636864657363293E203C696628657175616C28486F6C653A7465726D696E6174696F6E2C223022292C22905B82B320222C222022293E3C696628657175616C28486F6C653A7465726D696E6174696F6E2C223022292C486F6C653A6465707468
310
2C2222293E
  0
ACAD_PROXY_OBJECT
  5
EDAE
330
EDAB
100
AcDbProxyObject
 90
      499
 91
      567
 95
       25
 70
     0
 93
     1752
310
5DE0143A0D960E4E0DDA0E32056E0D9C80C405C73D3C696628657175616C28486F6C653A7461707065642C223022292C22252563222C486F6C653A6E6F6D696E616C202220782022293E3C696628657175616C28486F6C653A7461707065642C223022292C486F6C653A6469612C486F6C653A706974636864657363293E20
310
3C696628657175616C28486F6C653A7465726D696E6174696F6E2C223022292C22905B82B320222C222022293E3C696628657175616C28486F6C653A7465726D696E6174696F6E2C223022292C486F6C653A64657074682C2222293E
  0
ACAD_PROXY_OBJECT
  5
EDAD
330
EDAB
100
AcDbProxyObject
 90
      499
 91
      567
 95
       25
 70
     0
 93
      344
310
5DE0143A0D960E4E0DDA0E32056E0D9C80C805173D3C535444503A444553433E203C535444503A5354443E
  0
ACAD_PROXY_OBJECT
  5
EDAC
330
EDAB
100
AcDbProxyObject
 90
      499
 91
      567
 95
       25
 70
     0
 93
      256
310
5DE0143A0D960E4E0DDA0E32056E0D9C80C4050C3D3C535444503A444553433E
  0
ENDSEC
  0
EOF
