  0
SECTION
  2
HEADER
  9
$ACADVER
  1
AC1015
  9
$ACADMAINTVER
 70
     6
  9
$DWGCODEPAGE
  3
ANSI_932
  9
$INSBASE
 10
0.0
 20
0.0
 30
0.0
  9
$EXTMIN
 10
-112.4831227930888
 20
-117.545979899337
 30
-0.0015258207003583
  9
$EXTMAX
 10
309.6002225192938
 20
45.18955647144935
 30
0.0000000349246037
  9
$LIMMIN
 10
0.0
 20
0.0
  9
$LIMMAX
 10
420.0
 20
297.0
  9
$ORTHOMODE
 70
     1
  9
$REGENMODE
 70
     1
  9
$FILLMODE
 70
     1
  9
$QTEXTMODE
 70
     0
  9
$MIRRTEXT
 70
     1
  9
$LTSCALE
 40
1.0
  9
$ATTMODE
 70
     1
  9
$TEXTSIZE
 40
4.0
  9
$TRACEWID
 40
1.0
  9
$TEXTSTYLE
  7
STANDARD
  9
$CLAYER
  8
AM_0
  9
$CELTYPE
  6
ByLayer
  9
$CECOLOR
 62
   256
  9
$CELTSCALE
 40
1.0
  9
$DISPSILH
 70
     0
  9
$DIMSCALE
 40
1.0
  9
$DIMASZ
 40
2.5
  9
$DIMEXO
 40
0.0
  9
$DIMDLI
 40
10.0
  9
$DIMRND
 40
0.0
  9
$DIMDLE
 40
0.0
  9
$DIMEXE
 40
1.0
  9
$DIMTP
 40
0.1
  9
$DIMTM
 40
0.1000000001
  9
$DIMTXT
 40
3.8
  9
$DIMCEN
 40
0.0
  9
$DIMTSZ
 40
0.0
  9
$DIMTOL
 70
     0
  9
$DIMLIM
 70
     0
  9
$DIMTIH
 70
     0
  9
$DIMTOH
 70
     0
  9
$DIMSE1
 70
     0
  9
$DIMSE2
 70
     0
  9
$DIMTAD
 70
     3
  9
$DIMZIN
 70
     1
  9
$DIMBLK
  1
Open30
  9
$DIMASO
 70
     1
  9
$DIMSHO
 70
     1
  9
$DIMPOST
  1

  9
$DIMAPOST
  1
"
  9
$DIMALT
 70
     0
  9
$DIMALTD
 70
     2
  9
$DIMALTF
 40
0.0393701
  9
$DIMLFAC
 40
1.0
  9
$DIMTOFL
 70
     1
  9
$DIMTVP
 40
0.0
  9
$DIMTIX
 70
     0
  9
$DIMSOXD
 70
     0
  9
$DIMSAH
 70
     0
  9
$DIMBLK1
  1

  9
$DIMBLK2
  1

  9
$DIMSTYLE
  2
AM_JIS
  9
$DIMCLRD
 70
   256
  9
$DIMCLRE
 70
   256
  9
$DIMCLRT
 70
     2
  9
$DIMTFAC
 40
0.71
  9
$DIMGAP
 40
1.5
  9
$DIMJUST
 70
     0
  9
$DIMSD1
 70
     0
  9
$DIMSD2
 70
     0
  9
$DIMTOLJ
 70
     0
  9
$DIMTZIN
 70
     8
  9
$DIMALTZ
 70
     0
  9
$DIMALTTZ
 70
     0
  9
$DIMUPT
 70
     0
  9
$DIMDEC
 70
     0
  9
$DIMTDEC
 70
     2
  9
$DIMALTU
 70
     2
  9
$DIMALTTD
 70
     2
  9
$DIMTXSTY
  7
STANDARD
  9
$DIMAUNIT
 70
     1
  9
$DIMADEC
 70
     0
  9
$DIMALTRND
 40
0.0
  9
$DIMAZIN
 70
     2
  9
$DIMDSEP
 70
    46
  9
$DIMATFIT
 70
     3
  9
$DIMFRAC
 70
     0
  9
$DIMLDRBLK
  1
Open30
  9
$DIMLUNIT
 70
     2
  9
$DIMLWD
 70
    -1
  9
$DIMLWE
 70
    -1
  9
$DIMTMOVE
 70
     0
  9
$LUNITS
 70
     2
  9
$LUPREC
 70
     2
  9
$SKETCHINC
 40
1.0
  9
$FILLETRAD
 40
0.8
  9
$AUNITS
 70
     1
  9
$AUPREC
 70
     5
  9
$MENU
  1
.
  9
$ELEVATION
 40
0.0
  9
$PELEVATION
 40
0.0
  9
$THICKNESS
 40
0.0
  9
$LIMCHECK
 70
     0
  9
$CHAMFERA
 40
10.0
  9
$CHAMFERB
 40
10.0
  9
$CHAMFERC
 40
20.0
  9
$CHAMFERD
 40
0.0
  9
$SKPOLY
 70
     0
  9
$TDCREATE
 40
2451943.610431667
  9
$TDUCREATE
 40
2451943.235431667
  9
$TDUPDATE
 40
2455468.56621853
  9
$TDUUPDATE
 40
2455468.19121853
  9
$TDINDWG
 40
1.8938835648
  9
$TDUSRTIMER
 40
1.8938833912
  9
$USRTIMER
 70
     1
  9
$ANGBASE
 50
0.0
  9
$ANGDIR
 70
     0
  9
$PDMODE
 70
     0
  9
$PDSIZE
 40
0.0
  9
$PLINEWID
 40
0.0
  9
$SPLFRAME
 70
     0
  9
$SPLINETYPE
 70
     6
  9
$SPLINESEGS
 70
     8
  9
$HANDSEED
  5
1BDB0
  9
$SURFTAB1
 70
     6
  9
$SURFTAB2
 70
     6
  9
$SURFTYPE
 70
     6
  9
$SURFU
 70
     6
  9
$SURFV
 70
     6
  9
$UCSBASE
  2

  9
$UCSNAME
  2

  9
$UCSORG
 10
0.0
 20
0.0
 30
0.0
  9
$UCSXDIR
 10
1.0
 20
0.0
 30
0.0
  9
$UCSYDIR
 10
0.0
 20
1.0
 30
0.0
  9
$UCSORTHOREF
  2

  9
$UCSORTHOVIEW
 70
     0
  9
$UCSORGTOP
 10
0.0
 20
0.0
 30
0.0
  9
$UCSORGBOTTOM
 10
0.0
 20
0.0
 30
0.0
  9
$UCSORGLEFT
 10
0.0
 20
0.0
 30
0.0
  9
$UCSORGRIGHT
 10
0.0
 20
0.0
 30
0.0
  9
$UCSORGFRONT
 10
0.0
 20
0.0
 30
0.0
  9
$UCSORGBACK
 10
0.0
 20
0.0
 30
0.0
  9
$PUCSBASE
  2

  9
$PUCSNAME
  2

  9
$PUCSORG
 10
0.0
 20
0.0
 30
0.0
  9
$PUCSXDIR
 10
1.0
 20
0.0
 30
0.0
  9
$PUCSYDIR
 10
0.0
 20
1.0
 30
0.0
  9
$PUCSORTHOREF
  2

  9
$PUCSORTHOVIEW
 70
     0
  9
$PUCSORGTOP
 10
0.0
 20
0.0
 30
0.0
  9
$PUCSORGBOTTOM
 10
0.0
 20
0.0
 30
0.0
  9
$PUCSORGLEFT
 10
0.0
 20
0.0
 30
0.0
  9
$PUCSORGRIGHT
 10
0.0
 20
0.0
 30
0.0
  9
$PUCSORGFRONT
 10
0.0
 20
0.0
 30
0.0
  9
$PUCSORGBACK
 10
0.0
 20
0.0
 30
0.0
  9
$USERI1
 70
     0
  9
$USERI2
 70
     0
  9
$USERI3
 70
     0
  9
$USERI4
 70
     0
  9
$USERI5
 70
     0
  9
$USERR1
 40
0.0
  9
$USERR2
 40
0.0
  9
$USERR3
 40
0.0
  9
$USERR4
 40
0.0
  9
$USERR5
 40
0.0
  9
$WORLDVIEW
 70
     1
  9
$SHADEDGE
 70
     3
  9
$SHADEDIF
 70
    70
  9
$TILEMODE
 70
     1
  9
$MAXACTVP
 70
    64
  9
$PINSBASE
 10
0.0
 20
0.0
 30
0.0
  9
$PLIMCHECK
 70
     0
  9
$PEXTMIN
 10
1.000000000000000E+20
 20
1.000000000000000E+20
 30
1.000000000000000E+20
  9
$PEXTMAX
 10
-1.000000000000000E+20
 20
-1.000000000000000E+20
 30
-1.000000000000000E+20
  9
$PLIMMIN
 10
0.0
 20
0.0
  9
$PLIMMAX
 10
420.0
 20
297.0
  9
$UNITMODE
 70
     0
  9
$VISRETAIN
 70
     1
  9
$PLINEGEN
 70
     0
  9
$PSLTSCALE
 70
     1
  9
$TREEDEPTH
 70
  3020
  9
$CMLSTYLE
  2
Standard
  9
$CMLJUST
 70
     0
  9
$CMLSCALE
 40
20.0
  9
$PROXYGRAPHICS
 70
     1
  9
$MEASUREMENT
 70
     1
  9
$CELWEIGHT
370
    -1
  9
$ENDCAPS
280
     0
  9
$JOINSTYLE
280
     0
  9
$LWDISPLAY
290
     0
  9
$INSUNITS
 70
     4
  9
$HYPERLINKBASE
  1

  9
$STYLESHEET
  1
sei_cad.ctb
  9
$XEDIT
290
     1
  9
$CEPSNTYPE
380
     0
  9
$PSTYLEMODE
290
     1
  9
$FINGERPRINTGUID
  2
{C77AB3BE-9CA2-11D3-BAF3-006094EB760E}
  9
$VERSIONGUID
  2
{E62798BC-2C04-4A35-AA2B-2ABCEFC410A8}
  9
$EXTNAMES
290
     1
  9
$PSVPSCALE
 40
0.0
  9
$OLESTARTUP
290
     0
  0
ENDSEC
  0
SECTION
  2
CLASSES
  0
CLASS
  1
ACDBDICTIONARYWDFLT
  2
AcDbDictionaryWithDefault
  3
ObjectDBX Classes
 90
        0
280
     0
281
     0
  0
CLASS
  1
ACDBPLACEHOLDER
  2
AcDbPlaceHolder
  3
ObjectDBX Classes
 90
        0
280
     0
281
     0
  0
CLASS
  1
LAYOUT
  2
AcDbLayout
  3
ObjectDBX Classes
 90
        0
280
     0
281
     0
  0
CLASS
  1
ACME_DOCUMENT
  2
AcMeDbDoc
  3
AcMeServices
 90
        0
280
     1
281
     0
  0
CLASS
  1
ACMESCOPE
  2
AcMeScope
  3
AcMeServices
 90
        0
280
     1
281
     0
  0
CLASS
  1
ACMECOMMANDHISTORY
  2
AcMeCommandHistory
  3
AcMeServices
 90
        0
280
     1
281
     0
  0
CLASS
  1
DICTIONARYVAR
  2
AcDbDictionaryVar
  3
ObjectDBX Classes
 90
        0
280
     0
281
     0
  0
CLASS
  1
ACIMSYSVARMAN
  2
AcImSysVarManager
  3
AcMeServices
 90
        0
280
     1
281
     0
  0
CLASS
  1
ACIMREALSYSVAR
  2
AcImRealSysVar
  3
AcMeServices
 90
        0
280
     1
281
     0
  0
CLASS
  1
ACIMINTSYSVAR
  2
AcImIntSysVar
  3
AcMeServices
 90
        0
280
     1
281
     0
  0
CLASS
  1
ACMEDRAWINGMAN
  2
AcMeDrawingMan
  3
AcMeServices
 90
        0
280
     1
281
     0
  0
CLASS
  1
ACMEVIEW
  2
AcMeView
  3
AcMeServices
 90
        0
280
     1
281
     0
  0
CLASS
  1
ACDBENTITYCACHE
  2
AcMeEntityCache
  3
AcMeServices
 90
        0
280
     1
281
     0
  0
CLASS
  1
GSMANAGER
  2
AcMeGSManager
  3
AcMeServices
 90
        0
280
     1
281
     0
  0
CLASS
  1
AMDTINTERNALREACTOR
  2
AmdtInternalReactor
  3
AcMeServices
 90
        0
280
     1
281
     0
  0
CLASS
  1
ACMESTATEMGR
  2
AcMeStateMgr
  3
AcMeServices
 90
        0
280
     1
281
     0
  0
CLASS
  1
ACME_DATABASE
  2
AcMeDbDatabase
  3
AcMeServices
 90
        0
280
     1
281
     0
  0
CLASS
  1
ACRFINSADJUSTERMGR
  2
AcRfInsAdjusterMgr
  3
AcMeServices
 90
        0
280
     1
281
     0
  0
CLASS
  1
AMGSETTINGSOBJ
  2
AmgSettingsObj
  3
"AcadM|Product Description: AutoCAD Mechanical 2000|Company: Autodesk"
 90
        0
280
     1
281
     0
  0
CLASS
  1
AMGOBJPROPCFG
  2
AmgObjPropCfg
  3
"AmgLay|Product Description: AutoCAD Mechanical 2000|Company: Autodesk"
 90
        1
280
     1
281
     0
  0
CLASS
  1
ACMDATADICTIONARY
  2
AcmDataDictionary
  3
"AcmSymBB|Product Description: AutoCAD Mechanical 2004 DX|Company: Autodesk"
 90
        0
280
     1
281
     0
  0
CLASS
  1
ACMDATAENTRYBLOCK
  2
AcmDataEntryBlock
  3
"AcmSymBB|Product Description: AutoCAD Mechanical 2004 DX|Company: Autodesk"
 90
        0
280
     1
281
     0
  0
CLASS
  1
ACIMSTRSYSVAR
  2
AcImStrSysVar
  3
AcMeServices
 90
        0
280
     1
281
     0
  0
CLASS
  1
ACAMGFILTERDAT
  2
AcAmgFilterDat
  3
"AcadM|Product Description: AutoCAD Mechanical 2000|Company: Autodesk"
 90
        0
280
     1
281
     0
  0
CLASS
  1
LAYER_INDEX
  2
AcDbLayerIndex
  3
ObjectDBX Classes
 90
        0
280
     0
281
     0
  0
CLASS
  1
IDBUFFER
  2
AcDbIdBuffer
  3
ObjectDBX Classes
 90
        0
280
     0
281
     0
  0
CLASS
  1
ACMSTANDARDJIS
  2
AcmStandardJIS
  3
"Amdt_StdImp|Product Description: AutoCAD Mechanical 2004 DX|Company: Autodesk"
 90
        0
280
     1
281
     0
  0
CLASS
  1
ACMSURFSTANDARDJIS
  2
AcmSurfTextStdJIS
  3
"Amdt_StdImp|Product Description: AutoCAD Mechanical 2004 DX|Company: Autodesk"
 90
        0
280
     1
281
     0
  0
CLASS
  1
ACMFCFSTANDARDJIS
  2
AcmFCFStdJIS
  3
"Amdt_StdImp|Product Description: AutoCAD Mechanical 2004 DX|Company: Autodesk"
 90
        0
280
     1
281
     0
  0
CLASS
  1
ACMWELDSTANDARDJIS
  2
AcmWeldingStdJIS
  3
"Amdt_StdImp|Product Description: AutoCAD Mechanical 2004 DX|Company: Autodesk"
 90
        0
280
     1
281
     0
  0
CLASS
  1
ACMIDSTANDARDJIS
  2
AcmIdStdJIS
  3
"Amdt_StdImp|Product Description: AutoCAD Mechanical 2004 DX|Company: Autodesk"
 90
        0
280
     1
281
     0
  0
CLASS
  1
ACMDATUMSTANDARDJIS
  2
AcmDatumStdJIS
  3
"Amdt_StdImp|Product Description: AutoCAD Mechanical 2004 DX|Company: Autodesk"
 90
        0
280
     1
281
     0
  0
CLASS
  1
ACMBOMSTANDARDJIS
  2
AcmBOMStdJIS
  3
"Amdt_StdImp|Product Description: AutoCAD Mechanical 2004 DX|Company: Autodesk"
 90
        0
280
     1
281
     0
  0
CLASS
  1
AMDTNOTE
  2
AmdtNote
  3
"AcmSymBB|Product Description: AutoCAD Mechanical 2004 DX|Company: Autodesk"
 90
     1023
280
     1
281
     1
  0
CLASS
  1
TABLESTYLE
  2
AcDbTableStyle
  3
ObjectDBX Classes
 90
     2047
280
     0
281
     0
  0
CLASS
  1
ACGREFMASTER
  2
AcGrefMaster
  3
AcAttribServices
 90
        0
280
     1
281
     0
  0
CLASS
  1
AM_DRAWING_MGR
  2
AcDmDwgMgr
  3
AcMechDwgViewMgmt
 90
        0
280
     1
281
     0
  0
CLASS
  1
AM_DWG_DOCUMENT
  2
AcDmDwgDocument
  3
AcMechDwgViewMgmt
 90
        0
280
     1
281
     0
  0
CLASS
  1
AM_DWG_SHEET
  2
AcDmSheet
  3
AcMechDwgViewMgmt
 90
        0
280
     1
281
     0
  0
CLASS
  1
AM_VIEWDIMPARMAP
  2
AcDmViewDimParMap
  3
AcMechDwgViewMgmt
 90
        0
280
     1
281
     0
  0
CLASS
  1
AM_DWGMGR_NAME
  2
AcDmDwgMgrName
  3
AcMechDwgViewMgmt
 90
        0
280
     1
281
     0
  0
CLASS
  1
ACGREFACADMASTER
  2
AcGrefacadMaster
  3
AcGrefServices
 90
        0
280
     1
281
     0
  0
CLASS
  1
AMDTMENUSTATEMGR
  2
AmdtMenuStateMgr
  3
McadcomServices
 90
        0
280
     1
281
     0
  0
CLASS
  1
AMDTMCOMMENUSTATE
  2
AmdtMcomMenuState
  3
McadcomServices
 90
        0
280
     1
281
     0
  0
CLASS
  1
AMIMASTER
  2
AmiMaster
  3
AmiServices
 90
        0
280
     1
281
     0
  0
CLASS
  1
MAPIAMMOUDLE
  2
MApiAmModule
  3
MApiAmServices
 90
        0
280
     1
281
     0
  0
CLASS
  1
AMDTADMENUSTATE
  2
AmdtAdMenuState
  3
DesignerServices
 90
        0
280
     1
281
     0
  0
CLASS
  1
ADAPPL
  2
AcAdAppl
  3
DesignerServices
 90
        0
280
     1
281
     0
  0
CLASS
  1
DEPMGR
  2
AcAdDepMgr
  3
DesignerServices
 90
        0
280
     1
281
     0
  0
CLASS
  1
PARAMMGR
  2
AcAdParamMgr
  3
DesignerServices
 90
        0
280
     1
281
     0
  0
CLASS
  1
PARAMSCOPE
  2
AcAdParamScope
  3
DesignerServices
 90
        0
280
     1
281
     0
  0
CLASS
  1
NAMEDAPPL
  2
AcAdNamedAppl
  3
DesignerServices
 90
        0
280
     1
281
     0
  0
CLASS
  1
AMDTDMMENUSTATE
  2
AmdtDmMenuState
  3
AcMechDwgViewMgmt
 90
        0
280
     1
281
     0
  0
CLASS
  1
AMDTAMMENUSTATE
  2
AmdtAmMenuState
  3
DesignerAssemblies
 90
        0
280
     1
281
     0
  0
CLASS
  1
ACAMPROJECT
  2
AcAmProject
  3
DesignerAssemblies
 90
        0
280
     1
281
     0
  0
CLASS
  1
ACAMGRCOMPDEF
  2
AcAmGrCompDef
  3
DesignerAssemblies
 90
        0
280
     1
281
     0
  0
CLASS
  1
ACCMCONTEXT
  2
AcCmContext
  3
DesignerAssemblies
 90
        0
280
     1
281
     0
  0
CLASS
  1
ACAMCOMPDEF
  2
AcAmCompDef
  3
DesignerAssemblies
 90
        0
280
     1
281
     0
  0
CLASS
  1
ACAMCOMPDEFMGR
  2
AcAmCompDefMgr
  3
DesignerAssemblies
 90
        0
280
     1
281
     0
  0
CLASS
  1
AMCONTEXTMGR
  2
AcAmContextMgr
  3
DesignerAssemblies
 90
        0
280
     1
281
     0
  0
CLASS
  1
ACAMCONTEXTMODELER
  2
AcAmContextModeler
  3
DesignerAssemblies
 90
        0
280
     1
281
     0
  0
CLASS
  1
ACAMGTITLESTD
  2
AcAmgTitleStd
  3
"TITLEAPP"
 90
        0
280
     1
281
     0
  0
CLASS
  1
ACMDETAILSTANDARDJIS
  2
AmdtDetailSymStdJIS
  3
"Amdt_StdImp|Product Description: AutoCAD Mechanical 2004 DX|Company: Autodesk"
 90
        0
280
     1
281
     0
  0
CLASS
  1
ACMSECTIONSTANDARDJIS
  2
AmdtSectionSymStdJIS
  3
"Amdt_StdImp|Product Description: AutoCAD Mechanical 2004 DX|Company: Autodesk"
 90
        0
280
     1
281
     0
  0
CLASS
  1
ACMCENTERLINESTANDARDJIS
  2
AmdtCenterLineStdJIS
  3
"Amdt_StdImp|Product Description: AutoCAD Mechanical 2004 DX|Company: Autodesk"
 90
        0
280
     1
281
     0
  0
CLASS
  1
ACMTHREADLINESTANDARDJIS
  2
AmdtThreadLineStdJIS
  3
"Amdt_StdImp|Product Description: AutoCAD Mechanical 2004 DX|Company: Autodesk"
 90
        0
280
     1
281
     0
  0
CLASS
  1
ACMNOTESTANDARDJIS
  2
AmdtNoteStdJIS
  3
"Amdt_StdImp|Product Description: AutoCAD Mechanical 2004 DX|Company: Autodesk"
 90
        0
280
     1
281
     0
  0
CLASS
  1
AMDTNOTETEMPLATEDB
  2
AmdtNoteTemplateDB
  3
AMDT_STDIMP_MODULE_NAME
 90
        0
280
     1
281
     0
  0
CLASS
  1
ACAMGLAYSTD
  2
AcAmgLayStd
  3
"AcAmgLayStd|Product Description: AutoCAD Mechanical 2000|Company: Autodesk"
 90
        0
280
     1
281
     0
  0
CLASS
  1
ACAMGDIMSTD
  2
AcAmgDimStd
  3
"AcAmgDimStd|Product Description: AutoCAD Mechanical 2000|Company: Autodesk"
 90
        0
280
     1
281
     0
  0
CLASS
  1
ACAMGHOLECHARTSTDJIS
  2
AcAmgHoleChartStdJIS
  3
ACMSYMBB_MODULE_NAME
 90
        0
280
     1
281
     0
  0
CLASS
  1
CATALOGSTATE
  2
AcAmCatalogState
  3
DesignerAssemblies
 90
        0
280
     1
281
     0
  0
CLASS
  1
ACAMGRCOMPDEFSET
  2
AcAmGrCompDefSet
  3
DesignerAssemblies
 90
        0
280
     1
281
     0
  0
CLASS
  1
AMDTBROWSERDBTAB
  2
AmdtBrowserDbTab
  3
McadcomServices
 90
        0
280
     1
281
     0
  0
CLASS
  1
CBROWSERAPPOBJECT
  2
CBrowserAppObject
  3
McadcomServices
 90
        0
280
     1
281
     0
  0
CLASS
  1
DM_PLACEHOLDER
  2
AcDmSelsetPlaceholder
  3
AcMechDwgViewMgmt
 90
        0
280
     1
281
     0
  0
CLASS
  1
SORTENTSTABLE
  2
AcDbSortentsTable
  3
ObjectDBX Classes
 90
        0
280
     0
281
     0
  0
CLASS
  1
ACMSTANDARDISO
  2
AcmStandardISO
  3
"Amdt_StdImp|Product Description: AutoCAD Mechanical 2004 DX|Company: Autodesk"
 90
        0
280
     1
281
     0
  0
CLASS
  1
AMDTEDGESTANDARDISO13715
  2
AmdtEdgeStdISO13715
  3
"Amdt_StdImp|Product Description: AutoCAD Mechanical 2004 DX|Company: Autodesk"
 90
        0
280
     1
281
     0
  0
CLASS
  1
ACMSURFSTANDARDISO
  2
AcmSurfTextStdISO
  3
"Amdt_StdImp|Product Description: AutoCAD Mechanical 2004 DX|Company: Autodesk"
 90
        0
280
     1
281
     0
  0
CLASS
  1
ACMFCFSTANDARDISO
  2
AcmFCFStdISO
  3
"Amdt_StdImp|Product Description: AutoCAD Mechanical 2004 DX|Company: Autodesk"
 90
        0
280
     1
281
     0
  0
CLASS
  1
ACMWELDSTANDARDISO
  2
AcmWeldingStdISO
  3
"Amdt_StdImp|Product Description: AutoCAD Mechanical 2004 DX|Company: Autodesk"
 90
        0
280
     1
281
     0
  0
CLASS
  1
ACMIDSTANDARDISO
  2
AcmIdStdISO
  3
"Amdt_StdImp|Product Description: AutoCAD Mechanical 2004 DX|Company: Autodesk"
 90
        0
280
     1
281
     0
  0
CLASS
  1
ACMDATUMSTANDARDISO
  2
AcmDatumStdISO
  3
"Amdt_StdImp|Product Description: AutoCAD Mechanical 2004 DX|Company: Autodesk"
 90
        0
280
     1
281
     0
  0
CLASS
  1
ACMBOMSTANDARDISO
  2
AcmBOMStdISO
  3
"Amdt_StdImp|Product Description: AutoCAD Mechanical 2004 DX|Company: Autodesk"
 90
        0
280
     1
281
     0
  0
CLASS
  1
ACMDETAILSTANDARDISO
  2
AmdtDetailSymStdISO
  3
"Amdt_StdImp|Product Description: AutoCAD Mechanical 2004 DX|Company: Autodesk"
 90
        0
280
     1
281
     0
  0
CLASS
  1
ACMSECTIONSTANDARDISO
  2
AmdtSectionSymStdISO
  3
"Amdt_StdImp|Product Description: AutoCAD Mechanical 2004 DX|Company: Autodesk"
 90
        0
280
     1
281
     0
  0
CLASS
  1
ACMCENTERLINESTANDARDISO
  2
AmdtCenterLineStdISO
  3
"Amdt_StdImp|Product Description: AutoCAD Mechanical 2004 DX|Company: Autodesk"
 90
        0
280
     1
281
     0
  0
CLASS
  1
ACMTHREADLINESTANDARDISO
  2
AmdtThreadLineStdISO
  3
"Amdt_StdImp|Product Description: AutoCAD Mechanical 2004 DX|Company: Autodesk"
 90
        0
280
     1
281
     0
  0
CLASS
  1
ACMNOTESTANDARDISO
  2
AmdtNoteStdISO
  3
"Amdt_StdImp|Product Description: AutoCAD Mechanical 2004 DX|Company: Autodesk"
 90
        0
280
     1
281
     0
  0
CLASS
  1
ACAMGHOLECHARTSTDISO
  2
AcAmgHoleChartStdISO
  3
ACMSYMBB_MODULE_NAME
 90
        0
280
     1
281
     0
  0
CLASS
  1
AMDTFORMULAUPDATEDISPATCHER
  2
AmdtFormulaUpdateDispatcher
  3
AcMeServices
 90
        0
280
     1
281
     0
  0
CLASS
  1
DIMASSOC
  2
AcDbDimAssoc
  3
"AcDbDimAssoc|Product Desc:     AcDim ARX App For Dimension|Company:          Autodesk, Inc.|WEB Address:      www.autodesk.com"
 90
        0
280
     0
281
     0
  0
ENDSEC
  0
SECTION
  2
TABLES
  0
TABLE
  2
VPORT
  5
8
330
0
100
AcDbSymbolTable
 70
    10
  0
VPORT
  5
1BDA9
330
8
100
AcDbSymbolTableRecord
100
AcDbViewportTableRecord
  2
*Active
 70
     0
 10
0.0
 20
0.0
 11
1.0
 21
1.0
 12
98.55854986310247
 22
-36.17821171394382
 13
0.0
 23
0.0
 14
2.5
 24
2.5
 15
10.0
 25
10.0
 16
0.0
 26
0.0
 36
1.0
 17
0.0
 27
0.0
 37
0.0
 40
250.0058676182696
 41
1.697058823529412
 42
50.0
 43
0.0
 44
0.0
 50
0.0
 51
0.0
 71
    16
 72
 20000
 73
     1
 74
     3
 75
     0
 76
     0
 77
     0
 78
     0
281
     0
 65
     1
110
0.0
120
0.0
130
0.0
111
1.0
121
0.0
131
0.0
112
0.0
122
1.0
132
0.0
 79
     0
146
0.0
  0
ENDTAB
  0
TABLE
  2
LTYPE
  5
5
330
0
100
AcDbSymbolTable
 70
    16
  0
LTYPE
  5
14
330
5
100
AcDbSymbolTableRecord
100
AcDbLinetypeTableRecord
  2
ByBlock
 70
     0
  3

 72
    65
 73
     0
 40
0.0
  0
LTYPE
  5
15
330
5
100
AcDbSymbolTableRecord
100
AcDbLinetypeTableRecord
  2
ByLayer
 70
     0
  3

 72
    65
 73
     0
 40
0.0
  0
LTYPE
  5
16
330
5
100
AcDbSymbolTableRecord
100
AcDbLinetypeTableRecord
  2
Continuous
 70
     0
  3
Solid line
 72
    65
 73
     0
 40
0.0
  0
LTYPE
  5
43
330
5
100
AcDbSymbolTableRecord
100
AcDbLinetypeTableRecord
  2
AM_ISO02W050
 70
     0
  3
__ __ __ __ __ __ __ __ __ __ __ __ __ __ __
 72
    65
 73
     2
 40
7.5
 49
6.0
 74
     0
 49
-1.5
 74
     0
  0
LTYPE
  5
44
330
5
100
AcDbSymbolTableRecord
100
AcDbLinetypeTableRecord
  2
AM_ISO08W050
 70
     0
  3
____ . ____ . ____ . ____ . ____ . ____ . ____
 72
    65
 73
     4
 40
18.0
 49
12.0
 74
     0
 49
-1.5
 74
     0
 49
3.0
 74
     0
 49
-1.5
 74
     0
  0
LTYPE
  5
45
330
5
100
AcDbSymbolTableRecord
100
AcDbLinetypeTableRecord
  2
AM_ISO09W050
 70
     0
  3
_____ . . _____ . . _____ . . ____ .. ____
 72
    65
 73
     6
 40
22.5
 49
12.0
 74
     0
 49
-1.5
 74
     0
 49
3.0
 74
     0
 49
-1.5
 74
     0
 49
3.0
 74
     0
 49
-1.5
 74
     0
  0
LTYPE
  5
46
330
5
100
AcDbSymbolTableRecord
100
AcDbLinetypeTableRecord
  2
Amconstr
 70
     0
  3
_______________________
 72
    65
 73
     2
 40
9999.0
 49
9999.0
 74
     0
 49
0.0
 74
     0
  0
LTYPE
  5
47
330
5
100
AcDbSymbolTableRecord
100
AcDbLinetypeTableRecord
  2
AM_ISO02W050x2
 70
     0
  3
 _ _ _ _ _ _ _ _ _ _ _ _
 72
    65
 73
     2
 40
3.75
 49
3.0
 74
     0
 49
-0.75
 74
     0
  0
LTYPE
  5
48
330
5
100
AcDbSymbolTableRecord
100
AcDbLinetypeTableRecord
  2
AM_ISO08W050x2
 70
     0
  3
__ . __ . __ . __ . __ . __
 72
    65
 73
     4
 40
9.0
 49
6.0
 74
     0
 49
-0.75
 74
     0
 49
1.5
 74
     0
 49
-0.75
 74
     0
  0
LTYPE
  5
4B
330
5
100
AcDbSymbolTableRecord
100
AcDbLinetypeTableRecord
  2
Amzigzag
 70
     0
  3
/\/-/\/-/\/-/\/-/\/-/\/
 72
    65
 73
     2
 40
11.0001
 49
0.0001
 74
     4
 75
   135
340
4A
 46
0.04
 50
0.0
 44
0.0
 45
0.0
 49
-11.0
 74
     0
  0
LTYPE
  5
188
330
5
100
AcDbSymbolTableRecord
100
AcDbLinetypeTableRecord
  2
ACJISTGB
 70
     0
  3
__ . . __ . .
 72
    65
 73
     6
 40
9.0
 49
4.0
 74
     0
 49
-1.0
 74
     0
 49
1.0
 74
     0
 49
-1.0
 74
     0
 49
1.0
 74
     0
 49
-1.0
 74
     0
  0
LTYPE
  5
189
330
5
100
AcDbSymbolTableRecord
100
AcDbLinetypeTableRecord
  2
ACJISTGL
 70
     0
  3
_ _ _ _ _
 72
    65
 73
     2
 40
3.0
 49
2.0
 74
     0
 49
-1.0
 74
     0
  0
LTYPE
  5
652
330
5
100
AcDbSymbolTableRecord
100
AcDbLinetypeTableRecord
  2
CENTER
 70
     0
  3
____ _ ____ _ ____ _ ____ _ ____ _ ____ _ ____
 72
    65
 73
     4
 40
17.5
 49
13.0
 74
     0
 49
-1.5
 74
     0
 49
1.5
 74
     0
 49
-1.5
 74
     0
  0
LTYPE
  5
12AB
330
5
100
AcDbSymbolTableRecord
100
AcDbLinetypeTableRecord
  2
HIDDEN
 70
     0
  3
Hidden __ __ __ __ __ __ __ __ __ __ __ __ __ _
 72
    65
 73
     2
 40
0.375
 49
0.25
 74
     0
 49
-0.125
 74
     0
  0
LTYPE
  5
12AC
330
5
100
AcDbSymbolTableRecord
100
AcDbLinetypeTableRecord
  2
PHANTOM2
 70
     0
  3
Phantom (.5x) ___ _ _ ___ _ _ ___ _ _ ___ _ _
 72
    65
 73
     6
 40
1.25
 49
0.625
 74
     0
 49
-0.125
 74
     0
 49
0.125
 74
     0
 49
-0.125
 74
     0
 49
0.125
 74
     0
 49
-0.125
 74
     0
  0
LTYPE
  5
F5A5
330
5
100
AcDbSymbolTableRecord
100
AcDbLinetypeTableRecord
  2
ACISOWELD
 70
     0
  3
_ _ _ _ _
 72
    65
 73
     2
 40
2.0
 49
2.0
 74
     0
 49
-1.0
 74
     0
  0
LTYPE
  5
F5A6
330
5
100
AcDbSymbolTableRecord
100
AcDbLinetypeTableRecord
  2
ACISOTGB
 70
     0
  3
__ . . __ . .
 72
    65
 73
     6
 40
9.0
 49
4.0
 74
     0
 49
-1.0
 74
     0
 49
1.0
 74
     0
 49
-1.0
 74
     0
 49
1.0
 74
     0
 49
-1.0
 74
     0
  0
LTYPE
  5
F5A7
330
5
100
AcDbSymbolTableRecord
100
AcDbLinetypeTableRecord
  2
ACISOTGL
 70
     0
  3
_ _ _ _ _
 72
    65
 73
     2
 40
3.0
 49
2.0
 74
     0
 49
-1.0
 74
     0
  0
ENDTAB
  0
TABLE
  2
LAYER
  5
2
102
{ACAD_XDICTIONARY
360
EDC8
102
}
330
0
100
AcDbSymbolTable
 70
     7
  0
LAYER
  5
10
330
2
100
AcDbSymbolTableRecord
100
AcDbLayerTableRecord
  2
0
 70
     0
 62
     7
  6
Continuous
370
    -3
390
F
  0
LAYER
  5
7D
330
2
100
AcDbSymbolTableRecord
100
AcDbLayerTableRecord
  2
AM_5
 70
     0
 62
     3
  6
Continuous
370
    13
390
F
  0
LAYER
  5
7F
330
2
100
AcDbSymbolTableRecord
100
AcDbLayerTableRecord
  2
Defpoints
 70
     0
 62
     7
  6
Continuous
290
     0
370
    -3
390
F
  0
LAYER
  5
12B1
330
2
100
AcDbSymbolTableRecord
100
AcDbLayerTableRecord
  2
AM_0
 70
     0
 62
     7
  6
Continuous
370
    30
390
F
  0
LAYER
  5
12B2
330
2
100
AcDbSymbolTableRecord
100
AcDbLayerTableRecord
  2
AM_4
 70
     0
 62
     3
  6
Continuous
370
    13
390
F
  0
LAYER
  5
18A4
330
2
100
AcDbSymbolTableRecord
100
AcDbLayerTableRecord
  2
AM_7
 70
     0
 62
     4
  6
AM_ISO08W050
370
    13
390
F
  0
LAYER
  5
18A5
330
2
100
AcDbSymbolTableRecord
100
AcDbLayerTableRecord
  2
AM_6
 70
     0
 62
     2
  6
Continuous
370
    30
390
F
  0
ENDTAB
  0
TABLE
  2
STYLE
  5
3
330
0
100
AcDbSymbolTable
 70
     6
  0
STYLE
  5
11
330
3
100
AcDbSymbolTableRecord
100
AcDbTextStyleTableRecord
  2
STANDARD
 70
     0
 40
0.0
 41
1.0
 50
0.0
 71
     0
 42
4.0
  3
ISOCP.SHX
  4
EXTFONT.SHX
  0
STYLE
  5
4A
330
3
100
AcDbSymbolTableRecord
100
AcDbTextStyleTableRecord
  2

 70
     1
 40
0.0
 41
1.0
 50
0.0
 71
     0
 42
2.5
  3
ltypeshp.shx
  4

  0
STYLE
  5
180
330
3
100
AcDbSymbolTableRecord
100
AcDbTextStyleTableRecord
  2
ACJISTS
 70
     0
 40
1.0
 41
1.0
 50
0.0
 71
     0
 42
2.5
  3
isocp.shx
  4
bigfont.shx
  0
STYLE
  5
187
330
3
100
AcDbSymbolTableRecord
100
AcDbTextStyleTableRecord
  2
ACJISGDT
 70
     0
 40
0.0
 41
1.0
 50
0.0
 71
     0
 42
2.5
  3
amgdt.shx
  4

  0
STYLE
  5
F5A9
330
3
100
AcDbSymbolTableRecord
100
AcDbTextStyleTableRecord
  2
ACISOTS
 70
     0
 40
1.0
 41
1.0
 50
0.0
 71
     0
 42
1.0
  3
isocp.shx
  4
extfont.shx
  0
STYLE
  5
F5AA
330
3
100
AcDbSymbolTableRecord
100
AcDbTextStyleTableRecord
  2
ACISOGDT
 70
     0
 40
0.0
 41
1.0
 50
0.0
 71
     0
 42
1.0
  3
amgdt.shx
  4

  0
ENDTAB
  0
TABLE
  2
VIEW
  5
6
330
0
100
AcDbSymbolTable
 70
     6
  0
VIEW
  5
A30
330
6
100
AcDbSymbolTableRecord
100
AcDbViewTableRecord
  2
AM_VIEW1
 70
     0
 40
148.5
 10
109.5616966580977
 20
222.75
 41
219.1233933161954
 11
0.0
 21
0.0
 31
1.0
 12
0.0
 22
0.0
 32
0.0
 42
50.0
 43
0.0
 44
0.0
 50
0.0
 71
    16
281
     0
 72
     0
  0
VIEW
  5
A31
330
6
100
AcDbSymbolTableRecord
100
AcDbViewTableRecord
  2
AM_VIEW2
 70
     0
 40
148.5
 10
310.4383033419023
 20
222.75
 41
219.1233933161954
 11
0.0
 21
0.0
 31
1.0
 12
0.0
 22
0.0
 32
0.0
 42
50.0
 43
0.0
 44
0.0
 50
0.0
 71
    16
281
     0
 72
     0
  0
VIEW
  5
A32
330
6
100
AcDbSymbolTableRecord
100
AcDbViewTableRecord
  2
AM_VIEW3
 70
     0
 40
148.5
 10
109.5616966580977
 20
74.25
 41
219.1233933161954
 11
0.0
 21
0.0
 31
1.0
 12
0.0
 22
0.0
 32
0.0
 42
50.0
 43
0.0
 44
0.0
 50
0.0
 71
    16
281
     0
 72
     0
  0
VIEW
  5
A33
330
6
100
AcDbSymbolTableRecord
100
AcDbViewTableRecord
  2
AM_VIEW4
 70
     0
 40
148.5
 10
310.4383033419023
 20
74.25
 41
219.1233933161954
 11
0.0
 21
0.0
 31
1.0
 12
0.0
 22
0.0
 32
0.0
 42
50.0
 43
0.0
 44
0.0
 50
0.0
 71
    16
281
     0
 72
     0
  0
VIEW
  5
A34
330
6
100
AcDbSymbolTableRecord
100
AcDbViewTableRecord
  2
AM_VIEW5
 70
     0
 40
148.5
 10
210.0
 20
148.5
 41
219.1233933161954
 11
0.0
 21
0.0
 31
1.0
 12
0.0
 22
0.0
 32
0.0
 42
50.0
 43
0.0
 44
0.0
 50
0.0
 71
    16
281
     0
 72
     0
  0
VIEW
  5
A35
330
6
100
AcDbSymbolTableRecord
100
AcDbViewTableRecord
  2
AM_VIEW6
 70
     0
 40
296.99703
 10
210.0
 20
148.5
 41
438.2424041645245
 11
0.0
 21
0.0
 31
1.0
 12
0.0
 22
0.0
 32
0.0
 42
50.0
 43
0.0
 44
0.0
 50
0.0
 71
    16
281
     0
 72
     0
  0
ENDTAB
  0
TABLE
  2
UCS
  5
7
330
0
100
AcDbSymbolTable
 70
     0
  0
ENDTAB
  0
TABLE
  2
APPID
  5
9
330
0
100
AcDbSymbolTable
 70
    51
  0
APPID
  5
12
330
9
100
AcDbSymbolTableRecord
100
AcDbRegAppTableRecord
  2
ACAD
 70
     0
  0
APPID
  5
2C
330
9
100
AcDbSymbolTableRecord
100
AcDbRegAppTableRecord
  2
MCAD_NO_VIS
 70
     0
  0
APPID
  5
2D
330
9
100
AcDbSymbolTableRecord
100
AcDbRegAppTableRecord
  2
ACAD_TEMP_GRAPHIC
 70
     0
  0
APPID
  5
B9
330
9
100
AcDbSymbolTableRecord
100
AcDbRegAppTableRecord
  2
GENIUS_GENDTOL_13
 70
     0
  0
APPID
  5
359
330
9
100
AcDbSymbolTableRecord
100
AcDbRegAppTableRecord
  2
GENIUS_GENREC_14
 70
     0
  0
APPID
  5
35A
330
9
100
AcDbSymbolTableRecord
100
AcDbRegAppTableRecord
  2
GENIUS_GENODEF_13
 70
     0
  0
APPID
  5
35B
330
9
100
AcDbSymbolTableRecord
100
AcDbRegAppTableRecord
  2
GENIUS_GENOBJ-N-REC_13
 70
     0
  0
APPID
  5
667
330
9
100
AcDbSymbolTableRecord
100
AcDbRegAppTableRecord
  2
GENIUS_GENCFG_13
 70
     0
  0
APPID
  5
668
330
9
100
AcDbSymbolTableRecord
100
AcDbRegAppTableRecord
  2
GENIUS_GENCFG0_13
 70
     0
  0
APPID
  5
669
330
9
100
AcDbSymbolTableRecord
100
AcDbRegAppTableRecord
  2
GENIUS_GENCFG1_13
 70
     0
  0
APPID
  5
66A
330
9
100
AcDbSymbolTableRecord
100
AcDbRegAppTableRecord
  2
GENIUS_GENCFG2_13
 70
     0
  0
APPID
  5
66B
330
9
100
AcDbSymbolTableRecord
100
AcDbRegAppTableRecord
  2
GENIUS_GENCFG3_13
 70
     0
  0
APPID
  5
66C
330
9
100
AcDbSymbolTableRecord
100
AcDbRegAppTableRecord
  2
GENIUS_GENCFG4_13
 70
     0
  0
APPID
  5
A76
330
9
100
AcDbSymbolTableRecord
100
AcDbRegAppTableRecord
  2
GENIUS_GENBLLY_14
 70
     0
  0
APPID
  5
A77
330
9
100
AcDbSymbolTableRecord
100
AcDbRegAppTableRecord
  2
GENIUS_GENOBJ-N-CEN_13
 70
     0
  0
APPID
  5
A83
330
9
100
AcDbSymbolTableRecord
100
AcDbRegAppTableRecord
  2
GENIUS_GENTRA_14
 70
     0
  0
APPID
  5
A8D
330
9
100
AcDbSymbolTableRecord
100
AcDbRegAppTableRecord
  2
GENIUS_GENOBJ-N-TIT_13
 70
     0
  0
APPID
  5
A8E
330
9
100
AcDbSymbolTableRecord
100
AcDbRegAppTableRecord
  2
GENIUS_GENTITLE_13
 70
     0
  0
APPID
  5
A8F
330
9
100
AcDbSymbolTableRecord
100
AcDbRegAppTableRecord
  2
GENIUS_GENOENT_13
 70
     0
  0
APPID
  5
A90
330
9
100
AcDbSymbolTableRecord
100
AcDbRegAppTableRecord
  2
GENIUS_GENOREF_13
 70
     0
  0
APPID
  5
A91
330
9
100
AcDbSymbolTableRecord
100
AcDbRegAppTableRecord
  2
GENIUS_GENOLIS_13
 70
     0
  0
APPID
  5
A92
330
9
100
AcDbSymbolTableRecord
100
AcDbRegAppTableRecord
  2
GENIUS_GENZVEED_13
 70
     0
  0
APPID
  5
A93
330
9
100
AcDbSymbolTableRecord
100
AcDbRegAppTableRecord
  2
GENIUS_GENSCREG_15
 70
     0
  0
APPID
  5
A94
330
9
100
AcDbSymbolTableRecord
100
AcDbRegAppTableRecord
  2
GENIUS_GENOBJ-N-SDF_13
 70
     0
  0
APPID
  5
12B5
330
9
100
AcDbSymbolTableRecord
100
AcDbRegAppTableRecord
  2
GENIUS_GENOBJ-N-RSBK_13
 70
     0
  0
APPID
  5
12B6
330
9
100
AcDbSymbolTableRecord
100
AcDbRegAppTableRecord
  2
GENIUS_GENOBJ-N-LIB_13
 70
     0
  0
APPID
  5
12B7
330
9
100
AcDbSymbolTableRecord
100
AcDbRegAppTableRecord
  2
GENIUS_GENSCALE_13
 70
     0
  0
APPID
  5
12B8
330
9
100
AcDbSymbolTableRecord
100
AcDbRegAppTableRecord
  2
GENIUS_GENOBJ-N-HTC_13
 70
     0
  0
APPID
  5
12B9
330
9
100
AcDbSymbolTableRecord
100
AcDbRegAppTableRecord
  2
GENIUS_GENHATCH_13
 70
     0
  0
APPID
  5
18AA
330
9
100
AcDbSymbolTableRecord
100
AcDbRegAppTableRecord
  2
BASE_TYPE
 70
     0
  0
APPID
  5
18AB
330
9
100
AcDbSymbolTableRecord
100
AcDbRegAppTableRecord
  2
GENIUS_GENOBJ-N-FIL_13
 70
     0
  0
APPID
  5
1E91
330
9
100
AcDbSymbolTableRecord
100
AcDbRegAppTableRecord
  2
GENIUS_GENOBJ-N-CRS_13
 70
     0
  0
APPID
  5
3B24
330
9
100
AcDbSymbolTableRecord
100
AcDbRegAppTableRecord
  2
GENIUS_GENDIMSH_14
 70
     0
  0
APPID
  5
4D78
330
9
100
AcDbSymbolTableRecord
100
AcDbRegAppTableRecord
  2
GENIUS_GENOBJ-N-DIM_13
 70
     0
  0
APPID
  5
4D79
330
9
100
AcDbSymbolTableRecord
100
AcDbRegAppTableRecord
  2
GENIUS_GENDIM_13
 70
     0
  0
APPID
  5
517C
330
9
100
AcDbSymbolTableRecord
100
AcDbRegAppTableRecord
  2
GENIUS_GENFIL_13
 70
     0
  0
APPID
  5
517D
330
9
100
AcDbSymbolTableRecord
100
AcDbRegAppTableRecord
  2
GENIUS_GENOBJ-N-CHA_13
 70
     0
  0
APPID
  5
ED83
330
9
100
AcDbSymbolTableRecord
100
AcDbRegAppTableRecord
  2
AD_DRAW
 70
     0
  0
APPID
  5
ED86
330
9
100
AcDbSymbolTableRecord
100
AcDbRegAppTableRecord
  2
ACATTRIBSERVICES
 70
     0
  0
APPID
  5
EDA4
330
9
100
AcDbSymbolTableRecord
100
AcDbRegAppTableRecord
  2
DESIGNERASSEMBLIES
 70
     0
  0
APPID
  5
EDB7
330
9
100
AcDbSymbolTableRecord
100
AcDbRegAppTableRecord
  2
ACADM_DIM_EDIT
 70
     0
  0
APPID
  5
EDB8
330
9
100
AcDbSymbolTableRecord
100
AcDbRegAppTableRecord
  2
AMDT_DM_ADJ
 70
     0
  0
APPID
  5
F08C
330
9
100
AcDbSymbolTableRecord
100
AcDbRegAppTableRecord
  2
ACAD_PSEXT
 70
     0
  0
APPID
  5
F2B1
330
9
100
AcDbSymbolTableRecord
100
AcDbRegAppTableRecord
  2
GENIUS_GENCEN_19
 70
     0
  0
APPID
  5
10513
330
9
100
AcDbSymbolTableRecord
100
AcDbRegAppTableRecord
  2
ACAD_DSTYLE_DIMTEXT_FILL
 70
     0
  0
APPID
  5
11AB4
330
9
100
AcDbSymbolTableRecord
100
AcDbRegAppTableRecord
  2
ACAD_DSTYLE_DIMARC_LENGTH_SYMBOL
 70
     0
  0
APPID
  5
11AB5
330
9
100
AcDbSymbolTableRecord
100
AcDbRegAppTableRecord
  2
ACAD_DSTYLE_DIMJOGGED_JOGANGLE_SYMBOL
 70
     0
  0
APPID
  5
11AB6
330
9
100
AcDbSymbolTableRecord
100
AcDbRegAppTableRecord
  2
AcAecLayerStandard
 70
     0
  0
APPID
  5
1813B
330
9
100
AcDbSymbolTableRecord
100
AcDbRegAppTableRecord
  2
ACAD_DIMASSOC_DIMLFAC
 70
     0
  0
APPID
  5
1813C
330
9
100
AcDbSymbolTableRecord
100
AcDbRegAppTableRecord
  2
ACAD_DIMASSOC_CALC_DIMLFAC
 70
     0
  0
APPID
  5
1813D
330
9
100
AcDbSymbolTableRecord
100
AcDbRegAppTableRecord
  2
ACAD_DIMASSOC_OVERRIDDEN_DIMLFAC
 70
     0
  0
ENDTAB
  0
TABLE
  2
DIMSTYLE
  5
A
330
0
100
AcDbSymbolTable
 70
    17
100
AcDbDimStyleTable
  0
DIMSTYLE
105
58
330
A
100
AcDbSymbolTableRecord
100
AcDbDimStyleTableRecord
  2
AM_JIS
 70
     0
  4
"
 41
2.5
 42
0.0
 43
10.0
 44
1.0
 47
0.1
 48
0.1000000001
 73
     0
 74
     0
 77
     3
 78
     1
 79
     2
140
3.8
141
0.0
143
0.0393701
146
0.71
147
1.5
172
     1
176
   256
177
   256
178
     2
179
     1
271
     2
272
     2
275
     1
283
     0
284
     8
340
11
341
59
342
59
371
    -1
372
    -1
  0
DIMSTYLE
105
5F
102
{ACAD_REACTORS
330
1A4BE
330
1A5FA
102
}
330
A
100
AcDbSymbolTableRecord
100
AcDbDimStyleTableRecord
  2
AM_JIS$3
 70
     0
  4
"
 41
2.5
 42
0.0
 43
10.0
 44
1.0
 47
0.1
 48
0.1000000001
 73
     0
 77
     3
 78
     1
 79
     2
140
3.8
141
0.0
143
0.0393701
146
0.71
147
1.5
172
     1
176
   256
177
   256
178
     2
179
     1
271
     2
272
     2
275
     1
283
     0
284
     8
288
     1
289
     0
340
11
341
59
342
59
371
    -1
372
    -1
  0
DIMSTYLE
105
60
330
A
100
AcDbSymbolTableRecord
100
AcDbDimStyleTableRecord
  2
AM_JIS$4
 70
     0
  4
"
 41
2.5
 42
0.0
 43
10.0
 44
1.0
 47
0.1
 48
0.1000000001
 73
     0
 77
     3
 78
     1
 79
     2
140
3.8
141
0.0
143
0.0393701
146
0.71
147
1.5
172
     1
176
   256
177
   256
178
     2
179
     1
271
     2
272
     2
275
     1
283
     0
284
     8
288
     1
289
     0
340
11
341
59
342
59
371
    -1
372
    -1
  0
DIMSTYLE
105
61
330
A
100
AcDbSymbolTableRecord
100
AcDbDimStyleTableRecord
  2
AM_JIS$6
 70
     0
  4
"
 41
2.5
 42
0.0
 43
10.0
 44
1.0
 47
0.1
 48
0.1000000001
 73
     0
 74
     0
 78
     1
 79
     2
140
3.8
141
0.0
143
0.0393701
146
0.71
147
1.5
172
     1
176
   256
177
   256
178
     2
179
     1
271
     2
272
     2
275
     1
283
     0
284
     8
340
11
341
59
342
59
371
    -1
372
    -1
  0
DIMSTYLE
105
62
330
A
100
AcDbSymbolTableRecord
100
AcDbDimStyleTableRecord
  2
AM_JIS$7
 70
     0
  4
"
 41
2.5
 42
0.0
 43
10.0
 44
1.0
 47
0.1
 48
0.1000000001
 73
     0
 74
     0
 77
     3
 78
     1
 79
     2
140
5.0
141
0.0
143
0.0393701
146
0.71
147
1.5
172
     1
176
   256
177
   256
178
     2
179
     1
271
     2
272
     2
275
     1
283
     0
284
     8
340
11
341
59
342
59
371
    -1
372
    -1
  0
DIMSTYLE
105
63
330
A
100
AcDbSymbolTableRecord
100
AcDbDimStyleTableRecord
  2
AM_JIS$SF
 70
     0
  4
"
 41
2.5
 42
1.0
 43
10.0
 44
1.0
 47
0.1
 48
0.1
 73
     0
 74
     0
 75
     1
 76
     1
 77
     3
 78
     8
 79
     2
140
3.5
141
0.0
143
0.0393701
146
0.71
147
1.5
176
   256
177
   256
178
     2
271
     2
272
     3
274
     4
340
11
341
59
342
59
343
59
344
59
371
    -1
372
    -1
  0
DIMSTYLE
105
68
330
A
100
AcDbSymbolTableRecord
100
AcDbDimStyleTableRecord
  2
AM_JIS$SH
 70
     0
  4
"
 41
2.5
 42
1.0
 43
10.0
 44
1.0
 47
0.1
 48
0.1
 73
     0
 74
     0
 75
     1
 76
     1
 77
     3
 78
     8
 79
     2
140
3.5
141
0.0
143
0.0393701
144
2.0
146
0.71
147
1.5
173
     1
176
   256
177
   256
178
     2
271
     2
272
     3
274
     4
340
11
341
59
342
59
343
64
344
59
371
    -1
372
    -1
  0
DIMSTYLE
105
65F
330
A
100
AcDbSymbolTableRecord
100
AcDbDimStyleTableRecord
  2
STANDARD
 70
     0
340
11
  0
DIMSTYLE
105
18A8
102
{ACAD_REACTORS
330
19102
330
191D9
330
19093
330
1BBCF
330
1BC22
102
}
330
A
100
AcDbSymbolTableRecord
100
AcDbDimStyleTableRecord
  2
AM_JIS$0
 70
     0
  4
"
 41
2.5
 42
0.0
 43
10.0
 44
1.0
 47
0.1
 48
0.1000000001
 73
     0
 74
     0
 77
     3
 78
     1
 79
     2
140
3.8
141
0.0
143
0.0393701
146
0.71
147
1.5
172
     1
176
     3
177
     3
178
     2
271
     2
272
     2
275
     1
283
     0
284
     8
289
     0
340
11
341
59
342
59
371
    13
372
    13
  0
DIMSTYLE
105
18A9
102
{ACAD_REACTORS
330
1BB0F
102
}
330
A
100
AcDbSymbolTableRecord
100
AcDbDimStyleTableRecord
  2
AM_JIS$2
 70
     0
  4
"
 41
2.5
 42
0.0
 43
10.0
 44
1.0
 47
0.1
 48
0.1000000001
 73
     0
 74
     0
 77
     3
 78
     1
 79
     2
140
3.8
141
0.0
143
0.0393701
146
0.71
147
1.5
172
     1
176
     3
177
     3
178
     2
271
     2
272
     2
275
     1
283
     0
284
     8
289
     0
340
11
341
59
342
59
371
    13
372
    13
  0
DIMSTYLE
105
F5AE
330
A
100
AcDbSymbolTableRecord
100
AcDbDimStyleTableRecord
  2
AM_ISO
 70
     0
  4
"
 41
2.5
 42
1.0
 43
10.0
 44
1.0
 47
0.1
 48
0.1
 73
     0
 74
     0
 77
     1
 78
     8
 79
     2
140
3.5
141
0.0
143
0.0393701
146
0.71
147
1.5
172
     1
176
   256
177
   256
178
     2
271
     2
272
     3
274
     4
283
     0
284
     8
340
11
371
    -1
372
    -1
  0
DIMSTYLE
105
F5AF
330
A
100
AcDbSymbolTableRecord
100
AcDbDimStyleTableRecord
  2
AM_ISO$3
 70
     0
  4
"
 41
2.5
 42
1.0
 43
10.0
 44
1.0
 47
0.1
 48
0.1
 73
     0
 77
     1
 78
     8
 79
     2
140
3.5
141
0.0
143
0.0393701
146
0.71
147
1.5
176
   256
177
   256
178
     2
271
     2
272
     3
274
     4
283
     0
284
     8
288
     1
289
     0
340
11
371
    -1
372
    -1
  0
DIMSTYLE
105
F5B0
330
A
100
AcDbSymbolTableRecord
100
AcDbDimStyleTableRecord
  2
AM_ISO$4
 70
     0
  4
"
 41
2.5
 42
1.0
 43
10.0
 44
1.0
 47
0.1
 48
0.1
 73
     0
 77
     1
 78
     8
 79
     2
140
3.5
141
0.0
143
0.0393701
146
0.71
147
1.5
176
   256
177
   256
178
     2
271
     2
272
     3
274
     4
283
     0
284
     8
288
     1
289
     0
340
11
371
    -1
372
    -1
  0
DIMSTYLE
105
F5B1
330
A
100
AcDbSymbolTableRecord
100
AcDbDimStyleTableRecord
  2
AM_ISO$6
 70
     0
  4
"
 41
2.5
 42
1.0
 43
10.0
 44
1.0
 47
0.1
 48
0.1
 73
     0
 74
     0
 78
     8
 79
     2
140
3.5
141
0.0
143
0.0393701
146
0.71
147
1.5
172
     1
176
   256
177
   256
178
     2
271
     2
272
     3
274
     4
283
     0
284
     8
340
11
371
    -1
372
    -1
  0
DIMSTYLE
105
F5B2
330
A
100
AcDbSymbolTableRecord
100
AcDbDimStyleTableRecord
  2
AM_ISO$7
 70
     0
  4
"
 41
2.5
 42
1.0
 43
10.0
 44
1.0
 47
0.1
 48
0.1
 73
     0
 74
     0
 77
     1
 78
     8
 79
     2
140
5.0
141
0.0
143
0.0393701
146
0.71
147
1.5
172
     1
176
   256
177
   256
178
     2
271
     2
272
     3
274
     4
283
     0
284
     8
340
11
371
    -1
372
    -1
  0
DIMSTYLE
105
F5B3
330
A
100
AcDbSymbolTableRecord
100
AcDbDimStyleTableRecord
  2
AM_ISO$SF
 70
     0
  4
"
 41
2.5
 42
1.0
 43
10.0
 44
1.0
 47
0.1
 48
0.1
 73
     0
 74
     0
 75
     1
 76
     1
 77
     1
 78
     8
 79
     2
140
3.5
141
0.0
143
0.0393701
146
0.71
147
1.5
172
     1
176
   256
177
   256
178
     2
271
     2
272
     3
274
     4
283
     0
284
     8
340
11
371
    -1
372
    -1
  0
DIMSTYLE
105
F5B4
330
A
100
AcDbSymbolTableRecord
100
AcDbDimStyleTableRecord
  2
AM_ISO$SH
 70
     0
  4
"
 41
2.5
 42
1.0
 43
10.0
 44
1.0
 47
0.1
 48
0.1
 73
     0
 74
     0
 75
     1
 76
     1
 77
     1
 78
     8
 79
     2
140
3.5
141
0.0
143
0.0393701
144
2.0
146
0.71
147
1.5
172
     1
173
     1
176
   256
177
   256
178
     2
271
     2
272
     3
274
     4
283
     0
284
     8
340
11
343
64
371
    -1
372
    -1
  0
ENDTAB
  0
TABLE
  2
BLOCK_RECORD
  5
1
330
0
100
AcDbSymbolTable
 70
    12
  0
BLOCK_RECORD
  5
1F
102
{ACAD_XDICTIONARY
360
165
102
}
330
1
100
AcDbSymbolTableRecord
100
AcDbBlockTableRecord
  2
*Model_Space
340
22
  0
BLOCK_RECORD
  5
1B
330
1
100
AcDbSymbolTableRecord
100
AcDbBlockTableRecord
  2
*Paper_Space
340
1E
  0
BLOCK_RECORD
  5
23
330
1
100
AcDbSymbolTableRecord
100
AcDbBlockTableRecord
  2
*Paper_Space0
340
26
  0
BLOCK_RECORD
  5
59
330
1
100
AcDbSymbolTableRecord
100
AcDbBlockTableRecord
  2
_Open30
340
0
102
{BLKREFS
331
1BD61
331
1BD62
331
1BD6A
331
1BD6B
331
1BD73
331
1BD74
331
1BD7D
331
1BD7E
331
1BD86
331
1BD87
331
1BD8E
331
1BD8F
331
1BD99
331
1BD9A
331
1BDA3
331
1BDA4
102
}
  0
BLOCK_RECORD
  5
64
330
1
100
AcDbSymbolTableRecord
100
AcDbBlockTableRecord
  2
GENAXEH
340
0
  0
BLOCK_RECORD
  5
ED9B
330
1
100
AcDbSymbolTableRecord
100
AcDbBlockTableRecord
  2
*U3
340
0
  0
BLOCK_RECORD
  5
19094
330
1
100
AcDbSymbolTableRecord
100
AcDbBlockTableRecord
  2
*D4
340
0
  0
BLOCK_RECORD
  5
19103
330
1
100
AcDbSymbolTableRecord
100
AcDbBlockTableRecord
  2
*D5
340
0
  0
BLOCK_RECORD
  5
191DA
330
1
100
AcDbSymbolTableRecord
100
AcDbBlockTableRecord
  2
*D6
340
0
  0
BLOCK_RECORD
  5
1A4BF
330
1
100
AcDbSymbolTableRecord
100
AcDbBlockTableRecord
  2
*D7
340
0
  0
BLOCK_RECORD
  5
1A5FB
330
1
100
AcDbSymbolTableRecord
100
AcDbBlockTableRecord
  2
*D8
340
0
  0
BLOCK_RECORD
  5
1BB10
330
1
100
AcDbSymbolTableRecord
100
AcDbBlockTableRecord
  2
*D9
340
0
  0
BLOCK_RECORD
  5
1BBD0
330
1
100
AcDbSymbolTableRecord
100
AcDbBlockTableRecord
  2
*D10
340
0
  0
BLOCK_RECORD
  5
1BC23
330
1
100
AcDbSymbolTableRecord
100
AcDbBlockTableRecord
  2
*D11
340
0
  0
ENDTAB
  0
ENDSEC
  0
SECTION
  2
BLOCKS
  0
BLOCK
  5
20
330
1F
100
AcDbEntity
  8
0
100
AcDbBlockBegin
  2
*Model_Space
 70
     0
 71
     0
 10
0.0
 20
0.0
 30
0.0
  3
*Model_Space
  1

  0
ENDBLK
  5
21
330
1F
100
AcDbEntity
  8
0
100
AcDbBlockEnd
  0
BLOCK
  5
1C
330
1B
100
AcDbEntity
 67
     1
  8
0
100
AcDbBlockBegin
  2
*Paper_Space
 70
     0
 71
     0
 10
0.0
 20
0.0
 30
0.0
  3
*Paper_Space
  1

  0
ENDBLK
  5
1D
330
1B
100
AcDbEntity
 67
     1
  8
0
100
AcDbBlockEnd
  0
BLOCK
  5
24
330
23
100
AcDbEntity
  8
0
100
AcDbBlockBegin
  2
*Paper_Space0
 70
     0
 71
     0
 10
0.0
 20
0.0
 30
0.0
  3
*Paper_Space0
  1

  0
ENDBLK
  5
25
330
23
100
AcDbEntity
  8
0
100
AcDbBlockEnd
  0
BLOCK
  5
5D
330
59
100
AcDbEntity
  8
0
100
AcDbBlockBegin
  2
_Open30
 70
     0
 71
     0
 10
0.0
 20
0.0
 30
0.0
  3
_Open30
  1

  0
LINE
  5
5A
330
59
100
AcDbEntity
  8
0
 62
     0
370
    -2
100
AcDbLine
 10
-1.0
 20
0.26794919
 30
0.0
 11
0.0
 21
0.0
 31
0.0
  0
LINE
  5
5B
330
59
100
AcDbEntity
  8
0
 62
     0
370
    -2
100
AcDbLine
 10
0.0
 20
0.0
 30
0.0
 11
-1.0
 21
-0.26794919
 31
0.0
  0
LINE
  5
5C
330
59
100
AcDbEntity
  8
0
 62
     0
370
    -2
100
AcDbLine
 10
0.0
 20
0.0
 30
0.0
 11
-1.0
 21
0.0
 31
0.0
  0
ENDBLK
  5
5E
330
59
100
AcDbEntity
  8
0
100
AcDbBlockEnd
  0
BLOCK
  5
66
330
64
100
AcDbEntity
  8
0
100
AcDbBlockBegin
  2
GENAXEH
 70
     0
 71
     0
 10
0.0
 20
0.0
 30
0.0
  3
GENAXEH
  1

  0
LINE
  5
65
330
64
100
AcDbEntity
  8
0
100
AcDbLine
 10
-1.0
 20
0.0
 30
0.0
 11
1.0
 21
0.0
 31
0.0
  0
ENDBLK
  5
67
330
64
100
AcDbEntity
  8
0
100
AcDbBlockEnd
  0
BLOCK
  5
ED9C
330
ED9B
100
AcDbEntity
  8
0
100
AcDbBlockBegin
  2
*U3
 70
     1
 71
     0
 10
0.0
 20
0.0
 30
0.0
  3
*U3
  1

  0
ENDBLK
  5
ED9D
330
ED9B
100
AcDbEntity
  8
0
100
AcDbBlockEnd
  0
BLOCK
  5
190EF
330
19094
100
AcDbEntity
  8
0
100
AcDbBlockBegin
  2
*D4
 70
     1
 71
     0
 10
0.0
 20
0.0
 30
0.0
  3
*D4
  1

  0
LINE
  5
1BD5E
330
19094
100
AcDbEntity
  8
AM_5
 62
     3
370
    13
100
AcDbLine
 10
299.9999999999999
 20
5.499999999997925
 30
0.0
 11
299.9999999999999
 21
-32.44780556360956
 31
0.0
  0
LINE
  5
1BD5F
330
19094
100
AcDbEntity
  8
AM_5
 62
     3
370
    13
100
AcDbLine
 10
0.0
 20
0.8049563314916384
 30
0.0
 11
-0.000000000000002
 21
-32.44780556360956
 31
0.0
  0
LINE
  5
1BD60
330
19094
100
AcDbEntity
  8
AM_5
 62
     3
370
    13
100
AcDbLine
 10
297.4999999999999
 20
-31.44780556360956
 30
0.0
 11
2.499999999999998
 21
-31.44780556360956
 31
0.0
  0
INSERT
  5
1BD61
330
19094
100
AcDbEntity
  8
AM_5
 62
     3
370
    13
100
AcDbBlockReference
  2
_Open30
 10
299.9999999999999
 20
-31.44780556360956
 30
0.0
 41
2.5
 42
2.5
 43
2.5
  0
INSERT
  5
1BD62
330
19094
100
AcDbEntity
  8
AM_5
 62
     3
370
    13
100
AcDbBlockReference
  2
_Open30
 10
-0.0000000000000019
 20
-31.44780556360956
 30
0.0
 41
2.5
 42
2.5
 43
2.5
 50
180.0
  0
MTEXT
  5
1BD63
330
19094
100
AcDbEntity
  8
AM_5
 62
     2
100
AcDbMText
 10
149.9999999999999
 20
-28.04780556360957
 30
0.0
 40
3.8
 41
0.0
 71
     5
 72
     1
  1
300
 73
     1
 44
1.0
  0
POINT
  5
1BD64
330
19094
100
AcDbEntity
  8
Defpoints
 62
     0
100
AcDbPoint
 10
299.9999999999999
 20
5.499999999997925
 30
0.0
  0
POINT
  5
1BD65
330
19094
100
AcDbEntity
  8
Defpoints
 62
     0
100
AcDbPoint
 10
0.0
 20
0.8049563314916384
 30
0.0
  0
POINT
  5
1BD66
330
19094
100
AcDbEntity
  8
Defpoints
 62
     0
100
AcDbPoint
 10
-0.0000000000000019
 20
-31.44780556360956
 30
0.0
  0
ENDBLK
  5
190F0
330
19094
100
AcDbEntity
  8
0
100
AcDbBlockEnd
  0
BLOCK
  5
19178
330
19103
100
AcDbEntity
  8
0
100
AcDbBlockBegin
  2
*D5
 70
     1
 71
     0
 10
0.0
 20
0.0
 30
0.0
  3
*D5
  1

  0
LINE
  5
1BD67
330
19103
100
AcDbEntity
  8
AM_0
 62
     3
370
    13
100
AcDbLine
 10
118.4999999999999
 20
12.10102051443366
 30
0.0
 11
118.4999999999999
 21
-15.49643224827753
 31
0.0
  0
LINE
  5
1BD68
330
19103
100
AcDbEntity
  8
AM_0
 62
     3
370
    13
100
AcDbLine
 10
141.4999999999999
 20
12.10102051443366
 30
0.0
 11
141.4999999999999
 21
-15.49643224827753
 31
0.0
  0
LINE
  5
1BD69
330
19103
100
AcDbEntity
  8
AM_0
 62
     3
370
    13
100
AcDbLine
 10
120.9999999999999
 20
-14.49643224827753
 30
0.0
 11
138.9999999999999
 21
-14.49643224827753
 31
0.0
  0
INSERT
  5
1BD6A
330
19103
100
AcDbEntity
  8
AM_0
 62
     3
370
    13
100
AcDbBlockReference
  2
_Open30
 10
118.4999999999999
 20
-14.49643224827753
 30
0.0
 41
2.5
 42
2.5
 43
2.5
 50
180.0
  0
INSERT
  5
1BD6B
330
19103
100
AcDbEntity
  8
AM_0
 62
     3
370
    13
100
AcDbBlockReference
  2
_Open30
 10
141.4999999999999
 20
-14.49643224827753
 30
0.0
 41
2.5
 42
2.5
 43
2.5
  0
MTEXT
  5
1BD6C
330
19103
100
AcDbEntity
  8
AM_0
 62
     2
370
    30
100
AcDbMText
 10
129.5730174752888
 20
-11.0960582325295
 30
0.0
 40
3.8
 41
0.0
 71
     5
 72
     1
  1
23
 73
     1
 44
1.0
  0
POINT
  5
1BD6D
330
19103
100
AcDbEntity
  8
Defpoints
 62
     0
100
AcDbPoint
 10
118.4999999999999
 20
12.10102051443366
 30
0.0
  0
POINT
  5
1BD6E
330
19103
100
AcDbEntity
  8
Defpoints
 62
     0
100
AcDbPoint
 10
141.4999999999999
 20
12.10102051443366
 30
0.0
  0
POINT
  5
1BD6F
330
19103
100
AcDbEntity
  8
Defpoints
 62
     0
100
AcDbPoint
 10
141.4999999999999
 20
-14.49643224827753
 30
0.0
  0
ENDBLK
  5
19179
330
19103
100
AcDbEntity
  8
0
100
AcDbBlockEnd
  0
BLOCK
  5
1920B
330
191DA
100
AcDbEntity
  8
0
100
AcDbBlockBegin
  2
*D6
 70
     1
 71
     0
 10
0.0
 20
0.0
 30
0.0
  3
*D6
  1

  0
LINE
  5
1BD70
330
191DA
100
AcDbEntity
  8
AM_5
 62
     3
370
    13
100
AcDbLine
 10
-1.772944213670371
 20
17.0
 30
0.0
 11
-24.10632558074653
 21
17.00000000000001
 31
0.0
  0
LINE
  5
1BD71
330
191DA
100
AcDbEntity
  8
AM_5
 62
     3
370
    13
100
AcDbLine
 10
-1.772944213670371
 20
0.0
 30
0.0
 11
-24.10632558074653
 21
0.0000000000000063
 31
0.0
  0
LINE
  5
1BD72
330
191DA
100
AcDbEntity
  8
AM_5
 62
     3
370
    13
100
AcDbLine
 10
-23.10632558074653
 20
14.50000000000001
 30
0.0
 11
-23.10632558074653
 21
2.500000000000006
 31
0.0
  0
INSERT
  5
1BD73
330
191DA
100
AcDbEntity
  8
AM_5
 62
     3
370
    13
100
AcDbBlockReference
  2
_Open30
 10
-23.10632558074653
 20
17.0
 30
0.0
 41
2.5
 42
2.5
 43
2.5
 50
90.0
  0
INSERT
  5
1BD74
330
191DA
100
AcDbEntity
  8
AM_5
 62
     3
370
    13
100
AcDbBlockReference
  2
_Open30
 10
-23.10632558074653
 20
0.000000000000006
 30
0.0
 41
2.5
 42
2.5
 43
2.5
 50
270.0
  0
MTEXT
  5
1BD75
330
191DA
100
AcDbEntity
  8
AM_5
 62
     2
100
AcDbMText
 10
-26.50632558074653
 20
8.143046626696673
 30
0.0
 40
3.8
 41
0.0
 71
     5
 72
     1
  1
17{
 11
6.123031769111886E-17
 21
1.0
 31
0.0
 73
     1
 44
1.0
  0
POINT
  5
1BD76
330
191DA
100
AcDbEntity
  8
Defpoints
 62
     0
100
AcDbPoint
 10
-1.772944213670371
 20
17.0
 30
0.0
  0
POINT
  5
1BD77
330
191DA
100
AcDbEntity
  8
Defpoints
 62
     0
100
AcDbPoint
 10
-1.772944213670371
 20
0.0
 30
0.0
  0
POINT
  5
1BD78
330
191DA
100
AcDbEntity
  8
Defpoints
 62
     0
100
AcDbPoint
 10
-23.10632558074653
 20
0.000000000000006
 30
0.0
  0
ENDBLK
  5
1920C
330
191DA
100
AcDbEntity
  8
0
100
AcDbBlockEnd
  0
BLOCK
  5
1A4F7
330
1A4BF
100
AcDbEntity
  8
0
100
AcDbBlockBegin
  2
*D7
 70
     1
 71
     0
 10
0.0
 20
0.0
 30
0.0
  3
*D7
  1

  0
LINE
  5
1BD79
330
1A4BF
100
AcDbEntity
  8
AM_5
100
AcDbLine
 10
122.0109422132345
 20
4.304530111897492
 30
0.0
 11
120.6794325821069
 21
2.188618463880381
 31
0.0
  0
LINE
  5
1BD7A
330
1A4BF
100
AcDbEntity
  8
AM_5
100
AcDbLine
 10
137.9890577867655
 20
29.69546988810289
 30
0.0
 11
142.1034258711387
 21
36.23364216296869
 31
0.0
  0
LINE
  5
1BD7B
330
1A4BF
100
AcDbEntity
  8
AM_5
100
AcDbLine
 10
142.1034258711387
 20
36.23364216296869
 30
0.0
 11
151.3608270248405
 21
36.2336421629687
 31
0.0
  0
LINE
  5
1BD7C
330
1A4BF
100
AcDbEntity
  8
AM_5
100
AcDbLine
 10
123.3424518443621
 20
6.420441759914603
 30
0.0
 11
136.6575481556379
 21
27.5795582400858
 31
0.0
  0
INSERT
  5
1BD7D
330
1A4BF
100
AcDbEntity
  8
AM_5
100
AcDbBlockReference
  2
_Open30
 10
123.3424518443621
 20
6.420441759914603
 30
0.0
 41
2.5
 42
2.5
 43
2.5
 50
57.81844394711943
  0
INSERT
  5
1BD7E
330
1A4BF
100
AcDbEntity
  8
AM_5
100
AcDbBlockReference
  2
_Open30
 10
136.6575481556379
 20
27.5795582400858
 30
0.0
 41
2.5
 42
2.5
 43
2.5
 50
237.8184439471195
  0
MTEXT
  5
1BD7F
330
1A4BF
100
AcDbEntity
  8
AM_5
 62
     2
100
AcDbMText
 10
147.4821264479896
 20
39.63401617871675
 30
0.0
 40
3.8
 41
0.0
 71
     5
 72
     1
  1
\U+220525{
 73
     1
 44
1.0
  0
POINT
  5
1BD80
330
1A4BF
100
AcDbEntity
  8
Defpoints
 62
     0
100
AcDbPoint
 10
136.6575481556379
 20
27.5795582400858
 30
0.0
  0
POINT
  5
1BD81
330
1A4BF
100
AcDbEntity
  8
Defpoints
 62
     0
100
AcDbPoint
 10
123.3424518443621
 20
6.420441759914603
 30
0.0
  0
ENDBLK
  5
1A4F8
330
1A4BF
100
AcDbEntity
  8
0
100
AcDbBlockEnd
  0
BLOCK
  5
1A61F
330
1A5FB
100
AcDbEntity
  8
0
100
AcDbBlockBegin
  2
*D8
 70
     1
 71
     0
 10
0.0
 20
0.0
 30
0.0
  3
*D8
  1

  0
LINE
  5
1BD82
330
1A5FB
100
AcDbEntity
  8
AM_5
100
AcDbLine
 10
-58.60879476849929
 20
-0.3734420974360013
 30
0.0
 11
-57.4450592379824
 21
-2.586069407900318
 31
0.0
  0
LINE
  5
1BD83
330
1A5FB
100
AcDbEntity
  8
AM_5
100
AcDbLine
 10
-75.83208062014938
 20
32.37344209743596
 30
0.0
 11
-79.76865002392751
 21
39.85809882908096
 31
0.0
  0
LINE
  5
1BD84
330
1A5FB
100
AcDbEntity
  8
AM_5
100
AcDbLine
 10
-79.76865002392751
 20
39.85809882908096
 30
0.0
 11
-112.4668744333763
 21
39.85809882908095
 31
0.0
  0
LINE
  5
1BD85
330
1A5FB
100
AcDbEntity
  8
AM_5
100
AcDbLine
 10
-59.77253029901619
 20
1.839185213028319
 30
0.0
 11
-74.66834508963248
 21
30.16081478697164
 31
0.0
  0
INSERT
  5
1BD86
330
1A5FB
100
AcDbEntity
  8
AM_5
100
AcDbBlockReference
  2
_Open30
 10
-59.77253029901619
 20
1.839185213028319
 30
0.0
 41
2.5
 42
2.5
 43
2.5
 50
117.742211302554
  0
INSERT
  5
1BD87
330
1A5FB
100
AcDbEntity
  8
AM_5
100
AcDbBlockReference
  2
_Open30
 10
-74.66834508963248
 20
30.16081478697164
 30
0.0
 41
2.5
 42
2.5
 43
2.5
 50
297.742211302554
  0
MTEXT
  5
1BD88
330
1A5FB
100
AcDbEntity
  8
AM_5
 62
     2
370
    13
100
AcDbMText
 10
-96.86776222865194
 20
43.25847284482899
 30
0.0
 40
3.8
 41
0.0
 71
     5
 72
     1
  1
最小加工径\U+220532
 73
     1
 44
1.0
  0
POINT
  5
1BD89
330
1A5FB
100
AcDbEntity
  8
Defpoints
 62
     0
100
AcDbPoint
 10
-74.66834508963248
 20
30.16081478697164
 30
0.0
  0
POINT
  5
1BD8A
330
1A5FB
100
AcDbEntity
  8
Defpoints
 62
     0
100
AcDbPoint
 10
-59.77253029901619
 20
1.839185213028319
 30
0.0
  0
ENDBLK
  5
1A620
330
1A5FB
100
AcDbEntity
  8
0
100
AcDbBlockEnd
  0
BLOCK
  5
1BB1C
330
1BB10
100
AcDbEntity
  8
0
100
AcDbBlockBegin
  2
*D9
 70
     1
 71
     0
 10
0.0
 20
0.0
 30
0.0
  3
*D9
  1

  0
LINE
  5
1BD8B
330
1BB10
100
AcDbEntity
  8
AM_4
 62
     3
370
    13
100
AcDbLine
 10
0.6936828107403423
 20
8.767961474704549
 30
0.0
 11
1.155397104248738
 21
14.04537999844461
 31
0.0
  0
LINE
  5
1BD8C
330
1BB10
100
AcDbEntity
  8
AM_4
 62
     3
370
    13
100
AcDbLine
 10
-1.772944213670371
 20
0.0
 30
0.0
 11
-14.17244548880049
 21
0.0000000000000027
 31
0.0
  0
ARC
  5
1BD8D
330
1BB10
100
AcDbEntity
  8
AM_4
 62
     3
370
    13
100
AcDbCircle
 10
-0.0734144205273819
 20
0.0000000000000002
 30
0.0
 40
13.09903106827311
100
AcDbArc
 50
95.951782655683
 51
169.0482173443233
  0
INSERT
  5
1BD8E
330
1BB10
100
AcDbEntity
  8
AM_4
 62
     3
370
    13
100
AcDbBlockReference
  2
_Open30
 10
1.068241361501189
 20
13.04918530035285
 30
0.0
 41
2.5
 42
2.5
 43
2.5
 50
0.4758913278446251
  0
INSERT
  5
1BD8F
330
1BB10
100
AcDbEntity
  8
AM_4
 62
     3
370
    13
100
AcDbBlockReference
  2
_Open30
 10
-13.17244548880049
 20
0.0000000000000027
 30
0.0
 41
2.5
 42
2.5
 43
2.5
 50
264.5241086721616
  0
MTEXT
  5
1BD90
330
1BB10
100
AcDbEntity
  8
AM_4
 62
     2
100
AcDbMText
 10
-11.2199982453999
 20
12.16436168596329
 30
0.0
 40
3.8
 41
0.0
 71
     5
 72
     1
  1
95°
 11
0.7372773368100872
 21
0.6755902076157004
 31
0.0
 73
     1
 44
1.0
  0
POINT
  5
1BD91
330
1BB10
100
AcDbEntity
  8
Defpoints
 62
     0
100
AcDbPoint
 10
-5.95224882538959
 20
11.70572171921888
 30
0.0
  0
POINT
  5
1BD92
330
1BB10
100
AcDbEntity
  8
Defpoints
 62
     0
100
AcDbPoint
 10
-1.772944213670371
 20
0.0
 30
0.0
  0
POINT
  5
1BD93
330
1BB10
100
AcDbEntity
  8
Defpoints
 62
     0
100
AcDbPoint
 10
0.0029735494660202
 20
0.8731184923274498
 30
0.0
  0
POINT
  5
1BD94
330
1BB10
100
AcDbEntity
  8
Defpoints
 62
     0
100
AcDbPoint
 10
0.6936828107403423
 20
8.767961474704549
 30
0.0
  0
POINT
  5
1BD95
330
1BB10
100
AcDbEntity
  8
Defpoints
 62
     0
100
AcDbPoint
 10
0.8371150800583109
 20
0.0
 30
0.0
  0
ENDBLK
  5
1BB1D
330
1BB10
100
AcDbEntity
  8
0
100
AcDbBlockEnd
  0
BLOCK
  5
1BBDA
330
1BBD0
100
AcDbEntity
  8
0
100
AcDbBlockBegin
  2
*D10
 70
     1
 71
     0
 10
0.0
 20
0.0
 30
0.0
  3
*D10
  1

  0
LINE
  5
1BD96
330
1BBD0
100
AcDbEntity
  8
AM_4
 62
     3
370
    13
100
AcDbLine
 10
48.0
 20
-90.53869871923496
 30
0.0
 11
48.0
 21
-112.1342504514332
 31
0.0
  0
LINE
  5
1BD97
330
1BBD0
100
AcDbEntity
  8
AM_4
 62
     3
370
    13
100
AcDbLine
 10
0.000675351576291
 20
-78.89918466652948
 30
0.0
 11
0.000675351576289
 21
-112.1342504514332
 31
0.0
  0
LINE
  5
1BD98
330
1BBD0
100
AcDbEntity
  8
AM_4
 62
     3
370
    13
100
AcDbLine
 10
45.5
 20
-111.1342504514332
 30
0.0
 11
2.500675351576289
 21
-111.1342504514332
 31
0.0
  0
INSERT
  5
1BD99
330
1BBD0
100
AcDbEntity
  8
AM_4
 62
     3
370
    13
100
AcDbBlockReference
  2
_Open30
 10
48.0
 20
-111.1342504514332
 30
0.0
 41
2.5
 42
2.5
 43
2.5
  0
INSERT
  5
1BD9A
330
1BBD0
100
AcDbEntity
  8
AM_4
 62
     3
370
    13
100
AcDbBlockReference
  2
_Open30
 10
0.000675351576289
 20
-111.1342504514332
 30
0.0
 41
2.5
 42
2.5
 43
2.5
 50
180.0
  0
MTEXT
  5
1BD9B
330
1BBD0
100
AcDbEntity
  8
AM_4
 62
     2
100
AcDbMText
 10
24.00033767578815
 20
-107.7342504514332
 30
0.0
 40
3.8
 41
0.0
 71
     5
 72
     1
  1
48
 73
     1
 44
1.0
  0
POINT
  5
1BD9C
330
1BBD0
100
AcDbEntity
  8
Defpoints
 62
     0
100
AcDbPoint
 10
48.0
 20
-90.53869871923496
 30
0.0
  0
POINT
  5
1BD9D
330
1BBD0
100
AcDbEntity
  8
Defpoints
 62
     0
100
AcDbPoint
 10
0.000675351576291
 20
-78.89918466652948
 30
0.0
  0
POINT
  5
1BD9E
330
1BBD0
100
AcDbEntity
  8
Defpoints
 62
     0
100
AcDbPoint
 10
0.000675351576289
 20
-111.1342504514332
 30
0.0
  0
ENDBLK
  5
1BBDB
330
1BBD0
100
AcDbEntity
  8
0
100
AcDbBlockEnd
  0
BLOCK
  5
1BC2F
330
1BC23
100
AcDbEntity
  8
0
100
AcDbBlockBegin
  2
*D11
 70
     1
 71
     0
 10
0.0
 20
0.0
 30
0.0
  3
*D11
  1

  0
LINE
  5
1BD9F
330
1BC23
100
AcDbEntity
  8
AM_0
 62
     3
370
    13
100
AcDbLine
 10
0.0
 20
0.0
 30
0.0
 11
56.54995551316316
 21
-0.000000000000016
 31
0.0
  0
LINE
  5
1BDA0
330
1BC23
100
AcDbEntity
  8
AM_0
 62
     3
370
    13
100
AcDbLine
 10
55.54995551316316
 20
6.999999999997923
 30
0.0
 11
55.54995551316316
 21
9.499999999997923
 31
0.0
  0
LINE
  5
1BDA1
330
1BC23
100
AcDbEntity
  8
AM_0
 62
     3
370
    13
100
AcDbLine
 10
55.54995551316316
 20
-2.500000000000016
 30
0.0
 11
55.54995551316316
 21
-13.85740115370179
 31
0.0
  0
LINE
  5
1BDA2
330
1BC23
100
AcDbEntity
  8
AM_0
 62
     3
370
    13
100
AcDbLine
 10
55.54995551316316
 20
4.499999999997923
 30
0.0
 11
55.54995551316316
 21
-0.0000000000000157
 31
0.0
  0
INSERT
  5
1BDA3
330
1BC23
100
AcDbEntity
  8
AM_0
 62
     3
370
    13
100
AcDbBlockReference
  2
_Open30
 10
55.54995551316316
 20
4.499999999997923
 30
0.0
 41
2.5
 42
2.5
 43
2.5
 50
270.0
  0
INSERT
  5
1BDA4
330
1BC23
100
AcDbEntity
  8
AM_0
 62
     3
370
    13
100
AcDbBlockReference
  2
_Open30
 10
55.54995551316316
 20
-0.0000000000000157
 30
0.0
 41
2.5
 42
2.5
 43
2.5
 50
90.0
  0
MTEXT
  5
1BDA5
330
1BC23
100
AcDbEntity
  8
AM_0
 62
     2
370
    30
100
AcDbMText
 10
52.14995551316316
 20
-9.428700576850897
 30
0.0
 40
3.8
 41
0.0
 71
     5
 72
     1
  1
4.5
 11
6.123031769111886E-17
 21
1.0
 31
0.0
 73
     1
 44
1.0
  0
POINT
  5
1BDA6
330
1BC23
100
AcDbEntity
  8
Defpoints
 62
     0
100
AcDbPoint
 10
0.0
 20
0.0
 30
0.0
  0
POINT
  5
1BDA7
330
1BC23
100
AcDbEntity
  8
Defpoints
 62
     0
100
AcDbPoint
 10
48.25000000000003
 20
4.499999999997925
 30
0.0
  0
POINT
  5
1BDA8
330
1BC23
100
AcDbEntity
  8
Defpoints
 62
     0
100
AcDbPoint
 10
55.54995551316316
 20
4.499999999997923
 30
0.0
  0
ENDBLK
  5
1BC30
330
1BC23
100
AcDbEntity
  8
0
100
AcDbBlockEnd
  0
ENDSEC
  0
SECTION
  2
ENTITIES
  0
TEXT
  5
17604
330
1F
100
AcDbEntity
  8
AM_6
100
AcDbText
 10
217.362835492669
 20
-5.649660075781441
 30
0.0
 40
3.0
  1

 41
0.8947931617610168
100
AcDbText
  0
ACAD_PROXY_ENTITY
  5
1814D
330
1F
100
AcDbEntity
  8
AM_5
370
    13
100
AcDbProxyEntity
 90
      498
 91
      533
 95
       25
 70
     0
 92
      824
310
38030000300000000C00000016000000000000C00C00000013000000010000000C00000016000000000000C00C000000170000000D0000003C0000000600000002000000A56FC85D5D9438C05439AC7784E03EC0000000000000000018B7EE2A71953BC040454C3E07EE3DC000000000000000000C00000016000000000000
310
C00C00000010000000FFFFFFFF0C00000012000000FFFFFFFF0C00000017000000000000000C00000014000000010000000C00000013000000020000000C00000016000000000000C00C000000170000000D0000003C000000060000000200000018B7EE2A71953BC040454C3E07EE3DC00000000000000000A39B7FBA29EC
310
38C0BC4B0584497D35C000000000000000000C00000016000000000000C00C00000010000000FFFFFFFF0C00000012000000FFFFFFFF0C00000017000000000000000C00000014000000010000000C00000013000000030000000C00000016000000000000C00C000000170000000D0000003C0000000600000002000000A3
310
9B7FBA29EC38C0BB4B0584497D35C0000000000000000090A71F81ACF937C04804DFB6357C32C000000000000000000C00000016000000000000C00C00000010000000FFFFFFFF0C00000012000000FFFFFFFF0C00000017000000000000000C00000014000000010000000C00000013000000040000000C00000016000000
310
000000C00C000000170000000D0000003C00000006000000020000000754047CE98638C050002423369D35C0000000000000000090A71F81ACF937C04804DFB6357C32C000000000000000000C00000016000000000000C00C00000010000000FFFFFFFF0C00000012000000FFFFFFFF0C00000017000000000000000C0000
310
0014000000010000000C00000013000000050000000C00000016000000000000C00C000000170000000D0000003C000000060000000200000090A71F81ACF937C04804DFB6357C32C0000000000000000040E3FAF8695139C02797E6E45C5D35C000000000000000000C00000016000000000000C00C00000010000000FFFF
310
FFFF0C00000012000000FFFFFFFF0C00000017000000000000000C00000014000000010000000C00000013000000060000000C00000016000000000000C0
 93
     1729
310
5DC30B3D5CBAA2237C0200DC29C25E90BF023795C8DA76613B8FC31A8A589C33ED3BF831A8A589C33ED33F3795C8DA76613B8FEA54051F8000000C80026CECC9A6782021008882FE2BA74FEEBFA062DFB8A9C654EF0040454C3E07EE3DC09018FFFFFFFF2429C7E06B3E4DF004804DFB6357C32C0A8FFFFFFFF1FFFFFFFF03
310
16FDC54E32A77802022A61F03F71EE045409C8709C7518C11E1B38C0280546647E97CF702A4DE572369D984EE3F0C6A296270CFB4EFE8333333333333094041D050000000000003C2FC000000000000F0BF40401015213500500
340
17F
340
EDAB
330
0
330
0
340
0
340
0
340
180
330
0
330
0
 94
        0
  0
ACAD_PROXY_ENTITY
  5
1814E
330
1F
100
AcDbEntity
  8
AM_5
370
    13
100
AcDbProxyEntity
 90
      498
 91
      533
 95
       25
 70
     0
 92
      668
310
9C020000270000000C00000016000000000000C00C00000013000000010000000C00000016000000000000C00C000000170000000D0000003C000000060000000200000018B7EE2A71953BC040454C3E07EE3DC0000000000000000098BDA770B32433C054B05D57A74B40C000000000000000000C00000016000000000000
310
C00C00000010000000FFFFFFFF0C00000012000000FFFFFFFF0C00000017000000000000000C00000014000000010000000C00000013000000020000000C00000016000000000000C00C000000170000000D0000003C000000060000000200000098BDA770B32433C054B05D57A74B40C00000000000000000247681A39F23
310
30C05CAA0DF4E5C440C000000000000000000C00000016000000000000C00C00000010000000FFFFFFFF0C00000012000000FFFFFFFF0C00000017000000000000000C00000014000000010000000C00000013000000030000000C00000016000000000000C00C000000170000000D0000003C00000006000000020000002C
310
72C60FA04433C022549B76477E40C00000000000000000247681A39F2330C05CAA0DF4E5C440C000000000000000000C00000016000000000000C00C00000010000000FFFFFFFF0C00000012000000FFFFFFFF0C00000017000000000000000C00000014000000010000000C00000013000000040000000C00000016000000
310
000000C00C000000170000000D0000003C0000000600000002000000247681A39F2330C05CAA0DF4E5C440C00000000000000000040989D1C60433C0860C2038071940C000000000000000000C00000016000000000000C00C00000010000000FFFFFFFF0C00000012000000FFFFFFFF0C00000017000000000000000C0000
310
0014000000010000000C00000013000000050000000C00000016000000000000C0
 93
     1601
310
5DC401B4F496BF32AC024292CB3998C107020DAA296270CFB4EFCDE572369D984EEBF8DE572369D984EE3F0DAA296270CFB4EFEA54051F8000000C800AA062DFB8A9C654EF0040454C3E07EE3DC09018FFFFFFFF091DA068E7C8CC3005CAA0DF4E5C440C0A8FFFFFFFF1FFFFFFFF0316FDC54E32A77802022A61F03F71EE04
310
5409C8707087BB7D64073BC01610C4750B2D10302A436A8A589C33ED3BF3795C8DA76613BAFE8333333333333094041D050000000000003C2FC000000000000F0BF40401015213500500
340
17F
340
EDAB
330
0
330
0
340
0
340
0
340
180
330
0
330
0
 94
        0
  0
TEXT
  5
1814F
330
1F
100
AcDbEntity
  8
AM_6
 62
     0
370
    30
100
AcDbText
 10
-16.36677789482209
 20
-36.92273824598908
 30
0.0
 40
4.0
  1
-6%%d
100
AcDbText
  0
TEXT
  5
18151
330
1F
100
AcDbEntity
  8
AM_6
 62
     0
370
    30
100
AcDbText
 10
-29.19598569285662
 20
-16.95325814866703
 30
0.0
 40
4.0
  1
-10%%d
100
AcDbText
  0
LINE
  5
18D34
102
{ACAD_REACTORS
330
1A540
102
}
330
1F
100
AcDbEntity
  8
AM_7
  6
CENTER
370
    13
100
AcDbLine
 10
129.9999999999999
 20
39.29896536017918
 30
0.0
 11
129.9999999999999
 21
-4.178445713278961
 31
0.0
1001
GENIUS_GENODEF_13
1002
{
1000
HIER
1070
     0
1002
}
1002
{
1000
MANEDIT
1070
     0
1002
}
1002
{
1000
NOSEL
1070
     0
1002
}
1002
{
1000
BEHIND
1070
     0
1002
}
1002
{
1000
OTHER
1070
     0
1002
}
1002
{
1000
REACTOR
1002
}
1001
GENIUS_GENOBJ-N-CEN_13
1002
{
1000
OWNER
1000
GEN
1002
}
1001
GENIUS_GENCEN_19
1002
{
1040
2.794
1002
}
  0
LINE
  5
18D41
102
{ACAD_REACTORS
330
1A540
102
}
330
1F
100
AcDbEntity
  8
AM_7
  6
CENTER
370
    13
100
AcDbLine
 10
-1.772944213670371
 20
17.0
 30
0.0
 11
309.5956014005699
 21
17.0
 31
0.0
1001
GENIUS_GENOBJ-N-CEN_13
1002
{
1000
OWNER
1000
GEN
1002
}
1001
GENIUS_GENODEF_13
1002
{
1000
HIER
1070
     0
1002
}
1002
{
1000
MANEDIT
1070
     0
1002
}
1002
{
1000
NOSEL
1070
     0
1002
}
1002
{
1000
BEHIND
1070
     0
1002
}
1002
{
1000
OTHER
1070
     0
1002
}
1002
{
1000
REACTOR
1002
}
1001
GENIUS_GENCEN_19
1002
{
1040
2.794
1002
}
  0
LINE
  5
18E5D
330
1F
100
AcDbEntity
  8
AM_7
100
AcDbLine
 10
-1.772944213670371
 20
-79.03869871923496
 30
0.0
 11
309.5956014005699
 21
-79.03869871923496
 31
0.0
1001
GENIUS_GENOBJ-N-CEN_13
1002
{
1000
OWNER
1000
GEN
1002
}
1001
GENIUS_GENODEF_13
1002
{
1000
HIER
1070
     0
1002
}
1002
{
1000
MANEDIT
1070
     0
1002
}
1002
{
1000
NOSEL
1070
     0
1002
}
1002
{
1000
BEHIND
1070
     0
1002
}
1002
{
1000
OTHER
1070
     0
1002
}
1002
{
1000
REACTOR
1002
}
1001
GENIUS_GENCEN_19
1002
{
1040
2.794
1002
}
  0
DIMENSION
  5
19093
330
1F
100
AcDbEntity
  8
AM_5
100
AcDbDimension
  2
*D4
 10
-0.0000000000000019
 20
-31.44780556360956
 30
0.0
 11
149.9999999999999
 21
-28.04780556360957
 31
0.0
 70
    32
  1
<>
 71
     5
 42
299.9999999999999
  3
AM_JIS$0
100
AcDbAlignedDimension
 13
299.9999999999999
 23
5.499999999997925
 33
0.0
 14
0.0
 24
0.8049563314916384
 34
0.0
100
AcDbRotatedDimension
1001
ACAD
1000
DSTYLE
1002
{
1070
   179
1070
     1
1070
   271
1070
     0
1002
}
  0
DIMENSION
  5
19102
330
1F
100
AcDbEntity
  8
AM_0
370
    30
100
AcDbDimension
  2
*D5
 10
141.4999999999999
 20
-14.49643224827753
 30
0.0
 11
129.5730174752888
 21
-14.49643224827753
 31
0.0
 70
   160
 71
     5
 42
23.0
  3
AM_JIS$0
100
AcDbAlignedDimension
 13
118.4999999999999
 23
12.10102051443366
 33
0.0
 14
141.4999999999999
 24
12.10102051443366
 34
0.0
100
AcDbRotatedDimension
1001
ACAD
1000
DSTYLE
1002
{
1070
   179
1070
     1
1070
   271
1070
     0
1002
}
  0
DIMENSION
  5
191D9
330
1F
100
AcDbEntity
  8
AM_5
100
AcDbDimension
  2
*D6
 10
-23.10632558074653
 20
0.000000000000006
 30
0.0
 11
-23.10632558074653
 21
8.143046626696673
 31
0.0
 70
   160
  1
<>{
 71
     5
 42
17.0
  3
AM_JIS$0
100
AcDbAlignedDimension
 13
-1.772944213670371
 23
17.0
 33
0.0
 14
-1.772944213670371
 24
0.0
 34
0.0
 50
90.0
100
AcDbRotatedDimension
1001
ACAD
1000
DSTYLE
1002
{
1070
   179
1070
     1
1070
   271
1070
     0
1002
}
  0
ARC
  5
19AB9
102
{ACAD_REACTORS
330
1A540
102
}
330
1F
100
AcDbEntity
  8
AM_0
370
    30
100
AcDbCircle
 10
129.9999999999999
 20
17.0
 30
0.0
 40
12.5
100
AcDbArc
 50
203.0739180656309
 51
336.9260819343691
  0
ARC
  5
19ACF
102
{ACAD_REACTORS
330
1A540
102
}
330
1F
100
AcDbEntity
  8
AM_0
370
    30
100
AcDbCircle
 10
129.9999999999999
 20
17.0
 30
0.0
 40
12.5
100
AcDbArc
 50
23.07391806563092
 51
156.9260819343691
  0
LINE
  5
19AD0
102
{ACAD_REACTORS
330
1A540
102
}
330
1F
100
AcDbEntity
  8
AM_0
370
    30
100
AcDbLine
 10
118.4999999999999
 20
21.89897948556634
 30
0.0
 11
118.4999999999999
 21
12.10102051443366
 31
0.0
  0
LINE
  5
19AD1
102
{ACAD_REACTORS
330
1A540
102
}
330
1F
100
AcDbEntity
  8
AM_0
370
    30
100
AcDbLine
 10
141.4999999999999
 20
21.89897948556634
 30
0.0
 11
141.4999999999999
 21
12.10102051443366
 31
0.0
  0
LINE
  5
1A017
330
1F
100
AcDbEntity
  8
AM_0
370
    30
100
AcDbLine
 10
47.99757870392426
 20
21.22137842288223
 30
0.0
 11
48.24770457676522
 21
21.89982574837435
 31
0.0
  0
SPLINE
  5
1A019
330
1F
100
AcDbEntity
  8
AM_0
370
    30
100
AcDbSpline
210
0.0
220
0.0
230
1.0
 70
    12
 71
     2
 72
     6
 73
     3
 74
     0
 42
0.0000000001
 43
0.0000000001
 40
0.0
 40
0.0
 40
0.0
 40
5.022499087516448
 40
5.022499087516448
 40
5.022499087516448
 10
298.9999999999999
 20
21.8989794855643
 30
0.0
 41
1.0
 10
300.0000000000003
 20
19.34742767016533
 30
0.0
 41
1.021507836910544
 10
299.9999999999999
 20
16.99999999999793
 30
0.0
 41
1.0
  0
SPLINE
  5
1A01A
330
1F
100
AcDbEntity
  8
AM_0
370
    30
100
AcDbSpline
210
0.0
220
0.0
230
1.0
 70
    12
 71
     2
 72
     6
 73
     3
 74
     0
 42
0.0000000001
 43
0.0000000001
 40
5.022499087516448
 40
5.022499087516448
 40
5.022499087516448
 40
10.0449981750329
 40
10.0449981750329
 40
10.0449981750329
 10
299.9999999999999
 20
16.99999999999793
 30
0.0
 41
1.0
 10
300.0000000000003
 20
14.65257232983081
 30
0.0
 41
1.021507836910544
 10
298.9999999999999
 20
12.10102051443161
 30
0.0
 41
1.0
  0
LINE
  5
1A01B
330
1F
100
AcDbEntity
  8
AM_0
370
    30
100
AcDbLine
 10
298.9999999999999
 20
12.10102051443158
 30
0.0
 11
151.4999999999999
 21
12.10102051443161
 31
0.0
  0
LINE
  5
1A01C
330
1F
100
AcDbEntity
  8
AM_0
370
    30
100
AcDbLine
 10
47.99757870392426
 20
12.77862157711363
 30
0.0
 11
48.24770457676522
 21
12.10017425162155
 31
0.0
  0
LINE
  5
1A03D
330
1F
100
AcDbEntity
  8
AM_0
370
    30
100
AcDbLine
 10
299.9999999999999
 20
5.499999999997925
 30
0.0
 11
298.9999999999999
 21
4.499999999997925
 31
0.0
  0
LINE
  5
1A03E
330
1F
100
AcDbEntity
  8
AM_0
370
    30
100
AcDbLine
 10
48.25000000000003
 20
4.499999999997925
 30
0.0
 11
108.4999999999999
 21
4.499999999997925
 31
0.0
  0
LINE
  5
1A03F
330
1F
100
AcDbEntity
  8
AM_0
370
    30
100
AcDbLine
 10
48.0
 20
4.749999999997925
 30
0.0
 11
48.25
 21
4.499999999997925
 31
0.0
  0
LINE
  5
1A040
330
1F
100
AcDbEntity
  8
AM_0
370
    30
100
AcDbLine
 10
48.0
 20
29.24999999999793
 30
0.0
 11
48.25
 21
29.49999999999793
 31
0.0
  0
LINE
  5
1A041
330
1F
100
AcDbEntity
  8
AM_0
370
    30
100
AcDbLine
 10
48.25
 20
29.49999999999795
 30
0.0
 11
108.4999999999999
 21
29.49999999999793
 31
0.0
  0
LINE
  5
1A042
330
1F
100
AcDbEntity
  8
AM_0
370
    30
100
AcDbLine
 10
299.9999999999999
 20
28.49999999999793
 30
0.0
 11
298.9999999999999
 21
29.49999999999793
 31
0.0
  0
LINE
  5
1A047
330
1F
100
AcDbEntity
  8
AM_0
370
    30
100
AcDbLine
 10
299.9999999999999
 20
5.499999999997925
 30
0.0
 11
299.9999999999999
 21
16.99999999999793
 31
0.0
  0
LINE
  5
1A048
330
1F
100
AcDbEntity
  8
AM_0
370
    30
100
AcDbLine
 10
298.9999999999999
 20
4.499999999997925
 30
0.0
 11
298.9999999999999
 21
12.10102051443155
 31
0.0
  0
LINE
  5
1A049
330
1F
100
AcDbEntity
  8
AM_0
370
    30
100
AcDbLine
 10
48.25
 20
4.499999999997925
 30
0.0
 11
48.25
 21
12.10102051443155
 31
0.0
  0
LINE
  5
1A04A
330
1F
100
AcDbEntity
  8
AM_0
370
    30
100
AcDbLine
 10
48.25
 20
21.8989794855643
 30
0.0
 11
48.25
 21
29.49999999999793
 31
0.0
  0
LINE
  5
1A04B
330
1F
100
AcDbEntity
  8
AM_0
370
    30
100
AcDbLine
 10
299.9999999999999
 20
16.99999999999793
 30
0.0
 11
299.9999999999999
 21
28.49999999999793
 31
0.0
  0
LINE
  5
1A04C
330
1F
100
AcDbEntity
  8
AM_0
370
    30
100
AcDbLine
 10
298.9999999999999
 20
21.8989794855643
 30
0.0
 11
298.9999999999999
 21
29.49999999999793
 31
0.0
  0
LINE
  5
1A04D
330
1F
100
AcDbEntity
  8
AM_0
370
    30
100
AcDbLine
 10
48.0
 20
4.749999999997925
 30
0.0
 11
48.0
 21
12.77951424596441
 31
0.0
  0
LINE
  5
1A054
330
1F
100
AcDbEntity
  8
AM_0
370
    30
100
AcDbLine
 10
48.0
 20
21.2204857540315
 30
0.0
 11
48.0
 21
29.24999999999793
 31
0.0
  0
LINE
  5
1A0D4
330
1F
100
AcDbEntity
  8
AM_0
370
    30
100
AcDbLine
 10
298.9999999999999
 20
-67.53869871923496
 30
0.0
 11
299.9999999999999
 21
-67.53869871923496
 31
0.0
  0
LINE
  5
1A0D6
330
1F
100
AcDbEntity
  8
AM_0
370
    30
100
AcDbLine
 10
48.0
 20
-67.53869871923496
 30
0.0
 11
48.25
 21
-67.53869871923496
 31
0.0
  0
LINE
  5
1A0EB
330
1F
100
AcDbEntity
  8
AM_0
370
    30
100
AcDbLine
 10
48.0
 20
-90.53869871923496
 30
0.0
 11
48.25
 21
-90.53869871923496
 31
0.0
  0
LINE
  5
1A0EC
330
1F
100
AcDbEntity
  8
AM_0
370
    30
100
AcDbLine
 10
18.00000000000003
 20
-90.53869871923496
 30
0.0
 11
298.9999999999999
 21
-90.53869871923494
 31
0.0
  0
LINE
  5
1A0ED
330
1F
100
AcDbEntity
  8
AM_0
370
    30
100
AcDbLine
 10
298.9999999999999
 20
-90.53869871923496
 30
0.0
 11
299.9999999999999
 21
-90.53869871923496
 31
0.0
  0
LINE
  5
1A0F9
330
1F
100
AcDbEntity
  8
AM_0
370
    30
100
AcDbLine
 10
299.9999999999999
 20
-90.53869871923496
 30
0.0
 11
299.9999999999999
 21
-67.53869871923496
 31
0.0
  0
LINE
  5
1A0FA
330
1F
100
AcDbEntity
  8
AM_0
370
    30
100
AcDbLine
 10
298.9999999999999
 20
-90.53869871923496
 30
0.0
 11
298.9999999999999
 21
-67.53869871923496
 31
0.0
  0
LINE
  5
1A0FB
330
1F
100
AcDbEntity
  8
AM_0
370
    30
100
AcDbLine
 10
48.25
 20
-90.53869871923496
 30
0.0
 11
48.25
 21
-67.53869871923496
 31
0.0
  0
LINE
  5
1A0FC
330
1F
100
AcDbEntity
  8
AM_0
370
    30
100
AcDbLine
 10
48.0
 20
-90.53869871923496
 30
0.0
 11
48.0
 21
-67.53869871923496
 31
0.0
  0
LINE
  5
1A382
330
1F
100
AcDbEntity
  8
AM_0
370
    30
100
AcDbLine
 10
151.4999999999999
 20
21.8989794855643
 30
0.0
 11
298.9999999999999
 21
21.8989794855643
 31
0.0
  0
LINE
  5
1A383
330
1F
100
AcDbEntity
  8
AM_0
370
    30
100
AcDbLine
 10
151.4999999999999
 20
29.49999999999793
 30
0.0
 11
299.0
 21
29.4999999999979
 31
0.0
  0
LINE
  5
1A384
330
1F
100
AcDbEntity
  8
AM_0
370
    30
100
AcDbLine
 10
151.4999999999999
 20
4.499999999997925
 30
0.0
 11
298.9999999999999
 21
4.499999999997868
 31
0.0
  0
LINE
  5
1A385
330
1F
100
AcDbEntity
  8
AM_0
370
    30
100
AcDbLine
 10
108.4999999999999
 20
12.10102051443161
 30
0.0
 11
48.24739258169046
 21
12.10102051443161
 31
0.0
  0
LINE
  5
1A386
330
1F
100
AcDbEntity
  8
AM_0
370
    30
100
AcDbLine
 10
298.9999999999999
 20
-67.53869871923496
 30
0.0
 11
33.89385733997224
 21
-67.53869871923496
 31
0.0
  0
DIMENSION
  5
1A4BE
330
1F
100
AcDbEntity
  8
AM_5
100
AcDbDimension
  2
*D7
 10
123.3424518443621
 20
6.420441759914603
 30
0.0
 11
147.4821264479896
 21
36.23364216296871
 31
0.0
 70
   163
  1
<>{
 71
     5
 42
25.00000000000006
  3
AM_JIS$3
100
AcDbDiametricDimension
 15
136.6575481556379
 25
27.5795582400858
 35
0.0
 40
0.0
1001
ACAD
1000
DSTYLE
1002
{
1070
   286
1070
     0
1070
   284
1070
     8
1070
    48
1040
0.1000000001
1070
    47
1040
0.1
1070
   179
1070
     0
1070
   271
1070
     0
1070
   272
1070
     3
1070
   274
1070
     3
1002
}
  0
HATCH
  5
1A540
330
1F
100
AcDbEntity
  8
AM_5
370
    13
100
AcDbHatch
 10
0.0
 20
0.0
 30
0.0
210
0.0
220
0.0
230
1.0
  2
_USER
 70
     0
 71
     1
 91
        4
 92
        7
 72
     1
 73
     1
 93
        4
 10
129.9999999999999
 20
29.5
 42
0.0
 10
129.9999999999999
 20
17.0
 42
0.0
 10
141.4999999999999
 20
17.0
 42
0.0
 10
141.4999999999999
 20
21.89897948556634
 42
0.300614130091753
 97
        4
330
18D34
330
18D41
330
19AD1
330
19ACF
 92
        7
 72
     1
 73
     1
 93
        4
 10
129.9999999999999
 20
17.0
 42
0.0
 10
129.9999999999999
 20
4.500000000000004
 42
0.3006141300917528
 10
141.4999999999999
 20
12.10102051443366
 42
0.0
 10
141.4999999999999
 20
17.0
 42
0.0
 97
        4
330
18D41
330
18D34
330
19AB9
330
19AD1
 92
        7
 72
     1
 73
     1
 93
        4
 10
118.4999999999999
 20
17.0
 42
0.0
 10
118.4999999999999
 20
12.10102051443366
 42
0.3006141300917528
 10
129.9999999999999
 20
4.500000000000004
 42
0.0
 10
129.9999999999999
 20
17.0
 42
0.0
 97
        4
330
18D41
330
19AD0
330
19AB9
330
18D34
 92
        7
 72
     1
 73
     1
 93
        4
 10
129.9999999999999
 20
17.0
 42
0.0
 10
129.9999999999999
 20
29.5
 42
0.3006141300917527
 10
118.4999999999999
 20
21.89897948556635
 42
0.0
 10
118.4999999999999
 20
17.0
 42
0.0
 97
        4
330
19ACF
330
19AD0
330
18D41
330
18D34
 75
     0
 76
     0
 52
45.0
 41
1.5
 77
     0
 78
     1
 53
45.0
 43
-129.4445612871083
 44
-206.3562154471638
 45
-1.060660171779821
 46
1.060660171779821
 79
     0
 47
0.1285434340207508
 98
        4
 10
137.5683509791737
 20
22.63129947775155
 10
134.4820675241191
 20
14.4045198187946
 10
125.4804085526322
 20
14.2759758856721
 10
125.3518138764916
 20
19.0320832898359
  0
LINE
  5
1A5B9
330
1F
100
AcDbEntity
  8
AM_7
  6
CENTER
370
    13
100
AcDbLine
 10
-53.36495304436421
 20
16.99999999999997
 30
0.0
 11
-81.40444874313832
 21
16.99999999999997
 31
0.0
1001
GENIUS_GENODEF_13
1002
{
1000
HIER
1070
     0
1002
}
1002
{
1000
MANEDIT
1070
     0
1002
}
1002
{
1000
NOSEL
1070
     0
1002
}
1002
{
1000
BEHIND
1070
     0
1002
}
1002
{
1000
OTHER
1070
     0
1002
}
1002
{
1000
REACTOR
1002
}
1001
GENIUS_GENOBJ-N-CEN_13
1002
{
1000
OWNER
1000
GEN
1002
}
1001
GENIUS_GENCEN_19
1002
{
1040
2.794
1002
}
  0
LINE
  5
1A5C6
330
1F
100
AcDbEntity
  8
AM_7
  6
CENTER
370
    13
100
AcDbLine
 10
-67.22043769432443
 20
-5.015697230769092
 30
0.0
 11
-67.22043769432443
 21
37.57784739109422
 31
0.0
1001
GENIUS_GENODEF_13
1002
{
1000
HIER
1070
     0
1002
}
1002
{
1000
MANEDIT
1070
     0
1002
}
1002
{
1000
NOSEL
1070
     0
1002
}
1002
{
1000
BEHIND
1070
     0
1002
}
1002
{
1000
OTHER
1070
     0
1002
}
1002
{
1000
REACTOR
1002
}
1001
GENIUS_GENOBJ-N-CEN_13
1002
{
1000
OWNER
1000
GEN
1002
}
1001
GENIUS_GENCEN_19
1002
{
1040
2.794
1002
}
  0
CIRCLE
  5
1A5D3
330
1F
100
AcDbEntity
  8
AM_5
  6
AM_ISO09W050
370
    13
100
AcDbCircle
 10
-67.22043769432443
 20
16.0
 30
0.0
 40
16.0
  0
LINE
  5
1A5E2
330
1F
100
AcDbEntity
  8
AM_7
  6
CENTER
370
    13
100
AcDbLine
 10
-86.01443769432443
 20
16.0
 30
0.0
 11
-48.42643769432443
 21
16.0
 31
0.0
1001
GENIUS_GENODEF_13
1002
{
1000
HIER
1070
     0
1002
}
1002
{
1000
MANEDIT
1070
     0
1002
}
1002
{
1000
NOSEL
1070
     0
1002
}
1002
{
1000
BEHIND
1070
     0
1002
}
1002
{
1000
OTHER
1070
     0
1002
}
1002
{
1000
REACTOR
1002
}
1001
GENIUS_GENOBJ-N-CEN_13
1002
{
1000
OWNER
1000
GEN
1002
}
1001
GENIUS_GENCEN_19
1002
{
1040
2.794
1002
}
  0
DIMENSION
  5
1A5FA
330
1F
100
AcDbEntity
  8
AM_5
370
    13
100
AcDbDimension
  2
*D8
 10
-59.77253029901619
 20
1.839185213028319
 30
0.0
 11
-96.86776222865194
 21
39.85809882908096
 31
0.0
 70
   163
  1
最小加工径<>
 71
     5
 42
32.00000000000006
  3
AM_JIS$3
100
AcDbDiametricDimension
 15
-74.66834508963248
 25
30.16081478697164
 35
0.0
 40
0.0
1001
ACAD
1000
DSTYLE
1002
{
1070
   179
1070
     0
1070
   271
1070
     0
1002
}
  0
LINE
  5
1ADBA
330
1F
100
AcDbEntity
  8
AM_0
370
    30
100
AcDbLine
 10
8.823085236280662
 20
0.5425313270743857
 30
0.0
 11
0.8640878114622694
 21
0.0018324075193448
 31
0.0
  0
LINE
  5
1ADBB
330
1F
100
AcDbEntity
  8
AM_0
370
    30
100
AcDbLine
 10
0.0029735494660202
 20
0.8731184923274498
 30
0.0
 11
0.6936828107403414
 21
8.767961474704549
 31
0.0
  0
LINE
  5
1ADBC
330
1F
100
AcDbEntity
  8
AM_0
370
    30
100
AcDbLine
 10
0.839317814885618
 20
9.156472162086999
 30
0.0
 11
1.042260403964946
 21
9.433907262061695
 31
0.0
  0
LINE
  5
1ADBD
330
1F
100
AcDbEntity
  8
AM_0
370
    30
100
AcDbLine
 10
9.398984706098787
 20
0.8576900830261423
 30
0.0
 11
9.643309024435467
 21
1.191696572208599
 31
0.0
  0
ELLIPSE
  5
1ADBE
330
1F
100
AcDbEntity
  8
AM_0
370
    30
100
AcDbEllipse
 10
0.7942979174458458
 20
0.7893101715905289
 30
0.0
 11
-0.6456893638345704
 21
0.472319008119415
 31
0.0
210
0.0
220
0.0
230
1.0
 40
0.9794128730990718
 41
0.5351162382707454
 42
2.280445490264968
  0
ELLIPSE
  5
1ADBF
330
1F
100
AcDbEntity
  8
AM_0
370
    30
100
AcDbEllipse
 10
1.485007178720224
 20
8.684153153967628
 30
0.0
 11
-0.6456893638345704
 21
0.472319008119415
 31
0.0
210
0.0
220
0.0
230
1.0
 40
0.9794128730990718
 41
5.599104611164531
 42
6.818301545450332
  0
ELLIPSE
  5
1ADC0
330
1F
100
AcDbEntity
  8
AM_0
370
    30
100
AcDbEllipse
 10
8.753295342264238
 20
1.330009091145513
 30
0.0
 11
-0.6456893638345704
 21
0.472319008119415
 31
0.0
210
0.0
220
0.0
230
1.0
 40
0.9794128730990718
 41
2.28044549026496
 42
3.666851095417862
  0
ELLIPSE
  5
1ADC1
330
1F
100
AcDbEntity
  8
AM_0
370
    30
100
AcDbEllipse
 10
5.119151260492316
 20
5.007081122556457
 30
0.0
 11
-1.537547797631071
 21
1.124709638084357
 31
0.0
210
0.0
220
0.0
230
1.0
 40
0.9794128730990718
 41
5.674768402764034
 42
9.521991700621335
  0
LINE
  5
1ADC9
330
1F
100
AcDbEntity
  8
AM_0
370
    30
100
AcDbLine
 10
47.99724960014996
 20
12.77951424596441
 30
0.0
 11
35.00000000000009
 21
12.77951424596441
 31
0.0
  0
ELLIPSE
  5
1ADCA
330
1F
100
AcDbEntity
  8
AM_0
370
    30
100
AcDbEllipse
 10
22.7461981421574
 20
-39.94021934694197
 30
0.0
 11
-1.037836483419596E-12
 21
-91.40816369471131
 31
0.0
210
0.0
220
0.0
230
1.0
 40
0.1640991284990431
 41
2.18554205659211
 42
2.303786109020899
  0
SPLINE
  5
1ADCB
330
1F
100
AcDbEntity
  8
AM_0
370
    30
100
AcDbSpline
210
0.0
220
0.0
230
1.0
 70
     8
 71
     3
 72
    30
 73
    26
 74
     0
 42
0.0000000001
 43
0.0000000001
 40
0.9985103316985875
 40
0.9985103316985875
 40
0.9985103316985875
 40
0.9985103316985875
 40
1.785036684369551
 40
1.785036684369551
 40
3.570073368739102
 40
3.570073368739102
 40
5.355110053108653
 40
5.355110053108653
 40
7.140146737478204
 40
7.140146737478204
 40
8.106039036513318
 40
8.106039036513318
 40
9.071931335548431
 40
9.071931335548431
 40
10.03782363458354
 40
10.03782363458354
 40
11.00371593361866
 40
11.00371593361866
 40
12.81227622275562
 40
12.81227622275562
 40
14.62083651189258
 40
14.62083651189258
 40
16.42939680102954
 40
16.42939680102954
 40
16.50169490421533
 40
16.50169490421533
 40
16.50169490421533
 40
16.50169490421533
 10
35.00000000000014
 20
12.77951424596441
 30
0.0
 10
34.96476506672374
 20
12.52736064596925
 30
0.0
 10
34.92269349014461
 20
12.27651560149369
 30
0.0
 10
34.76129751338979
 20
11.46700692372517
 30
0.0
 10
34.61141404832196
 20
10.9221281580727
 30
0.0
 10
34.22966702950973
 20
9.904492230120326
 30
0.0
 10
33.99714385710993
 20
9.430870763137506
 30
0.0
 10
33.45363711815591
 20
8.579294276496427
 30
0.0
 10
33.14235133677991
 20
8.201274804018425
 30
0.0
 10
32.62059680657424
 20
7.698188938123366
 30
0.0
 10
32.41770308908147
 20
7.525272218298682
 30
0.0
 10
31.97814020169849
 20
7.198999055112751
 30
0.0
 10
31.7414429868592
 20
7.045617157905014
 30
0.0
 10
31.2444037765591
 20
6.764885025562222
 30
0.0
 10
30.98393744419732
 20
6.637416087277387
 30
0.0
 10
30.45373313140797
 20
6.410100441084666
 30
0.0
 10
30.1840083754702
 20
6.310193646718034
 30
0.0
 10
29.42259181816675
 20
6.060612210665312
 30
0.0
 10
28.88014249352793
 20
5.92331577511797
 30
0.0
 10
27.73044562689742
 20
5.69939797209932
 30
0.0
 10
27.12323611445075
 20
5.612460613199943
 30
0.0
 10
25.87949189361316
 20
5.480450532497031
 30
0.0
 10
25.24238575275902
 20
5.435133922782001
 30
0.0
 10
24.58448617730917
 20
5.404931871519665
 30
0.0
 10
24.55920456822301
 20
5.403797048712789
 30
0.0
 10
24.53393157393052
 20
5.402688084057701
 30
0.0
  0
LINE
  5
1ADCF
330
1F
100
AcDbEntity
  8
AM_0
370
    30
100
AcDbLine
 10
17.40319232300331
 20
23.39054818221976
 30
0.0
 11
18.52871284110725
 21
24.39223403090207
 31
0.0
  0
LINE
  5
1ADD0
330
1F
100
AcDbEntity
  8
AM_0
370
    30
100
AcDbLine
 10
18.52871284110725
 20
24.39223403090202
 30
0.0
 11
18.5287341329288
 21
24.39220843753273
 31
0.0
  0
SPLINE
  5
1ADD9
330
1F
100
AcDbEntity
  8
AM_0
370
    30
100
AcDbSpline
210
0.0
220
0.0
230
1.0
 70
     8
 71
     3
 72
    24
 73
    20
 74
     0
 42
0.0000000001
 43
0.0000000001
 40
19.01746160383095
 40
19.01746160383095
 40
19.01746160383095
 40
19.01746160383095
 40
19.05903370145926
 40
19.05903370145926
 40
20.8356619838704
 40
20.8356619838704
 40
22.61229026628155
 40
22.61229026628155
 40
24.38891854869269
 40
24.38891854869269
 40
25.66090508486816
 40
25.66090508486816
 40
26.93289162104362
 40
26.93289162104362
 40
28.20487815721909
 40
28.20487815721909
 40
29.47686469339455
 40
29.47686469339455
 40
30.68385303676979
 40
30.68385303676979
 40
30.68385303676979
 40
30.68385303676979
 10
24.53393157405063
 20
26.69544938094268
 30
0.0
 10
24.54848000991896
 20
26.69423785073624
 30
0.0
 10
24.56303136205665
 20
26.6930105357861
 30
0.0
 10
25.19956688427615
 20
26.63863998180935
 30
0.0
 10
25.82633136448979
 20
26.5564278255421
 30
0.0
 10
27.05098690098143
 20
26.32729647917293
 30
0.0
 10
27.64942091757686
 20
26.18010741816923
 30
0.0
 10
28.78393708655139
 20
25.81952757733851
 30
0.0
 10
29.31998469504791
 20
25.60587298947226
 30
0.0
 10
30.1630653284748
 20
25.19136356399051
 30
0.0
 10
30.50648244472441
 20
24.99725486366143
 30
0.0
 10
31.16564391754864
 20
24.56440725939822
 30
0.0
 10
31.48138442906921
 20
24.32563825065566
 30
0.0
 10
32.07692573092973
 20
23.80356098726887
 30
0.0
 10
32.35682181217621
 20
23.5201518354468
 30
0.0
 10
32.87560262392103
 20
22.91164896950679
 30
0.0
 10
33.11450614261341
 20
22.58654792992073
 30
0.0
 10
33.53808793069052
 20
21.91823964726896
 30
0.0
 10
33.72541860347289
 20
21.57608413634492
 30
0.0
 10
33.89385733997219
 20
21.22048575403144
 30
0.0
  0
LINE
  5
1ADDA
330
1F
100
AcDbEntity
  8
AM_0
370
    30
100
AcDbLine
 10
17.87816267894735
 20
29.24999999999793
 30
0.0
 11
14.73337365017076
 21
27.43435520768921
 31
0.0
  0
LINE
  5
1ADDB
330
1F
100
AcDbEntity
  8
AM_0
370
    30
100
AcDbLine
 10
33.89385733997219
 20
21.22048575403144
 30
0.0
 11
47.99724960014999
 21
21.22048575403142
 31
0.0
  0
LINE
  5
1ADDC
330
1F
100
AcDbEntity
  8
AM_0
370
    30
100
AcDbLine
 10
0.9426232570897639
 20
9.427138357036682
 30
0.0
 11
6.190454619925191
 21
9.78365270129845
 31
0.0
  0
LINE
  5
1ADDD
330
1F
100
AcDbEntity
  8
AM_0
370
    30
100
AcDbLine
 10
1.856692708935242
 20
19.99999999999798
 30
0.0
 11
0.9426232570897639
 21
9.552138357034636
 31
0.0
  0
LINE
  5
1ADDE
330
1F
100
AcDbEntity
  8
AM_0
370
    30
100
AcDbLine
 10
14.73337365017076
 20
27.43435520768927
 30
0.0
 11
1.856692708935242
 21
19.99999999999804
 31
0.0
  0
ELLIPSE
  5
1ADDF
330
1F
100
AcDbEntity
  8
AM_0
370
    30
100
AcDbEllipse
 10
-23.74134687225464
 20
16.99999999999793
 30
0.0
 11
-102.0508928192883
 21
2.038783364419126
 31
0.0
210
0.0
220
0.0
230
1.0
 40
0.1183639806558277
 41
4.222004604137979
 42
4.328183415464086
  0
LINE
  5
1ADE2
330
1F
100
AcDbEntity
  8
AM_0
370
    30
100
AcDbLine
 10
17.40568007260404
 20
23.38755783712443
 30
0.0
 11
17.40319232300331
 21
23.39054818221976
 31
0.0
  0
ELLIPSE
  5
1ADE4
330
1F
100
AcDbEntity
  8
AM_0
370
    30
100
AcDbEllipse
 10
-23.74134687225464
 20
16.99999999999793
 30
0.0
 11
-102.0508928192883
 21
2.038783364419126
 31
0.0
210
0.0
220
0.0
230
1.0
 40
0.1183639806558277
 41
1.994544887031422
 42
2.065910070123047
  0
LINE
  5
1ADE5
330
1F
100
AcDbEntity
  8
AM_0
370
    30
100
AcDbLine
 10
16.3582238536749
 20
2.089262922437882
 30
0.0
 11
18.00539020549664
 21
5.14799206619719
 31
0.0
  0
LINE
  5
1ADE6
330
1F
100
AcDbEntity
  8
AM_0
370
    30
100
AcDbLine
 10
9.864022495616524
 20
4.992937681949314
 30
0.0
 11
9.536131435188366
 21
1.245125711645784
 31
0.0
  0
ELLIPSE
  5
1ADE7
330
1F
100
AcDbEntity
  8
AM_0
370
    30
100
AcDbEllipse
 10
11.31233011299102
 20
16.73099478550816
 30
0.0
 11
-1.663772633841831
 21
-15.53994508728807
 31
0.0
210
0.0
220
0.0
230
1.0
 40
0.1029019591120381
 41
6.210031086149797
 42
6.303391730525675
  0
ELLIPSE
  5
1ADE8
330
1F
100
AcDbEntity
  8
AM_0
370
    30
100
AcDbEllipse
 10
-264.757472095098
 20
21.74755976455819
 30
0.0
 11
-330.6829649493516
 21
6.556907303219894
 31
0.0
210
0.0
220
0.0
230
1.0
 40
0.0810418483242505
 41
2.55057032105504
 42
2.588565959822184
  0
LINE
  5
1ADEF
330
1F
100
AcDbEntity
  8
AM_0
370
    30
100
AcDbLine
 10
18.00000000000003
 20
4.749999999997925
 30
0.0
 11
16.35431147334518
 21
1.899583858398643
 31
0.0
  0
LINE
  5
1ADF0
330
1F
100
AcDbEntity
  8
AM_0
370
    30
100
AcDbLine
 10
18.00000000000003
 20
4.749999999997925
 30
0.0
 11
48.0
 21
4.749999999997925
 31
0.0
  0
LINE
  5
1ADF1
330
1F
100
AcDbEntity
  8
AM_0
370
    30
100
AcDbLine
 10
17.87816267894735
 20
29.24999999999793
 30
0.0
 11
48.00000000000003
 21
29.2499999999979
 31
0.0
  0
LINE
  5
1ADF2
330
1F
100
AcDbEntity
  8
AM_0
370
    30
100
AcDbLine
 10
16.35431147334512
 20
1.899583858398643
 30
0.0
 11
9.681206833170762
 21
1.315762851861138
 31
0.0
  0
LINE
  5
1ADFA
330
1F
100
AcDbEntity
  8
AM_0
370
    30
100
AcDbLine
 10
18.00000000000003
 20
4.749999999997925
 30
0.0
 11
18.00000000000003
 21
5.150894763594152
 31
0.0
  0
LINE
  5
1AE01
330
1F
100
AcDbEntity
  8
AM_0
370
    30
100
AcDbLine
 10
16.35431147334512
 20
1.899583858398643
 30
0.0
 11
16.35431147334512
 21
2.091369791314463
 31
0.0
  0
LINE
  5
1AE03
330
1F
100
AcDbEntity
  8
AM_0
370
    30
100
AcDbLine
 10
18.50752641050306
 20
9.882317752781631
 30
0.0
 11
19.26765708648694
 21
10.50195532703785
 31
0.0
  0
LINE
  5
1AE04
330
1F
100
AcDbEntity
  8
AM_0
370
    30
100
AcDbLine
 10
5.794959573265686
 20
3.796117254566042
 30
0.0
 11
9.110601508082624
 21
4.615986128511935
 31
0.0
  0
LINE
  5
1AE05
330
1F
100
AcDbEntity
  8
AM_0
370
    30
100
AcDbLine
 10
9.110601508082624
 20
4.615986128511935
 30
0.0
 11
9.656427368575152
 21
4.941605002971841
 31
0.0
  0
LINE
  5
1AE06
330
1F
100
AcDbEntity
  8
AM_0
370
    30
100
AcDbLine
 10
18.51983346107809
 20
24.38429044977207
 30
0.0
 11
16.74395752323053
 21
22.79557431644585
 31
0.0
  0
ELLIPSE
  5
1AE07
330
1F
100
AcDbEntity
  8
AM_0
370
    30
100
AcDbEllipse
 10
25.86541695536906
 20
15.55469217832635
 30
0.0
 11
1.229678874195554
 21
1.300487206623462
 31
0.0
210
0.0
220
0.0
230
1.0
 40
0.8352355991880807
 41
4.862742950732228
 42
5.032024134941525
  0
ELLIPSE
  5
1AE0A
330
1F
100
AcDbEntity
  8
AM_0
370
    30
100
AcDbEllipse
 10
19.47795304728996
 20
23.23260371871393
 30
0.0
 11
1.229678874195561
 21
1.300487206623455
 31
0.0
210
0.0
220
0.0
230
1.0
 40
0.835235599188081
 41
1.051305262679513
 42
1.470868372015627
  0
ARC
  5
1AE0D
330
1F
100
AcDbEntity
  8
AM_0
370
    30
100
AcDbCircle
 10
15.35857793631774
 20
12.94631068990597
 30
0.0
 40
4.592480743372922
100
AcDbArc
 50
187.1514720885316
 51
252.3645146433811
  0
ARC
  5
1AE15
330
1F
100
AcDbEntity
  8
AM_0
370
    30
100
AcDbCircle
 10
15.31265550161768
 20
12.86274220152941
 30
0.0
 40
4.50139711524297
100
AcDbArc
 50
264.6275210750105
 51
303.1506730736261
  0
LINE
  5
1AE1A
330
1F
100
AcDbEntity
  8
AM_0
370
    30
100
AcDbLine
 10
9.656427368575152
 20
4.941605002971841
 30
0.0
 11
17.54986736756851
 21
6.893439938939224
 31
0.0
  0
ELLIPSE
  5
1AE1B
330
1F
100
AcDbEntity
  8
AM_0
370
    30
100
AcDbEllipse
 10
17.53165196941544
 20
7.975925857029864
 30
0.0
 11
-1.015151206202989
 21
-0.8029968825579477
 31
0.0
210
0.0
220
0.0
230
0.9999999999999998
 40
0.771528635341169
 41
1.038163183530346
 42
1.488342304485004
  0
LINE
  5
1AE1C
330
1F
100
AcDbEntity
  8
AM_0
370
    30
100
AcDbLine
 10
16.74395752323053
 20
22.79557431644585
 30
0.0
 11
9.866695279720574
 21
17.189419705495
 31
0.0
  0
LINE
  5
1AE21
330
1F
100
AcDbEntity
  8
AM_0
370
    30
100
AcDbLine
 10
18.87435573149699
 20
9.96428799344929
 30
0.0
 11
18.11422505551306
 21
9.344650419193073
 31
0.0
  0
LINE
  5
1AE22
330
1F
100
AcDbEntity
  8
AM_0
370
    30
100
AcDbLine
 10
12.36550753824193
 20
16.25477080554188
 30
0.0
 11
13.1256382142258
 21
16.8744083797981
 31
0.0
  0
LINE
  5
1AE23
330
1F
100
AcDbEntity
  8
AM_0
370
    30
100
AcDbLine
 10
5.507003849516337
 20
8.947612020695004
 30
0.0
 11
4.058257089473358
 21
5.883682559735661
 31
0.0
  0
LINE
  5
1AE24
330
1F
100
AcDbEntity
  8
AM_0
370
    30
100
AcDbLine
 10
5.986695504542325
 20
9.352726073002117
 30
0.0
 11
5.507003849516337
 21
8.947612020695004
 31
0.0
  0
LINE
  5
1AE25
330
1F
100
AcDbEntity
  8
AM_0
370
    30
100
AcDbLine
 10
9.435679396334791
 20
16.64692244181666
 30
0.0
 11
5.986695504542382
 21
9.352726073002117
 31
0.0
  0
ELLIPSE
  5
1AE26
330
1F
100
AcDbEntity
  8
AM_0
370
    30
100
AcDbEllipse
 10
5.258467342515331
 20
5.027634020185559
 30
0.0
 11
-1.095463662940858
 21
1.030364528603528
 31
0.0
210
0.0
220
0.0
230
0.9999999999999998
 40
0.8110890368491994
 41
1.153705372749488
 42
1.68757386766052
  0
ARC
  5
1AE27
330
1F
100
AcDbEntity
  8
AM_0
370
    30
100
AcDbCircle
 10
5.398856637054706
 20
5.138204212756961
 30
0.0
 40
1.39615236403887
100
AcDbArc
 50
232.8686302160826
 51
281.7701991845527
  0
ELLIPSE
  5
1AE28
330
1F
100
AcDbEntity
  8
AM_0
370
    30
100
AcDbEllipse
 10
4.91730026525974
 20
4.561237476138871
 30
0.0
 11
1.683764404783753
 21
-0.1259370768978299
 31
0.0
210
0.0
220
0.0
230
1.0
 40
0.4954894072847947
 41
5.221614023605413
 42
5.29732618530529
  0
ELLIPSE
  5
1AE29
330
1F
100
AcDbEntity
  8
AM_0
370
    30
100
AcDbEllipse
 10
4.91730026525974
 20
4.561237476138814
 30
0.0
 11
0.2324855730610367
 21
-1.870479664626676
 31
0.0
210
0.0
220
0.0
230
1.0
 40
0.5553010289668976
 41
3.860589486157384
 42
3.936301647857221
  0
ELLIPSE
  5
1AE2C
330
1F
100
AcDbEntity
  8
AM_0
370
    30
100
AcDbEllipse
 10
10.50544167052848
 20
16.42162855145622
 30
0.0
 11
-1.015151206202991
 21
-0.8029968825579495
 31
0.0
210
0.0
220
0.0
230
1.0
 40
0.7715286353411668
 41
4.731425276839315
 42
5.283094716558498
  0
ARC
  5
1AE31
330
1F
100
AcDbEntity
  8
AM_0
370
    30
100
AcDbCircle
 10
5.312308562228992
 20
5.24782979249872
 30
0.0
 40
1.403657706926497
100
AcDbArc
 50
157.7483039310333
 51
205.9916652908476
  0
ARC
  5
1AE37
330
1F
100
AcDbEntity
  8
AM_0
370
    30
100
AcDbCircle
 10
15.12328359097879
 20
12.8902958578457
 30
0.0
 40
4.351329807586298
100
AcDbArc
 50
134.9000644659917
 51
174.4866709113008
  0
LINE
  5
1AE3B
330
1F
100
AcDbEntity
  8
AM_0
370
    30
100
AcDbLine
 10
23.88997667002317
 20
20.42986591116576
 30
0.0
 11
20.69624471598368
 21
24.26882168135958
 31
0.0
  0
LINE
  5
1AE3C
330
1F
100
AcDbEntity
  8
AM_0
370
    30
100
AcDbLine
 10
27.08370862406267
 20
16.590910140972
 30
0.0
 11
23.88997667002317
 21
20.42986591116582
 31
0.0
  0
LINE
  5
1AE3D
330
1F
100
AcDbEntity
  8
AM_0
370
    30
100
AcDbLine
 10
26.28414989714727
 20
13.58647032566788
 30
0.0
 11
27.12356692402105
 21
14.73400543807432
 31
0.0
  0
LINE
  5
1AE3E
330
1F
100
AcDbEntity
  8
AM_0
370
    30
100
AcDbLine
 10
26.02124162835187
 20
13.30941962326469
 30
0.0
 11
20.58524839776194
 21
8.878147783437981
 31
0.0
  0
LINE
  5
1AE3F
330
1F
100
AcDbEntity
  8
AM_0
370
    30
100
AcDbLine
 10
18.06547375797564
 20
7.129233218928818
 30
0.0
 11
20.51045911159113
 21
8.821979635704935
 31
0.0
  0
LINE
  5
1AE40
330
1F
100
AcDbEntity
  8
AM_0
370
    30
100
AcDbLine
 10
20.51082493307061
 20
8.821492518500719
 30
0.0
 11
20.58561514957037
 21
8.877659427434907
 31
0.0
  0
ELLIPSE
  5
1AE41
330
1F
100
AcDbEntity
  8
AM_0
370
    30
100
AcDbEllipse
 10
16.39329832785134
 20
13.95701552021225
 30
0.0
 11
3.63200267156946
 21
-2.656794420671708
 31
0.0
210
0.0
220
0.0
230
1.0
 40
0.9794128730990716
 41
6.032903382052767
 42
6.20753930818666
  0
ELLIPSE
  5
1AE42
330
1F
100
AcDbEntity
  8
AM_0
370
    30
100
AcDbEllipse
 10
25.94351261008686
 20
15.66145377958767
 30
0.0
 11
1.21066755718982
 21
-0.8855981402239026
 31
0.0
210
0.0
220
0.0
230
1.0
 40
0.9794128730990717
 41
0.1692811842092943
 42
1.320514401668078
  0
ELLIPSE
  5
1AE43
330
1F
100
AcDbEntity
  8
AM_0
370
    30
100
AcDbEllipse
 10
19.55604870200776
 20
23.33936531997532
 30
0.0
 11
1.21066755718982
 21
-0.8855981402239032
 31
0.0
210
0.0
220
0.0
230
1.0
 40
0.9794128730990713
 41
1.320514401668082
 42
2.471747619126857
  0
ELLIPSE
  5
1AE4A
330
1F
100
AcDbEntity
  8
AM_0
370
    30
100
AcDbEllipse
 10
15.63316765186747
 20
13.33737794595604
 30
0.0
 11
3.63200267156946
 21
-2.656794420671708
 31
0.0
210
0.0
220
0.0
230
1.0
 40
0.9794128730990716
 41
3.217110519258006
 42
5.020884518922241
  0
ELLIPSE
  5
1AE4B
330
1F
100
AcDbEntity
  8
AM_0
370
    30
100
AcDbEllipse
 10
15.63316765186747
 20
13.33737794595604
 30
0.0
 11
3.63200267156946
 21
-2.656794420671708
 31
0.0
210
0.0
220
0.0
230
1.0
 40
0.9794128730990716
 41
5.357751810150807
 42
6.032903382052767
  0
ELLIPSE
  5
1AE4C
330
1F
100
AcDbEntity
  8
AM_0
370
    30
100
AcDbEllipse
 10
15.23986629687747
 20
12.79971061236748
 30
0.0
 11
-3.63200267156946
 21
2.656794420671708
 31
0.0
210
0.0
220
0.0
230
1.0
 40
0.9794128730990716
 41
1.903632840954594
 42
2.114348958260399
  0
ELLIPSE
  5
1AE4D
330
1F
100
AcDbEntity
  8
AM_0
370
    30
100
AcDbEllipse
 10
15.23986629687747
 20
12.79971061236748
 30
0.0
 11
-3.63200267156946
 21
2.656794420671708
 31
0.0
210
0.0
220
0.0
230
1.0
 40
0.9794128730990716
 41
0.5266798450757581
 42
0.7373959623815595
  0
ELLIPSE
  5
1AE52
330
1F
100
AcDbEntity
  8
AM_0
370
    30
100
AcDbEllipse
 10
15.23986629687747
 20
12.79971061236748
 30
0.0
 11
-3.63200267156946
 21
2.656794420671708
 31
0.0
210
0.0
220
0.0
230
1.0
 40
0.9794128730990716
 41
2.795607872668381
 42
2.891310728462978
  0
ELLIPSE
  5
1AE53
330
1F
100
AcDbEntity
  8
AM_0
370
    30
100
AcDbEllipse
 10
15.9999969728614
 20
13.41934818662369
 30
0.0
 11
-3.63200267156946
 21
2.656794420671708
 31
0.0
210
0.0
220
0.0
230
1.0
 40
0.9794128730990716
 41
2.891310728462964
 42
6.032903382052763
  0
ELLIPSE
  5
1AE54
330
1F
100
AcDbEntity
  8
AM_0
370
    30
100
AcDbEllipse
 10
15.23986629687747
 20
12.79971061236748
 30
0.0
 11
-3.63200267156946
 21
2.656794420671708
 31
0.0
210
0.0
220
0.0
230
1.0
 40
0.9794128730990716
 41
6.032903382052764
 42
6.128606237847355
  0
ARC
  5
1AE5B
330
1F
100
AcDbEntity
  8
AM_0
370
    30
100
AcDbCircle
 10
25.07348233995745
 20
14.4720684658918
 30
0.0
 40
1.5
100
AcDbArc
 50
309.1859701698681
 51
323.8146894619696
  0
LINE
  5
1AE5C
330
1F
100
AcDbEntity
  8
AM_0
370
    30
100
AcDbLine
 10
14.63462129532107
 20
10.70670525050613
 30
0.0
 11
13.15949969261371
 21
12.4798429683689
 31
0.0
  0
LINE
  5
1AE5D
330
1F
100
AcDbEntity
  8
AM_0
370
    30
100
AcDbLine
 10
13.51704637896822
 20
12.96863145344938
 30
0.0
 11
14.99216798167558
 21
11.19549373558667
 31
0.0
  0
LINE
  5
1AE5E
330
1F
100
AcDbEntity
  8
AM_0
370
    30
100
AcDbLine
 10
13.15949969261371
 20
12.4798429683689
 30
0.0
 11
13.51704637896822
 21
12.96863145344938
 31
0.0
  0
LINE
  5
1AE5F
330
1F
100
AcDbEntity
  8
AM_0
370
    30
100
AcDbLine
 10
13.15949969261371
 20
12.4798429683689
 30
0.0
 11
13.94220024322786
 21
14.60568697581269
 31
0.0
  0
LINE
  5
1AE60
330
1F
100
AcDbEntity
  8
AM_0
370
    30
100
AcDbLine
 10
14.13062024687966
 20
14.63512105691299
 30
0.0
 11
13.51704637896822
 21
12.96863145344938
 31
0.0
  0
LINE
  5
1AE61
330
1F
100
AcDbEntity
  8
AM_0
370
    30
100
AcDbLine
 10
13.94220024322786
 20
14.60568697581269
 30
0.0
 11
16.20002239654937
 21
14.95839326539377
 31
0.0
  0
LINE
  5
1AE62
330
1F
100
AcDbEntity
  8
AM_0
370
    30
100
AcDbLine
 10
16.20002239654932
 20
14.95839326539377
 30
0.0
 11
17.67514399925668
 21
13.185255547531
 31
0.0
  0
LINE
  5
1AE63
330
1F
100
AcDbEntity
  8
AM_0
370
    30
100
AcDbLine
 10
17.67514399925668
 20
13.185255547531
 30
0.0
 11
16.89244344864258
 21
11.05941154008715
 31
0.0
  0
LINE
  5
1AE64
330
1F
100
AcDbEntity
  8
AM_0
370
    30
100
AcDbLine
 10
16.89244344864258
 20
11.05941154008715
 30
0.0
 11
14.63462129532107
 21
10.70670525050613
 31
0.0
  0
LINE
  5
1AE65
330
1F
100
AcDbEntity
  8
AM_0
370
    30
100
AcDbLine
 10
14.63462129532107
 20
10.70670525050613
 30
0.0
 11
14.99216798167564
 21
11.19549373558667
 31
0.0
  0
LINE
  5
1AE66
330
1F
100
AcDbEntity
  8
AM_0
370
    30
100
AcDbLine
 10
14.99216798167564
 20
11.19549373558667
 30
0.0
 11
17.06157013134524
 21
11.51876594406738
 31
0.0
  0
LINE
  5
1AE67
330
1F
100
AcDbEntity
  8
AM_0
370
    30
100
AcDbLine
 10
19.04589127284393
 20
10.59450400264981
 30
0.0
 11
19.44345773523057
 21
11.13800200244972
 31
0.0
  0
LINE
  5
1AE68
330
1F
100
AcDbEntity
  8
AM_0
370
    30
100
AcDbLine
 10
12.18544178210166
 20
15.6128934639186
 30
0.0
 11
12.58300824448824
 21
16.15639146371851
 31
0.0
  0
ARC
  5
1AE69
330
1F
100
AcDbEntity
  8
AM_0
370
    30
100
AcDbCircle
 10
15.65548494505802
 20
13.15813297852426
 30
0.0
 40
4.250535094953793
100
AcDbArc
 50
144.72384002275
 51
322.9055389011875
  0
ELLIPSE
  5
1AE6A
330
1F
100
AcDbEntity
  8
AM_0
370
    30
100
AcDbEllipse
 10
15.41732184593516
 20
12.83254925794998
 30
0.0
 11
-2.08701849990422
 21
1.526645106785718
 31
0.0
210
0.0
220
0.0
230
1.0
 40
0.9794128730990713
 41
0.0000000000000011
 42
6.283185307179587
  0
ELLIPSE
  5
1AE6B
330
1F
100
AcDbEntity
  8
AM_0
370
    30
100
AcDbEllipse
 10
16.0132329898594
 20
13.64719673308414
 30
0.0
 11
3.430224745371155
 21
-2.509194730634391
 31
0.0
210
0.0
220
0.0
230
0.9999999999999999
 40
0.9794128730990717
 41
-0.0000000000000046
 42
3.141592653589793
  0
ELLIPSE
  5
1AE6C
330
1F
100
AcDbEntity
  8
AM_0
370
    30
100
AcDbEllipse
 10
15.45222951254934
 20
12.88027020218797
 30
0.0
 11
2.657732659538537
 21
-1.944120073691396
 31
0.0
210
0.0
220
0.0
230
1.0
 40
0.9794128730990716
 41
0.000000000000001
 42
6.283185307179587
  0
ELLIPSE
  5
1AE6D
330
1F
100
AcDbEntity
  8
AM_0
370
    30
100
AcDbEllipse
 10
15.53139196530211
 20
12.98849018249544
 30
0.0
 11
-3.193827200212259
 21
2.336270937390801
 31
0.0
210
0.0
220
0.0
230
1.0
 40
0.9794128730990713
 41
0.0000000000000011
 42
6.283185307179587
  0
ELLIPSE
  5
1AE6E
330
1F
100
AcDbEntity
  8
AM_0
370
    30
100
AcDbEllipse
 10
15.61566652747277
 20
13.10369873328423
 30
0.0
 11
3.430224745371155
 21
-2.509194730634391
 31
0.0
210
0.0
220
0.0
230
0.9999999999999999
 40
0.9794128730990717
 41
0.0000000000000001
 42
3.141592653589793
  0
LINE
  5
1AE6F
330
1F
100
AcDbEntity
  8
AM_0
370
    30
100
AcDbLine
 10
8.823085236280662
 20
-77.87467407171403
 30
0.0
 11
0.8640878114622694
 21
-78.93313152350049
 31
0.0
  0
LINE
  5
1AE70
330
1F
100
AcDbEntity
  8
AM_0
370
    30
100
AcDbLine
 10
1.243087298998063
 20
-82.04766445995551
 30
0.0
 11
9.202084723816455
 21
-80.98920700816905
 31
0.0
  0
LINE
  5
1AE72
330
1F
100
AcDbEntity
  8
AM_0
370
    30
100
AcDbLine
 10
0.0029735494660202
 20
-78.89297615499476
 30
0.0
 11
0.6936828107403414
 21
-77.49558483288024
 31
0.0
  0
LINE
  5
1AE73
330
1F
100
AcDbEntity
  8
AM_0
370
    30
100
AcDbLine
 10
1.4152172847038
 20
-77.29072475871624
 30
0.0
 11
4.201674303847113
 21
-76.92015720622544
 31
0.0
  0
LINE
  5
1AE74
330
1F
100
AcDbEntity
  8
AM_0
370
    30
100
AcDbLine
 10
10.23532897151884
 20
-76.27242267543539
 30
0.0
 11
10.10593381684922
 21
-76.53420527543324
 31
0.0
  0
LINE
  5
1AE75
330
1F
100
AcDbEntity
  8
AM_0
370
    30
100
AcDbLine
 10
10.23532897151884
 20
-76.27242267543539
 30
0.0
 11
10.26290183348507
 21
-76.49901028193699
 31
0.0
  0
LINE
  5
1AE77
330
1F
100
AcDbEntity
  8
AM_0
370
    30
100
AcDbLine
 10
0.0001560688487246
 20
-78.90726087738358
 30
0.0
 11
0.379155556384518
 21
-82.0217938138386
 31
0.0
  0
LINE
  5
1AE78
330
1F
100
AcDbEntity
  8
AM_0
370
    30
100
AcDbLine
 10
10.23814645213614
 20
-76.25813795304657
 30
0.0
 11
10.26733048612041
 21
-76.49796581047627
 31
0.0
  0
ELLIPSE
  5
1AE79
330
1F
100
AcDbEntity
  8
AM_0
370
    30
100
AcDbEllipse
 10
0.7942979174458458
 20
-78.81062380216559
 30
0.0
 11
0.7941418485971626
 21
0.09663707521795874
 31
0.0
210
0.0
220
0.0
230
1.0
 40
0.1629294950268345
 41
3.03521292578756
 42
4.780542177781783
  0
ELLIPSE
  5
1AE7A
330
1F
100
AcDbEntity
  8
AM_0
370
    30
100
AcDbEllipse
 10
1.173297404981639
 20
-81.92515673862067
 30
0.0
 11
0.7941418485971613
 21
0.09663707521797207
 31
0.0
210
0.0
220
0.0
230
1.0
 40
0.1629294950268345
 41
3.141592653589787
 42
4.780542177779287
  0
ELLIPSE
  5
1AE7B
330
1F
100
AcDbEntity
  8
AM_0
370
    30
100
AcDbEllipse
 10
1.485007178720224
 20
-77.41323248005108
 30
0.0
 11
0.7941418485971626
 21
0.09663707521795874
 31
0.0
210
0.0
220
0.0
230
1.0
 40
0.1629294950268345
 41
1.63894952419199
 42
3.035212925787568
  0
ELLIPSE
  5
1AE7C
330
1F
100
AcDbEntity
  8
AM_0
370
    30
100
AcDbEllipse
 10
9.444004603538957
 20
-76.35477502826456
 30
0.0
 11
0.7941418485971626
 21
0.09663707521795874
 31
0.0
210
0.0
220
0.0
230
1.0
 40
0.1629294950268345
 41
6.176805579377326
 42
7.671636101800519
  0
ELLIPSE
  5
1AE7D
330
1F
100
AcDbEntity
  8
AM_0
370
    30
100
AcDbEllipse
 10
8.753295342264238
 20
-77.75216635037907
 30
0.0
 11
0.7941418485971626
 21
0.09663707521795874
 31
0.0
210
0.0
220
0.0
230
1.0
 40
0.1629294950268345
 41
4.780542177781774
 42
6.167350741822879
  0
ELLIPSE
  5
1AE7E
330
1F
100
AcDbEntity
  8
AM_0
370
    30
100
AcDbEllipse
 10
9.132294829800031
 20
-80.86669928683415
 30
0.0
 11
0.7941418485971613
 21
0.09663707521797207
 31
0.0
210
0.0
220
0.0
230
1.0
 40
0.1629294950268345
 41
4.780542177779278
 42
5.917294590016821
  0
ELLIPSE
  5
1AE7F
330
1F
100
AcDbEntity
  8
AM_0
370
    30
100
AcDbEllipse
 10
5.119151260492316
 20
-77.58269941521508
 30
0.0
 11
1.891050276971993
 21
0.2301170353627642
 31
0.0
210
0.0
220
0.0
230
0.9999999999999999
 40
0.1629294950268344
 41
2.242039202304058
 42
6.306254789108674
  0
ARC
  5
1AE85
330
1F
100
AcDbEntity
  8
AM_0
370
    30
100
AcDbCircle
 10
23.00936456456694
 20
-61.954376561461
 30
0.0
 40
13.22724431267793
100
AcDbArc
 50
276.6185991271218
 51
335.0274923187097
  0
LINE
  5
1AE86
330
1F
100
AcDbEntity
  8
AM_0
370
    30
100
AcDbLine
 10
20.4422548468319
 20
-74.06829048043409
 30
0.0
 11
20.47249365028617
 21
-74.31678619722169
 31
0.0
  0
ARC
  5
1AE8C
330
1F
100
AcDbEntity
  8
AM_0
370
    30
100
AcDbCircle
 10
25.18781854746449
 20
-65.8916339909608
 30
0.0
 40
7.693238385184308
100
AcDbArc
 50
274.225930430075
 51
285.3891000022301
  0
LINE
  5
1AE8E
330
1F
100
AcDbEntity
  8
AM_0
370
    30
100
AcDbLine
 10
0.9553004031666603
 20
-77.37813139382598
 30
0.0
 11
0.9426232570897639
 21
-77.27395344558244
 31
0.0
  0
LINE
  5
1AE8F
330
1F
100
AcDbEntity
  8
AM_0
370
    30
100
AcDbLine
 10
0.5266053065089693
 20
-82.0945488823794
 30
0.0
 11
0.5343862882700989
 21
-82.07880698198778
 31
0.0
  0
LINE
  5
1AE90
330
1F
100
AcDbEntity
  8
AM_0
370
    30
100
AcDbLine
 10
16.35431147334512
 20
-90.53869871923496
 30
0.0
 11
18.00000000000003
 21
-90.53869871923496
 31
0.0
  0
ARC
  5
1AE95
330
1F
100
AcDbEntity
  8
AM_0
370
    30
100
AcDbCircle
 10
22.09342514221143
 20
-53.13057238261217
 30
0.0
 40
18.62375645743986
100
AcDbArc
 50
285.1523260723593
 51
309.3178968428904
  0
LINE
  5
1AE96
330
1F
100
AcDbEntity
  8
AM_0
370
    30
100
AcDbLine
 10
0.9426232570897639
 20
-77.27395344558244
 30
0.0
 11
4.250226915490003
 21
-76.83407923116533
 31
0.0
  0
LINE
  5
1AE97
330
1F
100
AcDbEntity
  8
AM_0
370
    30
100
AcDbLine
 10
1.856692708935242
 20
-75.42467649009143
 30
0.0
 11
0.9426232570897639
 21
-77.27395344558244
 31
0.0
  0
LINE
  5
1AE98
330
1F
100
AcDbEntity
  8
AM_0
370
    30
100
AcDbLine
 10
5.49162100827462
 20
-74.63323593679257
 30
0.0
 11
1.856692708935242
 21
-75.42467649009143
 31
0.0
  0
ELLIPSE
  5
1AE9B
330
1F
100
AcDbEntity
  8
AM_0
370
    30
100
AcDbEllipse
 10
-23.74134687225464
 20
-79.03869871923496
 30
0.0
 11
-102.0509079625321
 21
-12.08853086467952
 31
0.0
210
0.0
220
0.0
230
1.0
 40
0.0194256279452254
 41
1.989879127571322
 42
2.061244310662946
  0
LINE
  5
1AE9C
330
1F
100
AcDbEntity
  8
AM_0
370
    30
100
AcDbLine
 10
16.35486254346543
 20
-76.64095530078441
 30
0.0
 11
18.00079421132548
 21
-75.93229543824157
 31
0.0
  0
LINE
  5
1AE9D
330
1F
100
AcDbEntity
  8
AM_0
370
    30
100
AcDbLine
 10
10.05207445985357
 20
-76.54552682296924
 30
0.0
 11
9.536131435188423
 21
-77.58934416522118
 31
0.0
  0
ELLIPSE
  5
1AE9E
330
1F
100
AcDbEntity
  8
AM_0
370
    30
100
AcDbEllipse
 10
-206.4090510974288
 20
-103.9073764674283
 30
0.0
 11
-288.1562227002817
 21
-34.12686157310512
 31
0.0
210
0.0
220
0.0
230
1.0
 40
0.0133004024600443
 41
2.417331792830351
 42
2.41820681489592
  0
ELLIPSE
  5
1AE9F
330
1F
100
AcDbEntity
  8
AM_0
370
    30
100
AcDbEllipse
 10
11.31233011299102
 20
-78.89719524883037
 30
0.0
 11
1.63550950540309
 21
-15.53992063901972
 31
0.0
210
0.0
220
0.0
230
1.0
 40
0.1047615583539232
 41
4.617108457689739
 42
4.828250533609564
  0
ELLIPSE
  5
1AEA0
330
1F
100
AcDbEntity
  8
AM_0
370
    30
100
AcDbEllipse
 10
-264.757472095098
 20
-107.5775532001362
 30
0.0
 11
-330.6829816477441
 21
-39.16338239557027
 31
0.0
210
0.0
220
0.0
230
0.9999999999999999
 40
0.0133004024600443
 41
2.54738820455107
 42
2.585383843318208
  0
LINE
  5
1AEA1
330
1F
100
AcDbEntity
  8
AM_0
370
    30
100
AcDbLine
 10
7.056943237737443
 20
-90.53869871923496
 30
0.0
 11
16.35431147334512
 21
-90.53869871923496
 31
0.0
  0
ELLIPSE
  5
1AEA2
330
1F
100
AcDbEntity
  8
AM_0
370
    30
100
AcDbEllipse
 10
1.915073662947776
 20
-79.03869871923496
 30
0.0
 11
-1.72577605486374
 21
16.39900341931789
 31
0.0
210
0.0
220
0.0
230
1.0
 40
0.1047615987303708
 41
1.747199779247078
 42
2.100082320190229
  0
ELLIPSE
  5
1AEA3
330
1F
100
AcDbEntity
  8
AM_0
370
    30
100
AcDbEllipse
 10
3.6117244139447
 20
-79.03869871923496
 30
0.0
 11
-136.6232563743286
 21
-16.18382907597907
 31
0.0
210
0.0
220
0.0
230
1.0
 40
0.0194256279452255
 41
1.545912176285238
 42
1.546535906902856
  0
LINE
  5
1AEA4
330
1F
100
AcDbEntity
  8
AM_0
370
    30
100
AcDbLine
 10
1.946869131970203
 20
-90.53869871923496
 30
0.0
 11
1.303537566484323
 21
-87.47489346656187
 31
0.0
  0
LINE
  5
1AEA5
330
1F
100
AcDbEntity
  8
AM_0
370
    30
100
AcDbLine
 10
1.303537566484323
 20
-87.47489346656187
 30
0.0
 11
1.50000000000037
 21
-87.47489346656187
 31
0.0
  0
SPLINE
  5
1AEA6
330
1F
100
AcDbEntity
  8
AM_0
370
    30
100
AcDbSpline
210
0.0
220
0.0
230
1.0
 70
    12
 71
     2
 72
     6
 73
     3
 74
     0
 42
0.0000000001
 43
0.0000000001
 40
0.0
 40
0.0
 40
0.0
 40
7.491191976646073
 40
7.491191976646073
 40
7.491191976646073
 10
1.500000000000313
 20
-87.47489346656187
 30
0.0
 41
1.0
 10
7.59880803342682
 20
-89.02984394516942
 30
0.0
 41
1.016791638017916
 10
7.056943237737443
 20
-90.53869871923496
 30
0.0
 41
1.015276948702241
  0
LINE
  5
1AEA7
330
1F
100
AcDbEntity
  8
AM_0
370
    30
100
AcDbLine
 10
7.056943237737499
 20
-90.53869871923496
 30
0.0
 11
1.946869131970146
 21
-90.53869871923496
 31
0.0
  0
LINE
  5
1AEAC
330
1F
100
AcDbEntity
  8
AM_0
370
    30
100
AcDbLine
 10
18.00000000000003
 20
-90.53869871923496
 30
0.0
 11
18.00000000000003
 21
-75.93045080495466
 31
0.0
  0
ELLIPSE
  5
1AEAE
330
1F
100
AcDbEntity
  8
AM_0
370
    30
100
AcDbEllipse
 10
16.43936441388294
 20
-74.5892609484473
 30
0.0
 11
4.218878570672426
 21
0.5133844620954053
 31
0.0
210
0.0
220
0.0
230
1.0
 40
0.1629294950268343
 41
3.925819083562286
 42
6.369388997303137
  0
ELLIPSE
  5
1AEAF
330
1F
100
AcDbEntity
  8
AM_0
370
    30
100
AcDbEllipse
 10
9.114961389773526
 20
-76.36713777863088
 30
0.0
 11
1.985354621492907
 21
0.2415926880448967
 31
0.0
210
0.0
220
0.0
230
1.0
 40
0.1629294950268332
 41
5.184032596452846
 42
7.203482688031889
  0
LINE
  5
1AEB0
330
1F
100
AcDbEntity
  8
AM_0
370
    30
100
AcDbLine
 10
16.35431147334512
 20
-90.53869871923496
 30
0.0
 11
16.35431147334512
 21
-76.63967538666748
 31
0.0
  0
LINE
  5
1AEB1
330
1F
100
AcDbEntity
  8
AM_0
370
    30
100
AcDbLine
 10
1.50000000000037
 20
-87.47489346656187
 30
0.0
 11
1.50000000000037
 21
-82.01349795024083
 31
0.0
  0
LINE
  5
1AEB2
330
1F
100
AcDbEntity
  8
AM_0
370
    30
100
AcDbLine
 10
5.794959573265686
 20
-77.54318215036915
 30
0.0
 11
9.110601508082624
 21
-77.00332155450917
 31
0.0
  0
LINE
  5
1AEB3
330
1F
100
AcDbEntity
  8
AM_0
370
    30
100
AcDbLine
 10
9.110601508082624
 20
-77.00332155450917
 30
0.0
 11
9.656427368575152
 21
-76.06591743558658
 31
0.0
  0
LINE
  5
1AF24
330
1F
100
AcDbEntity
  8
AM_0
370
    30
100
AcDbLine
 10
25.04766060373331
 20
-72.88334342046005
 30
0.0
 11
25.75472978827955
 21
-73.56395622717525
 31
0.0
  0
ARC
  5
1AF27
330
1F
100
AcDbEntity
  8
AM_0
370
    30
100
AcDbCircle
 10
12.77759385087214
 20
-63.66624893945379
 30
0.0
 40
5.281170124423834
100
AcDbArc
 50
248.0303224880549
 51
283.0182668716547
  0
ARC
  5
1AF30
330
1F
100
AcDbEntity
  8
AM_0
370
    30
100
AcDbCircle
 10
14.1131867311025
 20
-54.86440076324868
 30
0.0
 40
13.88802378583618
100
AcDbArc
 50
273.2113717932743
 51
285.2843866007054
  0
LINE
  5
1AF35
330
1F
100
AcDbEntity
  8
AM_0
370
    30
100
AcDbLine
 10
9.656427368575152
 20
-76.06591743558658
 30
0.0
 11
17.54986736756851
 21
-74.78068902280359
 31
0.0
  0
ELLIPSE
  5
1AF36
330
1F
100
AcDbEntity
  8
AM_0
370
    30
100
AcDbEllipse
 10
17.53165196941544
 20
-74.60282947343205
 30
0.0
 11
1.188915296125034
 21
0.1952092343467151
 31
0.0
210
0.0
220
0.0
230
1.0
 40
0.1481266014900252
 41
4.703389806179609
 42
5.255059245898792
  0
LINE
  5
1AF37
330
1F
100
AcDbEntity
  8
AM_0
370
    30
100
AcDbLine
 10
18.17039836022335
 20
-74.65282739348584
 30
0.0
 11
25.04766060373331
 21
-72.88334342046005
 31
0.0
  0
LINE
  5
1AF3B
330
1F
100
AcDbEntity
  8
AM_0
370
    30
100
AcDbLine
 10
18.87435573149699
 20
-67.98254762512102
 30
0.0
 11
18.11422505551306
 21
-68.17812531300513
 31
0.0
  0
ELLIPSE
  5
1AF3C
330
1F
100
AcDbEntity
  8
AM_0
370
    30
100
AcDbEllipse
 10
5.258467342515331
 20
-76.11849236933369
 30
0.0
 11
-1.232292178377574
 21
-1.433072781657632
 31
0.0
210
0.0
220
0.0
230
1.0
 40
0.4301083931105765
 41
0.0382088304629325
 42
0.5720773253739646
  0
ARC
  5
1AF3D
330
1F
100
AcDbEntity
  8
AM_0
370
    30
100
AcDbCircle
 10
5.330983089898183
 20
-81.4473117153558
 30
0.0
 40
3.914448314859128
100
AcDbArc
 50
84.83095538875389
 51
101.4177215986872
  0
ELLIPSE
  5
1AF3E
330
1F
100
AcDbEntity
  8
AM_0
370
    30
100
AcDbEllipse
 10
4.91730026525974
 20
-73.31485771047085
 30
0.0
 11
0.9012141385064852
 21
-4.22389701946632
 31
0.0
210
0.0
220
0.0
230
1.0
 40
0.3370457500538627
 41
6.191012738295023
 42
6.266724899994901
  0
SPLINE
  5
1AF40
330
1F
100
AcDbEntity
  8
AM_0
370
    30
100
AcDbSpline
210
0.0
220
0.0
230
1.0
 70
     8
 71
     3
 72
    12
 73
     8
 74
     0
 42
0.0000000001
 43
0.0000000001
 40
-2.474086008445311
 40
-2.474086008445311
 40
-2.474086008445311
 40
-2.474086008445311
 40
-2.212019067573048
 40
-2.212019067573048
 40
-1.95880263045856
 40
-1.95880263045856
 40
-1.795693929180013
 40
-1.795693929180013
 40
-1.795693929180013
 40
-1.795693929180013
 10
3.91049510031101
 20
-77.43638311811588
 30
0.0
 10
3.906357618223325
 20
-77.44445059551242
 30
0.0
 10
3.910210257074965
 20
-77.45550698018025
 30
0.0
 10
3.936469836100883
 20
-77.4846167641453
 30
0.0
 10
3.957893716217569
 20
-77.50244008526278
 30
0.0
 10
4.005175683022713
 20
-77.53808244974744
 30
0.0
 10
4.026714566369861
 20
-77.55364292538172
 30
0.0
 10
4.050619875666456
 20
-77.57076568311288
 30
0.0
  0
ARC
  5
1AF43
330
1F
100
AcDbEntity
  8
AM_0
370
    30
100
AcDbCircle
 10
11.90757248713854
 20
-69.64351656784851
 30
0.0
 40
1.663272653050299
100
AcDbArc
 50
107.8350653801438
 51
132.1179531911171
  0
LINE
  5
1AF45
330
1F
100
AcDbEntity
  8
AM_0
370
    30
100
AcDbLine
 10
26.56249830607717
 20
-67.8286387196315
 30
0.0
 11
27.22952366867131
 21
-73.31010381278446
 31
0.0
  0
LINE
  5
1AF46
330
1F
100
AcDbEntity
  8
AM_0
370
    30
100
AcDbLine
 10
18.80307299235628
 20
-66.01442826636747
 30
0.0
 11
25.19053690043532
 21
-66.51440746690525
 31
0.0
  0
LINE
  5
1AF47
330
1F
100
AcDbEntity
  8
AM_0
370
    30
100
AcDbLine
 10
3.908855647938964
 20
-77.44527997845336
 30
0.0
 11
3.972352947739211
 21
-77.96708657215027
 31
0.0
  0
LINE
  5
1AF48
330
1F
100
AcDbEntity
  8
AM_0
370
    30
100
AcDbLine
 10
6.920596500414575
 20
-77.3599033059827
 30
0.0
 11
6.932403796731734
 21
-77.45693302364646
 31
0.0
  0
LINE
  5
1AF49
330
1F
100
AcDbEntity
  8
AM_0
370
    30
100
AcDbLine
 10
3.91049510031101
 20
-77.43638311811594
 30
0.0
 11
6.798781791828475
 21
-72.31579616333733
 31
0.0
  0
ARC
  5
1AF4A
330
1F
100
AcDbEntity
  8
AM_0
370
    30
100
AcDbCircle
 10
14.62359736838349
 20
-76.10425713937866
 30
0.0
 40
8.693685948669078
100
AcDbArc
 50
120.5451326035267
 51
154.1656012157707
  0
LINE
  5
1AF4B
330
1F
100
AcDbEntity
  8
AM_0
370
    30
100
AcDbLine
 10
10.20531905892202
 20
-68.61700182422953
 30
0.0
 11
11.39930519756788
 21
-68.05164084925474
 31
0.0
  0
ELLIPSE
  5
1AF4D
330
1F
100
AcDbEntity
  8
AM_0
370
    30
100
AcDbEllipse
 10
18.68601843187847
 20
-67.50985403512743
 30
0.0
 11
0.117054560477824
 21
1.495425768759969
 31
0.0
210
0.0
220
0.0
230
1.0
 40
0.7677911540387609
 41
-0.0000000000000073
 42
0.1011715863976481
  0
ELLIPSE
  5
1AF51
330
1F
100
AcDbEntity
  8
AM_0
370
    30
100
AcDbEllipse
 10
15.23986629687747
 20
-67.95313467276321
 30
0.0
 11
4.46704789835904
 21
0.5435835481010176
 31
0.0
210
0.0
220
0.0
230
1.0
 40
0.1629294950268345
 41
4.403729528471411
 42
4.614445645777215
  0
ELLIPSE
  5
1AF52
330
1F
100
AcDbEntity
  8
AM_0
370
    30
100
AcDbEllipse
 10
15.23986629687747
 20
-67.95313467276321
 30
0.0
 11
4.46704789835904
 21
0.5435835481010176
 31
0.0
210
0.0
220
0.0
230
1.0
 40
0.1629294950268345
 41
3.026776532592576
 42
3.237492649898374
  0
ELLIPSE
  5
1AF57
330
1F
100
AcDbEntity
  8
AM_0
370
    30
100
AcDbEllipse
 10
15.23986629687747
 20
-67.95313467276321
 30
0.0
 11
4.46704789835904
 21
0.5435835481010176
 31
0.0
210
0.0
220
0.0
230
1.0
 40
0.1629294950268345
 41
5.295704560185198
 42
5.391407415979794
  0
ELLIPSE
  5
1AF58
330
1F
100
AcDbEntity
  8
AM_0
370
    30
100
AcDbEllipse
 10
15.9999969728614
 20
-67.75755698487899
 30
0.0
 11
4.46704789835904
 21
0.5435835481010176
 31
0.0
210
0.0
220
0.0
230
1.0
 40
0.1629294950268345
 41
5.39140741597979
 42
6.857004091559512
  0
ARC
  5
1AF5B
330
1F
100
AcDbEntity
  8
AM_0
370
    30
100
AcDbCircle
 10
18.68601843187847
 20
-67.50985403512743
 30
0.0
 40
1.5
100
AcDbArc
 50
85.52429467985459
 51
90.13875889836035
  0
ARC
  5
1AF5C
330
1F
100
AcDbEntity
  8
AM_0
370
    30
100
AcDbCircle
 10
25.07348233995745
 20
-68.00983323566521
 30
0.0
 40
1.5
100
AcDbArc
 50
6.938064070645642
 51
85.52429467985459
  0
LINE
  5
1AF5D
330
1F
100
AcDbEntity
  8
AM_0
370
    30
100
AcDbLine
 10
14.63462129532107
 20
-66.63923194552496
 30
0.0
 11
13.15949969261371
 21
-66.52376669511705
 31
0.0
  0
LINE
  5
1AF5E
330
1F
100
AcDbEntity
  8
AM_0
370
    30
100
AcDbLine
 10
13.15949969261371
 20
-66.52376669511705
 30
0.0
 11
13.94220024322786
 21
-66.07487869414479
 31
0.0
  0
LINE
  5
1AF60
330
1F
100
AcDbEntity
  8
AM_0
370
    30
100
AcDbLine
 10
13.94220024322786
 20
-66.07487869414479
 30
0.0
 11
16.20002239654937
 21
-65.74145594358038
 31
0.0
  0
LINE
  5
1AF62
330
1F
100
AcDbEntity
  8
AM_0
370
    30
100
AcDbLine
 10
16.20002239654932
 20
-65.74145594358038
 30
0.0
 11
17.67514399925668
 21
-65.85692119398829
 31
0.0
  0
LINE
  5
1AF63
330
1F
100
AcDbEntity
  8
AM_0
370
    30
100
AcDbLine
 10
17.67514399925668
 20
-65.85692119398829
 30
0.0
 11
16.89244344864258
 21
-66.3058091949606
 31
0.0
  0
LINE
  5
1AF64
330
1F
100
AcDbEntity
  8
AM_0
370
    30
100
AcDbLine
 10
16.89244344864258
 20
-66.30580919496055
 30
0.0
 11
14.63462129532107
 21
-66.63923194552496
 31
0.0
  0
LINE
  5
1AF66
330
1F
100
AcDbEntity
  8
AM_0
370
    30
100
AcDbLine
 10
14.02531437874873
 20
-75.44712882478387
 30
0.0
 11
14.01426936581905
 21
-75.35636338133509
 31
0.0
  0
ARC
  5
1AF67
330
1F
100
AcDbEntity
  8
AM_0
370
    30
100
AcDbCircle
 10
16.40632322069652
 20
-74.31773582025397
 30
0.0
 40
8.62200842398196
100
AcDbArc
 50
74.81026434255747
 51
119.06586379873
  0
LINE
  5
1AF68
330
1F
100
AcDbEntity
  8
AM_0
370
    30
100
AcDbLine
 10
11.39678795680041
 20
-68.33368059322243
 30
0.0
 11
11.45086250253129
 21
-68.77805310358573
 31
0.0
  0
LINE
  5
1AF69
330
1F
100
AcDbEntity
  8
AM_0
370
    30
100
AcDbLine
 10
19.83454509814519
 20
-67.30691166903148
 30
0.0
 11
19.87812489850907
 21
-67.66504071157976
 31
0.0
  0
LINE
  5
1AF6A
330
1F
100
AcDbEntity
  8
AM_0
370
    30
100
AcDbLine
 10
12.21762469714682
 20
-66.78156743426177
 30
0.0
 11
11.64433101344397
 21
-67.49349959996033
 31
0.0
  0
LINE
  5
1AF6B
330
1F
100
AcDbEntity
  8
AM_0
370
    30
100
AcDbLine
 10
18.66542992372118
 20
-65.99695063088842
 30
0.0
 11
19.39273100408846
 21
-66.55061677110859
 31
0.0
  0
ARC
  5
1AF6C
330
1F
100
AcDbEntity
  8
AM_0
370
    30
100
AcDbCircle
 10
12.5111146161033
 20
-68.20543798039682
 30
0.0
 40
1.1216818048705
100
AcDbArc
 50
140.6018037520223
 51
186.5650196358728
  0
ARC
  5
1AF6D
330
1F
100
AcDbEntity
  8
AM_0
370
    30
100
AcDbCircle
 10
18.72198280340231
 20
-67.44965343479544
 30
0.0
 40
1.121681804870262
100
AcDbArc
 50
7.311108505408053
 51
53.27432438927282
  0
ELLIPSE
  5
1AF6F
330
1F
100
AcDbEntity
  8
AM_0
370
    30
100
AcDbEllipse
 10
15.45222951254934
 20
-66.47720733350201
 30
0.0
 11
3.268780385026964
 21
0.3977694620890321
 31
0.0
210
0.0
220
0.0
230
1.0
 40
0.1629294950268345
 41
2.975696658830171
 42
6.449081301939215
  0
ELLIPSE
  5
1AF70
330
1F
100
AcDbEntity
  8
AM_0
370
    30
100
AcDbEllipse
 10
15.53139196530211
 20
-67.12774664697719
 30
0.0
 11
3.928130117884819
 21
0.4780040320737739
 31
0.0
210
0.0
220
0.0
230
0.9999999999999998
 40
0.1629294950268345
 41
2.975696658832667
 42
6.449081301941709
  0
ELLIPSE
  5
1AF71
330
1F
100
AcDbEntity
  8
AM_0
370
    30
100
AcDbEllipse
 10
15.61566652747277
 20
-67.82029613112695
 30
0.0
 11
4.218878570672418
 21
0.5133844620954765
 31
0.0
210
0.0
220
0.0
230
1.0
 40
0.1629294950268345
 41
3.141592653589794
 42
6.283185307179589
  0
LINE
  5
1AF72
330
1F
100
AcDbEntity
  8
AM_0
  6
Continuous
370
    30
100
AcDbLine
 10
-66.0564130468035
 20
0.542531327076432
 30
0.0
 11
-67.11487049858997
 21
0.0018324075213911
 31
0.0
  0
LINE
  5
1AF73
330
1F
100
AcDbEntity
  8
AM_0
  6
Continuous
370
    30
100
AcDbLine
 10
-67.07471513008423
 20
0.8731184923294961
 30
0.0
 11
-65.67732380796977
 21
8.767961474706596
 31
0.0
  0
LINE
  5
1AF75
330
1F
100
AcDbEntity
  8
AM_0
  6
Continuous
370
    30
100
AcDbLine
 10
-68.79185674442479
 20
9.286077268891887
 30
0.0
 11
-70.18924806653931
 21
1.391234286514788
 31
0.0
  0
LINE
  5
1AF77
330
1F
100
AcDbEntity
  8
AM_0
  6
Continuous
370
    30
100
AcDbLine
 10
-64.58767729976293
 20
9.923612306727165
 30
0.0
 11
-64.41400628201913
 21
10.0123298375959
 31
0.0
  0
LINE
  5
1AF78
330
1F
100
AcDbEntity
  8
AM_0
  6
Continuous
370
    30
100
AcDbLine
 10
-64.41400628201913
 20
10.0123298375959
 30
0.0
 11
-64.5600949070533
 21
10.03663230140839
 31
0.0
  0
LINE
  5
1AF79
330
1F
100
AcDbEntity
  8
AM_0
  6
Continuous
370
    30
100
AcDbLine
 10
-64.45416165052487
 20
9.141043752787738
 30
0.0
 11
-64.45426304983639
 21
9.140470877008312
 31
0.0
  0
LINE
  5
1AF7A
330
1F
100
AcDbEntity
  8
AM_0
  6
Continuous
370
    30
100
AcDbLine
 10
-65.38727011128694
 20
3.869260060803384
 30
0.0
 11
-65.85155297263944
 21
1.246200770410582
 31
0.0
  0
LINE
  5
1AF7B
330
1F
100
AcDbEntity
  8
AM_0
  6
Continuous
370
    30
100
AcDbLine
 10
-67.12364208005428
 20
0.000155088825835
 30
0.0
 11
-70.23817501650936
 21
0.5182708830111835
 31
0.0
  0
LINE
  5
1AF7C
330
1F
100
AcDbEntity
  8
AM_0
  6
Continuous
370
    30
100
AcDbLine
 10
-64.40523470055481
 20
10.01400715629146
 30
0.0
 11
-64.55934108971238
 21
10.0396434092502
 31
0.0
  0
ELLIPSE
  5
1AF7D
330
1F
100
AcDbEntity
  8
AM_0
  6
Continuous
370
    30
100
AcDbEllipse
 10
-66.99236277725507
 20
0.7893101715925752
 30
0.0
 11
0.1312793027992345
 21
0.7891550827667191
 31
0.0
210
0.0
220
0.0
230
1.0
 40
0.1191822287848431
 41
1.484240472161873
 42
3.229569724156095
  0
ELLIPSE
  5
1AF7E
330
1F
100
AcDbEntity
  8
AM_0
  6
Continuous
370
    30
100
AcDbEllipse
 10
-70.10689571371015
 20
1.307425965777867
 30
0.0
 11
0.1312793027992248
 21
0.7891550827667209
 31
0.0
210
0.0
220
0.0
230
0.9999999999999999
 40
0.1191822287848431
 41
1.484240472159407
 42
3.141592653587325
  0
ELLIPSE
  5
1AF7F
330
1F
100
AcDbEntity
  8
AM_0
  6
Continuous
370
    30
100
AcDbEllipse
 10
-65.59497145514061
 20
8.684153153969675
 30
0.0
 11
0.1312793027992345
 21
0.7891550827667191
 31
0.0
210
0.0
220
0.0
230
1.0
 40
0.1191822287848431
 41
0.334084372831264
 42
1.484240472161873
  0
ELLIPSE
  5
1AF80
330
1F
100
AcDbEntity
  8
AM_0
  6
Continuous
370
    30
100
AcDbEllipse
 10
-68.70950439159563
 20
9.202268948154966
 30
0.0
 11
0.1312793027992248
 21
0.7891550827667209
 31
0.0
210
0.0
220
0.0
230
0.9999999999999999
 40
0.1191822287848431
 41
0.3340843728287978
 42
1.484240472159407
  0
ELLIPSE
  5
1AF81
330
1F
100
AcDbEntity
  8
AM_0
  6
Continuous
370
    30
100
AcDbEllipse
 10
-64.53651400335403
 20
9.224852073524716
 30
0.0
 11
0.1312793027992345
 21
0.7891550827667191
 31
0.0
210
0.0
220
0.0
230
1.0
 40
0.1191822287848431
 41
4.625833125751639
 42
6.371162377745889
  0
ELLIPSE
  5
1AF82
330
1F
100
AcDbEntity
  8
AM_0
  6
Continuous
370
    30
100
AcDbEllipse
 10
-65.93390532546854
 20
1.330009091147559
 30
0.0
 11
0.1312793027992345
 21
0.7891550827667191
 31
0.0
210
0.0
220
0.0
230
1.0
 40
0.1191822287848431
 41
3.229569724156097
 42
4.625833125751602
  0
ELLIPSE
  5
1AF83
330
1F
100
AcDbEntity
  8
AM_0
  6
Continuous
370
    30
100
AcDbEllipse
 10
-65.76443839030461
 20
5.007081122558503
 30
0.0
 11
0.3126088397906772
 21
1.87917554083825
 31
0.0
210
0.0
220
0.0
230
1.0
 40
0.1191822287848431
 41
5.928855566088612
 42
10.28716021238375
  0
LINE
  5
1AF89
330
1F
100
AcDbEntity
  8
AM_0
  6
Continuous
370
    30
100
AcDbLine
 10
-68.64857838697483
 20
9.958288510826179
 30
0.0
 11
-65.45569242067191
 21
9.427138357038729
 31
0.0
  0
LINE
  5
1AF8A
330
1F
100
AcDbEntity
  8
AM_0
  6
Continuous
370
    30
100
AcDbLine
 10
-70.27628785746887
 20
0.7622168828490601
 30
0.0
 11
-70.26054595707726
 21
0.8511539113458468
 31
0.0
  0
LINE
  5
1AF8B
330
1F
100
AcDbEntity
  8
AM_0
  6
Continuous
370
    30
100
AcDbLine
 10
-68.67938267747226
 20
9.784253483692424
 30
0.0
 11
-68.64857838697483
 21
9.958288510826179
 31
0.0
  0
LINE
  5
1AF8C
330
1F
100
AcDbEntity
  8
AM_0
  6
Continuous
370
    30
100
AcDbLine
 10
-78.72043769432443
 20
21.89897948556634
 30
0.0
 11
-78.72043769432443
 21
21.22048575403349
 31
0.0
  0
LINE
  5
1AF8D
330
1F
100
AcDbEntity
  8
AM_0
  6
Continuous
370
    30
100
AcDbLine
 10
-78.72043769432443
 20
5.999999999997982
 30
0.0
 11
-78.72043769432443
 21
20.96725970445985
 31
0.0
  0
LINE
  5
1AF8E
330
1F
100
AcDbEntity
  8
AM_0
  6
Continuous
370
    30
100
AcDbLine
 10
-63.6064154651809
 20
19.87500000000208
 30
0.0
 11
-78.72043769432443
 21
20.8422597044619
 31
0.0
  0
LINE
  5
1AF8F
330
1F
100
AcDbEntity
  8
AM_0
  6
Continuous
370
    30
100
AcDbLine
 10
-78.72043769432443
 20
20.96725970445985
 30
0.0
 11
-78.72043769432443
 21
21.22048575403349
 31
0.0
  0
ARC
  5
1AF90
330
1F
100
AcDbEntity
  8
AM_0
  6
Continuous
370
    30
100
AcDbCircle
 10
-67.22171958614158
 20
16.99877418076599
 30
0.0
 40
12.25175370663657
100
AcDbArc
 50
34.31293803637468
 51
52.32141264713202
  0
ARC
  5
1AF91
330
1F
100
AcDbEntity
  8
AM_0
  6
Continuous
370
    30
100
AcDbCircle
 10
-67.22043769432443
 20
16.99999999999997
 30
0.0
 40
12.25
100
AcDbArc
 50
58.40625125944402
 51
159.846925742894
  0
LINE
  5
1AF92
330
1F
100
AcDbEntity
  8
AM_0
  6
Continuous
370
    30
100
AcDbLine
 10
-65.45569242067191
 20
9.427138357038729
 30
0.0
 11
-64.60186534501608
 21
9.863304569024336
 31
0.0
  0
LINE
  5
1AF93
330
1F
100
AcDbEntity
  8
AM_0
  6
Continuous
370
    30
100
AcDbLine
 10
-63.6064154651809
 20
19.87500000000208
 30
0.0
 11
-65.45569242067191
 21
9.427138357038729
 31
0.0
  0
LINE
  5
1AF94
330
1F
100
AcDbEntity
  8
AM_0
  6
Continuous
370
    30
100
AcDbLine
 10
-60.76450047826198
 20
27.41077640324548
 30
0.0
 11
-63.6064154651809
 21
19.87500000000213
 31
0.0
  0
ARC
  5
1AF95
330
1F
100
AcDbEntity
  8
AM_0
  6
Continuous
370
    30
100
AcDbCircle
 10
-67.22043769432443
 20
16.99999999999997
 30
0.0
 40
12.25
100
AcDbArc
 50
52.32265349674108
 51
58.40625125944402
  0
LINE
  5
1AF96
330
1F
100
AcDbEntity
  8
AM_0
  6
Continuous
370
    30
100
AcDbLine
 10
-59.71464145577454
 20
26.6811936528116
 30
0.0
 11
-60.09364629732485
 21
24.40289394581205
 31
0.0
  0
LINE
  5
1AF99
330
1F
100
AcDbEntity
  8
AM_0
  6
Continuous
370
    30
100
AcDbLine
 10
-64.82108569338422
 20
1.966293470234888
 30
0.0
 11
-64.28184089834761
 21
4.288492016134256
 31
0.0
  0
LINE
  5
1AF9A
330
1F
100
AcDbEntity
  8
AM_0
  6
Continuous
370
    30
100
AcDbLine
 10
-65.30080215403902
 20
3.902072613674847
 30
0.0
 11
-65.77108314031065
 21
1.24512571164783
 31
0.0
  0
ELLIPSE
  5
1AF9B
330
1F
100
AcDbEntity
  8
AM_0
  6
Continuous
370
    30
100
AcDbEllipse
 10
-67.07893422391985
 20
16.73099478551021
 30
0.0
 11
10.89281004750318
 21
-11.08539206017653
 31
0.0
210
0.0
220
0.0
230
1.0
 40
0.9999156193921713
 41
5.585478300691309
 42
5.590762411715787
  0
ELLIPSE
  5
1AF9C
330
1F
100
AcDbEntity
  8
AM_0
  6
Continuous
370
    30
100
AcDbEllipse
 10
-95.75929217522568
 20
21.62255976456228
 30
0.0
 11
-39.15640578768179
 21
6.513834560766926
 31
0.0
210
0.0
220
0.0
230
1.0
 40
0.6846813443849479
 41
2.548963393919129
 42
2.586959032686274
  0
ARC
  5
1AF9D
330
1F
100
AcDbEntity
  8
AM_0
  6
Continuous
370
    30
100
AcDbCircle
 10
-67.22043769432443
 20
16.99999999999997
 30
0.0
 40
16.39999999999998
100
AcDbArc
 50
239.0424998592528
 51
259.2611801191459
  0
ARC
  5
1AF9E
330
1F
100
AcDbEntity
  8
AM_0
  6
Continuous
370
    30
100
AcDbCircle
 10
-67.22043769432443
 20
16.87500000000202
 30
0.0
 40
16.39999999999998
100
AcDbArc
 50
259.2611801191459
 51
259.2969172510895
  0
LINE
  5
1AF9F
330
1F
100
AcDbEntity
  8
AM_0
  6
Continuous
370
    30
100
AcDbLine
 10
-78.72043769432443
 20
5.999999999997982
 30
0.0
 11
-75.65663244165134
 21
2.936194747324834
 31
0.0
  0
ARC
  5
1AFA0
330
1F
100
AcDbEntity
  8
AM_0
  6
Continuous
370
    30
100
AcDbCircle
 10
-67.22043769432443
 20
16.99999999999997
 30
0.0
 40
12.5
100
AcDbArc
 50
33.22418969430887
 51
156.926081934369
  0
ELLIPSE
  5
1AFA1
330
1F
100
AcDbEntity
  8
AM_0
  6
Continuous
370
    30
100
AcDbEllipse
 10
-60.781647319293
 20
24.49350306439786
 30
0.0
 11
0.2920964487281051
 21
1.755870059154399
 31
0.0
210
0.0
220
0.0
230
1.0
 40
0.1191822287849481
 41
1.557582706318822
 42
2.22293256869116
  0
ELLIPSE
  5
1AFA2
330
1F
100
AcDbEntity
  8
AM_0
  6
Continuous
370
    30
100
AcDbEllipse
 10
-62.77099992353678
 20
14.22974480622551
 30
0.0
 11
0.6974212961209324
 21
4.192386377198194
 31
0.0
210
0.0
220
0.0
230
1.0
 40
0.1191822287848431
 41
5.850659879885021
 42
8.817799867850297
  0
ELLIPSE
  5
1AFA3
330
1F
100
AcDbEntity
  8
AM_0
  6
Continuous
370
    30
100
AcDbEllipse
 10
-64.54887675372035
 20
8.900220040117432
 30
0.0
 11
0.3281982569980836
 21
1.972887706916798
 31
0.0
210
0.0
220
0.0
230
1.0
 40
0.1191822287848431
 41
4.897613281742311
 42
7.363935360669752
  0
LINE
  5
1AFA4
330
1F
100
AcDbEntity
  8
AM_0
  6
Continuous
370
    30
100
AcDbLine
 10
-61.12524080343169
 20
23.45555948140898
 30
0.0
 11
-60.41510943485045
 21
22.7955743164479
 31
0.0
  0
ARC
  5
1AFA8
330
1F
100
AcDbEntity
  8
AM_0
  6
Continuous
370
    30
100
AcDbCircle
 10
-44.97971018354147
 20
9.697865041123777
 30
0.0
 40
12.06657107923832
100
AcDbArc
 50
167.1835230263018
 51
185.3648911005352
  0
SPLINE
  5
1AFAC
330
1F
100
AcDbEntity
  8
AM_0
  6
Continuous
370
    30
100
AcDbSpline
210
0.0
220
0.0
230
1.0
 70
     8
 71
     3
 72
    16
 73
    12
 74
     0
 42
0.0000000001
 43
0.0000000001
 40
2.042164159198504
 40
2.042164159198504
 40
2.042164159198504
 40
2.042164159198504
 40
2.447747847492927
 40
2.447747847492927
 40
3.147576439361617
 40
3.147576439361617
 40
3.847405031230308
 40
3.847405031230308
 40
4.547233623098999
 40
4.547233623098999
 40
4.626414153876514
 40
4.626414153876514
 40
4.626414153876514
 40
4.626414153876514
 10
-56.52223555941836
 20
8.897140293939657
 30
0.0
 10
-56.55212115144624
 20
8.831230709361051
 30
0.0
 10
-56.58278223110946
 20
8.771191525352975
 30
0.0
 10
-56.66215972135692
 20
8.624750516978764
 30
0.0
 10
-56.7076126485201
 20
8.550796623472621
 30
0.0
 10
-56.78045246342671
 20
8.440177145992919
 30
0.0
 10
-56.81029727351088
 20
8.39977879463973
 30
0.0
 10
-56.85986817857108
 20
8.357282372817707
 30
0.0
 10
-56.87982186297134
 20
8.355206397780563
 30
0.0
 10
-56.90669706146886
 20
8.376084472775773
 30
0.0
 10
-56.90948782261293
 20
8.378470153398808
 30
0.0
 10
-56.91235467892929
 20
8.381119484716038
 30
0.0
  0
LINE
  5
1AFAF
330
1F
100
AcDbEntity
  8
AM_0
  6
Continuous
370
    30
100
AcDbLine
 10
-60.41510943485045
 20
22.7955743164479
 30
0.0
 11
-62.18459340787624
 21
17.18941970549705
 31
0.0
  0
LINE
  5
1AFB2
330
1F
100
AcDbEntity
  8
AM_0
  6
Continuous
370
    30
100
AcDbLine
 10
-55.90988300761066
 20
16.25477080554393
 30
0.0
 11
-55.71430531972655
 21
16.87440837980014
 31
0.0
  0
LINE
  5
1AFB3
330
1F
100
AcDbEntity
  8
AM_0
  6
Continuous
370
    30
100
AcDbLine
 10
-64.90298866159
 20
8.947612020697051
 30
0.0
 11
-65.58898061261752
 21
5.883682559737707
 31
0.0
  0
LINE
  5
1AFB4
330
1F
100
AcDbEntity
  8
AM_0
  6
Continuous
370
    30
100
AcDbLine
 10
-63.96040788293939
 20
9.352726073004163
 30
0.0
 11
-64.90298866159
 21
8.947612020697051
 31
0.0
  0
LINE
  5
1AFB5
330
1F
100
AcDbEntity
  8
AM_0
  6
Continuous
370
    30
100
AcDbLine
 10
-62.32728934611313
 20
16.6469224418187
 30
0.0
 11
-63.96040788293939
 21
9.352726073004163
 31
0.0
  0
ELLIPSE
  5
1AFB6
330
1F
100
AcDbEntity
  8
AM_0
  6
Continuous
370
    30
100
AcDbEllipse
 10
-64.30023134442317
 20
5.027634020187605
 30
0.0
 11
1.408329369480951
 21
1.151349765339277
 31
0.0
210
0.0
220
0.0
230
1.0
 40
0.5147380418370762
 41
2.427236189968318
 42
2.96110468487935
  0
ARC
  5
1AFB7
330
1F
100
AcDbEntity
  8
AM_0
  6
Continuous
370
    30
100
AcDbCircle
 10
-66.67972129345688
 20
3.647181230226266
 30
0.0
 40
0.9647596994679979
100
AcDbArc
 50
5.709672531692
 51
23.06284878897717
  0
ELLIPSE
  5
1AFB8
330
1F
100
AcDbEntity
  8
AM_0
  6
Continuous
370
    30
100
AcDbEllipse
 10
-61.49659668556032
 20
4.56123747614086
 30
0.0
 11
-4.080598210835053
 21
1.364800669768585
 31
0.0
210
0.0
220
0.0
230
1.0
 40
0.3150435181510521
 41
0.0323956665699198
 42
0.1081078282697572
  0
ELLIPSE
  5
1AFBB
330
1F
100
AcDbEntity
  8
AM_0
  6
Continuous
370
    30
100
AcDbEllipse
 10
-62.23459132793002
 20
16.42162855145827
 30
0.0
 11
-0.2257205123433786
 21
-1.121382417398568
 31
0.0
210
0.0
220
0.0
230
1.0
 40
0.1202106919021936
 41
3.98268777217445
 42
4.534357211893632
  0
ARC
  5
1AFC0
330
1F
100
AcDbEntity
  8
AM_0
  6
Continuous
370
    30
100
AcDbCircle
 10
-69.14371007328018
 20
5.66791512294887
 30
0.0
 40
3.545696636339144
100
AcDbArc
 50
343.0242723194978
 51
1.801182691895904
  0
ARC
  5
1AFC6
330
1F
100
AcDbEntity
  8
AM_0
  6
Continuous
370
    30
100
AcDbCircle
 10
-42.96600609060729
 20
11.65656044514682
 30
0.0
 40
13.72524830447133
100
AcDbArc
 50
161.6721754599095
 51
173.0878410400838
  0
LINE
  5
1AFC8
330
1F
100
AcDbEntity
  8
AM_0
  6
Continuous
370
    30
100
AcDbLine
 10
-54.1947633104065
 20
22.05250770372678
 30
0.0
 11
-54.53966903811713
 21
16.75597603943524
 31
0.0
  0
LINE
  5
1AFC9
330
1F
100
AcDbEntity
  8
AM_0
  6
Continuous
370
    30
100
AcDbLine
 10
-55.44544431746837
 20
23.62964578646907
 30
0.0
 11
-60.98703801824817
 21
24.55151345648952
 31
0.0
  0
LINE
  5
1AFCA
330
1F
100
AcDbEntity
  8
AM_0
  6
Continuous
370
    30
100
AcDbLine
 10
-56.46053507001889
 20
8.899277960672947
 30
0.0
 11
-57.16016239532516
 21
7.836776507928647
 31
0.0
  0
LINE
  5
1AFCB
330
1F
100
AcDbEntity
  8
AM_0
  6
Continuous
370
    30
100
AcDbLine
 10
-60.74165648278054
 20
5.632160997258922
 30
0.0
 11
-65.71950383199086
 21
3.74318519014318
 31
0.0
  0
ARC
  5
1AFCC
330
1F
100
AcDbEntity
  8
AM_0
  6
Continuous
370
    30
100
AcDbCircle
 10
-62.81783618981851
 20
13.01645997848473
 30
0.0
 40
7.670618855089089
100
AcDbArc
 50
285.7039324778999
 51
317.5254395060643
  0
LINE
  5
1AFCD
330
1F
100
AcDbEntity
  8
AM_0
  6
Continuous
370
    30
100
AcDbLine
 10
-65.3992554853514
 20
6.731075019728081
 30
0.0
 11
-65.56108241275038
 21
6.757995617044145
 31
0.0
  0
LINE
  5
1AFCE
330
1F
100
AcDbEntity
  8
AM_0
  6
Continuous
370
    30
100
AcDbLine
 10
-65.71974797054983
 20
3.743162983827546
 30
0.0
 11
-66.13790847731465
 21
3.812725761772043
 31
0.0
  0
ELLIPSE
  5
1AFD3
330
1F
100
AcDbEntity
  8
AM_0
  6
Continuous
370
    30
100
AcDbEllipse
 10
-56.13487364785269
 20
12.79971061236952
 30
0.0
 11
0.7384460782456944
 21
4.438997340562795
 31
0.0
210
0.0
220
0.0
230
1.0
 40
0.1191822287848431
 41
2.852757074845725
 42
3.063473192151529
  0
ELLIPSE
  5
1AFD4
330
1F
100
AcDbEntity
  8
AM_0
  6
Continuous
370
    30
100
AcDbEllipse
 10
-56.13487364785269
 20
12.79971061236952
 30
0.0
 11
0.7384460782456944
 21
4.438997340562795
 31
0.0
210
0.0
220
0.0
230
1.0
 40
0.1191822287848431
 41
1.475804078966888
 42
1.686520196272689
  0
ELLIPSE
  5
1AFD7
330
1F
100
AcDbEntity
  8
AM_0
  6
Continuous
370
    30
100
AcDbEllipse
 10
-55.93929595996846
 20
13.41934818662574
 30
0.0
 11
0.7384460782456944
 21
4.438997340562795
 31
0.0
210
0.0
220
0.0
230
1.0
 40
0.1191822287848431
 41
5.756564170967508
 42
6.982027615943897
  0
ELLIPSE
  5
1AFD8
330
1F
100
AcDbEntity
  8
AM_0
  6
Continuous
370
    30
100
AcDbEllipse
 10
-56.13487364785269
 20
12.79971061236952
 30
0.0
 11
0.7384460782456944
 21
4.438997340562795
 31
0.0
210
0.0
220
0.0
230
1.0
 40
0.1191822287848431
 41
0.6988423087643073
 42
0.7945451645588985
  0
ARC
  5
1AFDD
330
1F
100
AcDbEntity
  8
AM_0
  6
Continuous
370
    30
100
AcDbCircle
 10
-55.69159301021691
 20
22.14998000628142
 30
0.0
 40
1.5
100
AcDbArc
 50
356.2742070634162
 51
80.55509498067526
  0
LINE
  5
1AFDE
330
1F
100
AcDbEntity
  8
AM_0
  6
Continuous
370
    30
100
AcDbLine
 10
-54.82097092061449
 20
10.70670525050818
 30
0.0
 11
-54.70550567020658
 21
12.47984296837095
 31
0.0
  0
LINE
  5
1AFDF
330
1F
100
AcDbEntity
  8
AM_0
  6
Continuous
370
    30
100
AcDbLine
 10
-54.70550567020658
 20
12.47984296837095
 30
0.0
 11
-54.25661766923426
 21
14.60568697581473
 31
0.0
  0
LINE
  5
1AFE0
330
1F
100
AcDbEntity
  8
AM_0
  6
Continuous
370
    30
100
AcDbLine
 10
-54.25661766923426
 20
14.60568697581473
 30
0.0
 11
-53.94264956129516
 21
14.93781346151658
 31
0.0
  0
LINE
  5
1AFE1
330
1F
100
AcDbEntity
  8
AM_0
  6
Continuous
370
    30
100
AcDbLine
 10
-53.93505732583995
 20
14.77622866172808
 30
0.0
 11
-54.03866016907776
 21
13.18525554753305
 31
0.0
  0
LINE
  5
1AFE3
330
1F
100
AcDbEntity
  8
AM_0
  6
Continuous
370
    30
100
AcDbLine
 10
-54.03866016907776
 20
13.18525554753305
 30
0.0
 11
-54.45277781218222
 21
11.22407701733508
 31
0.0
  0
LINE
  5
1AFE5
330
1F
100
AcDbEntity
  8
AM_0
  6
Continuous
370
    30
100
AcDbLine
 10
-54.52476568263039
 20
11.02004154884713
 30
0.0
 11
-54.82097092061449
 21
10.70670525050818
 31
0.0
  0
LINE
  5
1AFE6
330
1F
100
AcDbEntity
  8
AM_0
  6
Continuous
370
    30
100
AcDbLine
 10
-63.5853160485992
 20
11.83085365265688
 30
0.0
 11
-63.41202703572239
 21
11.80202628869509
 31
0.0
  0
LINE
  5
1AFE7
330
1F
100
AcDbEntity
  8
AM_0
  6
Continuous
370
    30
100
AcDbLine
 10
-62.76482040610378
 20
16.76307291994888
 30
0.0
 11
-62.31782817156804
 21
16.68871386152298
 31
0.0
  0
ARC
  5
1AFE8
330
1F
100
AcDbEntity
  8
AM_0
  6
Continuous
370
    30
100
AcDbCircle
 10
-63.76606900587436
 20
14.39527877821641
 30
0.0
 40
9.838389780178487
100
AcDbArc
 50
331.1479778969668
 51
9.962212064379816
  0
LINE
  5
1AFE9
330
1F
100
AcDbEntity
  8
AM_0
  6
Continuous
370
    30
100
AcDbLine
 10
-55.3046138100955
 20
17.29608511048448
 30
0.0
 11
-55.55272284600042
 21
17.33735910334477
 31
0.0
  0
LINE
  5
1AFEA
330
1F
100
AcDbEntity
  8
AM_0
  6
Continuous
370
    30
100
AcDbLine
 10
-56.6994564023374
 20
8.911312356088075
 30
0.0
 11
-57.0240239539246
 21
8.965305548065317
 31
0.0
  0
LINE
  5
1AFEB
330
1F
100
AcDbEntity
  8
AM_0
  6
Continuous
370
    30
100
AcDbLine
 10
-54.07602183769083
 20
16.09730678770919
 30
0.0
 11
-54.60897873543533
 21
16.85443919510172
 31
0.0
  0
LINE
  5
1AFEC
330
1F
100
AcDbEntity
  8
AM_0
  6
Continuous
370
    30
100
AcDbLine
 10
-55.14892929966865
 20
9.647772406398275
 30
0.0
 11
-55.89830368807012
 21
9.103961259780903
 31
0.0
  0
ARC
  5
1AFED
330
1F
100
AcDbEntity
  8
AM_0
  6
Continuous
370
    30
100
AcDbCircle
 10
-56.52848218667893
 20
9.962463829102973
 30
0.0
 40
1.064965540119253
100
AcDbArc
 50
260.7615055252213
 51
306.2803003642427
  0
ARC
  5
1AFEE
330
1F
100
AcDbEntity
  8
AM_0
  6
Continuous
370
    30
100
AcDbCircle
 10
-55.48315716037959
 20
16.24619279519155
 30
0.0
 40
1.064965540119389
100
AcDbArc
 50
34.82988959710658
 51
80.34868443612255
  0
ELLIPSE
  5
1AFF0
330
1F
100
AcDbEntity
  8
AM_0
  6
Continuous
370
    30
100
AcDbEllipse
 10
-54.65894630859148
 20
12.88027020219002
 30
0.0
 11
0.5403609074476569
 21
3.248254275793379
 31
0.0
210
0.0
220
0.0
230
1.0
 40
0.1191822287848431
 41
6.162857338814563
 42
9.545105929129472
  0
ELLIPSE
  5
1AFF1
330
1F
100
AcDbEntity
  8
AM_0
  6
Continuous
370
    30
100
AcDbEllipse
 10
-55.30948562206672
 20
12.98849018249749
 30
0.0
 11
0.6493577741703666
 21
3.90346366178002
 31
0.0
210
0.0
220
0.0
230
1.0
 40
0.1191822287848431
 41
6.162857338817029
 42
9.545105929131937
  0
ELLIPSE
  5
1AFF2
330
1F
100
AcDbEntity
  8
AM_0
  6
Continuous
370
    30
100
AcDbEllipse
 10
-56.00203510621643
 20
13.10369873328628
 30
0.0
 11
0.697421296120882
 21
4.192386377198202
 31
0.0
210
0.0
220
0.0
230
0.9999999999999999
 40
0.1191822287848431
 41
-0.0000000000024638
 42
3.141592653587329
  0
LINE
  5
1B633
330
1F
100
AcDbEntity
  8
AM_0
370
    30
100
AcDbLine
 10
15.91518428869014
 20
-90.97765663208566
 30
0.0
 11
15.86176863137828
 21
-90.53869871923502
 31
0.0
  0
ELLIPSE
  5
1B640
330
1F
100
AcDbEntity
  8
AM_0
370
    30
100
AcDbEllipse
 10
18.39687756555625
 20
-90.6756657720295
 30
0.0
 11
2.481693276866128
 21
0.3019908600561626
 31
0.0
210
0.0
220
0.0
230
1.0
 40
0.1629294950268345
 41
3.141592653589776
 42
5.916536796012337
  0
LINE
  5
1B6B5
330
1F
100
AcDbEntity
  8
AM_0
  6
Continuous
370
    30
100
AcDbLine
 10
-79.26765256836657
 20
14.43967699997685
 30
0.0
 11
-78.72043769432443
 21
14.34864547941211
 31
0.0
  0
ELLIPSE
  5
1B6C3
330
1F
100
AcDbEntity
  8
AM_0
  6
Continuous
370
    30
100
AcDbEllipse
 10
-78.85740474711898
 20
16.90578663362285
 30
0.0
 11
0.4102478212475776
 21
2.466109633646002
 31
0.0
210
0.0
220
0.0
230
1.0
 40
0.119182228784843
 41
0.6742767789804397
 42
3.141592653587333
  0
LINE
  5
1BADF
330
1F
100
AcDbEntity
  8
AM_5
370
    13
100
AcDbLine
 10
-1.772944213670371
 20
0.0
 30
0.0
 11
0.8371150800583109
 21
0.0
 31
0.0
1001
GENIUS_GENOBJ-N-CEN_13
1002
{
1000
OWNER
1000
GEN
1002
}
1001
GENIUS_GENODEF_13
1002
{
1000
HIER
1070
     0
1002
}
1002
{
1000
MANEDIT
1070
     0
1002
}
1002
{
1000
NOSEL
1070
     0
1002
}
1002
{
1000
BEHIND
1070
     0
1002
}
1002
{
1000
OTHER
1070
     0
1002
}
1002
{
1000
REACTOR
1002
}
1001
GENIUS_GENCEN_19
1002
{
1040
2.794
1002
}
  0
DIMENSION
  5
1BB0F
330
1F
100
AcDbEntity
  8
AM_4
100
AcDbDimension
  2
*D9
 10
0.8371150800583109
 20
0.0
 30
0.0
 11
-11.2199982453999
 21
12.16436168596329
 31
0.0
 70
    34
 71
     5
 42
1.658062789394504
  3
AM_JIS$2
100
AcDb2LineAngularDimension
 13
0.0029735494660202
 23
0.8731184923274498
 33
0.0
 14
0.6936828107403414
 24
8.767961474704549
 34
0.0
 15
-1.772944213670371
 25
0.0
 35
0.0
 16
-5.95224882538959
 26
11.70572171921888
 36
0.0
1001
ACAD
1000
DSTYLE
1002
{
1070
   271
1070
     0
1002
}
  0
LINE
  5
1BBC3
330
1F
100
AcDbEntity
  8
AM_0
370
    30
100
AcDbLine
 10
48.24739258169049
 20
21.89897948556427
 30
0.0
 11
108.4999999999999
 21
21.8989794855643
 31
0.0
  0
DIMENSION
  5
1BBCF
330
1F
100
AcDbEntity
  8
AM_4
100
AcDbDimension
  2
*D10
 10
0.000675351576289
 20
-111.1342504514332
 30
0.0
 11
24.00033767578815
 21
-107.7342504514332
 31
0.0
 70
    32
 71
     5
 42
47.99932464842371
  3
AM_JIS$0
100
AcDbAlignedDimension
 13
48.0
 23
-90.53869871923496
 33
0.0
 14
0.000675351576291
 24
-78.89918466652948
 34
0.0
100
AcDbRotatedDimension
1001
ACAD
1000
DSTYLE
1002
{
1070
   271
1070
     0
1002
}
  0
DIMENSION
  5
1BC22
330
1F
100
AcDbEntity
  8
AM_0
370
    30
100
AcDbDimension
  2
*D11
 10
55.54995551316316
 20
4.499999999997923
 30
0.0
 11
55.54995551316316
 21
-9.428700576850897
 31
0.0
 70
   160
 71
     5
 42
4.499999999997936
  3
AM_JIS$0
100
AcDbAlignedDimension
 13
0.0
 23
0.0
 33
0.0
 14
48.25000000000003
 24
4.499999999997925
 34
0.0
 50
90.0
100
AcDbRotatedDimension
1001
ACAD
1000
DSTYLE
1002
{
1070
    76
1070
     1
1070
   271
1070
     1
1002
}
  0
TEXT
  5
1BC8E
330
1F
100
AcDbEntity
  8
AM_6
  6
Continuous
 62
     0
370
    30
100
AcDbText
 10
128.2047941879067
 20
-117.4943556148556
 30
0.0
 40
3.8
  1
S25T-DCLNR09
  7
ACISOTS
100
AcDbText
  0
ENDSEC
  0
SECTION
  2
OBJECTS
  0
DICTIONARY
  5
C
330
0
100
AcDbDictionary
281
     1
  3
ACAD_COLOR
350
ED4C
  3
ACAD_GROUP
350
D
  3
ACAD_LAYOUT
350
1A
  3
ACAD_MATERIAL
350
ED4B
  3
ACAD_MLINESTYLE
350
17
  3
ACAD_PLOTSETTINGS
350
19
  3
ACAD_PLOTSTYLENAME
350
E
  3
ACAD_TABLESTYLE
350
ED4D
  3
AcAmCatalogState
350
EDB4
  3
ACDBHEADERROUNDTRIPXREC
350
1BDAC
  3
AcDbVariableDictionary
350
30
  3
ACDMSYSVARMGR
350
ED67
  3
ACGREF_MASTER
350
ED5F
  3
ACGREFACAD_MASTER
350
ED87
  3
AcmDictionary
350
4D
  3
ACME_BOM_MANAGER_NAME
350
36
  3
ACME_COMMAND_HISTORY
350
2F
  3
ACME_SCOPE_NAME
350
2E
  3
ACMESTATEMGR
350
3B
  3
AcmeSysVarManager
350
32
  3
AcmSystemVariableManager
350
6A
  3
AD_APPL
350
ED92
  3
ADSYSVARMGR
350
ED91
  3
AmdtNamedDwgMgr
350
ED82
  3
AMG
350
3F
  3
AMGSNAPSETTINGS
350
73
  3
AMI_MASTER
350
ED8A
  3
AUTOCAD_ASSEMBLIES_PROJECT
350
ED9A
  3
Designer_Assemblies_SysVars
350
ED95
  3
DWGPROPS
350
1BDAF
  3
FILENAME
350
217A
  3
GREFAM_MODULE
350
ED8B
  3
ZWKSIZE
350
217C
  0
DICTIONARY
  5
EDC8
330
2
100
AcDbDictionary
280
     1
281
     1
  3
ACAD_LAYERSTATES
360
F5B5
  3
AMLAYER_GROUPCOLORS
360
EDC9
  0
DICTIONARY
  5
165
330
1F
100
AcDbDictionary
280
     1
281
     1
  3
ACAD_SORTENTS
360
F11C
  0
DICTIONARY
  5
ED4C
102
{ACAD_REACTORS
330
C
102
}
330
C
100
AcDbDictionary
281
     1
  0
DICTIONARY
  5
D
102
{ACAD_REACTORS
330
C
102
}
330
C
100
AcDbDictionary
281
     1
  0
DICTIONARY
  5
1A
102
{ACAD_REACTORS
330
C
102
}
330
C
100
AcDbDictionary
281
     1
  3
Model
350
22
  3
ﾚｲｱｳﾄ1
350
1E
  3
ﾚｲｱｳﾄ2
350
26
  0
DICTIONARY
  5
ED4B
102
{ACAD_REACTORS
330
C
102
}
330
C
100
AcDbDictionary
281
     1
  0
DICTIONARY
  5
17
102
{ACAD_REACTORS
330
C
102
}
330
C
100
AcDbDictionary
281
     1
  3
Standard
350
18
  0
DICTIONARY
  5
19
102
{ACAD_REACTORS
330
C
102
}
330
C
100
AcDbDictionary
281
     1
  0
ACDBDICTIONARYWDFLT
  5
E
102
{ACAD_REACTORS
330
C
102
}
330
C
100
AcDbDictionary
281
     1
  3
Normal
350
F
100
AcDbDictionaryWithDefault
340
F
  0
DICTIONARY
  5
ED4D
102
{ACAD_REACTORS
330
C
102
}
330
C
100
AcDbDictionary
281
     1
  3
Standard
350
ED4E
  0
ACAD_PROXY_OBJECT
  5
EDB4
102
{ACAD_REACTORS
330
C
102
}
330
C
100
AcDbProxyObject
 90
      499
 91
      571
 95
       25
 70
     0
 93
      184
310
3FFFFFFFE00A028140285221D2E31B0B2483ECB65400AA
  0
DICTIONARY
  5
1BDAC
102
{ACAD_REACTORS
330
C
102
}
330
C
100
AcDbDictionary
281
     1
  3
COLORDICT
350
1BDAD
  3
MATERIALDICT
350
1BDAE
  0
DICTIONARY
  5
30
102
{ACAD_REACTORS
330
C
102
}
330
C
100
AcDbDictionary
281
     1
  3
CTABLESTYLE
350
EE09
  3
HIDETEXT
350
1BDAB
  3
INDEXCTL
350
1BDAA
  0
ACAD_PROXY_OBJECT
  5
ED67
102
{ACAD_REACTORS
330
C
102
}
330
C
100
AcDbProxyObject
 90
      499
 91
      507
 95
       25
 70
     0
 93
      240
310
4C51A47A0000000000000000000000000000000000000000000000000000
330
ED68
330
ED69
330
ED6A
330
ED6B
330
ED6C
330
ED6D
330
ED6E
330
ED6F
330
ED70
330
ED71
330
ED72
330
ED73
330
ED74
330
ED75
330
ED76
330
ED77
330
ED78
330
ED79
330
ED7A
330
ED7B
330
ED7C
330
ED7D
330
ED7E
330
ED7F
330
ED80
330
ED81
 94
        0
  0
ACAD_PROXY_OBJECT
  5
ED5F
102
{ACAD_REACTORS
330
C
102
}
330
C
100
AcDbProxyObject
 90
      499
 91
      535
 95
       25
 70
     0
 93
       34
310
0400004280
  0
ACAD_PROXY_OBJECT
  5
ED87
102
{ACAD_REACTORS
330
C
102
}
330
C
100
AcDbProxyObject
 90
      499
 91
      541
 95
       25
 70
     0
 93
      114
310
04000041C080000000000000000000
  0
DICTIONARY
  5
4D
102
{ACAD_REACTORS
330
C
102
}
330
C
100
AcDbDictionary
281
     1
  3
AcmBOMDATA
350
4E
  3
AcmStdDictionary
350
17E
  3
AMDTSECTSYM_ARROWCOLOR
350
EDA8
  0
ACAD_PROXY_OBJECT
  5
36
102
{ACAD_REACTORS
330
C
102
}
330
C
100
AcDbProxyObject
 90
      499
 91
      510
 95
       25
 70
     0
 93
       50
310
00010040400000
330
0
330
0
330
37
 94
        0
  0
ACAD_PROXY_OBJECT
  5
2F
102
{ACAD_REACTORS
330
C
102
}
330
C
100
AcDbProxyObject
 90
      499
 91
      505
 95
       25
 70
     0
 93
     2260
310
47805045A4F4F4D80505455241534580505455241534580505455241534580505455241534580505455241534580504554E444F80505455241534580505455241534580505455241534580505455241534580505455241534580505455241534580505455241534580504554E444F805045452494D80505455241534580505
310
45524153458050545524153458050C475249505F53545245544348805054552415345805054552415345805054552415345805054552415345805045452494D8050545524153458050C475249505F53545245544348805045A4F4F4D805055055524745805055153415645404052D4D5347202D205050413A2020206465736
310
B746F702E6172782046696C6556657273696F6E3A20392E322E302E340
  0
ACAD_PROXY_OBJECT
  5
2E
102
{ACAD_REACTORS
330
C
102
}
330
C
100
AcDbProxyObject
 90
      499
 91
      504
 95
       25
 70
     0
 93
      594
310
09000046408000000000000000001354E60000000000000000000000000000000000000000000000000000000000000000000000000000000000000000000000000000000000AAA406AA80
360
33
360
34
360
35
360
37
360
6B
360
6C
360
ED60
360
ED61
360
ED62
360
ED63
360
ED64
360
ED65
360
ED68
360
ED69
360
ED6A
360
ED6B
360
ED6C
360
ED6D
360
ED6E
360
ED6F
360
ED70
360
ED71
360
ED72
360
ED73
360
ED74
360
ED75
360
ED76
360
ED77
360
ED78
360
ED79
360
ED7A
360
ED7B
360
ED7C
360
ED7D
360
ED7E
360
ED7F
360
ED80
360
ED81
360
ED8D
360
ED8E
360
ED8F
360
ED90
360
ED96
360
ED97
360
ED98
360
ED99
360
ED9E
360
ED9F
360
EDA0
360
EDA1
360
EDA2
360
EDA3
360
EDCB
 94
        0
  0
ACAD_PROXY_OBJECT
  5
3B
102
{ACAD_REACTORS
330
C
102
}
330
C
100
AcDbProxyObject
 90
      499
 91
      515
 95
       25
 70
     0
 93
       50
310
09000042641280
  0
ACAD_PROXY_OBJECT
  5
32
102
{ACAD_REACTORS
330
C
102
}
330
C
100
AcDbProxyObject
 90
      499
 91
      507
 95
       25
 70
     0
 93
       48
310
903412000000
330
33
330
34
330
35
 94
        0
  0
ACAD_PROXY_OBJECT
  5
6A
102
{ACAD_REACTORS
330
C
102
}
330
C
100
AcDbProxyObject
 90
      499
 91
      507
 95
       25
 70
     0
 93
       48
310
903412000000
330
6B
330
6C
330
EDCB
 94
        0
  0
ACAD_PROXY_OBJECT
  5
ED92
102
{ACAD_REACTORS
330
C
102
}
330
C
100
AcDbProxyObject
 90
      499
 91
      551
 95
       25
 70
     0
 93
       42
310
000900004040
330
ED8D
 94
        0
  0
ACAD_PROXY_OBJECT
  5
ED91
102
{ACAD_REACTORS
330
C
102
}
330
C
100
AcDbProxyObject
 90
      499
 91
      507
 95
       25
 70
     0
 93
        8
310
AA
  0
ACAD_PROXY_OBJECT
  5
ED82
102
{ACAD_REACTORS
330
C
102
}
330
C
100
AcDbProxyObject
 90
      499
 91
      540
 95
       25
 70
     0
 93
       42
310
000100005E80
330
ED60
 94
        0
  0
DICTIONARY
  5
3F
102
{ACAD_REACTORS
330
C
102
}
330
C
100
AcDbDictionary
281
     1
  3
AcMgSettings
350
40
  3
AMGLAYCFG
350
42
  0
DICTIONARY
  5
73
102
{ACAD_REACTORS
330
C
102
}
330
C
100
AcDbDictionary
281
     1
  3
DIMENSION
350
62F
  3
FEA
350
630
  3
HATCH (1)
350
631
  3
HATCH (2)
350
632
  3
SYMBOLS
350
633
  0
ACAD_PROXY_OBJECT
  5
ED8A
102
{ACAD_REACTORS
330
C
102
}
330
C
100
AcDbProxyObject
 90
      499
 91
      544
 95
       25
 70
     0
 93
       34
310
0500004280
  0
ACAD_PROXY_OBJECT
  5
ED9A
102
{ACAD_REACTORS
330
C
102
}
330
C
100
AcDbProxyObject
 90
      499
 91
      554
 95
       25
 70
     0
 93
       98
310
0900004E400000000000000000
330
EDA1
330
0
330
EDA2
330
0
330
0
330
0
330
0
330
0
 94
        0
  0
ACAD_PROXY_OBJECT
  5
ED95
102
{ACAD_REACTORS
330
C
102
}
330
C
100
AcDbProxyObject
 90
      499
 91
      507
 95
       25
 70
     0
 93
       56
310
90441600000000
330
ED96
330
ED97
330
ED98
330
ED99
 94
        0
  0
XRECORD
  5
1BDAF
102
{ACAD_REACTORS
330
C
102
}
330
C
100
AcDbXrecord
280
     1
  1
DWGPROPS COOKIE
  2

  3

  4

  6

  7

  8

  9

300
AmdtFileType=84
301
=
302
=
303
=
304
=
305
=
306
=
307
=
308
=
309
=
 40
0.0
 41
2451943.235431667
 42
2455468.19121853
  1

 90
        1
  0
DICTIONARY
  5
217A
102
{ACAD_REACTORS
330
C
102
}
330
C
100
AcDbDictionary
281
     1
  3
FILENAME
350
217B
  0
ACAD_PROXY_OBJECT
  5
ED8B
102
{ACAD_REACTORS
330
C
102
}
330
C
100
AcDbProxyObject
 90
      499
 91
      545
 95
       25
 70
     0
 93
        8
310
05
  0
DICTIONARY
  5
217C
102
{ACAD_REACTORS
330
C
102
}
330
C
100
AcDbDictionary
281
     1
  3
ZWKSIZE
350
217D
  0
DICTIONARY
  5
F5B5
102
{ACAD_REACTORS
330
EDC8
102
}
330
EDC8
100
AcDbDictionary
281
     1
  0
DICTIONARY
  5
EDC9
102
{ACAD_REACTORS
330
EDC8
102
}
330
EDC8
100
AcDbDictionary
280
     1
281
     1
  3
基本画層グループ
360
EDCA
  0
SORTENTSTABLE
  5
F11C
102
{ACAD_REACTORS
330
165
102
}
330
165
100
AcDbSortentsTable
330
1F
331
0
  5
1ADE5
331
17604
  5
17B10
331
1814D
  5
1814E
331
1814E
  5
1814F
331
1814F
  5
18150
331
18151
  5
18152
331
18D34
  5
18DDD
331
18D41
  5
18DDF
331
18E5D
  5
19069
331
19093
  5
1912D
331
19102
  5
1935C
331
191D9
  5
193D2
331
19AB9
  5
19AD1
331
19ACF
  5
19AD3
331
19AD0
  5
19C41
331
19AD1
  5
1A018
331
1A017
  5
1A019
331
1A019
  5
1A01D
331
1A01A
  5
1A01E
331
1A01B
  5
1A01F
331
1A01C
  5
1A042
331
1A03D
  5
1A043
331
1A03E
  5
1A044
331
1A03F
  5
1A046
331
1A040
  5
1A047
331
1A041
  5
1A04C
331
1A042
  5
1A04E
331
1A047
  5
1A04F
331
1A048
  5
1A050
331
1A049
  5
1A051
331
1A04A
  5
1A052
331
1A04B
  5
1A059
331
1A04C
  5
1A0D9
331
1A04D
  5
1A0DA
331
1A054
  5
1A0DB
331
1A0D4
  5
1A0DC
331
1A0D6
  5
1A0F3
331
1A0EB
  5
1A0F4
331
1A0EC
  5
1A100
331
1A0ED
  5
1A102
331
1A0F9
  5
1A103
331
1A0FA
  5
1A1F0
331
1A0FB
  5
1A1F1
331
1A0FC
  5
1A1F4
331
1A382
  5
1A01C
331
1A383
  5
1A04D
331
1A384
  5
1A045
331
1A385
  5
1A040
331
1A386
  5
1A0F2
331
1A4BE
  5
1A75F
331
1A540
  5
18DB1
331
1A5B9
  5
1A765
331
1A5C6
  5
1A766
331
1A5D3
  5
1A767
331
1A5E2
  5
1A768
331
1A5FA
  5
1A769
331
1ADBA
  5
1ADBD
331
1ADBB
  5
1ADBE
331
1ADBC
  5
1ADBF
331
1ADBD
  5
1ADC0
331
1ADBE
  5
1ADC1
331
1ADBF
  5
1ADC9
331
1ADC0
  5
1ADCA
331
1ADC1
  5
1ADCB
331
1ADC9
  5
1ADCC
331
1ADCA
  5
1ADCE
331
1ADCB
  5
1ADCF
331
1ADCF
  5
1ADD3
331
1ADD0
  5
1ADD5
331
1ADD9
  5
1ADDC
331
1ADDA
  5
1ADDD
331
1ADDB
  5
1ADDE
331
1ADDC
  5
1ADDF
331
1ADDD
  5
1ADE1
331
1ADDE
  5
1ADE2
331
1ADDF
  5
1ADE4
331
1ADE2
  5
1ADE6
331
1ADE4
  5
1ADE7
331
1ADE5
  5
1ADE8
331
1ADE6
  5
1ADEF
331
1ADE7
  5
1ADF0
331
1ADE8
  5
1ADF1
331
1ADEF
  5
1ADF2
331
1ADF0
  5
1ADFA
331
1ADF1
  5
1ADFB
331
1ADF2
  5
1ADFC
331
1ADFA
  5
1ADFD
331
1AE01
  5
1AE05
331
1AE03
  5
1AE06
331
1AE04
  5
1AE07
331
1AE05
  5
1AE0A
331
1AE06
  5
1AE0D
331
1AE07
  5
1AE15
331
1AE0A
  5
1AE1A
331
1AE0D
  5
1AE1B
331
1AE15
  5
1AE1C
331
1AE1A
  5
1AE21
331
1AE1B
  5
1AE22
331
1AE1C
  5
1AE23
331
1AE21
  5
1AE24
331
1AE22
  5
1AE25
331
1AE23
  5
1AE26
331
1AE24
  5
1AE27
331
1AE25
  5
1AE28
331
1AE26
  5
1AE29
331
1AE27
  5
1AE2C
331
1AE28
  5
1AE31
331
1AE29
  5
1AE37
331
1AE2C
  5
1AE3B
331
1AE31
  5
1AE3C
331
1AE37
  5
1AE3D
331
1AE3B
  5
1AE3E
331
1AE3C
  5
1AE3F
331
1AE3D
  5
1AE40
331
1AE3E
  5
1AE41
331
1AE3F
  5
1AE42
331
1AE40
  5
1AE43
331
1AE41
  5
1AE4A
331
1AE42
  5
1AE4B
331
1AE43
  5
1AE4C
331
1AE4A
  5
1AE4D
331
1AE4B
  5
1AE52
331
1AE4C
  5
1AE53
331
1AE4D
  5
1AE54
331
1AE52
  5
1AE59
331
1AE53
  5
1AE5A
331
1AE54
  5
1AE5B
331
1AE5B
  5
1AE5E
331
1AE5C
  5
1AE5F
331
1AE5D
  5
1AE60
331
1AE5E
  5
1AE61
331
1AE5F
  5
1AE62
331
1AE60
  5
1AE63
331
1AE61
  5
1AE64
331
1AE62
  5
1AE65
331
1AE63
  5
1AE66
331
1AE64
  5
1AE67
331
1AE65
  5
1AE68
331
1AE66
  5
1AE69
331
1AE67
  5
1AE6A
331
1AE68
  5
1AE6B
331
1AE69
  5
1AE6C
331
1AE6A
  5
1AE6D
331
1AE6B
  5
1AE6E
331
1AE6C
  5
1AE6F
331
1AE6D
  5
1AE70
331
1AE6E
  5
1AE71
331
1AE6F
  5
1AE72
331
1AE70
  5
1AE73
331
1AE72
  5
1AE75
331
1AE73
  5
1AE76
331
1AE74
  5
1AE77
331
1AE75
  5
1AE78
331
1AE77
  5
1AE7A
331
1AE78
  5
1AE7B
331
1AE79
  5
1AE7C
331
1AE7A
  5
1AE7D
331
1AE7B
  5
1AE7E
331
1AE7C
  5
1AE7F
331
1AE7D
  5
1AE83
331
1AE7E
  5
1AE84
331
1AE7F
  5
1AE85
331
1AE85
  5
1AE88
331
1AE86
  5
1AE89
331
1AE8C
  5
1AE8F
331
1AE8E
  5
1AE91
331
1AE8F
  5
1AE95
331
1AE90
  5
1AE96
331
1AE95
  5
1AE98
331
1AE96
  5
1AE99
331
1AE97
  5
1AE9A
331
1AE98
  5
1AE9B
331
1AE9B
  5
1AE9E
331
1AE9C
  5
1AE9F
331
1AE9D
  5
1AEA0
331
1AE9E
  5
1AEA1
331
1AE9F
  5
1AEA2
331
1AEA0
  5
1AEA3
331
1AEA1
  5
1AEA4
331
1AEA2
  5
1AEA5
331
1AEA3
  5
1AEA6
331
1AEA4
  5
1AEA7
331
1AEA5
  5
1AEAC
331
1AEA6
  5
1AEAD
331
1AEA7
  5
1AEAE
331
1AEAC
  5
1AEAF
331
1AEAE
  5
1AEB1
331
1AEAF
  5
1AEB2
331
1AEB0
  5
1AEB3
331
1AEB1
  5
1AEB4
331
1AEB2
  5
1AF24
331
1AEB3
  5
1AF25
331
1AF24
  5
1AF27
331
1AF27
  5
1AF2A
331
1AF30
  5
1AF33
331
1AF35
  5
1AF38
331
1AF36
  5
1AF39
331
1AF37
  5
1AF3A
331
1AF3B
  5
1AF3E
331
1AF3C
  5
1AF3F
331
1AF3D
  5
1AF40
331
1AF3E
  5
1AF41
331
1AF40
  5
1AF43
331
1AF43
  5
1AF46
331
1AF45
  5
1AF48
331
1AF46
  5
1AF49
331
1AF47
  5
1AF4A
331
1AF48
  5
1AF4B
331
1AF49
  5
1AF4C
331
1AF4A
  5
1AF4D
331
1AF4B
  5
1AF4E
331
1AF4D
  5
1AF50
331
1AF51
  5
1AF54
331
1AF52
  5
1AF55
331
1AF57
  5
1AF5A
331
1AF58
  5
1AF5B
331
1AF5B
  5
1AF5E
331
1AF5C
  5
1AF5F
331
1AF5D
  5
1AF60
331
1AF5E
  5
1AF61
331
1AF60
  5
1AF63
331
1AF62
  5
1AF65
331
1AF63
  5
1AF66
331
1AF64
  5
1AF67
331
1AF66
  5
1AF69
331
1AF67
  5
1AF6A
331
1AF68
  5
1AF6B
331
1AF69
  5
1AF6C
331
1AF6A
  5
1AF6D
331
1AF6B
  5
1AF6E
331
1AF6C
  5
1AF6F
331
1AF6D
  5
1AF70
331
1AF6F
  5
1AF72
331
1AF70
  5
1AF73
331
1AF71
  5
1AF74
331
1AF72
  5
1AF75
331
1AF73
  5
1AF76
331
1AF75
  5
1AF78
331
1AF77
  5
1AF7A
331
1AF78
  5
1AF7B
331
1AF79
  5
1AF7C
331
1AF7A
  5
1AF7D
331
1AF7B
  5
1AF7E
331
1AF7C
  5
1AF7F
331
1AF7D
  5
1AF80
331
1AF7E
  5
1AF81
331
1AF7F
  5
1AF82
331
1AF80
  5
1AF83
331
1AF81
  5
1AF84
331
1AF82
  5
1AF8A
331
1AF83
  5
1AF8B
331
1AF89
  5
1AF8C
331
1AF8A
  5
1AF8D
331
1AF8B
  5
1AF8E
331
1AF8C
  5
1AF8F
331
1AF8D
  5
1AF90
331
1AF8E
  5
1AF91
331
1AF8F
  5
1AF92
331
1AF90
  5
1AF93
331
1AF91
  5
1AF94
331
1AF92
  5
1AF95
331
1AF93
  5
1AF96
331
1AF94
  5
1AF97
331
1AF95
  5
1AF98
331
1AF96
  5
1AF99
331
1AF99
  5
1AF9C
331
1AF9A
  5
1AF9D
331
1AF9B
  5
1AF9E
331
1AF9C
  5
1AF9F
331
1AF9D
  5
1AFA0
331
1AF9E
  5
1AFA1
331
1AF9F
  5
1AFA2
331
1AFA0
  5
1AFA3
331
1AFA1
  5
1AFA4
331
1AFA2
  5
1AFA5
331
1AFA3
  5
1AFA9
331
1AFA4
  5
1AFAD
331
1AFA8
  5
1AFB0
331
1AFAC
  5
1AFB3
331
1AFAF
  5
1AFB4
331
1AFB2
  5
1AFB5
331
1AFB3
  5
1AFB6
331
1AFB4
  5
1AFB7
331
1AFB5
  5
1AFB8
331
1AFB6
  5
1AFB9
331
1AFB7
  5
1AFBC
331
1AFB8
  5
1AFC1
331
1AFBB
  5
1AFC7
331
1AFC0
  5
1AFC9
331
1AFC6
  5
1AFCA
331
1AFC8
  5
1AFCB
331
1AFC9
  5
1AFCC
331
1AFCA
  5
1AFCD
331
1AFCB
  5
1AFCE
331
1AFCC
  5
1AFCF
331
1AFCD
  5
1AFD4
331
1AFCE
  5
1AFD5
331
1AFD3
  5
1AFD8
331
1AFD4
  5
1AFD9
331
1AFD7
  5
1AFDE
331
1AFD8
  5
1AFDF
331
1AFDD
  5
1AFE0
331
1AFDE
  5
1AFE1
331
1AFDF
  5
1AFE2
331
1AFE0
  5
1AFE4
331
1AFE1
  5
1AFE6
331
1AFE3
  5
1AFE7
331
1AFE5
  5
1AFE8
331
1AFE6
  5
1AFE9
331
1AFE7
  5
1AFEA
331
1AFE8
  5
1AFEB
331
1AFE9
  5
1AFEC
331
1AFEA
  5
1AFED
331
1AFEB
  5
1AFEE
331
1AFEC
  5
1AFEF
331
1AFED
  5
1AFF1
331
1AFEE
  5
1AFF2
331
1AFF0
  5
1AFF3
331
1AFF1
  5
1AFF4
331
1AFF2
  5
1AFF5
331
1B633
  5
1B6C3
331
1B640
  5
1BA00
331
1B6B5
  5
1BA01
331
1B6C3
  5
1BA02
331
1BADF
  5
18E5D
331
1BB0F
  5
1BBC3
331
1BBC3
  5
1A01B
  0
LAYOUT
  5
22
102
{ACAD_REACTORS
330
1A
102
}
330
1A
100
AcDbPlotSettings
  1

  2
SII LP-2150 (D-SCAN C2)
  4
User120
  6
AM_VIEW1
 40
3.174999952316284
 41
3.174999952316284
 42
3.17498779296875
 43
3.17498779296875
 44
296.9259948730469
 45
419.9889831542969
 46
0.0
 47
0.0
 48
0.0
 49
0.0
140
420.0
141
297.0
142
1.0
143
1.022107788374329
 70
 11952
 72
     1
 73
     1
 74
     4
  7
sei_cad.ctb
 75
     0
147
0.9783703943695685
148
0.0
149
0.0
100
AcDbLayout
  1
Model
 70
     1
 71
     0
 10
0.0
 20
0.0
 11
12.0
 21
9.0
 12
0.0
 22
0.0
 32
0.0
 14
0.0
 24
0.0
 34
0.0
 15
0.0
 25
0.0
 35
0.0
146
0.0
 13
0.0
 23
0.0
 33
0.0
 16
1.0
 26
0.0
 36
0.0
 17
0.0
 27
1.0
 37
0.0
 76
     0
330
1F
1001
ACAD_PSEXT
1000
SII LP-2150 (D-SCAN C2)
1000
SII LP-2150 (D-SCAN C2)
1000
133.153.16.130#3000
1000

1070
     0
  0
LAYOUT
  5
1E
102
{ACAD_REACTORS
330
1A
102
}
330
1A
100
AcDbPlotSettings
  1

  2
Canon LASER SHOT LBP-2030
  4

  6

 40
0.0
 41
0.0
 42
0.0
 43
0.0
 44
0.0
 45
0.0
 46
0.0
 47
0.0
 48
0.0
 49
0.0
140
0.0
141
0.0
142
1.0
143
1.0
 70
   688
 72
     0
 73
     0
 74
     5
  7
sei_cad.ctb
 75
    16
147
1.0
148
0.0
149
0.0
100
AcDbLayout
  1
ﾚｲｱｳﾄ1
 70
     1
 71
     1
 10
0.0
 20
0.0
 11
420.0
 21
297.0
 12
0.0
 22
0.0
 32
0.0
 14
1.000000000000000E+20
 24
1.000000000000000E+20
 34
1.000000000000000E+20
 15
-1.000000000000000E+20
 25
-1.000000000000000E+20
 35
-1.000000000000000E+20
146
0.0
 13
0.0
 23
0.0
 33
0.0
 16
1.0
 26
0.0
 36
0.0
 17
0.0
 27
1.0
 37
0.0
 76
     0
330
1B
  0
LAYOUT
  5
26
102
{ACAD_REACTORS
330
1A
102
}
330
1A
100
AcDbPlotSettings
  1

  2
Canon LASER SHOT LBP-2030
  4

  6

 40
0.0
 41
0.0
 42
0.0
 43
0.0
 44
0.0
 45
0.0
 46
0.0
 47
0.0
 48
0.0
 49
0.0
140
0.0
141
0.0
142
1.0
143
1.0
 70
   688
 72
     0
 73
     0
 74
     5
  7
sei_cad.ctb
 75
    16
147
1.0
148
0.0
149
0.0
100
AcDbLayout
  1
ﾚｲｱｳﾄ2
 70
     1
 71
     2
 10
0.0
 20
0.0
 11
12.0
 21
9.0
 12
0.0
 22
0.0
 32
0.0
 14
0.0
 24
0.0
 34
0.0
 15
0.0
 25
0.0
 35
0.0
146
0.0
 13
0.0
 23
0.0
 33
0.0
 16
1.0
 26
0.0
 36
0.0
 17
0.0
 27
1.0
 37
0.0
 76
     0
330
23
  0
MLINESTYLE
  5
18
102
{ACAD_REACTORS
330
17
102
}
330
17
100
AcDbMlineStyle
  2
STANDARD
 70
     0
  3

 62
   256
 51
90.0
 52
90.0
 71
     2
 49
0.5
 62
   256
  6
BYLAYER
 49
-0.5
 62
   256
  6
BYLAYER
  0
ACDBPLACEHOLDER
  5
F
102
{ACAD_REACTORS
330
E
102
}
330
E
  0
TABLESTYLE
  5
ED4E
102
{ACAD_REACTORS
330
ED4D
102
}
330
ED4D
100
AcDbTableStyle
  3
Standard
 70
     0
 71
     8
 40
1.5
 41
1.5
280
     0
281
     0
  7
STANDARD
140
4.5
170
     2
 62
     0
 63
     7
283
     0
274
    -2
284
     1
 64
     0
275
    -2
285
     1
 65
     0
276
    -2
286
     1
 66
     0
277
    -2
287
     1
 67
     0
278
    -2
288
     1
 68
     0
279
    -2
289
     1
 69
     0
  7
STANDARD
140
6.0
170
     5
 62
     0
 63
     7
283
     0
274
    -2
284
     1
 64
     0
275
    -2
285
     1
 65
     0
276
    -2
286
     1
 66
     0
277
    -2
287
     1
 67
     0
278
    -2
288
     1
 68
     0
279
    -2
289
     1
 69
     0
  7
STANDARD
140
4.5
170
     5
 62
     0
 63
     7
283
     0
274
    -2
284
     1
 64
     0
275
    -2
285
     1
 65
     0
276
    -2
286
     1
 66
     0
277
    -2
287
     1
 67
     0
278
    -2
288
     1
 68
     0
279
    -2
289
     1
 69
     0
  0
XRECORD
  5
1BDAD
102
{ACAD_REACTORS
330
1BDAC
102
}
330
1BDAC
100
AcDbXrecord
280
     1
340
ED4C
  0
XRECORD
  5
1BDAE
102
{ACAD_REACTORS
330
1BDAC
102
}
330
1BDAC
100
AcDbXrecord
280
     1
340
ED4B
  0
DICTIONARYVAR
  5
EE09
102
{ACAD_REACTORS
330
30
102
}
330
30
100
DictionaryVariables
280
     0
  1
STANDARD
  0
DICTIONARYVAR
  5
1BDAB
102
{ACAD_REACTORS
330
30
102
}
330
30
100
DictionaryVariables
280
     0
  1
0
  0
DICTIONARYVAR
  5
1BDAA
102
{ACAD_REACTORS
330
30
102
}
330
30
100
DictionaryVariables
280
     0
  1
1
  0
ACAD_PROXY_OBJECT
  5
4E
102
{ACAD_REACTORS
330
4D
102
}
330
4D
100
AcDbProxyObject
 90
      499
 91
      520
 95
       25
 70
     0
 93
      118
310
405010040CA904C415CD5B075DD2B8
350
4F
 94
        0
  0
DICTIONARY
  5
17E
102
{ACAD_REACTORS
330
4D
102
}
330
4D
100
AcDbDictionary
281
     1
  3
ISO
350
F94D
  3
JIS
350
17F
  0
XRECORD
  5
EDA8
102
{ACAD_REACTORS
330
4D
102
}
330
4D
100
AcDbXrecord
280
     1
 90
-1023410169
  0
ACAD_PROXY_OBJECT
  5
33
330
2E
100
AcDbProxyObject
 90
      499
 91
      508
 95
       25
 70
     0
 93
      156
310
00010143D050D351505391D5531054925390D490
330
2E
 94
        0
  0
ACAD_PROXY_OBJECT
  5
34
330
2E
100
AcDbProxyObject
 90
      499
 91
      508
 95
       25
 70
     0
 93
      148
310
000101439050D351531253915054925390D490
330
2E
 94
        0
  0
ACAD_PROXY_OBJECT
  5
35
330
2E
100
AcDbProxyObject
 90
      499
 91
      509
 95
       25
 70
     0
 93
      156
310
000101439050D35154D6535093D314D256915080
330
2E
 94
        0
  0
ACAD_PROXY_OBJECT
  5
37
330
2E
100
AcDbProxyObject
 90
      499
 91
      511
 95
       25
 70
     0
 93
       88
310
000101411093D34C402B00
330
2E
330
0
330
0
 94
        0
  0
ACAD_PROXY_OBJECT
  5
6B
330
2E
100
AcDbProxyObject
 90
      499
 91
      509
 95
       25
 70
     0
 93
      108
310
00010142505351D153D35054D4E0
330
2E
 94
        0
  0
ACAD_PROXY_OBJECT
  5
6C
330
2E
100
AcDbProxyObject
 90
      499
 91
      522
 95
       25
 70
     0
 93
      140
310
00010142105350D55494D511005034A49530
330
2E
 94
        0
  0
ACAD_PROXY_OBJECT
  5
ED60
330
2E
100
AcDbProxyObject
 90
      499
 91
      536
 95
       25
 70
     0
 93
      566
310
0001014124FEA55D00507392E312E302E34014124FEA55D00507392E322E302E3240501000041D0548B54D05391075A7BBE9BBFD15401EC52B91F85EA50FC000000000000F83F8
330
2E
330
ED61
330
ED67
 94
        0
  0
ACAD_PROXY_OBJECT
  5
ED61
330
2E
100
AcDbProxyObject
 90
      499
 91
      537
 95
       25
 70
     0
 93
       56
310
000190240E0000
330
2E
330
ED62
330
ED64
 94
        0
  0
ACAD_PROXY_OBJECT
  5
ED62
330
2E
100
AcDbProxyObject
 90
      499
 91
      538
 95
       25
 70
     0
 93
       48
310
0001AA000000
330
2E
330
1E
330
ED63
330
0
 94
        0
  0
ACAD_PROXY_OBJECT
  5
ED63
330
2E
100
AcDbProxyObject
 90
      499
 91
      539
 95
       25
 70
     0
 93
       28
310
0001AAA0
330
2E
 94
        0
  0
ACAD_PROXY_OBJECT
  5
ED64
330
2E
100
AcDbProxyObject
 90
      499
 91
      538
 95
       25
 70
     0
 93
       48
310
0001AA000000
330
2E
330
26
330
ED65
330
0
 94
        0
  0
ACAD_PROXY_OBJECT
  5
ED65
330
2E
100
AcDbProxyObject
 90
      499
 91
      539
 95
       25
 70
     0
 93
       28
310
0001AAA0
330
2E
 94
        0
  0
ACAD_PROXY_OBJECT
  5
ED68
330
2E
100
AcDbProxyObject
 90
      499
 91
      509
 95
       25
 70
     0
 93
      108
310
000101421053521310D05310D010
330
2E
 94
        0
  0
ACAD_PROXY_OBJECT
  5
ED69
330
2E
100
AcDbProxyObject
 90
      499
 91
      509
 95
       25
 70
     0
 93
      124
310
00010142905354915554D15112535010
330
2E
 94
        0
  0
ACAD_PROXY_OBJECT
  5
ED6A
330
2E
100
AcDbProxyObject
 90
      499
 91
      509
 95
       25
 70
     0
 93
      132
310
00010143105354D150D51253D391125360
330
2E
 94
        0
  0
ACAD_PROXY_OBJECT
  5
ED6B
330
2E
100
AcDbProxyObject
 90
      499
 91
      509
 95
       25
 70
     0
 93
      124
310
00010142905355941093D49111549010
330
2E
 94
        0
  0
ACAD_PROXY_OBJECT
  5
ED6C
330
2E
100
AcDbProxyObject
 90
      499
 91
      509
 95
       25
 70
     0
 93
      116
310
0001014290535115D1D0D3D313D4A0
330
2E
 94
        0
  0
ACAD_PROXY_OBJECT
  5
ED6D
330
2E
100
AcDbProxyObject
 90
      499
 91
      509
 95
       25
 70
     0
 93
      148
310
00010143505355925155D49151949154D21010
330
2E
 94
        0
  0
ACAD_PROXY_OBJECT
  5
ED6E
330
2E
100
AcDbProxyObject
 90
      499
 91
      509
 95
       25
 70
     0
 93
      172
310
00010144105350539393D51154149154D15495915010
330
2E
 94
        0
  0
ACAD_PROXY_OBJECT
  5
ED6F
330
2E
100
AcDbProxyObject
 90
      499
 91
      509
 95
       25
 70
     0
 93
      172
310
00010144105350555513D11253505494905391D15010
330
2E
 94
        0
  0
ACAD_PROXY_OBJECT
  5
ED70
330
2E
100
AcDbProxyObject
 90
      499
 91
      509
 95
       25
 70
     0
 93
      124
310
00010142D05351561514915191125360
330
2E
 94
        0
  0
ACAD_PROXY_OBJECT
  5
ED71
330
2E
100
AcDbProxyObject
 90
      499
 91
      509
 95
       25
 70
     0
 93
      132
310
00010142D05355105410539393D5115010
330
2E
 94
        0
  0
ACAD_PROXY_OBJECT
  5
ED72
330
2E
100
AcDbProxyObject
 90
      499
 91
      509
 95
       25
 70
     0
 93
      108
310
00010142105350555513D0D31010
330
2E
 94
        0
  0
ACAD_PROXY_OBJECT
  5
ED73
330
2E
100
AcDbProxyObject
 90
      499
 91
      509
 95
       25
 70
     0
 93
      108
310
00010142105350D3119150551050
330
2E
 94
        0
  0
ACAD_PROXY_OBJECT
  5
ED74
330
2E
100
AcDbProxyObject
 90
      499
 91
      509
 95
       25
 70
     0
 93
      108
310
00010142105350D315925155D3F0
330
2E
 94
        0
  0
ACAD_PROXY_OBJECT
  5
ED75
330
2E
100
AcDbProxyObject
 90
      499
 91
      509
 95
       25
 70
     0
 93
      148
310
0001014350535212511156915493D112535010
330
2E
 94
        0
  0
ACAD_PROXY_OBJECT
  5
ED76
330
2E
100
AcDbProxyObject
 90
      499
 91
      509
 95
       25
 70
     0
 93
      124
310
00010142905352105510D21254D3D010
330
2E
 94
        0
  0
ACAD_PROXY_OBJECT
  5
ED77
330
2E
100
AcDbProxyObject
 90
      499
 91
      509
 95
       25
 70
     0
 93
      148
310
00010143905354D25391D31152105513105660
330
2E
 94
        0
  0
ACAD_PROXY_OBJECT
  5
ED78
330
2E
100
AcDbProxyObject
 90
      499
 91
      509
 95
       25
 70
     0
 93
      124
310
00010142D0535115D1D193111254D420
330
2E
 94
        0
  0
ACAD_PROXY_OBJECT
  5
ED79
330
2E
100
AcDbProxyObject
 90
      499
 91
      509
 95
       25
 70
     0
 93
      100
310
00010142105350555513D213A0
330
2E
 94
        0
  0
ACAD_PROXY_OBJECT
  5
ED7A
330
2E
100
AcDbProxyObject
 90
      499
 91
      509
 95
       25
 70
     0
 93
      116
310
000101425053521390D3D553951010
330
2E
 94
        0
  0
ACAD_PROXY_OBJECT
  5
ED7B
330
2E
100
AcDbProxyObject
 90
      499
 91
      509
 95
       25
 70
     0
 93
      108
310
0001014210535213941493D29010
330
2E
 94
        0
  0
ACAD_PROXY_OBJECT
  5
ED7C
330
2E
100
AcDbProxyObject
 90
      499
 91
      509
 95
       25
 70
     0
 93
      108
310
0001014210535213951654115070
330
2E
 94
        0
  0
ACAD_PROXY_OBJECT
  5
ED7D
330
2E
100
AcDbProxyObject
 90
      499
 91
      509
 95
       25
 70
     0
 93
      108
310
000101421053521395925155D0F0
330
2E
 94
        0
  0
ACAD_PROXY_OBJECT
  5
ED7E
330
2E
100
AcDbProxyObject
 90
      499
 91
      509
 95
       25
 70
     0
 93
      140
310
00010143505354D150D51253D390D3D41660
330
2E
 94
        0
  0
ACAD_PROXY_OBJECT
  5
ED7F
330
2E
100
AcDbProxyObject
 90
      499
 91
      509
 95
       25
 70
     0
 93
      108
310
00010142105350D3141493D29030
330
2E
 94
        0
  0
ACAD_PROXY_OBJECT
  5
ED80
330
2E
100
AcDbProxyObject
 90
      499
 91
      508
 95
       25
 70
     0
 93
      212
310
00010143905350555513D2105510D21493D500000000000002E400
330
2E
 94
        0
  0
ACAD_PROXY_OBJECT
  5
ED81
330
2E
100
AcDbProxyObject
 90
      499
 91
      509
 95
       25
 70
     0
 93
      156
310
00010143905350555513D2105510D21111551010
330
2E
 94
        0
  0
ACAD_PROXY_OBJECT
  5
ED8D
330
2E
100
AcDbProxyObject
 90
      499
 91
      547
 95
       25
 70
     0
 93
      698
310
0001000000009AA6A9AA4051E546875204170722032312030303A33303A353620323030352028555443290141CE4B8C4B8C0B8D00518547565205365702032382031333A33353A323120323031300141CE4B8C8B8C0B8C80
330
2E
330
ED8E
330
ED8F
330
ED91
330
0
 94
        0
  0
ACAD_PROXY_OBJECT
  5
ED8E
330
2E
100
AcDbProxyObject
 90
      499
 91
      548
 95
       25
 70
     0
 93
       70
310
0001AAA80820000000
330
2E
330
ED8E
330
ED8E
 94
        0
  0
ACAD_PROXY_OBJECT
  5
ED8F
330
2E
100
AcDbProxyObject
 90
      499
 91
      549
 95
       25
 70
     0
 93
       48
310
000100000000
330
2E
330
0
330
ED90
330
0
330
0
 94
        0
  0
ACAD_PROXY_OBJECT
  5
ED90
330
2E
100
AcDbProxyObject
 90
      499
 91
      550
 95
       25
 70
     0
 93
       40
310
000100AAAA
330
2E
330
0
 94
        0
  0
ACAD_PROXY_OBJECT
  5
ED96
330
2E
100
AcDbProxyObject
 90
      499
 91
      522
 95
       25
 70
     0
 93
      180
310
00010143105050D3D35411119390535140504434F4D500
330
2E
 94
        0
  0
ACAD_PROXY_OBJECT
  5
ED97
330
2E
100
AcDbProxyObject
 90
      499
 91
      522
 95
       25
 70
     0
 93
      212
310
0001014390505193D311115491119390535140506466F6C6465720
330
2E
 94
        0
  0
ACAD_PROXY_OBJECT
  5
ED98
330
2E
100
AcDbProxyObject
 90
      499
 91
      522
 95
       25
 70
     0
 93
      180
310
00010143105050539393D1119390535140504284156290
330
2E
 94
        0
  0
ACAD_PROXY_OBJECT
  5
ED99
330
2E
100
AcDbProxyObject
 90
      499
 91
      522
 95
       25
 70
     0
 93
      436
310
00010143905050D3D35415925155D31254D50052295BD96CA0A90B396CA0A894591A496CA0A8DB691A496CA0A89BA96CA0A95E28F95310
330
2E
 94
        0
  0
ACAD_PROXY_OBJECT
  5
ED9E
330
2E
100
AcDbProxyObject
 90
      499
 91
      555
 95
       25
 70
     0
 93
       32
310
00010000
330
2E
340
ED9B
330
EDA0
330
ED9B
 94
        0
  0
ACAD_PROXY_OBJECT
  5
ED9F
330
2E
100
AcDbProxyObject
 90
      499
 91
      556
 95
       25
 70
     0
 93
       18
310
000180
330
2E
 94
        0
  0
ACAD_PROXY_OBJECT
  5
EDA0
330
2E
100
AcDbProxyObject
 90
      499
 91
      557
 95
       25
 70
     0
 93
      186
310
0001014314CC8D550B5110D313948C0E5050055401550000
330
2E
330
ED9E
330
ED9F
 94
        0
  0
ACAD_PROXY_OBJECT
  5
EDA1
330
2E
100
AcDbProxyObject
 90
      499
 91
      558
 95
       25
 70
     0
 93
      178
310
000100AAAAAABAC03B2E67439410EA36E89D743EA29000
330
2E
330
EDA0
 94
        0
  0
ACAD_PROXY_OBJECT
  5
EDA2
330
2E
100
AcDbProxyObject
 90
      499
 91
      559
 95
       25
 70
     0
 93
      108
310
000190140A000000000000AAAAA0
330
2E
330
EDA3
330
EDA3
330
EDA3
330
EDA3
330
EDA3
330
0
 94
        0
  0
ACAD_PROXY_OBJECT
  5
EDA3
330
2E
100
AcDbProxyObject
 90
      499
 91
      560
 95
       25
 70
     0
 93
       51
310
00010000AAAA80
330
2E
330
EDA2
330
EDA0
 94
        0
  0
ACAD_PROXY_OBJECT
  5
EDCB
330
2E
100
AcDbProxyObject
 90
      499
 91
      509
 95
       25
 70
     0
 93
      140
310
0001014350535311D0D3D313D49353D11160
330
2E
 94
        0
  0
DICTIONARY
  5
40
102
{ACAD_REACTORS
330
3F
102
}
330
3F
100
AcDbDictionary
281
     1
  3
DWGSETTINGS
350
41
  3
FEM
350
69
  3
Shaft
350
56
  3
TRANSSETTINGS
350
4C
  0
ACAD_PROXY_OBJECT
  5
42
102
{ACAD_REACTORS
330
3F
102
}
330
3F
100
AcDbProxyObject
 90
      499
 91
      519
 95
       25
 70
     0
 93
    23232
310
41502491013041105357CC201C00030C011E441013141105357CC603800030C011E441013241105357CCA01400030C011E441013341105357CCE01800030C010D9013441105357CD200C00030C010D9013541105357CD600C00030C010D9013641105357CDA00800030C011E9013741105357CDE01000030C010D901384110
310
5357CE200400030C011E9013941105357CE63F400030C0241102324141505357CC4C201C00030C011E902344141505357CC4C600C00030C010D902495041505357CC4CA01C00030C011E40902304E41505357CC13A01C00030C011E902314E41505357CC53A03800030C011E902324E41505357CC93A01400030C011E90233
310
4E41505357CCD3A01800030C010D902344E41505357CD13A00C00030C010D902354E41505357CD53A00C00030C010D902364E41505357CD93A00800030C011E902374E41505357CDD3A01000030C010D902384E41505357CE13A00400030C011E902394E41505357CE53A3F400030C024110332414E41905357CC4C13A01C0
310
0030C011E90334414E41905357CC4C53A00C00030C010D90349504E41905357CC4C93A01C00030C011E409044B4C494E41505357D0D3200400030C011E42504494E464F42105357D410549151A01000030C010D42D055241484D3541905357D093D4A01C00030C011E425045649455742105357D5925155D4E00400030C011
310
E42D06424548494E4441905357D25395A3F400030C0243505545241494C41505357D514A00C00030C010D4250348494441905357D21251201C00030C011E4250356495341905357D59254E01C00030C011E4250650415244494D42505357D41054911253600C00030C010D4250652454644494D42505357D49151911253601
310
000030C010D425774110531514901348070000C300479034110915312501348000000C0003FFFFFFFD034110921395901398000000C0003FFFFFFFE415092139594D06424548494E448000000C0003FFFFFFFE411093125110234418000000C0003FFFFFFFD03411093D05410234418000000C0003FFFFFFFD03411093D48C
310
9055241484D358010000C30047A411093D48CD055241484D358020000C30047A411093D48D5055241484D358000000C0003FFFFFFFE411093D48DD055241484D3581E0000C30047903411094105410234418000000C0003FFFFFFFD03411094115610234418000000C0003FFFFFFFD034110951112501358000000C0003FFF
310
FFFFD034110D0530C901348000000C0003FFFFFFFE4110D0530CD01348020000C30047A4110D0530D501348070000C30047A4110D0530DD013481E0000C30047A4110D15393901378000000C0003FFFFFFFE4110D15395D01378000000C0003FFFFFFFE4110D312539044B4C494E8000000C0003FFFFFFFE4110D3D38C5013
310
08000000C0003FFFFFFFD034110D3D38C901318000000C0003FFFFFFFD034110D3D38CD01328000000C0003FFFFFFFD034110D3D38D101328000000C0003FFFFFFFD034111115494101348000000C0003FFFFFFFD034111115510501348000000C0003FFFFFFFE4111125051D01358000000C0003FFFFFFFE4111125312501
310
358000000C0003FFFFFFFE411112535410650415244494D8000000C0003FFFFFFFE411112535490652454644494D8000000C0003FFFFFFFE411156135410234418000000C0003FFFFFFFD034111915353901388000000C0003FFFFFFFE415191535413901388030000C3004364151915354D410234418000000C0003FFFFFF
310
FE4151915354D510234418030000C300436415191535593901328000000C0003FFFFFFFE415191535595101328030000C3004364111931055101308000000C0003FFFFFFFD03411194905490234418000000C0003FFFFFFFD034111D49312501358000000C0003FFFFFFFD034111D5931250234418000000C0003FFFFFFFD0
310
34112105510D01388000000C0003FFFFFFFD014112125113901338000000C0003FFFFFFFD034112125115D01338000000C0003FFFFFFFD034112131253901348000000C0003FFFFFFFD01411213D0D3901378000000C0003FFFFFFFE411213D0D5D01378000000C0003FFFFFFFE4112539193D04494E464F8000000C0003FF
310
FFFFFE4113105112501348000000C0003FFFFFFFD034113115051101358000000C0003FFFFFFFE419397D0921395902394E8000000C0003FFFFFFFE419397D0D3D38C502304E8000000C0003FFFFFFFD03419397D0D3D38C902314E8000000C0003FFFFFFFD03419397D0D3D38CD02324E8000000C0003FFFFFFFD03419397
310
D0D3D38D102324E8000000C0003FFFFFFFD03419397D0D15393902374E8000000C0003FFFFFFFE419397D0D15395D02374E8000000C0003FFFFFFFE419397D1125312502354E8000000C0003FFFFFFFE419397D2105510D02384E8000000C0003FFFFFFFD01419397D2125113902334E8000000C0003FFFFFFFD03419397D2
310
125115D02334E8000000C0003FFFFFFFD03419397D3115051102354E8000000C0003FFFFFFFE419397D391D25410349504E8000000C0003FFFFFFFE419397D412105390334414E8000000C0003FFFFFFFE419397D510D3D3902304E8000000C0003FFFFFFFD03419397D5121312502344E8000000C0003FFFFFFFD01419397
310
D5131153902304E8000000C0003FFFFFFFD03419397D516150CD02364E8000000C0003FFFFFFFD03419397D594131250332414E8000000C0003FFFFFFFE411391D25410249508000000C0003FFFFFFFE411410530C9055241484D358010000C30047A411410530CD055241484D358020000C30047A411410530D5055241484
310
D358000000C0003FFFFFFFE411410530DD055241484D3581E0000C30047903411412105390234418000000C0003FFFFFFFE411413D4D3901368070000C30047A419413D4D49151901368050000C30047903411413D4D6101368000000C0003FFFFFFFD03411414D150D0234418000000C0003FFFFFFFD03411490D1D390137
310
8000000C0003FFFFFFFE411490D1D5D01378000000C0003FFFFFFFE4114919112501348000000C0003FFFFFFFD034114945514901348070000C30047903411494D093D01348000000C0003FFFFFFFD034114D09492D01348000000C0003FFFFFFFD014114D0D153901378000000C0003FFFFFFFD034114D150D51013480000
310
00C0003FFFFFFFD014114D15313901378000000C0003FFFFFFFD034114D15315D01378000000C0003FFFFFFFD034114D4D654D01308000000C0003FFFFFFFD034114D51312501348070000C300479034114D6508C501358000000C0003FFFFFFFD034114D6508C901358000000C0003FFFFFFFD034114D6508CD0135802000
310
0C30047A4114D6508D501358070000C300479034114D65353901378000000C0003FFFFFFFD034114D65355D01378000000C0003FFFFFFFD03411510D3D3901308000000C0003FFFFFFFD034115121312501348000000C0003FFFFFFFD01411512550C9055241484D358010000C30047A411512550CD055241484D358020000
310
C30047A411512550D5055241484D358000000C0003FFFFFFFE411512550DD055241484D3581E0000C300479034115131153901308000000C0003FFFFFFFD03415514905253105545241494C8000000C0003FFFFFFFE41151492D3901378000000C0003FFFFFFFD0341151492D5D01378000000C0003FFFFFFFD03411514931
310
2501348000000C0003FFFFFFFD01411516150C501368030000C300436411516150C901368030000C300436411516150CD01368000000C0003FFFFFFFE411516150D501368070000C30047A411516150DD013681E0000C30047A4115925155D04564945578000000C0003FFFFFFFE41159151121034849448000000C0003FFF
310
FFFFD0241159151159035649538000000C0003FFFFFFFD02411594131250232418000000C0003FFFFFFFE4116925690501348000000C0003FFFFFFFD01411354D653501358020000C30047AAAA3F400030C01013F90A4391E41D1E4190D4151E4110D40D0D4091E4051E4791E7F6
340
16
340
16
340
16
340
43
340
16
340
16
340
16
340
44
340
16
340
16
340
44
340
45
340
16
340
16
340
16
340
16
340
43
340
16
340
16
340
16
340
44
340
16
340
16
340
44
340
45
340
16
340
46
340
16
340
16
340
16
340
16
340
16
340
43
340
16
340
16
340
16
340
47
340
15
340
15
340
15
340
15
340
15
340
15
340
15
340
15
340
15
340
15
340
15
340
15
340
15
340
15
340
15
340
15
340
48
340
15
340
15
340
15
340
15
340
15
340
15
340
15
340
15
340
15
340
15
340
15
340
15
340
15
340
15
340
15
340
16
340
15
340
15
340
15
340
15
340
15
340
15
340
15
340
15
340
47
340
15
340
15
340
48
340
15
340
15
340
15
340
15
340
15
340
15
340
15
340
15
340
15
340
48
340
15
340
15
340
15
340
47
340
15
340
15
340
15
340
15
340
15
340
15
340
15
340
15
340
15
340
15
340
15
340
15
340
15
340
15
340
15
340
15
340
15
340
15
340
15
340
48
340
15
340
15
340
48
340
15
340
15
340
16
340
15
340
48
340
15
340
15
340
47
340
15
340
15
340
16
340
15
340
48
340
15
340
15
340
15
340
15
340
15
340
15
340
15
340
15
340
15
340
48
340
15
340
15
340
15
340
15
340
15
340
15
340
15
340
15
340
15
340
15
340
15
340
4B
340
16
 94
        0
  0
ACAD_PROXY_OBJECT
  5
62F
102
{ACAD_REACTORS
330
73
102
}
330
73
100
AcDbProxyObject
 90
      499
 91
      523
 95
       25
 70
     0
 93
      253
310
43D1444494D454E53494F4E2C414D44545F2A5F44494D404A9012A404A9012A0
  0
ACAD_PROXY_OBJECT
  5
630
102
{ACAD_REACTORS
330
73
102
}
330
73
100
AcDbProxyObject
 90
      499
 91
      523
 95
       25
 70
     0
 93
      181
310
43D012A42D05357D191504B505357CA9012A404A9012A8
  0
ACAD_PROXY_OBJECT
  5
631
102
{ACAD_REACTORS
330
73
102
}
330
73
100
AcDbProxyObject
 90
      499
 91
      523
 95
       25
 70
     0
 93
      133
310
43D054841544348404A9012A404A9012A8
  0
ACAD_PROXY_OBJECT
  5
632
102
{ACAD_REACTORS
330
73
102
}
330
73
100
AcDbProxyObject
 90
      499
 91
      523
 95
       25
 70
     0
 93
      549
310
43D044C494E4549CE0B0E138B0A8B4E0B0A8B4E138B105357CE0B105357CE138B0A8B505357CE0B0A8B505357CE139012A404A910494E534552542C5354445041525432448
  0
ACAD_PROXY_OBJECT
  5
633
102
{ACAD_REACTORS
330
73
102
}
330
73
100
AcDbProxyObject
 90
      499
 91
      523
 95
       25
 70
     0
 93
      909
310
43D6641434D46434652414D452C41434D444154554D5441524745542C41434D444154554D49442C41434D57454C4453594D2C41434D5355524653594D2C41434D4645415449442C41434D504152545245462C41434D42414C4C4F4F4E2C414D44544544474553594D404A9012A404A9012A8
  0
XRECORD
  5
217B
102
{ACAD_REACTORS
330
217A
102
}
330
217A
100
AcDbXrecord
280
     1
  1
21000753__00___
  0

  0
XRECORD
  5
217D
102
{ACAD_REACTORS
330
217C
102
}
330
217C
100
AcDbXrecord
280
     1
  1
3
  0

  0
XRECORD
  5
EDCA
102
{ACAD_REACTORS
330
EDC9
102
}
330
EDC9
100
AcDbXrecord
280
     1
 90
-1073741824
  0
ACAD_PROXY_OBJECT
  5
4F
102
{ACAD_REACTORS
330
4E
102
}
330
4E
100
AcDbProxyObject
 90
      499
 91
      521
 95
       25
 70
     0
 93
      157
310
057356C1D77406406AA8FFFFFFFF05DD01009010
330
1F
330
0
330
EDA0
 94
        0
  0
ACAD_PROXY_OBJECT
  5
F94D
102
{ACAD_REACTORS
330
17E
102
}
330
17E
100
AcDbProxyObject
 90
      499
 91
      577
 95
       25
 70
     0
 93
     2497
310
5DC0000000000000C408030000C30040D254D3D01640600800030C0200800030C000000000000000C40C88A2085A0B6B23A22B233B2A9BA3220480A1C82C6DAA6EAE4CCA8CAF0E8A6E8C88120284A0B1B6A321A329BA3220480A1A82C6DAAECAD8C8D2DCCEA6E8C8812028420B1B6A4B229BA3220480A1682C6DA88C2E8EAD
310
AA6E8C88120284A0B1B6A127A6A9BA3220480A2082DAC8E888CAE8C2D2D8A6F2DAA6E8C88120288A0B6B23A29B2B1BA34B7B729BCB6A9BA3220480A2282DAC8E886CADCE8CAE498D2DCCAA6E8C88120288A0B6B23A2A343932B0B22634B732A9BA3220480A1682DAC8E89CDEE8CAA6E8C88120285A0B1A0B6B3A630BCA9BA3
310
220480A1682C682DACE88D2DAA6E8C88120288A0B1A0B6B3A437B632A1B430B93A29BA3220480A1A82C682DACEA8D2E8D8CAA6E8C8812032048080
340
F5A9
360
F94E
360
F94F
360
F950
360
F951
360
F952
360
F953
360
F954
360
F955
360
F956
360
F957
360
F958
360
F959
360
F95F
360
F960
360
F961
360
F962
340
0
340
0
 94
        0
  0
ACAD_PROXY_OBJECT
  5
17F
102
{ACAD_REACTORS
330
17E
102
}
330
17E
100
AcDbProxyObject
 90
      499
 91
      526
 95
       25
 70
     0
 93
     2379
310
5DC33333333333309408000000C00040D29254D01640600800030C0200800030C003333333333330940C8121E8720B1B6A9BAB9332A32BC3A29BA3220480A1282C6DA8C868CA6E8C88120286A0B1B6ABB2B63234B733A9BA3220480A1082C6DA92C8A6E8C88120285A0B1B6A230BA3AB6A9BA3220480A1282C6DA849E9AA6E
310
8C88120286A0B1A0B6B3AA34BA3632A9BA3220480A2082DAC8E888CAE8C2D2D8A6F2DAA6E8C88120288A0B6B23A29B2B1BA34B7B729BCB6A9BA3220480A2282DAC8E886CADCE8CAE498D2DCCAA6E8C88120288A0B6B23A2A343932B0B22634B732A9BA3220480A1682DAC8E89CDEE8CAA6E8C88120285A0B1A0B6B3A630BCA
310
9BA3220480A1682C682DACE88D2DAA6E8C88120288A0B1A0B6B3A437B632A1B430B93A29BA3220480C812020
340
180
360
181
360
182
360
183
360
184
360
185
360
186
360
EDA5
360
EDA6
360
EDA7
360
EDA9
360
EDAA
360
EDAB
360
EDB1
360
EDB2
360
EDB3
340
0
340
0
 94
        0
  0
ACAD_PROXY_OBJECT
  5
41
102
{ACAD_REACTORS
330
40
102
}
330
40
100
AcDbProxyObject
 90
      499
 91
      518
 95
       25
 70
     0
 93
     2978
310
4050B44574753455454494E4753A0E8482A68AA6A88882A069492A684A1A0A723A0A92920ACA0A81969A1AA0C868A9C829C8E82A12686AF87260F862666A8321A2A72224A0A50602A2140ECC009A020E868A9C889282A682A106260F86460F8666083A1A2A72224A9AA250000000000000042020C868A9C988A9C940000000
310
00000048808321A2A727A323250000000000000122020E868A9C9E8C8C62940000000000000488083A1A2A727A32319250000000000000122021CC6D0C2DACCCAE4C8D2DADADEC8CA9FC84A1A624A720A92920ACA0A82989B9718182108698929C8AA8B2A082A0AB098929C8A84A22BA3AAA9A1A0A622A50A0E9882A6A89E8
310
49482A02608426A0A5A2AB24A2ABA7E8120CA0A68682988A0C00800010652455649534941501304154D0D0531150540CC4E8C5085354414E44415244415034A4953425512535154D510535412837EA08409D0ADCD050756455253494F4E4150531352E3030441ED115D1D4D15515125391D4D153911F40
  0
ACAD_PROXY_OBJECT
  5
69
102
{ACAD_REACTORS
330
40
102
}
330
40
100
AcDbProxyObject
 90
      499
 91
      518
 95
       25
 70
     0
 93
      411
310
4050346454D21092DCC6E486DECACC942842630BCA3B937BAB820A8320A6AFA322A0A20F688AE8EA68AA8A8929C8EA68A9C88FA0
  0
ACAD_PROXY_OBJECT
  5
56
102
{ACAD_REACTORS
330
40
102
}
330
40
100
AcDbProxyObject
 90
      499
 91
      518
 95
       25
 70
     0
 93
      583
310
40505536861667421292DCE8CAE4E4EAE0E89FA0484A634B3B43A2634B732A7F21A98D2CED0E898D2DCCAACD2CAEE9FC8229B4B232A7E80A20F688AE8EA68AA8A8929C8EA68A9C88FA
  0
ACAD_PROXY_OBJECT
  5
4C
102
{ACAD_REACTORS
330
40
102
}
330
40
100
AcDbProxyObject
 90
      499
 91
      518
 95
       25
 70
     0
 93
      852
310
4050D5452414E5353455454494E4753A2488A482AE929C8EA8A4829CA69882A8929E9C0C00800050D4F524947494E414C4C595F4F4E0600400028529A7AAA921A2A620A723A0A81A52827212AAA0A48AA68AA4AC8A0C0080001107B44574753455454494E4753454E447D0
  0
ACAD_PROXY_OBJECT
  5
F94E
330
F94D
100
AcDbProxyObject
 90
      499
 91
      578
 95
       25
 70
     0
 93
       13
310
5DD8
  0
ACAD_PROXY_OBJECT
  5
F94F
330
F94D
100
AcDbProxyObject
 90
      499
 91
      579
 95
       25
 70
     0
 93
       96
310
5DEA0E80A0280A0280A0280F
  0
ACAD_PROXY_OBJECT
  5
F950
330
F94D
100
AcDbProxyObject
 90
      499
 91
      580
 95
       25
 70
     0
 93
      272
310
5DD0E4050140501405014050140501405014050140D01405012C0000000000000040
340
F5AA
 94
        0
  0
ACAD_PROXY_OBJECT
  5
F951
330
F94D
100
AcDbProxyObject
 90
      499
 91
      581
 95
       25
 70
     0
 93
      497
310
5DE8666666666667A67E199999999999E99FD22405014050140501405014050140501405014050140501405014050140501405014050140501405014050100
340
F5A5
 94
        0
  0
ACAD_PROXY_OBJECT
  5
F952
330
F94D
100
AcDbProxyObject
 90
      499
 91
      582
 95
       25
 70
     0
 93
       10
310
5DC0
  0
ACAD_PROXY_OBJECT
  5
F953
330
F94D
100
AcDbProxyObject
 90
      499
 91
      583
 95
       25
 70
     0
 93
      257
310
5DE290EA22A7D90F49F80000000000001081400000000000004204010000618000
340
F5A6
340
F5A7
 94
        0
  0
ACAD_PROXY_OBJECT
  5
F954
330
F94D
100
AcDbProxyObject
 90
      499
 91
      584
 95
       25
 70
     0
 93
    13013
310
5DD0E411255115350141236025B690140501406901000000000000091013347454E545241434F2C4A504E2C302C8D8096DA2C47454E54524154582C25732C2847454E4D53472067656E647767203232322940690120281A8AA2CA0282484A4BE52028120280A0320200000000000012202668E8A9CA8A482869E5894A09C58
310
605921292F94588E8A9CA8A482A8B0584AE658508E8A9C9AA68E40CECADCC8EECE406464665280D202405044E414D454050496BC914F4051C40640A80000000000004E404CD1D15395149050D3CB1294138B0C0B25AF2453CB11D15395149055160B095CCB0A11D1539354D1C819D95B991DD9C80C8C8D8A50192C3D494628
310
4953424C414E4B28504152543A4E414D45292C424C4F434B3A4E414D452C504152543A4E414D452940480A0A888AA686A480A09251B1DBE80A3A80C81D0000000000100A28099A3A2A72A2920A1A7962528271618164946C76F9623A2A72A2920AA2C1612B9961423A2A726A9A39033B2B7323BB39019189B94A0348090142
310
14D51053911054911014122D2E29A50147501904A000000000000125013347454E545241434F2C4A504E2C302C8B4B8A692C47454E54524154582C25732C2847454E4D53472067656E64776720323138294069012028426A0AA22A924A0A62028246EF4BDFA028EA0320B40000000000001CA02668E8A9CA8A482869E5894A
310
09C5860591BBD2F7E588E8A9CA8A482A8B0584AE658508E8A9C9AA68E40CECADCC8EECE406464625280D202405044E4F544540504928D8B4C4051D40641A80000000000003E404CD1D15395149050D3CB1294138B0C0B24A362D30B11D15395149055160B095CCB0A11D1539354D1C819D95B991DD9C80C8C8D4A501240480
310
A0CAC8A9C889EA480A1106F1072706BF02B680A3A80C83D00000000000007C809BA3A2A72A2920A1A79625282716181641BC41C9C1AFC0AD9623A2A72A2920AA2C1612B9961423A2A726A9A39033B2B7323BB39019191A14A0248090141911154D0D48C90141A43825AF880C90147501908A000000000020145013447454E5
310
45241434F2C4A504E2C302C90E096BE20322C47454E54524154582C25732C2847454E4D53472067656E6477672033362940490120284A9AA20A72220A922192028345A5C53490192028EA03213400000000000024A026A8E8A9CA8A482869E5894A09C586059169714D24064588E8A9CA8A482A8B0584AE658508E8A9C9AA6
310
8E40CECADCC8EECE4064646052809202405094D4154455249414C32405068DDE97BF20324051D40642A8713D0AD7A37045404D11D15395149050D3CB1294138B0C0B2377A5EFC80C8B11D15395149055160B095CCB0A11D1539354D1C819D95B991DD9C80D0C0A501240480A089A82A6A680A091D7F2F9480A3A80A0485A06
310
8100000000000007C809923A2A72A2920A1A796252827161816475FCBE51623A2A72A2920AA2C1612B9961423A2A726A9A39033B2B7323BB3901A1914A024809014154149250D150141226FE29A501475014090C409020000000000000F9013247454E545241434F2C4A504E2C302C89BF8A692C47454E54524154582C2573
310
2C2847454E4D53472067656E6477672034332940490120281A224A6A02824850CB202028EA028121A81A040000000000001F202648E8A9CA8A482869E5894A09C58605921432C80588E8A9CA8A482A8B0584AE658508E8A9C9AA68E40CECADCC8EECE406868528092024050E445020000000000000510201C00030C0001018
310
0000000000003E400000000000000F901073D3C4954454D3E4050180000000000003E400000000000000F901073D3C4954454D3E40501800000000000034400000000000000D101073D3C4954454D3E40501800000000000034400000000000000D101073D3C4954454D3E405029010000000000000F9000000000000003E4
310
041CF4F125511534F901418F4F1455164F9014060000000000000F9000000000000003E4041CF4F125511534F9014060000000000000D100000000000000344041CF4F125511534F901901000000000000000F9000000000000003E40A2200000000000008204018000618048220681A048120280C88214844882034852034
310
8452028521485214814000000000000F0BF0000000000003C2FD018020000C3008070000C3003373333333333B0FCCDCCCCCCCCCCEC3F000000000000031012034164050341105901A000000000000062040100006180401000061804008000618008098A02808
340
0
340
0
 94
        0
  0
ACAD_PROXY_OBJECT
  5
F955
330
F94D
100
AcDbProxyObject
 90
      499
 91
      585
 95
       25
 70
     0
 93
      898
310
5DC4000000000000144048CF4F11115510525317D3105091530F880A0F11115510525317D05094D4D0D053114F8A51141C9A9999999999B93F26A666666666724FC000000000000E03F400000000000000400000000000000510000000000000024408070000C300000000000000051000
340
16
340
F5A9
 94
        0
  0
ACAD_PROXY_OBJECT
  5
F956
330
F94D
100
AcDbProxyObject
 90
      499
 91
      586
 95
       25
 70
     0
 93
      823
310
5DC0B00000000000002880959E9E29A2A1AA24A7A72FA620A122A62FA324A929AA1F169E29A2A1AA24A7A72FA620A122A62FA620A9AA1F000000000000048803FFFE01C00030C0088C0380006180000000000000048800000000000000A2000000000000002880
340
652
340
F5A9
 94
        0
  0
ACAD_PROXY_OBJECT
  5
F957
330
F94D
100
AcDbProxyObject
 90
      499
 91
      587
 95
       25
 70
     0
 93
      152
310
5DE80000000000000840A3D0A5723F0BD1F200
  0
ACAD_PROXY_OBJECT
  5
F958
330
F94D
100
AcDbProxyObject
 90
      499
 91
      588
 95
       25
 70
     0
 93
       14
310
5DE0
340
0
 94
        0
  0
ACAD_PROXY_OBJECT
  5
F959
330
F94D
100
AcDbProxyObject
 90
      499
 91
      589
 95
       25
 70
     0
 93
     8619
310
5DD084050BA4050AA405024050E836583938376838C815B836720314043A013D2525633C486F6C653A63746469613E2078203C486F6C653A637464657074683E20555C503C696628657175616C28486F6C653A7461707065642C223022292C22252563222C486F6C653A6E6F6D696E616C202220782022293E3C6966286571
310
75616C28486F6C653A7461707065642C223022292C486F6C653A6469612C486F6C653A706974636864657363293E3C696628657175616C28486F6C653A7461707065642C223122292C22207820222C2222293E3C696628657175616C28486F6C653A7461707065642C223122292C486F6C653A74617064657074682C222229
310
3E203C696628657175616C28486F6C653A7465726D696E6174696F6E2C223022292C22202F20222C2222293E3C696628657175616C28486F6C653A7465726D696E6174696F6E2C223022292C486F6C653A64657074682C2222293E406901405034050E836583938376838C815B836720314043B013D2525633C486F6C653A6
310
3746469613E2078203C486F6C653A6374616E676C653E2525645C503C696628657175616C28486F6C653A7461707065642C223022292C22252563222C486F6C653A6E6F6D696E616C202220782022293E3C696628657175616C28486F6C653A7461707065642C223022292C486F6C653A6469612C486F6C653A70697463686
310
4657363293E3C696628657175616C28486F6C653A7461707065642C223122292C22207820222C2222293E3C696628657175616C28486F6C653A7461707065642C223122292C486F6C653A74617064657074682C2222293E203C696628657175616C28486F6C653A7465726D696E6174696F6E2C223022292C22202F20222C2
310
222293E3C696628657175616C28486F6C653A7465726D696E6174696F6E2C223022292C486F6C653A64657074682C2222293E406901405014050E836583938376838C815B8367203140416013D3C696628657175616C28486F6C653A7461707065642C223022292C22252563222C486F6C653A6E6F6D696E616C2022207820
310
22293E3C696628657175616C28486F6C653A7461707065642C223022292C486F6C653A6469612C486F6C653A706974636864657363293E3C696628657175616C28486F6C653A7461707065642C223122292C22207820222C2222293E3C696628657175616C28486F6C653A7461707065642C223122292C486F6C653A746170
310
64657074682C2222293E203C696628657175616C28486F6C653A7465726D696E6174696F6E2C223022292C22202F20222C2222293E3C696628657175616C28486F6C653A7465726D696E6174696F6E2C223022292C486F6C653A64657074682C2222293E4069014051E4090E836583938376838C815B83672032405173D3C5
310
35444503A444553433E203C535444503A5354443E40690E836583938376838C815B836720314050C3D3C535444503A444553433E40690240515AAABBA120
360
F95A
330
F95A
360
F95B
330
F95B
360
F95C
330
F95C
360
F95D
360
F95E
330
F95D
330
F95E
 94
        0
  0
ACAD_PROXY_OBJECT
  5
F95F
330
F94D
100
AcDbProxyObject
 90
      499
 91
      568
 95
       25
 70
     0
 93
       26
310
5DD02A80
340
0
 94
        0
  0
ACAD_PROXY_OBJECT
  5
F960
330
F94D
100
AcDbProxyObject
 90
      499
 91
      569
 95
       25
 70
     0
 93
      250
310
5DD020000000000000A1000000000000002440408F0F9023C3E409A0DCFFFF80
340
F5AE
340
0
340
0
340
F5AF
340
F5B0
340
F5B1
340
F5B2
340
F5B3
340
F5B4
340
0
 94
        0
  0
ACAD_PROXY_OBJECT
  5
F961
330
F94D
100
AcDbProxyObject
 90
      499
 91
      590
 95
       25
 70
     0
 93
    13889
310
5DD1D003FFFFFFFD030300030000000000000310200800030C01030300030000000000000310200800030C00050C8DC0955782CC838A83588367014ED1D15395149050D3CB1294138B0C0B23702555E0B320E2A0D620D9CB11D15395149055160B095CCB0A11D1539354D1C819D95B991A5B5E880CCC0A78000C0000000000
310
00000000000000000000010000000000000310200800030C010000000000000310200800030C020143CF4F111959985D5B1D151A5D1B194F8050A8C8A8365815B8375838B014E51D15395149050D3CB1294138B0C0B2322A0D96056E0DD60E2CB11D15395149055160B095CCB0A11D1539354D1C819D95B991A5B5E880CCC4
310
A78000C000000000000000000000000000000010000000000000310200800030C010000000000000310200800030C020143CF4F111959985D5B1D151A5D1B194F90D44111409034110541D0C4350F4050E44D03449074510F000141232D24D7C053247454E545241434F2C4A504E2C302C8CB4935F2C47454E54524154582C
310
25732C2847454E4D53472067656E64696D7A20312900010104002214000281464500A608E8A9CA8A482869E5894A09C5860591914588E8A9CA8A482A8B0584AE658508E8A9C9AA68E40CECADCC8D2DAF4406452029E9E9E27B934B3B4B71F1E24A31427A91424A9A12620A7259427B934B3B4B7149624A9A12620A7259424B
310
A32B6949496111116111711149F1E24BA32B69F00808200111A000140560052F47454E545241434F2C4A504E2C302C582C47454E54524154582C25732C2847454E4D53472067656E64696D7A20332900010100002054000280AC80A5E8E8A9CA8A482869E5894A09C586058B2588E8A9CA8A482A8B0584AE658508E8A9C9AA
310
68E40CECADCC8D2DAF4406852000202000040E800050152014BD1D15395149050D3CB1294138B0C0B148B11D15395149055160B095CCB0A11D1539354D1C819D95B991A5B5E880D8A400040400008250000A0507A6029823A2A72A2920A1A79625282716181641E99623A2A72A2920AA2C1612B9961423A2A726A9A39033B2
310
B73234B6BD101B948000808180105A000140A0F4C053047454E545241434F2C4A504E2C302C83D32C47454E54524154582C25732C2847454E4D53472067656E64696D7A203829000101010020F400028248704B5F00A668E8A9CA8A482869E5894A09C58605921C12D7C588E8A9CA8A482A8B0584AE658508E8A9C9AA68E40
310
CECADCC8D2DAF440646052000200080043280005048B4B8A69014CD1D15395149050D3CB1294138B0C0B22D2E29A4B11D15395149055160B095CCB0A11D1539354D1C819D95B991A5B5E880C8C4A4000400100086D0000A09196926BE029923A2A72A2920A1A796252827161816465A49AF9623A2A72A2920AA2C1612B9961
310
423A2A726A9A39033B2B73234B6BD10189480A02620202080043E80005048D8096DA014CD1D15395149050D3CB1294138B0C0B236025B68B11D15395149055160B095CCB0A11D1539354D1C819D95B991A5B5E880C4D0A4000404140280D0000A190687072706CD06C5069D06B0029DA3A2A72A2920A1A7962528271618164
310
1A1C1C9C1B341B141A741AC1623A2A72A2920AA2C1612B9961423A2A726A9A39033B2B73234B6BD10189A94800080828050EA000143A322A0D0E0E4E0D9A0D8A0D3A0D60053D47454E545241434F2C4A504E2C302C8C8A8343839383668362834E83582C47454E54524154582C25732C2847454E4D53472067656E64696D7A
310
2031372900010105002274000281464500A628E8A9CA8A482869E5894A09C5860591914588E8A9CA8A482A8B0584AE658508E8A9C9AA68E40CECADCC8D2DAF440626C52000202080044A8000504909497CA014CD1D15395149050D3CB1294138B0C0B242525F28B11D15395149055160B095CCB0A11D1539354D1C819D95B9
310
91A5B5E880C4E4A400040418008A521E000000000000001CA040C00000000000034408080000000000006881010000000000000D102040000000000001A204080000000000003440818000000000000728103000000000000125020600000000004028A040000000000000034408000000000000004881000000000000000D
310
102000000000000001A204000000000000003440818000000000000508143C0000000000000039408180000000000006881030000000000000D102060000000000001A2040C00000000000034408180000000000006881030000000000000E5020600000000000024A040C0000000000805140800000000000000688100000
310
00000000009102000000000000001A2040000000000000034408180000000000006881030000000000000A10284220000000878000002020000008380000020400000081800000208000000828000002028900000000
340
0
340
0
340
0
340
0
340
F5A9
340
F5A9
 94
        0
  0
ACAD_PROXY_OBJECT
  5
F962
330
F94D
100
AcDbProxyObject
 90
      499
 91
      561
 95
       25
 70
     0
 93
     7018
310
5DD9740D254D3D0649534F5F4133429254D3D7D5125513115051349534F5F42525F5265766973696F6E6C69737446111413478342028323937783834316D6D2920421254D3D7D04D1E0D11141327835202835393478323130326D6D29421254D3D7D04C9E0D51141337837202834323078323038306D6D29421254D3D7D04C
310
DE0DD1141347839202832393778313839326D6D29421254D3D7D04D1E0E50E41312028353934783834316D6D29419254D3D7D04C51141327834202835393478313638326D6D29421254D3D7D04C9E0D11141347838202832393778313638326D6D29421254D3D7D04D1E0E10E41332028323937783432306D6D29419254D3D
310
7D04CD104130202838343078313138396D6D2920419254D3D7D04C11141347835202832393778313035316D6D29421254D3D7D04D1E0D51141347836202832393778313236316D6D29421254D3D7D04D1E0D91141347837202832393778313437316D6D29421254D3D7D04D1E0DD1141327833202835393478313236316D6D
310
29421254D3D7D04C9E0CD1141337834202834323078313138396D6D29421254D3D7D04CDE0D110413478332028323937783633306D6D29421254D3D7D04D1E0CD1141337835202834323078313438366D6D29421254D3D7D04CDE0D51141337836202834323078313738336D6D29421254D3D7D04CDE0D9104133783320283
310
43230783839316D6D29421254D3D7D04CDE0CD0E41322028343230783539346D6D29419254D3D7D04C9124130783220283131383978313638326D6D29421254D3D7D04C1E0C90E41342028323937783231306D6D29419254D3D7D04D1124130783320283131383978323532336D6D29421254D3D7D04C1E0CD114131783420
310
2838343178323337386D6D29421254D3D7D04C5E0D11141317833202838343178313738336D6D29421254D3D7D04C5E0CD02431254D3C82557247A25E4C81050A49534F5F5449544C4541431254D3C82557247A25E4C81090A49534F5F5449544C45424110E979A97F0838A835883675F42525F44D254D3D7D09497D4995D9
310
A5CDA5BDB9B1A5CDD10E979A97F0838A835883675F54525F44D254D3D7D51497D4995D9A5CDA5BDB9B1A5CDD10E979A97F0838A835883675F424C5F44D254D3D7D09317D4995D9A5CDA5BDB9B1A5CDD10E979A97F0838A835883675F544C5F44D254D3D7D51317D4995D9A5CDA5BDB9B1A5CDD00
  0
ACAD_PROXY_OBJECT
  5
181
330
17F
100
AcDbProxyObject
 90
      499
 91
      527
 95
       25
 70
     0
 93
       86
310
5DEA0C80A0280A0280A034
  0
ACAD_PROXY_OBJECT
  5
182
330
17F
100
AcDbProxyObject
 90
      499
 91
      528
 95
       25
 70
     0
 93
      282
310
5DD0E4050140501405014050140501405014050141101405014041000000000000001000
340
187
 94
        0
  0
ACAD_PROXY_OBJECT
  5
183
330
17F
100
AcDbProxyObject
 90
      499
 91
      529
 95
       25
 70
     0
 93
      323
310
5DCC199999999999E99F91740501405014050140501405014050140501405014050140501405014040
340
0
 94
        0
  0
ACAD_PROXY_OBJECT
  5
184
330
17F
100
AcDbProxyObject
 90
      499
 91
      530
 95
       25
 70
     0
 93
       10
310
5DC0
  0
ACAD_PROXY_OBJECT
  5
185
330
17F
100
AcDbProxyObject
 90
      499
 91
      531
 95
       25
 70
     0
 93
      257
310
5DE0C16A22A7D90F49F80000000000001081400000000000004204010000618000
340
188
340
189
 94
        0
  0
ACAD_PROXY_OBJECT
  5
186
330
17F
100
AcDbProxyObject
 90
      499
 91
      532
 95
       25
 70
     0
 93
     5277
310
5DD06411255115350141236025B6901405014069010000000000000910240690120281A8AA2CA0282484A4BE52028120280A032020000000000001220480D202405044E414D454050496BC914F4051C40640A80000000000004E4090193C3D3C4946284953424C414E4B28504152543A4E414D45292C424C4F434B3A4E414D
310
452C504152543A4E414D45293E3C41435F44455343524950544E3E40480A109A82A88AA492829880A091BBD2F7E80A3A80C81D0E27A15AF46E08A81203480901411393D5115014124A363B7D0147501904A0000000000000F902406428F4F1050D7D393D5114F901202832B22A72227A92028366EF6EE06F582028EA0320B4
310
0000000000001F20480C879E9E20A1AFAB27222FA620A122A61F20240506445020000000000000490201C00030C00010180000000000003E400000000000000F901073D3C4954454D3E4050180000000000003E400000000000000F901073D3C4954454D3E40501800000000000034400000000000000D101073D3C4954454
310
D3E40501800000000000034400000000000000D101073D3C4954454D3E405029010000000000000F9000000000000003E4041CF4F125511534F901418F4F1455164F9014060000000000000F9000000000000003E4041CF4F125511534F901800000000000034400000000000000D101073D3C4954454D3E40640400000000
310
0000003E400000000000000F90288800000000000020810000001800120881A068120480A032208521122080D21480D211480A1485214852050000000000003C2FC000000000000F0BF40600800030C0200400030C00CDCCCCCCCCCCEC3F3373333333333B0FC3333333333330940C80D069014090341504901A1999999999
310
9984A040100006180400800061804010000618008098A02808
340
0
340
0
 94
        0
  0
ACAD_PROXY_OBJECT
  5
EDA5
330
17F
100
AcDbProxyObject
 90
      499
 91
      561
 95
       25
 70
     0
 93
     3042
310
5DD9740D29254D064A49535F413342929254D7D512551311505134A49535F42525F5265766973696F6E6C6973744190F4134522028323937783231306D6D2941D29254D7D04D1490E41312028353934783834316D6D2941929254D7D04C50F41344C2028323130783239376D6D2941D29254D7D04D1310E413320283239377
310
83432306D6D2941929254D7D04CD0E41322028343230783539346D6D2941929254D7D04C90F4130202838343178313138396D6D2941929254D7D04C10243129254C82557247A25E4C81050A4A49535F5449544C454143129254C82557247A25E4C81090A4A49535F5449544C45424110E979A97F0838A835883675F42525F4
310
4D29254D7D09497D4995D9A5CDA5BDB9B1A5CDD10E979A97F0838A835883675F54525F44D29254D7D51497D4995D9A5CDA5BDB9B1A5CDD10E979A97F0838A835883675F424C5F44D29254D7D09317D4995D9A5CDA5BDB9B1A5CDD10E979A97F0838A835883675F544C5F44D29254D7D51317D4995D9A5CDA5BDB9B1A5CDD00
  0
ACAD_PROXY_OBJECT
  5
EDA6
330
17F
100
AcDbProxyObject
 90
      499
 91
      562
 95
       25
 70
     0
 93
      898
310
5DC4000000000000124048CF4F11115510525317D3105091530F880A0F11115510525317D05094D4D0D053114F8A50241C9A9999999999B93F26A666666666724FC000000000000E03F400000000000000400000000000000510000000000000024408070000C300000000000000049000
340
16
340
180
 94
        0
  0
ACAD_PROXY_OBJECT
  5
EDA7
330
17F
100
AcDbProxyObject
 90
      499
 91
      563
 95
       25
 70
     0
 93
      823
310
5DC0B00000000000002480959E9E29A2A1AA24A7A72FA620A122A62FA324A929AA1F169E29A2A1AA24A7A72FA620A122A62FA620A9AA1F000000000000048803FFFE01C00030C008140380006180000000000000048800000000000000A2000000000000002480
340
652
340
180
 94
        0
  0
ACAD_PROXY_OBJECT
  5
EDA9
330
17F
100
AcDbProxyObject
 90
      499
 91
      564
 95
       25
 70
     0
 93
      152
310
5DE8273108AC1C5A0640A3D0A5723F0BD1F200
  0
ACAD_PROXY_OBJECT
  5
EDAA
330
17F
100
AcDbProxyObject
 90
      499
 91
      565
 95
       25
 70
     0
 93
       14
310
5DE0
340
0
 94
        0
  0
ACAD_PROXY_OBJECT
  5
EDAB
330
17F
100
AcDbProxyObject
 90
      499
 91
      566
 95
       25
 70
     0
 93
     6059
310
5DD084050BA4050AA405024050E836583938376838C815B83672031405983D3C486F6C653A6469613E3C696628657175616C28486F6C653A7465726D696E6174696F6E2C223022292C2220905B82B320222C22208368838A838B22293E3C696628657175616C28486F6C653A7465726D696E6174696F6E2C223022292C486F
310
6C653A64657074682C2222293E2C203C486F6C653A63746469613E2082B482AE82E882CC905B82B3203C486F6C653A637464657074683E406901405034050E836583938376838C815B83672031405EF3D3C486F6C653A6374616E676C653E252564202525633C486F6C653A63746469613E208E4D8C8A2C203C69662865717
310
5616C28486F6C653A7461707065642C223022292C22252563222C486F6C653A6E6F6D696E616C202220782022293E3C696628657175616C28486F6C653A7461707065642C223022292C486F6C653A6469612C486F6C653A706974636864657363293E203C696628657175616C28486F6C653A7465726D696E6174696F6E2C2
310
23022292C22905B82B320222C222022293E3C696628657175616C28486F6C653A7465726D696E6174696F6E2C223022292C486F6C653A64657074682C2222293E406901405014050E836583938376838C815B83672031405C73D3C696628657175616C28486F6C653A7461707065642C223022292C22252563222C486F6C65
310
3A6E6F6D696E616C202220782022293E3C696628657175616C28486F6C653A7461707065642C223022292C486F6C653A6469612C486F6C653A706974636864657363293E203C696628657175616C28486F6C653A7465726D696E6174696F6E2C223022292C22905B82B320222C222022293E3C696628657175616C28486F6C
310
653A7465726D696E6174696F6E2C223022292C486F6C653A64657074682C2222293E4069014051E4090E836583938376838C815B83672032405173D3C535444503A444553433E203C535444503A5354443E40690E836583938376838C815B836720314050C3D3C535444503A444553433E40690240515AAABBA120
360
EDAF
330
EDAF
360
EDB0
330
EDB0
360
EDAE
330
EDAE
360
EDAD
360
EDAC
330
EDAD
330
EDAC
 94
        0
  0
ACAD_PROXY_OBJECT
  5
EDB1
330
17F
100
AcDbProxyObject
 90
      499
 91
      568
 95
       25
 70
     0
 93
       26
310
5DD02A80
340
42
 94
        0
  0
ACAD_PROXY_OBJECT
  5
EDB2
330
17F
100
AcDbProxyObject
 90
      499
 91
      569
 95
       25
 70
     0
 93
      250
310
5DD020000000000000A1000000000000002440408F0F9023C3E409A0DCFFFF80
340
58
340
18A8
340
18A9
340
5F
340
60
340
61
340
62
340
63
340
68
340
0
 94
        0
  0
ACAD_PROXY_OBJECT
  5
EDB3
330
17F
100
AcDbProxyObject
 90
      499
 91
      570
 95
       25
 70
     0
 93
    13889
310
5DD1D003FFFFFFFD030300030CCCCCCCCCCCC250200800030C01030300030CCCCCCCCCCCC250200800030C00050C8DC0955782CC838A83588367014ED1D15395149050D3CB1294138B0C0B23702555E0B320E2A0D620D9CB11D15395149055160B095CCB0A11D1539354D1C819D95B991A5B5E880CCC0A78000C0000000000
310
00000000000000000000010CCCCCCCCCCCC250200800030C010CCCCCCCCCCCC250200800030C020143CF4F111959985D5B1D151A5D1B194F8050A8C8A8365815B8375838B014E51D15395149050D3CB1294138B0C0B2322A0D96056E0DD60E2CB11D15395149055160B095CCB0A11D1539354D1C819D95B991A5B5E880CCC4
310
A78000C000000000000000000000000000000010CCCCCCCCCCCC250200800030C010CCCCCCCCCCCC250200800030C020143CF4F111959985D5B1D151A5D1B194F90D44111409034110541D0C4350F4050E44D03449074510F000141232D24D7C053247454E545241434F2C4A504E2C302C8CB4935F2C47454E54524154582C
310
25732C2847454E4D53472067656E64696D7A20312900010104002214000281464500A608E8A9CA8A482869E5894A09C5860591914588E8A9CA8A482A8B0584AE658508E8A9C9AA68E40CECADCC8D2DAF4406452029E9E9E27B934B3B4B71F1E24A31427A91424A9A12620A7259427B934B3B4B7149624A9A12620A7259424B
310
A32B6949496111116111711149F1E24BA32B69F00808200111A000140560052F47454E545241434F2C4A504E2C302C582C47454E54524154582C25732C2847454E4D53472067656E64696D7A20332900010100002054000280AC80A5E8E8A9CA8A482869E5894A09C586058B2588E8A9CA8A482A8B0584AE658508E8A9C9AA
310
68E40CECADCC8D2DAF4406852000202000040E800050152014BD1D15395149050D3CB1294138B0C0B148B11D15395149055160B095CCB0A11D1539354D1C819D95B991A5B5E880D8A400040400008250000A0507A6029823A2A72A2920A1A79625282716181641E99623A2A72A2920AA2C1612B9961423A2A726A9A39033B2
310
B73234B6BD101B948000808180105A000140A0F4C053047454E545241434F2C4A504E2C302C83D32C47454E54524154582C25732C2847454E4D53472067656E64696D7A203829000101010020F400028248704B5F00A668E8A9CA8A482869E5894A09C58605921C12D7C588E8A9CA8A482A8B0584AE658508E8A9C9AA68E40
310
CECADCC8D2DAF440646052000200080043280005048B4B8A69014CD1D15395149050D3CB1294138B0C0B22D2E29A4B11D15395149055160B095CCB0A11D1539354D1C819D95B991A5B5E880C8C4A4000400100086D0000A09196926BE029923A2A72A2920A1A796252827161816465A49AF9623A2A72A2920AA2C1612B9961
310
423A2A726A9A39033B2B73234B6BD10189480A02620202080043E80005048D8096DA014CD1D15395149050D3CB1294138B0C0B236025B68B11D15395149055160B095CCB0A11D1539354D1C819D95B991A5B5E880C4D0A4000404140280D0000A190687072706CD06C5069D06B0029DA3A2A72A2920A1A7962528271618164
310
1A1C1C9C1B341B141A741AC1623A2A72A2920AA2C1612B9961423A2A726A9A39033B2B73234B6BD10189A94800080820050EA000143A322A0D0E0E4E0D9A0D8A0D3A0D60053D47454E545241434F2C4A504E2C302C8C8A8343839383668362834E83582C47454E54524154582C25732C2847454E4D53472067656E64696D7A
310
2031372900010105002274000281464500A628E8A9CA8A482869E5894A09C5860591914588E8A9CA8A482A8B0584AE658508E8A9C9AA68E40CECADCC8D2DAF440626C52000202080044A8000504909497CA014CD1D15395149050D3CB1294138B0C0B242525F28B11D15395149055160B095CCB0A11D1539354D1C819D95B9
310
91A5B5E880C4E4A400040418008A521E000000000000001CA040C00000000000034408080000000000006881010000000000000D102040000000000001A204080000000000003440818000000000000728103000000000000125020600000000004028A040000000000000034408000000000000004881000000000000000D
310
102000000000000001A204000000000000003440818000000000000508143C0000000000000039408180000000000006881030000000000000D102060000000000001A2040C00000000000034408180000000000006881030000000000000E5020600000000000024A040C0000000000805140800000000000000688100000
310
00000000009102000000000000001A2040000000000000034408180000000000006881030000000000000A10284220000000878000002020000008380000020400000081800000208000000828000002028900000000
340
0
340
0
340
0
340
0
340
180
340
180
 94
        0
  0
ACAD_PROXY_OBJECT
  5
F95A
330
F959
100
AcDbProxyObject
 90
      499
 91
      567
 95
       25
 70
     0
 93
     2680
310
5DE0143A0D960E4E0DDA0E32056E0D9C80C4043A013D2525633C486F6C653A63746469613E2078203C486F6C653A637464657074683E20555C503C696628657175616C28486F6C653A7461707065642C223022292C22252563222C486F6C653A6E6F6D696E616C202220782022293E3C696628657175616C28486F6C653A74
310
61707065642C223022292C486F6C653A6469612C486F6C653A706974636864657363293E3C696628657175616C28486F6C653A7461707065642C223122292C22207820222C2222293E3C696628657175616C28486F6C653A7461707065642C223122292C486F6C653A74617064657074682C2222293E203C69662865717561
310
6C28486F6C653A7465726D696E6174696F6E2C223022292C22202F20222C2222293E3C696628657175616C28486F6C653A7465726D696E6174696F6E2C223022292C486F6C653A64657074682C2222293E
  0
ACAD_PROXY_OBJECT
  5
F95B
330
F959
100
AcDbProxyObject
 90
      499
 91
      567
 95
       25
 70
     0
 93
     2688
310
5DE0143A0D960E4E0DDA0E32056E0D9C80C4043B013D2525633C486F6C653A63746469613E2078203C486F6C653A6374616E676C653E2525645C503C696628657175616C28486F6C653A7461707065642C223022292C22252563222C486F6C653A6E6F6D696E616C202220782022293E3C696628657175616C28486F6C653A
310
7461707065642C223022292C486F6C653A6469612C486F6C653A706974636864657363293E3C696628657175616C28486F6C653A7461707065642C223122292C22207820222C2222293E3C696628657175616C28486F6C653A7461707065642C223122292C486F6C653A74617064657074682C2222293E203C696628657175
310
616C28486F6C653A7465726D696E6174696F6E2C223022292C22202F20222C2222293E3C696628657175616C28486F6C653A7465726D696E6174696F6E2C223022292C486F6C653A64657074682C2222293E
  0
ACAD_PROXY_OBJECT
  5
F95C
330
F959
100
AcDbProxyObject
 90
      499
 91
      567
 95
       25
 70
     0
 93
     2392
310
5DE0143A0D960E4E0DDA0E32056E0D9C80C40416013D3C696628657175616C28486F6C653A7461707065642C223022292C22252563222C486F6C653A6E6F6D696E616C202220782022293E3C696628657175616C28486F6C653A7461707065642C223022292C486F6C653A6469612C486F6C653A706974636864657363293E
310
3C696628657175616C28486F6C653A7461707065642C223122292C22207820222C2222293E3C696628657175616C28486F6C653A7461707065642C223122292C486F6C653A74617064657074682C2222293E203C696628657175616C28486F6C653A7465726D696E6174696F6E2C223022292C22202F20222C2222293E3C69
310
6628657175616C28486F6C653A7465726D696E6174696F6E2C223022292C486F6C653A64657074682C2222293E
  0
ACAD_PROXY_OBJECT
  5
F95D
330
F959
100
AcDbProxyObject
 90
      499
 91
      567
 95
       25
 70
     0
 93
      344
310
5DE0143A0D960E4E0DDA0E32056E0D9C80C805173D3C535444503A444553433E203C535444503A5354443E
  0
ACAD_PROXY_OBJECT
  5
F95E
330
F959
100
AcDbProxyObject
 90
      499
 91
      567
 95
       25
 70
     0
 93
      256
310
5DE0143A0D960E4E0DDA0E32056E0D9C80C4050C3D3C535444503A444553433E
  0
ACAD_PROXY_OBJECT
  5
EDAF
330
EDAB
100
AcDbProxyObject
 90
      499
 91
      567
 95
       25
 70
     0
 93
     1376
310
5DE0143A0D960E4E0DDA0E32056E0D9C80C405983D3C486F6C653A6469613E3C696628657175616C28486F6C653A7465726D696E6174696F6E2C223022292C2220905B82B320222C22208368838A838B22293E3C696628657175616C28486F6C653A7465726D696E6174696F6E2C223022292C486F6C653A64657074682C22
310
22293E2C203C486F6C653A63746469613E2082B482AE82E882CC905B82B3203C486F6C653A637464657074683E
  0
ACAD_PROXY_OBJECT
  5
EDB0
330
EDAB
100
AcDbProxyObject
 90
      499
 91
      567
 95
       25
 70
     0
 93
     2072
310
5DE0143A0D960E4E0DDA0E32056E0D9C80C405EF3D3C486F6C653A6374616E676C653E252564202525633C486F6C653A63746469613E208E4D8C8A2C203C696628657175616C28486F6C653A7461707065642C223022292C22252563222C486F6C653A6E6F6D696E616C202220782022293E3C696628657175616C28486F6C
310
653A7461707065642C223022292C486F6C653A6469612C486F6C653A706974636864657363293E203C696628657175616C28486F6C653A7465726D696E6174696F6E2C223022292C22905B82B320222C222022293E3C696628657175616C28486F6C653A7465726D696E6174696F6E2C223022292C486F6C653A6465707468
310
2C2222293E
  0
ACAD_PROXY_OBJECT
  5
EDAE
330
EDAB
100
AcDbProxyObject
 90
      499
 91
      567
 95
       25
 70
     0
 93
     1752
310
5DE0143A0D960E4E0DDA0E32056E0D9C80C405C73D3C696628657175616C28486F6C653A7461707065642C223022292C22252563222C486F6C653A6E6F6D696E616C202220782022293E3C696628657175616C28486F6C653A7461707065642C223022292C486F6C653A6469612C486F6C653A706974636864657363293E20
310
3C696628657175616C28486F6C653A7465726D696E6174696F6E2C223022292C22905B82B320222C222022293E3C696628657175616C28486F6C653A7465726D696E6174696F6E2C223022292C486F6C653A64657074682C2222293E
  0
ACAD_PROXY_OBJECT
  5
EDAD
330
EDAB
100
AcDbProxyObject
 90
      499
 91
      567
 95
       25
 70
     0
 93
      344
310
5DE0143A0D960E4E0DDA0E32056E0D9C80C805173D3C535444503A444553433E203C535444503A5354443E
  0
ACAD_PROXY_OBJECT
  5
EDAC
330
EDAB
100
AcDbProxyObject
 90
      499
 91
      567
 95
       25
 70
     0
 93
      256
310
5DE0143A0D960E4E0DDA0E32056E0D9C80C4050C3D3C535444503A444553433E
  0
ENDSEC
  0
EOF
