  0
SECTION
  2
HEADER
  9
$ACADVER
  1
AC1014
  9
$ACADMAINTVER
 70
     0
  9
$DWGCODEPAGE
  3
ANSI_932
  9
$INSBASE
 10
-587.250952
 20
747.890188
 30
0.0
  9
$EXTMIN
 10
140.159966
 20
-336.909166
 30
0.0
  9
$EXTMAX
 10
477.355159
 20
-162.494217
 30
0.0
  9
$LIMMIN
 10
69.420436
 20
-435.055998
  9
$LIMMAX
 10
565.316806
 20
-95.626289
  9
$ORTHOMODE
 70
     1
  9
$REGENMODE
 70
     1
  9
$FILLMODE
 70
     1
  9
$QTEXTMODE
 70
     0
  9
$MIRRTEXT
 70
     1
  9
$DRAGMODE
 70
     2
  9
$LTSCALE
 40
5.0
  9
$OSMODE
 70
    47
  9
$ATTMODE
 70
     1
  9
$TEXTSIZE
 40
5.0
  9
$TRACEWID
 40
0.05
  9
$TEXTSTYLE
  7
STANDARD
  9
$CLAYER
  8
外形
  9
$CELTYPE
  6
CONTINUOUS
  9
$CECOLOR
 62
   256
  9
$CELTSCALE
 40
1.0
  9
$DELOBJ
 70
     1
  9
$DISPSILH
 70
     0
  9
$DIMSCALE
 40
1.0
  9
$DIMASZ
 40
2.0
  9
$DIMEXO
 40
1.0
  9
$DIMDLI
 40
8.0
  9
$DIMRND
 40
0.0
  9
$DIMDLE
 40
0.0
  9
$DIMEXE
 40
2.0
  9
$DIMTP
 40
0.0
  9
$DIMTM
 40
0.0
  9
$DIMTXT
 40
2.0
  9
$DIMCEN
 40
-1.0
  9
$DIMTSZ
 40
0.0
  9
$DIMTOL
 70
     0
  9
$DIMLIM
 70
     0
  9
$DIMTIH
 70
     0
  9
$DIMTOH
 70
     0
  9
$DIMSE1
 70
     0
  9
$DIMSE2
 70
     0
  9
$DIMTAD
 70
     1
  9
$DIMZIN
 70
     8
  9
$DIMBLK
  1

  9
$DIMASO
 70
     1
  9
$DIMSHO
 70
     1
  9
$DIMPOST
  1

  9
$DIMAPOST
  1

  9
$DIMALT
 70
     0
  9
$DIMALTD
 70
     2
  9
$DIMALTF
 40
25.4
  9
$DIMLFAC
 40
1.0
  9
$DIMTOFL
 70
     1
  9
$DIMTVP
 40
0.0
  9
$DIMTIX
 70
     0
  9
$DIMSOXD
 70
     0
  9
$DIMSAH
 70
     1
  9
$DIMBLK1
  1
_DOTSMALL
  9
$DIMBLK2
  1
_DOTSMALL
  9
$DIMSTYLE
  2
参考寸法
  9
$DIMCLRD
 70
     2
  9
$DIMCLRE
 70
     2
  9
$DIMCLRT
 70
     2
  9
$DIMTFAC
 40
1.0
  9
$DIMGAP
 40
1.0
  9
$DIMJUST
 70
     0
  9
$DIMSD1
 70
     0
  9
$DIMSD2
 70
     0
  9
$DIMTOLJ
 70
     1
  9
$DIMTZIN
 70
     8
  9
$DIMALTZ
 70
     0
  9
$DIMALTTZ
 70
     0
  9
$DIMFIT
 70
     3
  9
$DIMUPT
 70
     0
  9
$DIMUNIT
 70
     2
  9
$DIMDEC
 70
     3
  9
$DIMTDEC
 70
     2
  9
$DIMALTU
 70
     2
  9
$DIMALTTD
 70
     2
  9
$DIMTXSTY
  7
STANDARD
  9
$DIMAUNIT
 70
     0
  9
$LUNITS
 70
     2
  9
$LUPREC
 70
     3
  9
$SKETCHINC
 40
0.1
  9
$FILLETRAD
 40
1.2
  9
$AUNITS
 70
     0
  9
$AUPREC
 70
     3
  9
$MENU
  1
acad
  9
$ELEVATION
 40
0.0
  9
$PELEVATION
 40
0.0
  9
$THICKNESS
 40
0.0
  9
$LIMCHECK
 70
     0
  9
$BLIPMODE
 70
     0
  9
$CHAMFERA
 40
0.0
  9
$CHAMFERB
 40
0.0
  9
$CHAMFERC
 40
0.0
  9
$CHAMFERD
 40
0.0
  9
$SKPOLY
 70
     0
  9
$TDCREATE
 40
2450751.535399305
  9
$TDUPDATE
 40
2452031.396157407
  9
$TDINDWG
 40
1.8872016204
  9
$TDUSRTIMER
 40
1.8872016204
  9
$USRTIMER
 70
     1
  9
$ANGBASE
 50
0.0
  9
$ANGDIR
 70
     0
  9
$PDMODE
 70
    32
  9
$PDSIZE
 40
0.0
  9
$PLINEWID
 40
0.0
  9
$COORDS
 70
     2
  9
$SPLFRAME
 70
     0
  9
$SPLINETYPE
 70
     5
  9
$SPLINESEGS
 70
     8
  9
$ATTDIA
 70
     0
  9
$ATTREQ
 70
     1
  9
$HANDLING
 70
     1
  9
$HANDSEED
  5
2C42
  9
$SURFTAB1
 70
     6
  9
$SURFTAB2
 70
     6
  9
$SURFTYPE
 70
     6
  9
$SURFU
 70
     6
  9
$SURFV
 70
     6
  9
$UCSNAME
  2

  9
$UCSORG
 10
40.53800450572526
 20
146.9196145921314
 30
0.0
  9
$UCSXDIR
 10
1.0
 20
0.0
 30
0.0
  9
$UCSYDIR
 10
0.0
 20
1.0
 30
0.0
  9
$PUCSNAME
  2

  9
$PUCSORG
 10
0.0
 20
0.0
 30
0.0
  9
$PUCSXDIR
 10
1.0
 20
0.0
 30
0.0
  9
$PUCSYDIR
 10
0.0
 20
1.0
 30
0.0
  9
$USERI1
 70
     0
  9
$USERI2
 70
     0
  9
$USERI3
 70
     0
  9
$USERI4
 70
     0
  9
$USERI5
 70
     0
  9
$USERR1
 40
0.0
  9
$USERR2
 40
0.0
  9
$USERR3
 40
0.0
  9
$USERR4
 40
0.0
  9
$USERR5
 40
0.0
  9
$WORLDVIEW
 70
     1
  9
$SHADEDGE
 70
     3
  9
$SHADEDIF
 70
    70
  9
$TILEMODE
 70
     1
  9
$MAXACTVP
 70
    16
  9
$PINSBASE
 10
0.0
 20
0.0
 30
0.0
  9
$PLIMCHECK
 70
     0
  9
$PEXTMIN
 10
1.000000E+20
 20
1.000000E+20
 30
1.000000E+20
  9
$PEXTMAX
 10
-1.000000E+20
 20
-1.000000E+20
 30
-1.000000E+20
  9
$PLIMMIN
 10
0.0
 20
0.0
  9
$PLIMMAX
 10
12.0
 20
9.0
  9
$UNITMODE
 70
     0
  9
$VISRETAIN
 70
     0
  9
$PLINEGEN
 70
     0
  9
$PSLTSCALE
 70
     1
  9
$TREEDEPTH
 70
  3020
  9
$PICKSTYLE
 70
     1
  9
$CMLSTYLE
  2
STANDARD
  9
$CMLJUST
 70
     0
  9
$CMLSCALE
 40
1.0
  9
$PROXYGRAPHICS
 70
     1
  9
$MEASUREMENT
 70
     0
  0
ENDSEC
  0
SECTION
  2
CLASSES
  0
CLASS
  1
LWPOLYLINE
  2
AcDbPolyline
  3
"AutoCAD"
 90
        0
280
     0
281
     1
  0
CLASS
  1
ACDBDICTIONARYWDFLT
  2
AcDbDictionaryWithDefault
  3
AutoCAD 2000
 90
        0
280
     1
281
     0
  0
CLASS
  1
ACDBPLACEHOLDER
  2
AcDbPlaceHolder
  3
AutoCAD 2000
 90
        0
280
     1
281
     0
  0
CLASS
  1
LAYOUT
  2
AcDbLayout
  3
AutoCAD 2000
 90
        0
280
     1
281
     0
  0
CLASS
  1
LONG_TRANSACTION
  2
AcDbLongTransaction
  3
AutoCAD 2000
 90
        0
280
     1
281
     0
  0
CLASS
  1
LWPOLYLINE
  2
AcDbPolyline
  3
"AutoCAD"
 90
        0
280
     0
281
     1
  0
CLASS
  1
HATCH
  2
AcDbHatch
  3
"ACAD_SEDONA"
 90
        0
280
     0
281
     1
  0
CLASS
  1
XRECORD
  2
AcDbXrecord
  3
"<Built In>"
 90
        0
280
     0
281
     0
  0
CLASS
  1
DICTIONARYVAR
  2
AcDbDictionaryVar
  3
"AutoCAD"
 90
        0
280
     0
281
     0
  0
ENDSEC
  0
SECTION
  2
TABLES
  0
TABLE
  2
VPORT
  5
16
100
AcDbSymbolTable
 70
     1
  0
VPORT
  5
2C3D
100
AcDbSymbolTableRecord
100
AcDbViewportTableRecord
  2
*ACTIVE
 70
     0
 10
0.0
 20
0.0
 11
1.0
 21
1.0
 12
300.630372
 22
-250.307581
 13
0.0
 23
0.0
 14
1.0
 24
1.0
 15
10.0
 25
10.0
 16
0.0
 26
0.0
 36
1.0
 17
0.0
 27
0.0
 37
0.0
 40
230.852865
 41
1.710425
 42
50.0
 43
0.0
 44
0.0
 50
0.0
 51
0.0
 71
     0
 72
   100
 73
     1
 74
     1
 75
     0
 76
     0
 77
     0
 78
     2
  0
ENDTAB
  0
TABLE
  2
LTYPE
  5
11
100
AcDbSymbolTable
 70
     2
  0
LTYPE
  5
12
100
AcDbSymbolTableRecord
100
AcDbLinetypeTableRecord
  2
BYBLOCK
 70
     0
  3

 72
    65
 73
     0
 40
0.0
  0
LTYPE
  5
13
100
AcDbSymbolTableRecord
100
AcDbLinetypeTableRecord
  2
BYLAYER
 70
     0
  3

 72
    65
 73
     0
 40
0.0
  0
LTYPE
  5
7
100
AcDbSymbolTableRecord
100
AcDbLinetypeTableRecord
  2
CONTINUOUS
 70
     0
  3
Solid line
 72
    65
 73
     0
 40
0.0
  0
LTYPE
  5
AA
100
AcDbSymbolTableRecord
100
AcDbLinetypeTableRecord
  2
CENTER
 70
     0
  3
Center ____ _ ____ _ ____ _ ____ _ ____ _ ____
 72
    65
 73
     4
 40
2.0
 49
1.25
 74
     0
 49
-0.25
 74
     0
 49
0.25
 74
     0
 49
-0.25
 74
     0
  0
ENDTAB
  0
TABLE
  2
LAYER
  5
E
100
AcDbSymbolTable
 70
     4
  0
LAYER
  5
6
100
AcDbSymbolTableRecord
100
AcDbLayerTableRecord
  2
0
 70
     0
 62
     7
  6
CONTINUOUS
  0
LAYER
  5
2C
100
AcDbSymbolTableRecord
100
AcDbLayerTableRecord
  2
外形
 70
     0
 62
     4
  6
CONTINUOUS
  0
LAYER
  5
37
102
{ACAD_XDICTIONARY
360
38
102
}
100
AcDbSymbolTableRecord
100
AcDbLayerTableRecord
  2
DEFPOINTS
 70
     0
 62
     7
  6
CONTINUOUS
  0
LAYER
  5
1F
100
AcDbSymbolTableRecord
100
AcDbLayerTableRecord
  2
寸法
 70
     0
 62
     1
  6
CONTINUOUS
  0
ENDTAB
  0
TABLE
  2
STYLE
  5
F
100
AcDbSymbolTable
 70
     1
  0
STYLE
  5
10
100
AcDbSymbolTableRecord
100
AcDbTextStyleTableRecord
  2
STANDARD
 70
     0
 40
0.0
 41
1.0
 50
0.0
 71
     0
 42
5.0
  3
MONOTXT
  4
BIGFONT
  0
ENDTAB
  0
TABLE
  2
VIEW
  5
14
100
AcDbSymbolTable
 70
     0
  0
ENDTAB
  0
TABLE
  2
UCS
  5
15
100
AcDbSymbolTable
 70
     0
  0
ENDTAB
  0
TABLE
  2
APPID
  5
18
100
AcDbSymbolTable
 70
     2
  0
APPID
  5
19
100
AcDbSymbolTableRecord
100
AcDbRegAppTableRecord
  2
ACAD
 70
     0
  0
APPID
  5
C59
100
AcDbSymbolTableRecord
100
AcDbRegAppTableRecord
  2
DRAWINGVARIABLESXDATA
 70
     0
  0
ENDTAB
  0
TABLE
  2
DIMSTYLE
  5
1A
100
AcDbSymbolTable
 70
     2
  0
DIMSTYLE
105
21
102
{ACAD_XDICTIONARY
360
22
102
}
102
{ACAD_REACTORS
330
1E53
330
1E62
330
1E75
330
1E82
330
1E8F
330
1E9B
330
1EAE
330
1EBB
102
}
100
AcDbSymbolTableRecord
100
AcDbDimStyleTableRecord
  2
STANDARD
 70
     0
  3

  4

  5

  6
_OPEN30
  7
_OPEN30
 40
0.0
 41
2.0
 42
1.0
 43
8.0
 44
2.0
 45
0.0
 46
0.0
 47
0.0
 48
0.0
140
3.0
141
-1.0
142
0.0
143
25.4
144
1.0
145
0.0
146
1.0
147
1.0
 71
     0
 72
     0
 73
     0
 74
     0
 75
     0
 76
     0
 77
     1
 78
     8
170
     0
171
     2
172
     1
173
     1
174
     0
175
     0
176
     1
177
     1
178
     3
270
     2
271
     2
272
     2
273
     2
274
     2
340
10
275
     0
280
     0
281
     0
282
     0
283
     1
284
     8
285
     0
286
     0
287
     3
288
     0
  0
DIMSTYLE
105
674
100
AcDbSymbolTableRecord
100
AcDbDimStyleTableRecord
  2
参考寸法
 70
     0
  3

  4

  5

  6
_DOTSMALL
  7
_DOTSMALL
 40
1.0
 41
2.0
 42
1.0
 43
8.0
 44
2.0
 45
0.0
 46
0.0
 47
0.0
 48
0.0
140
2.0
141
-1.0
142
0.0
143
25.4
144
1.0
145
0.0
146
1.0
147
1.0
 71
     0
 72
     0
 73
     0
 74
     0
 75
     0
 76
     0
 77
     1
 78
     8
170
     0
171
     2
172
     1
173
     1
174
     0
175
     0
176
     2
177
     2
178
     2
270
     2
271
     3
272
     2
273
     2
274
     2
340
10
275
     0
280
     0
281
     0
282
     0
283
     1
284
     8
285
     0
286
     0
287
     3
288
     0
  0
ENDTAB
  0
TABLE
  2
BLOCK_RECORD
  5
1
100
AcDbSymbolTable
 70
    10
  0
BLOCK_RECORD
  5
2
102
{ACAD_XDICTIONARY
360
3
102
}
100
AcDbSymbolTableRecord
100
AcDbBlockTableRecord
  2
*MODEL_SPACE
  0
BLOCK_RECORD
  5
9
102
{ACAD_XDICTIONARY
360
A
102
}
100
AcDbSymbolTableRecord
100
AcDbBlockTableRecord
  2
*PAPER_SPACE
  0
BLOCK_RECORD
  5
24
100
AcDbSymbolTableRecord
100
AcDbBlockTableRecord
  2
_DOTSMALL
  0
BLOCK_RECORD
  5
470
100
AcDbSymbolTableRecord
100
AcDbBlockTableRecord
  2
_OPEN30
  0
BLOCK_RECORD
  5
1E47
100
AcDbSymbolTableRecord
100
AcDbBlockTableRecord
  2
*D2
  0
BLOCK_RECORD
  5
1E54
100
AcDbSymbolTableRecord
100
AcDbBlockTableRecord
  2
*D3
  0
BLOCK_RECORD
  5
1E63
100
AcDbSymbolTableRecord
100
AcDbBlockTableRecord
  2
*D4
  0
BLOCK_RECORD
  5
1E76
100
AcDbSymbolTableRecord
100
AcDbBlockTableRecord
  2
*D5
  0
BLOCK_RECORD
  5
1E83
100
AcDbSymbolTableRecord
100
AcDbBlockTableRecord
  2
*D6
  0
BLOCK_RECORD
  5
1E90
100
AcDbSymbolTableRecord
100
AcDbBlockTableRecord
  2
*D7
  0
BLOCK_RECORD
  5
1E9C
100
AcDbSymbolTableRecord
100
AcDbBlockTableRecord
  2
*D8
  0
BLOCK_RECORD
  5
1EAF
100
AcDbSymbolTableRecord
100
AcDbBlockTableRecord
  2
*D9
  0
ENDTAB
  0
ENDSEC
  0
SECTION
  2
BLOCKS
  0
BLOCK
  5
5
100
AcDbEntity
  8
0
100
AcDbBlockBegin
  2
*MODEL_SPACE
 70
     0
 10
0.0
 20
0.0
 30
0.0
  3
*MODEL_SPACE
  1

  0
ENDBLK
  5
8
100
AcDbEntity
  8
0
100
AcDbBlockEnd
  0
BLOCK
  5
C
100
AcDbEntity
 67
     1
  8
0
100
AcDbBlockBegin
  2
*PAPER_SPACE
 70
     0
 10
0.0
 20
0.0
 30
0.0
  3
*PAPER_SPACE
  1

  0
ENDBLK
  5
D
100
AcDbEntity
 67
     1
  8
0
100
AcDbBlockEnd
  0
BLOCK
  5
29
100
AcDbEntity
  8
0
100
AcDbBlockBegin
  2
_DOTSMALL
 70
     0
 10
0.0
 20
0.0
 30
0.0
  3
_DOTSMALL
  1

  0
POLYLINE
  5
25
100
AcDbEntity
  8
0
  6
BYBLOCK
 62
     0
100
AcDb2dPolyline
 66
     1
 10
0.0
 20
0.0
 30
0.0
 70
     1
 40
0.5
 41
0.5
  0
VERTEX
  5
26
100
AcDbEntity
  8
0
  6
BYBLOCK
 62
     0
100
AcDbVertex
100
AcDb2dVertex
 10
-0.0625
 20
0.0
 30
0.0
 42
1.0
  0
VERTEX
  5
27
100
AcDbEntity
  8
0
  6
BYBLOCK
 62
     0
100
AcDbVertex
100
AcDb2dVertex
 10
0.0625
 20
0.0
 30
0.0
 42
1.0
  0
SEQEND
  5
28
100
AcDbEntity
  8
0
  6
BYBLOCK
 62
     0
  0
ENDBLK
  5
2A
100
AcDbEntity
  8
0
100
AcDbBlockEnd
  0
BLOCK
  5
471
100
AcDbEntity
  8
0
100
AcDbBlockBegin
  2
_OPEN30
 70
     0
 10
0.0
 20
0.0
 30
0.0
  3
_OPEN30
  1

  0
LINE
  5
472
100
AcDbEntity
  8
0
  6
BYBLOCK
 62
     0
100
AcDbLine
 10
-1.0
 20
0.267949
 30
0.0
 11
0.0
 21
0.0
 31
0.0
  0
LINE
  5
473
100
AcDbEntity
  8
0
  6
BYBLOCK
 62
     0
100
AcDbLine
 10
0.0
 20
0.0
 30
0.0
 11
-1.0
 21
-0.267949
 31
0.0
  0
LINE
  5
474
100
AcDbEntity
  8
0
  6
BYBLOCK
 62
     0
100
AcDbLine
 10
0.0
 20
0.0
 30
0.0
 11
-1.0
 21
0.0
 31
0.0
  0
ENDBLK
  5
475
100
AcDbEntity
  8
0
100
AcDbBlockEnd
  0
BLOCK
  5
1E48
100
AcDbEntity
  8
0
100
AcDbBlockBegin
  2
*D2
 70
     1
 10
0.0
 20
0.0
 30
0.0
  3
*D2
  1

  0
LINE
  5
1E49
100
AcDbEntity
  8
0
  6
BYBLOCK
 62
     1
100
AcDbLine
 10
220.002738
 20
-232.37496
 30
0.0
 11
204.71836
 21
-232.37496
 31
0.0
  0
LINE
  5
1E4A
100
AcDbEntity
  8
0
  6
BYBLOCK
 62
     1
100
AcDbLine
 10
212.663145
 20
-210.37496
 30
0.0
 11
204.71836
 21
-210.37496
 31
0.0
  0
LINE
  5
1E4B
100
AcDbEntity
  8
0
  6
BYBLOCK
 62
     1
100
AcDbLine
 10
206.71836
 20
-230.37496
 30
0.0
 11
206.71836
 21
-212.37496
 31
0.0
  0
INSERT
  5
1E4C
100
AcDbEntity
  8
0
  6
BYBLOCK
 62
     1
100
AcDbBlockReference
  2
_OPEN30
 10
206.71836
 20
-232.37496
 30
0.0
 41
2.0
 42
2.0
 43
2.0
 50
270.0
  0
INSERT
  5
1E4D
100
AcDbEntity
  8
0
  6
BYBLOCK
 62
     1
100
AcDbBlockReference
  2
_OPEN30
 10
206.71836
 20
-210.37496
 30
0.0
 41
2.0
 42
2.0
 43
2.0
 50
90.0
  0
MTEXT
  5
1E4E
100
AcDbEntity
  8
0
  6
BYBLOCK
 62
     3
100
AcDbMText
 10
204.21836
 20
-221.37496
 30
0.0
 40
3.0
 41
0.0
 71
     5
 72
     1
  1
\A1;22
 11
0.0
 21
1.0
 31
0.0
  0
POINT
  5
1E4F
100
AcDbEntity
  8
DEFPOINTS
  6
BYBLOCK
 62
     0
100
AcDbPoint
 10
221.002738
 20
-232.37496
 30
0.0
  0
POINT
  5
1E50
100
AcDbEntity
  8
DEFPOINTS
  6
BYBLOCK
 62
     0
100
AcDbPoint
 10
213.663145
 20
-210.37496
 30
0.0
  0
POINT
  5
1E51
100
AcDbEntity
  8
DEFPOINTS
  6
BYBLOCK
 62
     0
100
AcDbPoint
 10
206.71836
 20
-210.37496
 30
0.0
  0
ENDBLK
  5
1E52
100
AcDbEntity
  8
0
100
AcDbBlockEnd
  0
BLOCK
  5
1E55
100
AcDbEntity
  8
0
100
AcDbBlockBegin
  2
*D3
 70
     1
 10
0.0
 20
0.0
 30
0.0
  3
*D3
  1

  0
LINE
  5
1E56
100
AcDbEntity
  8
0
  6
BYBLOCK
 62
     1
100
AcDbLine
 10
217.712149
 20
-220.094312
 30
0.0
 11
212.814664
 21
-201.816649
 31
0.0
  0
LINE
  5
1E57
100
AcDbEntity
  8
0
  6
BYBLOCK
 62
     1
100
AcDbLine
 10
220.002738
 20
-232.37496
 30
0.0
 11
189.366447
 21
-232.37496
 31
0.0
  0
ARC
  5
1E58
100
AcDbEntity
  8
0
  6
BYBLOCK
 62
     1
100
AcDbCircle
 10
221.002738
 20
-232.37496
 30
0.0
 40
29.636291
100
AcDbArc
 50
108.86733
 51
176.13267
  0
INSERT
  5
1E59
100
AcDbEntity
  8
0
  6
BYBLOCK
 62
     1
100
AcDbBlockReference
  2
_OPEN30
 10
213.332302
 20
-203.748501
 30
0.0
 41
2.0
 42
2.0
 43
2.0
 50
16.933665
  0
INSERT
  5
1E5A
100
AcDbEntity
  8
0
  6
BYBLOCK
 62
     1
100
AcDbBlockReference
  2
_OPEN30
 10
191.366447
 20
-232.37496
 30
0.0
 41
2.0
 42
2.0
 43
2.0
 50
268.066335
  0
MTEXT
  5
1E5B
100
AcDbEntity
  8
0
  6
BYBLOCK
 62
     3
100
AcDbMText
 10
195.507305
 20
-212.811625
 30
0.0
 40
3.0
 41
0.0
 71
     5
 72
     1
  1
\A1;75°
 11
0.608761
 21
0.793353
 31
0.0
  0
POINT
  5
1E5C
100
AcDbEntity
  8
DEFPOINTS
  6
BYBLOCK
 62
     0
100
AcDbPoint
 10
201.952898
 20
-209.672244
 30
0.0
  0
POINT
  5
1E5D
100
AcDbEntity
  8
DEFPOINTS
  6
BYBLOCK
 62
     0
100
AcDbPoint
 10
221.6166
 20
-232.37496
 30
0.0
  0
POINT
  5
1E5E
100
AcDbEntity
  8
DEFPOINTS
  6
BYBLOCK
 62
     0
100
AcDbPoint
 10
217.970968
 20
-221.060238
 30
0.0
  0
POINT
  5
1E5F
100
AcDbEntity
  8
DEFPOINTS
  6
BYBLOCK
 62
     0
100
AcDbPoint
 10
220.843859
 20
-231.782015
 30
0.0
  0
POINT
  5
1E60
100
AcDbEntity
  8
DEFPOINTS
  6
BYBLOCK
 62
     0
100
AcDbPoint
 10
221.002738
 20
-232.37496
 30
0.0
  0
ENDBLK
  5
1E61
100
AcDbEntity
  8
0
100
AcDbBlockEnd
  0
BLOCK
  5
1E64
100
AcDbEntity
  8
0
100
AcDbBlockBegin
  2
*D4
 70
     1
 10
0.0
 20
0.0
 30
0.0
  3
*D4
  1

  0
LINE
  5
1E65
100
AcDbEntity
  8
0
  6
BYBLOCK
 62
     1
100
AcDbLine
 10
161.986318
 20
-233.359767
 30
0.0
 11
158.464571
 21
-253.332588
 31
0.0
  0
LINE
  5
1E66
100
AcDbEntity
  8
0
  6
BYBLOCK
 62
     1
100
AcDbLine
 10
162.159966
 20
-233.37496
 30
0.0
 11
162.159966
 21
-253.655894
 31
0.0
  0
ARC
  5
1E67
100
AcDbEntity
  8
0
  6
BYBLOCK
 62
     1
100
AcDbCircle
 10
162.159966
 20
-232.37496
 30
0.0
 40
19.280934
100
AcDbArc
 50
248.092065
 51
260.0
  0
LINE
  5
1E68
100
AcDbEntity
  8
0
  6
BYBLOCK
 62
     1
100
AcDbLine
 10
154.965936
 20
-250.263513
 30
0.0
 11
144.203635
 21
-245.935364
 31
0.0
  0
ARC
  5
1E69
100
AcDbEntity
  8
0
  6
BYBLOCK
 62
     1
100
AcDbCircle
 10
162.159966
 20
-232.37496
 30
0.0
 40
19.280934
100
AcDbArc
 50
248.108149
 51
254.054075
  0
ARC
  5
1E6A
100
AcDbEntity
  8
0
  6
BYBLOCK
 62
     1
100
AcDbCircle
 10
162.159966
 20
-232.37496
 30
0.0
 40
19.280934
100
AcDbArc
 50
275.945925
 51
281.891851
  0
ARC
  5
1E6B
100
AcDbEntity
  8
0
  6
BYBLOCK
 62
     1
100
AcDbCircle
 10
162.159966
 20
-232.37496
 30
0.0
 40
19.280934
100
AcDbArc
 50
260.0
 51
270.0
  0
INSERT
  5
1E6C
100
AcDbEntity
  8
0
  6
BYBLOCK
 62
     1
100
AcDbBlockReference
  2
_OPEN30
 10
158.811867
 20
-251.362973
 30
0.0
 41
2.0
 42
2.0
 43
2.0
 50
347.027037
  0
INSERT
  5
1E6D
100
AcDbEntity
  8
0
  6
BYBLOCK
 62
     1
100
AcDbBlockReference
  2
_OPEN30
 10
162.159966
 20
-251.655894
 30
0.0
 41
2.0
 42
2.0
 43
2.0
 50
182.972963
  0
MTEXT
  5
1E6E
100
AcDbEntity
  8
0
  6
BYBLOCK
 62
     3
100
AcDbMText
 10
150.517576
 20
-245.779977
 30
0.0
 40
3.0
 41
0.0
 71
     5
 72
     1
  1
\A1;10°
 11
0.927785
 21
-0.373116
 31
0.0
  0
POINT
  5
1E6F
100
AcDbEntity
  8
DEFPOINTS
  6
BYBLOCK
 62
     0
100
AcDbPoint
 10
161.03888
 20
-251.623273
 30
0.0
  0
POINT
  5
1E70
100
AcDbEntity
  8
DEFPOINTS
  6
BYBLOCK
 62
     0
100
AcDbPoint
 10
168.6202
 20
-195.737153
 30
0.0
  0
POINT
  5
1E71
100
AcDbEntity
  8
DEFPOINTS
  6
BYBLOCK
 62
     0
100
AcDbPoint
 10
162.159966
 20
-188.37496
 30
0.0
  0
POINT
  5
1E72
100
AcDbEntity
  8
DEFPOINTS
  6
BYBLOCK
 62
     0
100
AcDbPoint
 10
162.159966
 20
-232.37496
 30
0.0
  0
POINT
  5
1E73
100
AcDbEntity
  8
DEFPOINTS
  6
BYBLOCK
 62
     0
100
AcDbPoint
 10
162.159966
 20
-232.37496
 30
0.0
  0
ENDBLK
  5
1E74
100
AcDbEntity
  8
0
100
AcDbBlockEnd
  0
BLOCK
  5
1E77
100
AcDbEntity
  8
0
100
AcDbBlockBegin
  2
*D5
 70
     1
 10
0.0
 20
0.0
 30
0.0
  3
*D5
  1

  0
LINE
  5
1E78
100
AcDbEntity
  8
0
  6
BYBLOCK
 62
     1
100
AcDbLine
 10
374.101947
 20
-216.942724
 30
0.0
 11
374.101947
 21
-245.081374
 31
0.0
  0
LINE
  5
1E79
100
AcDbEntity
  8
0
  6
BYBLOCK
 62
     1
100
AcDbLine
 10
404.101947
 20
-216.942724
 30
0.0
 11
404.101947
 21
-245.081374
 31
0.0
  0
LINE
  5
1E7A
100
AcDbEntity
  8
0
  6
BYBLOCK
 62
     1
100
AcDbLine
 10
376.101947
 20
-243.081374
 30
0.0
 11
402.101947
 21
-243.081374
 31
0.0
  0
INSERT
  5
1E7B
100
AcDbEntity
  8
0
  6
BYBLOCK
 62
     1
100
AcDbBlockReference
  2
_OPEN30
 10
374.101947
 20
-243.081374
 30
0.0
 41
2.0
 42
2.0
 43
2.0
 50
180.0
  0
INSERT
  5
1E7C
100
AcDbEntity
  8
0
  6
BYBLOCK
 62
     1
100
AcDbBlockReference
  2
_OPEN30
 10
404.101947
 20
-243.081374
 30
0.0
 41
2.0
 42
2.0
 43
2.0
  0
MTEXT
  5
1E7D
100
AcDbEntity
  8
0
  6
BYBLOCK
 62
     3
100
AcDbMText
 10
389.101947
 20
-240.581374
 30
0.0
 40
3.0
 41
0.0
 71
     5
 72
     1
  1
\A1;30
  0
POINT
  5
1E7E
100
AcDbEntity
  8
DEFPOINTS
  6
BYBLOCK
 62
     0
100
AcDbPoint
 10
374.101947
 20
-215.942724
 30
0.0
  0
POINT
  5
1E7F
100
AcDbEntity
  8
DEFPOINTS
  6
BYBLOCK
 62
     0
100
AcDbPoint
 10
404.101947
 20
-215.942724
 30
0.0
  0
POINT
  5
1E80
100
AcDbEntity
  8
DEFPOINTS
  6
BYBLOCK
 62
     0
100
AcDbPoint
 10
404.101947
 20
-243.081374
 30
0.0
  0
ENDBLK
  5
1E81
100
AcDbEntity
  8
0
100
AcDbBlockEnd
  0
BLOCK
  5
2BD6
100
AcDbEntity
  8
0
100
AcDbBlockBegin
  2
*D6
 70
     1
 10
0.0
 20
0.0
 30
0.0
  3
*D6
  1

  0
LINE
  5
2BD7
100
AcDbEntity
  8
0
  6
BYBLOCK
 62
     1
100
AcDbLine
 10
221.002738
 20
-233.37496
 30
0.0
 11
221.002738
 21
-260.965592
 31
0.0
  0
LINE
  5
2BD8
100
AcDbEntity
  8
0
  6
BYBLOCK
 62
     1
100
AcDbLine
 10
471.002738
 20
-224.37496
 30
0.0
 11
471.002738
 21
-260.965592
 31
0.0
  0
LINE
  5
2BD9
100
AcDbEntity
  8
0
  6
BYBLOCK
 62
     1
100
AcDbLine
 10
223.002738
 20
-258.965592
 30
0.0
 11
469.002738
 21
-258.965592
 31
0.0
  0
INSERT
  5
2BDA
100
AcDbEntity
  8
0
  6
BYBLOCK
 62
     1
100
AcDbBlockReference
  2
_OPEN30
 10
221.002738
 20
-258.965592
 30
0.0
 41
2.0
 42
2.0
 43
2.0
 50
180.0
  0
INSERT
  5
2BDB
100
AcDbEntity
  8
0
  6
BYBLOCK
 62
     1
100
AcDbBlockReference
  2
_OPEN30
 10
471.002738
 20
-258.965592
 30
0.0
 41
2.0
 42
2.0
 43
2.0
  0
MTEXT
  5
2BDC
100
AcDbEntity
  8
0
  6
BYBLOCK
 62
     3
100
AcDbMText
 10
346.002738
 20
-256.465592
 30
0.0
 40
3.0
 41
0.0
 71
     5
 72
     1
  1
\A1;250
  0
POINT
  5
2BDD
100
AcDbEntity
  8
DEFPOINTS
  6
BYBLOCK
 62
     0
100
AcDbPoint
 10
221.002738
 20
-232.37496
 30
0.0
  0
POINT
  5
2BDE
100
AcDbEntity
  8
DEFPOINTS
  6
BYBLOCK
 62
     0
100
AcDbPoint
 10
471.002738
 20
-223.37496
 30
0.0
  0
POINT
  5
2BDF
100
AcDbEntity
  8
DEFPOINTS
  6
BYBLOCK
 62
     0
100
AcDbPoint
 10
471.002738
 20
-258.965592
 30
0.0
  0
ENDBLK
  5
2BE0
100
AcDbEntity
  8
0
100
AcDbBlockEnd
  0
BLOCK
  5
1E91
100
AcDbEntity
  8
0
100
AcDbBlockBegin
  2
*D7
 70
     1
 10
0.0
 20
0.0
 30
0.0
  3
*D7
  1

  0
LINE
  5
1E92
100
AcDbEntity
  8
0
  6
BYBLOCK
 62
     1
100
AcDbLine
 10
372.699756
 20
-184.856243
 30
0.0
 11
379.369443
 21
-195.233019
 31
0.0
  0
LINE
  5
1E93
100
AcDbEntity
  8
0
  6
BYBLOCK
 62
     1
100
AcDbLine
 10
398.834451
 20
-225.5169
 30
0.0
 11
399.915841
 21
-227.199338
 31
0.0
  0
MTEXT
  5
1E94
100
AcDbEntity
  8
0
  6
BYBLOCK
 62
     3
100
AcDbMText
 10
377.506276
 20
-187.710601
 30
0.0
 40
3.0
 41
0.0
 71
     5
 72
     1
  1
\A1;\U+220532
 11
0.540695
 21
-0.841219
 31
0.0
  0
LINE
  5
1E95
100
AcDbEntity
  8
0
  6
BYBLOCK
 62
     1
100
AcDbLine
 10
397.753062
 20
-223.834462
 30
0.0
 11
380.450833
 21
-196.915457
 31
0.0
  0
INSERT
  5
1E96
100
AcDbEntity
  8
0
  6
BYBLOCK
 62
     1
100
AcDbBlockReference
  2
_OPEN30
 10
397.753062
 20
-223.834462
 30
0.0
 41
2.0
 42
2.0
 43
2.0
 50
122.730941
  0
INSERT
  5
1E97
100
AcDbEntity
  8
0
  6
BYBLOCK
 62
     1
100
AcDbBlockReference
  2
_OPEN30
 10
380.450833
 20
-196.915457
 30
0.0
 41
2.0
 42
2.0
 43
2.0
 50
302.730941
  0
POINT
  5
1E98
100
AcDbEntity
  8
DEFPOINTS
  6
BYBLOCK
 62
     0
100
AcDbPoint
 10
380.450833
 20
-196.915457
 30
0.0
  0
POINT
  5
1E99
100
AcDbEntity
  8
DEFPOINTS
  6
BYBLOCK
 62
     0
100
AcDbPoint
 10
397.753062
 20
-223.834462
 30
0.0
  0
ENDBLK
  5
1E9A
100
AcDbEntity
  8
0
100
AcDbBlockEnd
  0
BLOCK
  5
1E9D
100
AcDbEntity
  8
0
100
AcDbBlockBegin
  2
*D8
 70
     1
 10
0.0
 20
0.0
 30
0.0
  3
*D8
  1

  0
LINE
  5
1E9E
100
AcDbEntity
  8
0
  6
BYBLOCK
 62
     1
100
AcDbLine
 10
212.663145
 20
-321.485264
 30
0.0
 11
201.874612
 21
-321.485264
 31
0.0
  0
LINE
  5
1E9F
100
AcDbEntity
  8
0
  6
BYBLOCK
 62
     1
100
AcDbLine
 10
220.008216
 20
-321.589793
 30
0.0
 11
201.979397
 21
-323.484698
 31
0.0
  0
ARC
  5
1EA0
100
AcDbEntity
  8
0
  6
BYBLOCK
 62
     1
100
AcDbCircle
 10
221.002738
 20
-321.485264
 30
0.0
 40
17.128127
100
AcDbArc
 50
166.588893
 51
180.0
  0
LINE
  5
1EA1
100
AcDbEntity
  8
0
  6
BYBLOCK
 62
     1
100
AcDbLine
 10
204.34168
 20
-317.512627
 30
0.0
 11
206.336333
 21
-309.147141
 31
0.0
  0
ARC
  5
1EA2
100
AcDbEntity
  8
0
  6
BYBLOCK
 62
     1
100
AcDbCircle
 10
221.002738
 20
-321.485264
 30
0.0
 40
17.128127
100
AcDbArc
 50
166.611874
 51
173.305937
  0
ARC
  5
1EA3
100
AcDbEntity
  8
0
  6
BYBLOCK
 62
     1
100
AcDbCircle
 10
221.002738
 20
-321.485264
 30
0.0
 40
17.128127
100
AcDbArc
 50
192.694063
 51
199.388126
  0
ARC
  5
1EA4
100
AcDbEntity
  8
0
  6
BYBLOCK
 62
     1
100
AcDbCircle
 10
221.002738
 20
-321.485264
 30
0.0
 40
17.128127
100
AcDbArc
 50
180.0
 51
186.0
  0
INSERT
  5
1EA5
100
AcDbEntity
  8
0
  6
BYBLOCK
 62
     1
100
AcDbBlockReference
  2
_OPEN30
 10
203.874612
 20
-321.485264
 30
0.0
 41
2.0
 42
2.0
 43
2.0
 50
266.652969
  0
INSERT
  5
1EA6
100
AcDbEntity
  8
0
  6
BYBLOCK
 62
     1
100
AcDbBlockReference
  2
_OPEN30
 10
203.968441
 20
-323.275641
 30
0.0
 41
2.0
 42
2.0
 43
2.0
 50
99.347031
  0
MTEXT
  5
1EA7
100
AcDbEntity
  8
0
  6
BYBLOCK
 62
     3
100
AcDbMText
 10
207.770834
 20
-313.909725
 30
0.0
 40
3.0
 41
0.0
 71
     5
 72
     1
  1
\A1;6°
 11
-0.231936
 21
-0.972731
 31
0.0
  0
POINT
  5
1EA8
100
AcDbEntity
  8
DEFPOINTS
  6
BYBLOCK
 62
     0
100
AcDbPoint
 10
203.916335
 20
-322.680062
 30
0.0
  0
POINT
  5
1EA9
100
AcDbEntity
  8
DEFPOINTS
  6
BYBLOCK
 62
     0
100
AcDbPoint
 10
477.355159
 20
-321.485264
 30
0.0
  0
POINT
  5
1EAA
100
AcDbEntity
  8
DEFPOINTS
  6
BYBLOCK
 62
     0
100
AcDbPoint
 10
221.002738
 20
-321.485264
 30
0.0
  0
POINT
  5
1EAB
100
AcDbEntity
  8
DEFPOINTS
  6
BYBLOCK
 62
     0
100
AcDbPoint
 10
241.002738
 20
-319.38318
 30
0.0
  0
POINT
  5
1EAC
100
AcDbEntity
  8
DEFPOINTS
  6
BYBLOCK
 62
     0
100
AcDbPoint
 10
213.663145
 20
-321.485264
 30
0.0
  0
ENDBLK
  5
1EAD
100
AcDbEntity
  8
0
100
AcDbBlockEnd
  0
BLOCK
  5
2A58
100
AcDbEntity
  8
0
100
AcDbBlockBegin
  2
*D9
 70
     1
 10
0.0
 20
0.0
 30
0.0
  3
*D9
  1

  0
LINE
  5
2A59
100
AcDbEntity
  8
0
  6
BYBLOCK
 62
     1
100
AcDbLine
 10
221.002738
 20
-296.952872
 30
0.0
 11
221.002738
 21
-321.827164
 31
0.0
  0
LINE
  5
2A5A
100
AcDbEntity
  8
0
  6
BYBLOCK
 62
     1
100
AcDbLine
 10
242.002738
 20
-304.817597
 30
0.0
 11
242.002738
 21
-321.827164
 31
0.0
  0
LINE
  5
2A5B
100
AcDbEntity
  8
0
  6
BYBLOCK
 62
     1
100
AcDbLine
 10
223.002738
 20
-319.827164
 30
0.0
 11
240.002738
 21
-319.827164
 31
0.0
  0
INSERT
  5
2A5C
100
AcDbEntity
  8
0
  6
BYBLOCK
 62
     1
100
AcDbBlockReference
  2
_OPEN30
 10
221.002738
 20
-319.827164
 30
0.0
 41
2.0
 42
2.0
 43
2.0
 50
180.0
  0
INSERT
  5
2A5D
100
AcDbEntity
  8
0
  6
BYBLOCK
 62
     1
100
AcDbBlockReference
  2
_OPEN30
 10
242.002738
 20
-319.827164
 30
0.0
 41
2.0
 42
2.0
 43
2.0
  0
MTEXT
  5
2A5E
100
AcDbEntity
  8
0
  6
BYBLOCK
 62
     3
100
AcDbMText
 10
231.502738
 20
-317.327164
 30
0.0
 40
3.0
 41
0.0
 71
     5
 72
     1
  1
\A1;21
  0
POINT
  5
2A5F
100
AcDbEntity
  8
DEFPOINTS
  6
BYBLOCK
 62
     0
100
AcDbPoint
 10
221.002738
 20
-295.952872
 30
0.0
  0
POINT
  5
2A60
100
AcDbEntity
  8
DEFPOINTS
  6
BYBLOCK
 62
     0
100
AcDbPoint
 10
242.002738
 20
-303.817597
 30
0.0
  0
POINT
  5
2A61
100
AcDbEntity
  8
DEFPOINTS
  6
BYBLOCK
 62
     0
100
AcDbPoint
 10
242.002738
 20
-319.827164
 30
0.0
  0
ENDBLK
  5
2A62
100
AcDbEntity
  8
0
100
AcDbBlockEnd
  0
ENDSEC
  0
SECTION
  2
ENTITIES
  0
CIRCLE
  5
1B8C
100
AcDbEntity
  8
外形
  6
CONTINUOUS
100
AcDbCircle
 10
225.541043
 20
-224.777626
 30
0.0
 40
2.58
  0
LINE
  5
1B8D
100
AcDbEntity
  8
外形
  6
CONTINUOUS
100
AcDbLine
 10
217.970968
 20
-221.060238
 30
0.0
 11
220.843859
 21
-231.782015
 31
0.0
  0
LINE
  5
1B8E
100
AcDbEntity
  8
外形
  6
CONTINUOUS
100
AcDbLine
 10
221.823655
 20
-232.3477
 30
0.0
 11
232.545432
 21
-229.474809
 31
0.0
  0
LINE
  5
1B8F
100
AcDbEntity
  8
外形
  6
CONTINUOUS
100
AcDbLine
 10
233.111117
 20
-228.495013
 30
0.0
 11
230.238226
 21
-217.773236
 31
0.0
  0
LINE
  5
1B90
100
AcDbEntity
  8
外形
  6
CONTINUOUS
100
AcDbLine
 10
229.25843
 20
-217.207551
 30
0.0
 11
218.536653
 21
-220.080442
 31
0.0
  0
ARC
  5
1B91
100
AcDbEntity
  8
外形
  6
CONTINUOUS
100
AcDbCircle
 10
218.743709
 20
-220.853183
 30
0.0
 40
0.8
100
AcDbArc
 50
105.0
 51
195.0
  0
ARC
  5
1B92
100
AcDbEntity
  8
外形
  6
CONTINUOUS
100
AcDbCircle
 10
229.465485
 20
-217.980292
 30
0.0
 40
0.8
100
AcDbArc
 50
15.0
 51
105.0
  0
ARC
  5
1B93
100
AcDbEntity
  8
外形
  6
CONTINUOUS
100
AcDbCircle
 10
232.338377
 20
-228.702068
 30
0.0
 40
0.8
100
AcDbArc
 50
285.0
 51
15.0
  0
ARC
  5
1B94
100
AcDbEntity
  8
外形
  6
CONTINUOUS
100
AcDbCircle
 10
221.6166
 20
-231.57496
 30
0.0
 40
0.8
100
AcDbArc
 50
195.0
 51
285.0
  0
LINE
  5
1B95
100
AcDbEntity
  8
外形
  6
CONTINUOUS
 62
     1
100
AcDbLine
 10
221.6166
 20
-232.37496
 30
0.0
 11
221.002738
 21
-232.37496
 31
0.0
  0
LINE
  5
1B96
100
AcDbEntity
  8
外形
  6
CONTINUOUS
 62
     1
100
AcDbLine
 10
220.843859
 20
-231.782015
 30
0.0
 11
221.002738
 21
-232.37496
 31
0.0
  0
LINE
  5
1BA5
100
AcDbEntity
  8
外形
  6
CONTINUOUS
100
AcDbLine
 10
471.002738
 20
-196.37496
 30
0.0
 11
471.002738
 21
-223.37496
 31
0.0
  0
LINE
  5
1BA7
102
{ACAD_REACTORS
330
1BDC
102
}
100
AcDbEntity
  8
外形
  6
CENTER
 62
     1
100
AcDbLine
 10
477.355159
 20
-210.37496
 30
0.0
 11
213.663145
 21
-210.37496
 31
0.0
  0
ARC
  5
1BA8
102
{ACAD_REACTORS
330
1BDC
102
}
100
AcDbEntity
  8
外形
  6
CONTINUOUS
100
AcDbCircle
 10
389.101947
 20
-210.37496
 30
0.0
 40
16.0
100
AcDbArc
 50
200.364135
 51
249.635865
  0
LINE
  5
1BA9
102
{ACAD_REACTORS
330
1BDC
102
}
100
AcDbEntity
  8
外形
  6
CENTER
 62
     1
100
AcDbLine
 10
389.101947
 20
-191.859975
 30
0.0
 11
389.101947
 21
-228.889944
 31
0.0
  0
LINE
  5
1BAB
102
{ACAD_REACTORS
330
1BDC
102
}
100
AcDbEntity
  8
外形
  6
CONTINUOUS
100
AcDbLine
 10
374.101947
 20
-215.942724
 30
0.0
 11
374.101947
 21
-204.807195
 31
0.0
  0
LINE
  5
1BAC
102
{ACAD_REACTORS
330
1BDC
102
}
100
AcDbEntity
  8
外形
  6
CONTINUOUS
100
AcDbLine
 10
404.101947
 20
-215.942724
 30
0.0
 11
404.101947
 21
-204.807195
 31
0.0
  0
ARC
  5
1BAD
102
{ACAD_REACTORS
330
1BDC
102
}
100
AcDbEntity
  8
外形
  6
CONTINUOUS
100
AcDbCircle
 10
389.101947
 20
-210.37496
 30
0.0
 40
16.0
100
AcDbArc
 50
20.364135
 51
159.635865
  0
LINE
  5
1BAF
100
AcDbEntity
  8
外形
  6
CONTINUOUS
100
AcDbLine
 10
469.002738
 20
-194.37496
 30
0.0
 11
408.903833
 21
-194.37496
 31
0.0
  0
LINE
  5
1BB1
102
{ACAD_REACTORS
330
1BDC
102
}
100
AcDbEntity
  8
外形
  6
CONTINUOUS
100
AcDbLine
 10
394.669712
 20
-225.37496
 30
0.0
 11
383.534183
 21
-225.37496
 31
0.0
  0
ARC
  5
1BB2
102
{ACAD_REACTORS
330
1BDC
102
}
100
AcDbEntity
  8
外形
  6
CONTINUOUS
100
AcDbCircle
 10
389.101947
 20
-210.37496
 30
0.0
 40
16.0
100
AcDbArc
 50
290.364135
 51
339.635865
  0
LINE
  5
1BB3
100
AcDbEntity
  8
外形
  6
CONTINUOUS
100
AcDbLine
 10
469.002738
 20
-225.37496
 30
0.0
 11
408.903833
 21
-225.37496
 31
0.0
  0
LINE
  5
1BB4
100
AcDbEntity
  8
外形
  6
CONTINUOUS
100
AcDbLine
 10
469.002738
 20
-204.807195
 30
0.0
 11
408.903833
 21
-204.807195
 31
0.0
  0
LINE
  5
1BB5
100
AcDbEntity
  8
外形
  6
CONTINUOUS
100
AcDbLine
 10
469.002738
 20
-215.942724
 30
0.0
 11
408.903833
 21
-215.942724
 31
0.0
  0
LINE
  5
1BB8
100
AcDbEntity
  8
外形
  6
CONTINUOUS
100
AcDbLine
 10
274.602738
 20
-215.177303
 30
0.0
 11
261.002738
 21
-215.177303
 31
0.0
  0
LINE
  5
1BBB
100
AcDbEntity
  8
外形
  6
CONTINUOUS
100
AcDbLine
 10
469.002738
 20
-194.37496
 30
0.0
 11
471.002738
 21
-196.37496
 31
0.0
  0
LINE
  5
1BBC
100
AcDbEntity
  8
外形
  6
CONTINUOUS
100
AcDbLine
 10
471.002738
 20
-223.37496
 30
0.0
 11
469.002738
 21
-225.37496
 31
0.0
  0
LINE
  5
1BBD
100
AcDbEntity
  8
外形
  6
CONTINUOUS
100
AcDbLine
 10
469.002738
 20
-194.37496
 30
0.0
 11
469.002738
 21
-204.807195
 31
0.0
  0
ARC
  5
1BBE
100
AcDbEntity
  8
外形
  6
CONTINUOUS
100
AcDbCircle
 10
454.269697
 20
-210.37496
 30
0.0
 40
15.75
100
AcDbArc
 50
339.297917
 51
20.702083
  0
LINE
  5
1BBF
100
AcDbEntity
  8
外形
  6
CONTINUOUS
100
AcDbLine
 10
469.002738
 20
-215.942724
 30
0.0
 11
469.002738
 21
-225.37496
 31
0.0
  0
LINE
  5
1BC4
100
AcDbEntity
  8
外形
  6
CONTINUOUS
100
AcDbLine
 10
368.30302
 20
-204.807195
 30
0.0
 11
274.602738
 21
-204.807195
 31
0.0
  0
LINE
  5
1BC5
100
AcDbEntity
  8
外形
  6
CONTINUOUS
100
AcDbLine
 10
368.30302
 20
-215.942724
 30
0.0
 11
274.602738
 21
-215.942724
 31
0.0
  0
HATCH
  5
1BDC
100
AcDbEntity
  8
外形
  6
CONTINUOUS
100
AcDbHatch
 10
0.0
 20
0.0
 30
0.0
210
0.0
220
0.0
230
1.0
  2
ANSI31
 70
     0
 71
     1
 91
        4
 92
        7
 72
     1
 73
     1
 93
        4
 10
389.1019472734879
 20
-194.3749597171722
 42
0.0
 10
389.1019472734878
 20
-210.3749597171722
 42
0.0
 10
404.1019472734879
 20
-210.3749597171723
 42
0.0
 10
404.1019472734879
 20
-204.8071953543422
 42
0.3135528725660044
 97
        4
330
1BA9
330
1BA7
330
1BAC
330
1BAD
 92
        7
 72
     1
 73
     1
 93
        4
 10
389.1019472734879
 20
-194.3749597171722
 42
0.3135528725660044
 10
374.1019472734878
 20
-204.8071953543422
 42
0.0
 10
374.1019472734878
 20
-210.3749597171721
 42
0.0
 10
389.1019472734879
 20
-210.3749597171721
 42
0.0
 97
        4
330
1BAD
330
1BAB
330
1BA7
330
1BA9
 92
        7
 72
     1
 73
     1
 93
        5
 10
389.101947273488
 20
-210.3749597171722
 42
0.0
 10
374.1019472734879
 20
-210.3749597171723
 42
0.0
 10
374.1019472734878
 20
-215.9427240800022
 42
0.2183631446846983
 10
383.5341829106579
 20
-225.3749597171722
 42
0.0
 10
389.1019472734879
 20
-225.3749597171722
 42
0.0
 97
        5
330
1BA7
330
1BAB
330
1BA8
330
1BB1
330
1BA9
 92
        7
 72
     1
 73
     1
 93
        5
 10
404.1019472734879
 20
-215.9427240800023
 42
0.0
 10
404.1019472734879
 20
-210.3749597171721
 42
0.0
 10
389.1019472734879
 20
-210.3749597171721
 42
0.0
 10
389.1019472734879
 20
-225.3749597171722
 42
0.0
 10
394.6697116363179
 20
-225.3749597171722
 42
0.218363144684697
 97
        5
330
1BAC
330
1BA7
330
1BA9
330
1BB1
330
1BB2
 75
     0
 76
     1
 52
0.0
 41
15.0
 77
     0
 78
     1
 53
45.0
 43
40.538005
 44
146.919615
 45
-1.325825214724776
 46
1.325825214724776
 79
     0
 47
0.19136
 98
        4
 10
395.689418
 20
-201.001269
 10
384.19862
 20
-204.063029
 10
383.815593
 20
-218.032312
 10
398.562116
 20
-217.26687
  0
LWPOLYLINE
  5
1BE0
100
AcDbEntity
  8
外形
  6
CONTINUOUS
100
AcDbPolyline
 90
        6
 70
     1
 43
0.0
 10
234.765665
 20
-216.644625
 10
236.265665
 20
-217.51065
 10
237.765665
 20
-216.644625
 10
237.765665
 20
-214.912574
 10
236.265665
 20
-214.046548
 10
234.765665
 20
-214.912574
  0
CIRCLE
  5
1BE1
100
AcDbEntity
  8
外形
  6
CONTINUOUS
100
AcDbCircle
 10
236.265665
 20
-215.778599
 30
0.0
 40
4.0
  0
ARC
  5
1C0E
100
AcDbEntity
  8
外形
  6
CONTINUOUS
100
AcDbCircle
 10
227.941043
 20
-217.560544
 30
0.0
 40
2.5
100
AcDbArc
 50
344.944872
 51
195.0
  0
CIRCLE
  5
1C0F
100
AcDbEntity
  8
外形
  6
CONTINUOUS
100
AcDbCircle
 10
225.541043
 20
-224.777626
 30
0.0
 40
2.35
  0
LINE
  5
1C10
100
AcDbEntity
  8
外形
  6
CONTINUOUS
100
AcDbLine
 10
261.002738
 20
-216.12496
 30
0.0
 11
261.002738
 21
-215.177303
 31
0.0
  0
LINE
  5
1C11
100
AcDbEntity
  8
外形
  6
CONTINUOUS
100
AcDbLine
 10
274.602738
 20
-215.177303
 30
0.0
 11
274.602738
 21
-226.12496
 31
0.0
  0
LINE
  5
1C12
100
AcDbEntity
  8
外形
  6
CONTINUOUS
100
AcDbLine
 10
274.602738
 20
-205.572617
 30
0.0
 11
274.602738
 21
-194.62496
 31
0.0
  0
LINE
  5
1C13
100
AcDbEntity
  8
外形
  6
CONTINUOUS
100
AcDbLine
 10
261.002738
 20
-215.177303
 30
0.0
 11
260.305255
 21
-205.050061
 31
0.0
  0
ARC
  5
1C16
100
AcDbEntity
  8
外形
  6
CONTINUOUS
100
AcDbCircle
 10
162.159966
 20
-210.37496
 30
0.0
 40
16.0
100
AcDbArc
 50
20.364135
 51
90.0
  0
LINE
  5
1C19
100
AcDbEntity
  8
外形
  6
CENTER
 62
     1
100
AcDbLine
 10
162.159966
 20
-188.37496
 30
0.0
 11
162.159966
 21
-232.37496
 31
0.0
  0
LINE
  5
1C1A
100
AcDbEntity
  8
外形
  6
CONTINUOUS
100
AcDbLine
 10
177.159966
 20
-215.942724
 30
0.0
 11
177.159966
 21
-204.807195
 31
0.0
  0
ARC
  5
1C1B
100
AcDbEntity
  8
外形
  6
CONTINUOUS
100
AcDbCircle
 10
162.159966
 20
-210.37496
 30
0.0
 40
16.0
100
AcDbArc
 50
290.364135
 51
339.635865
  0
LINE
  5
1C1C
100
AcDbEntity
  8
外形
  6
CONTINUOUS
100
AcDbLine
 10
167.727731
 20
-225.37496
 30
0.0
 11
163.394255
 21
-225.37496
 31
0.0
  0
LINE
  5
1C1D
100
AcDbEntity
  8
外形
  6
CONTINUOUS
100
AcDbLine
 10
144.659966
 20
-211.87496
 30
0.0
 11
144.659966
 21
-222.429523
 31
0.0
  0
ARC
  5
1C1E
100
AcDbEntity
  8
外形
  6
CONTINUOUS
100
AcDbCircle
 10
162.159966
 20
-210.37496
 30
0.0
 40
21.25
100
AcDbArc
 50
214.560322
 51
248.821273
  0
ARC
  5
1C20
100
AcDbEntity
  8
外形
  6
CONTINUOUS
100
AcDbCircle
 10
162.159966
 20
-211.87496
 30
0.0
 40
17.5
100
AcDbArc
 50
90.0
 51
180.0
  0
LINE
  5
1C2A
100
AcDbEntity
  8
外形
  6
CONTINUOUS
100
AcDbLine
 10
232.376132
 20
-194.62496
 30
0.0
 11
274.602738
 21
-194.62496
 31
0.0
  0
LINE
  5
1C2C
100
AcDbEntity
  8
外形
  6
CONTINUOUS
100
AcDbLine
 10
218.952738
 20
-202.37496
 30
0.0
 11
218.952738
 21
-219.968953
 31
0.0
  0
LINE
  5
1C2E
100
AcDbEntity
  8
外形
  6
CONTINUOUS
100
AcDbLine
 10
232.376132
 20
-194.62496
 30
0.0
 11
218.952738
 21
-202.37496
 31
0.0
  0
LINE
  5
1C32
100
AcDbEntity
  8
外形
  6
CONTINUOUS
100
AcDbLine
 10
168.6202
 20
-195.737153
 30
0.0
 11
162.159966
 21
-232.37496
 31
0.0
  0
LINE
  5
1C33
100
AcDbEntity
  8
外形
  6
CONTINUOUS
100
AcDbLine
 10
159.659795
 20
-219.142387
 30
0.0
 11
157.472281
 21
-231.548394
 31
0.0
  0
LINE
  5
1C35
100
AcDbEntity
  8
外形
  6
CONTINUOUS
100
AcDbLine
 10
159.659795
 20
-219.142387
 30
0.0
 11
164.34748
 21
-219.968953
 31
0.0
  0
LINE
  5
1C36
100
AcDbEntity
  8
外形
  6
CONTINUOUS
100
AcDbLine
 10
157.472281
 20
-231.548394
 30
0.0
 11
162.159966
 21
-232.37496
 31
0.0
  0
LINE
  5
1C37
100
AcDbEntity
  8
外形
  6
CONTINUOUS
100
AcDbLine
 10
156.523765
 20
-218.614806
 30
0.0
 11
159.655454
 21
-219.167008
 31
0.0
  0
LINE
  5
1C38
100
AcDbEntity
  8
外形
  6
CONTINUOUS
100
AcDbLine
 10
154.344934
 20
-230.971573
 30
0.0
 11
157.476623
 21
-231.523774
 31
0.0
  0
LINE
  5
1C39
100
AcDbEntity
  8
外形
  6
CONTINUOUS
100
AcDbLine
 10
167.449776
 20
-202.37496
 30
0.0
 11
147.463028
 21
-202.37496
 31
0.0
  0
LINE
  5
1C3D
100
AcDbEntity
  8
外形
  6
CENTER
 62
     1
100
AcDbLine
 10
181.896933
 20
-210.37496
 30
0.0
 11
140.384266
 21
-210.37496
 31
0.0
  0
LINE
  5
1C3E
100
AcDbEntity
  8
外形
  6
CONTINUOUS
100
AcDbLine
 10
250.328888
 20
-195.737153
 30
0.0
 11
230.449756
 21
-195.737153
 31
0.0
  0
ARC
  5
1C3F
100
AcDbEntity
  8
外形
  6
CONTINUOUS
100
AcDbCircle
 10
250.328888
 20
-205.737153
 30
0.0
 40
10.0
100
AcDbArc
 50
3.939851
 51
90.0
  0
LINE
  5
1C40
100
AcDbEntity
  8
外形
  6
CONTINUOUS
100
AcDbLine
 10
274.602738
 20
-226.12496
 30
0.0
 11
241.002738
 21
-226.12496
 31
0.0
  0
ARC
  5
1C41
100
AcDbEntity
  8
外形
  6
CONTINUOUS
100
AcDbCircle
 10
251.002738
 20
-216.12496
 30
0.0
 40
10.0
100
AcDbArc
 50
270.0
 51
0.0
  0
LINE
  5
1C42
100
AcDbEntity
  8
外形
  6
CONTINUOUS
100
AcDbLine
 10
274.602738
 20
-205.572617
 30
0.0
 11
260.341245
 21
-205.572617
 31
0.0
  0
LINE
  5
1C43
100
AcDbEntity
  8
外形
  6
CONTINUOUS
100
AcDbLine
 10
274.846815
 20
-194.380883
 30
0.0
 11
368.30302
 21
-194.380883
 31
0.0
  0
LINE
  5
1C44
100
AcDbEntity
  8
外形
  6
CONTINUOUS
100
AcDbLine
 10
274.846815
 20
-194.380883
 30
0.0
 11
274.602738
 21
-194.62496
 31
0.0
  0
LINE
  5
1C46
100
AcDbEntity
  8
外形
  6
CONTINUOUS
100
AcDbLine
 10
274.846815
 20
-215.942724
 30
0.0
 11
274.846815
 21
-225.880883
 31
0.0
  0
LINE
  5
1C47
100
AcDbEntity
  8
外形
  6
CONTINUOUS
100
AcDbLine
 10
274.846815
 20
-204.807195
 30
0.0
 11
274.846815
 21
-194.380883
 31
0.0
  0
LINE
  5
1C48
100
AcDbEntity
  8
外形
  6
CONTINUOUS
100
AcDbLine
 10
274.602738
 20
-226.12496
 30
0.0
 11
274.846815
 21
-225.880883
 31
0.0
  0
LINE
  5
1C49
100
AcDbEntity
  8
外形
  6
CONTINUOUS
100
AcDbLine
 10
274.846815
 20
-225.37496
 30
0.0
 11
368.30302
 21
-225.37496
 31
0.0
  0
LINE
  5
1C50
100
AcDbEntity
  8
外形
  6
CONTINUOUS
100
AcDbLine
 10
241.002738
 20
-226.12496
 30
0.0
 11
241.002738
 21
-226.179833
 31
0.0
  0
LINE
  5
1C51
100
AcDbEntity
  8
外形
  6
CONTINUOUS
100
AcDbLine
 10
241.002738
 20
-226.179833
 30
0.0
 11
233.069503
 21
-228.339707
 31
0.0
  0
CIRCLE
  5
1C56
100
AcDbEntity
  8
外形
  6
CENTER
 62
     1
100
AcDbCircle
 10
162.159966
 20
-210.37496
 30
0.0
 40
22.0
  0
LEADER
  5
1C58
100
AcDbEntity
  8
寸法
  6
CONTINUOUS
 62
     1
100
AcDbLeader
  3
STANDARD
 73
     0
 74
     0
 75
     1
 40
3.0
 41
26.0
 76
     3
 10
169.397522
 20
-189.599547
 30
0.0
 10
177.446754
 20
-166.494217
 30
0.0
 10
179.446754
 20
-166.494217
 30
0.0
 77
   256
340
1C59
1001
ACAD
1000
DSTYLE
1002
{
1070
    40
1040
1.0
1002
}
  0
MTEXT
  5
1C59
102
{ACAD_REACTORS
330
1C58
102
}
100
AcDbEntity
  8
寸法
  6
CONTINUOUS
 62
     3
100
AcDbMText
 10
180.446754
 20
-163.994217
 30
0.0
 40
3.0
 41
0.0
 71
     4
 72
     1
  1
\A1;%%C44最小加工径
  0
LINE
  5
1C5C
100
AcDbEntity
  8
外形
  6
CENTER
 62
     1
100
AcDbLine
 10
477.355159
 20
-287.969136
 30
0.0
 11
213.663145
 21
-287.969136
 31
0.0
  0
LINE
  5
1C66
100
AcDbEntity
  8
外形
  6
CONTINUOUS
100
AcDbLine
 10
469.002738
 20
-272.969136
 30
0.0
 11
274.846815
 21
-272.969136
 31
0.0
  0
LINE
  5
1C67
100
AcDbEntity
  8
外形
  6
CONTINUOUS
100
AcDbLine
 10
469.002738
 20
-302.969136
 30
0.0
 11
274.846815
 21
-302.969136
 31
0.0
  0
LINE
  5
1C68
100
AcDbEntity
  8
外形
  6
CONTINUOUS
100
AcDbLine
 10
471.002738
 20
-300.969136
 30
0.0
 11
469.002738
 21
-302.969136
 31
0.0
  0
LINE
  5
1C69
100
AcDbEntity
  8
外形
  6
CONTINUOUS
100
AcDbLine
 10
469.002738
 20
-272.969136
 30
0.0
 11
471.002738
 21
-274.969136
 31
0.0
  0
ARC
  5
1C6A
100
AcDbEntity
  8
外形
  6
CONTINUOUS
100
AcDbCircle
 10
454.269697
 20
-287.969136
 30
0.0
 40
15.75
100
AcDbArc
 50
339.297917
 51
20.702083
  0
LINE
  5
1C6B
100
AcDbEntity
  8
外形
  6
CONTINUOUS
100
AcDbLine
 10
469.002738
 20
-293.5369
 30
0.0
 11
469.002738
 21
-302.969136
 31
0.0
  0
LINE
  5
1C6C
100
AcDbEntity
  8
外形
  6
CONTINUOUS
100
AcDbLine
 10
469.002738
 20
-272.969136
 30
0.0
 11
469.002738
 21
-282.401372
 31
0.0
  0
LINE
  5
1C6D
100
AcDbEntity
  8
外形
  6
CONTINUOUS
100
AcDbLine
 10
471.002738
 20
-274.969136
 30
0.0
 11
471.002738
 21
-300.969136
 31
0.0
  0
LINE
  5
1C6E
100
AcDbEntity
  8
外形
  6
CONTINUOUS
100
AcDbLine
 10
469.002738
 20
-282.401372
 30
0.0
 11
274.846815
 21
-282.401372
 31
0.0
  0
LINE
  5
1C6F
100
AcDbEntity
  8
外形
  6
CONTINUOUS
100
AcDbLine
 10
469.002738
 20
-293.5369
 30
0.0
 11
274.846815
 21
-293.5369
 31
0.0
  0
LINE
  5
1C82
100
AcDbEntity
  8
外形
  6
CONTINUOUS
100
AcDbLine
 10
221.002738
 20
-287.969136
 30
0.0
 11
241.002738
 21
-285.867051
 31
0.0
  0
LINE
  5
1C93
100
AcDbEntity
  8
外形
  6
CONTINUOUS
100
AcDbLine
 10
156.523765
 20
-218.614806
 30
0.0
 11
154.344934
 21
-230.971573
 31
0.0
  0
LINE
  5
1C94
100
AcDbEntity
  8
外形
  6
CONTINUOUS
100
AcDbLine
 10
221.500294
 20
-292.70306
 30
0.0
 11
233.567059
 21
-291.434792
 31
0.0
  0
LINE
  5
1E1D
100
AcDbEntity
  8
外形
  6
CONTINUOUS
100
AcDbLine
 10
221.857557
 20
-295.863027
 30
0.0
 11
233.874596
 21
-294.599985
 31
0.0
  0
LINE
  5
1E22
100
AcDbEntity
  8
外形
  6
CONTINUOUS
100
AcDbLine
 10
217.943709
 20
-285.781622
 30
0.0
 11
221.002738
 21
-287.969136
 31
0.0
  0
LINE
  5
1E23
100
AcDbEntity
  8
外形
  6
CONTINUOUS
100
AcDbLine
 10
218.441264
 20
-290.515547
 30
0.0
 11
221.500294
 21
-292.70306
 31
0.0
  0
LINE
  5
1E24
100
AcDbEntity
  8
外形
  6
CONTINUOUS
100
AcDbLine
 10
218.798528
 20
-293.675513
 30
0.0
 11
221.857557
 21
-295.863027
 31
0.0
  0
LINE
  5
1E25
100
AcDbEntity
  8
外形
  6
CONTINUOUS
100
AcDbLine
 10
230.010473
 20
-284.513354
 30
0.0
 11
233.069503
 21
-286.700868
 31
0.0
  0
LINE
  5
1E26
100
AcDbEntity
  8
外形
  6
CONTINUOUS
100
AcDbLine
 10
217.943709
 20
-285.781622
 30
0.0
 11
230.010473
 21
-284.513354
 31
0.0
  0
LINE
  5
1E27
100
AcDbEntity
  8
外形
  6
CONTINUOUS
100
AcDbLine
 10
218.952738
 20
-299.319891
 30
0.0
 11
218.952738
 21
-293.785789
 31
0.0
  0
LINE
  5
1E28
100
AcDbEntity
  8
外形
  6
CONTINUOUS
100
AcDbLine
 10
221.968974
 20
-305.469136
 30
0.0
 11
221.968974
 21
-295.851316
 31
0.0
  0
LINE
  5
1E29
100
AcDbEntity
  8
外形
  6
CONTINUOUS
100
AcDbLine
 10
241.049222
 20
-305.469136
 30
0.0
 11
221.968974
 21
-305.469136
 31
0.0
  0
LINE
  5
1E2A
100
AcDbEntity
  8
外形
  6
CONTINUOUS
100
AcDbLine
 10
221.968974
 20
-305.469136
 30
0.0
 11
218.952738
 21
-299.319891
 31
0.0
  0
LINE
  5
1E2B
100
AcDbEntity
  8
外形
  6
CONTINUOUS
100
AcDbLine
 10
218.952738
 20
-285.675569
 30
0.0
 11
218.952738
 21
-283.166793
 31
0.0
  0
LINE
  5
1E2C
100
AcDbEntity
  8
外形
  6
CONTINUOUS
100
AcDbLine
 10
274.602738
 20
-303.719136
 30
0.0
 11
274.846815
 21
-303.475059
 31
0.0
  0
LINE
  5
1E2D
100
AcDbEntity
  8
外形
  6
CONTINUOUS
100
AcDbLine
 10
274.846815
 20
-292.771479
 30
0.0
 11
274.846815
 21
-303.475059
 31
0.0
  0
LINE
  5
1E2E
100
AcDbEntity
  8
外形
  6
CONTINUOUS
100
AcDbLine
 10
274.602738
 20
-292.771479
 30
0.0
 11
274.602738
 21
-303.719136
 31
0.0
  0
LINE
  5
1E2F
100
AcDbEntity
  8
外形
  6
CONTINUOUS
100
AcDbLine
 10
274.846815
 20
-283.166793
 30
0.0
 11
274.846815
 21
-272.463213
 31
0.0
  0
LINE
  5
1E30
100
AcDbEntity
  8
外形
  6
CONTINUOUS
100
AcDbLine
 10
274.846815
 20
-272.463213
 30
0.0
 11
274.602738
 21
-272.219136
 31
0.0
  0
LINE
  5
1E31
100
AcDbEntity
  8
外形
  6
CONTINUOUS
100
AcDbLine
 10
274.602738
 20
-283.166793
 30
0.0
 11
274.602738
 21
-272.219136
 31
0.0
  0
LINE
  5
1E32
100
AcDbEntity
  8
外形
  6
CONTINUOUS
100
AcDbLine
 10
242.002738
 20
-285.867051
 30
0.0
 11
242.002738
 21
-303.817597
 31
0.0
  0
LINE
  5
1E33
100
AcDbEntity
  8
外形
  6
CONTINUOUS
100
AcDbLine
 10
241.049222
 20
-305.469136
 30
0.0
 11
242.002738
 21
-303.817597
 31
0.0
  0
LINE
  5
1E34
100
AcDbEntity
  8
外形
  6
CONTINUOUS
100
AcDbLine
 10
241.049222
 20
-285.96727
 30
0.0
 11
241.049222
 21
-305.469136
 31
0.0
  0
LINE
  5
1E35
100
AcDbEntity
  8
外形
  6
CONTINUOUS
100
AcDbLine
 10
274.846815
 20
-283.166793
 30
0.0
 11
251.99011
 21
-283.166793
 31
0.0
  0
LINE
  5
1E36
100
AcDbEntity
  8
外形
  6
CONTINUOUS
100
AcDbLine
 10
274.846815
 20
-292.771479
 30
0.0
 11
242.946445
 21
-292.771479
 31
0.0
  0
LINE
  5
1E38
100
AcDbEntity
  8
外形
  6
CONTINUOUS
100
AcDbLine
 10
274.602738
 20
-272.219136
 30
0.0
 11
259.205027
 21
-272.219136
 31
0.0
  0
LINE
  5
1E39
100
AcDbEntity
  8
外形
  6
CONTINUOUS
100
AcDbLine
 10
274.602738
 20
-303.719136
 30
0.0
 11
242.002738
 21
-303.719136
 31
0.0
  0
LINE
  5
1E3A
100
AcDbEntity
  8
外形
  6
CONTINUOUS
100
AcDbLine
 10
242.946445
 20
-292.771479
 30
0.0
 11
242.946445
 21
-285.77786
 31
0.0
  0
SPLINE
  5
1E3C
100
AcDbEntity
  8
外形
  6
CONTINUOUS
100
AcDbSpline
210
0.0
220
0.0
230
1.0
 70
     8
 71
     3
 72
    11
 73
     7
 74
     5
 42
0.0000001
 43
0.0000001
 44
0.0000000001
 40
0.0
 40
0.0
 40
0.0
 40
0.0
 40
5.689448826047933
 40
11.46893000606898
 40
16.12711491672139
 40
26.72609582184153
 40
26.72609582184153
 40
26.72609582184153
 40
26.72609582184153
 10
261.0027383741377
 20
-272.219136057154
 30
0.0
 10
260.1803014693712
 20
-273.9328736986442
 30
0.0
 10
258.5224130545935
 20
-277.3874679238409
 30
0.0
 10
254.927699529746
 20
-281.5194079323085
 30
0.0
 10
248.7712445188196
 20
-285.1233666665125
 30
0.0
 10
243.6245631817224
 20
-285.6213361843217
 30
0.0
 10
240.0492217405068
 20
-285.967269988432
 30
0.0
 11
261.0027383741377
 21
-272.219136057154
 31
0.0
 11
258.3143101677296
 21
-277.2333340711147
 31
0.0
 11
254.4545352477853
 21
-281.5350244688056
 31
0.0
 11
250.4463045405354
 21
-283.9083708951179
 31
0.0
 11
240.0492217405068
 21
-285.967269988432
 31
0.0
  0
SPLINE
  5
1E3D
100
AcDbEntity
  8
外形
  6
CONTINUOUS
100
AcDbSpline
210
0.0
220
0.0
230
1.0
 70
     8
 71
     3
 72
    16
 73
    12
 74
    10
 42
0.0000001
 43
0.0000001
 44
0.0000000001
 40
0.0
 40
0.0
 40
0.0
 40
0.0
 40
1.668861210214553
 40
3.328349479907231
 40
6.856635113793956
 40
10.38514288392609
 40
15.50373580840373
 40
23.70226333013137
 40
29.96545804011335
 40
35.96989986245551
 40
42.49460984361225
 40
42.49460984361225
 40
42.49460984361225
 40
42.49460984361225
 10
259.2050274569473
 20
-272.219136057154
 30
0.0
 10
258.8978106238735
 20
-272.7025746305341
 30
0.0
 10
258.2851024008518
 20
-273.6667366078323
 30
0.0
 10
256.0599398958675
 20
-274.4691692586666
 30
0.0
 10
253.4761953704994
 20
-275.7550265099445
 30
0.0
 10
249.4467641811779
 20
-276.4928927498662
 30
0.0
 10
244.1986328709733
 20
-278.6268393510344
 30
0.0
 10
237.5395143456056
 20
-278.5028673267035
 30
0.0
 10
230.824663303225
 20
-279.3687191136175
 30
0.0
 10
224.4373594700984
 20
-279.7544071516
 30
0.0
 10
220.8308648354358
 20
-281.9982724254687
 30
0.0
 10
218.9527383741377
 20
-283.1667928790794
 30
0.0
 11
259.2050274569473
 21
-272.219136057154
 31
0.0
 11
258.1658601919634
 21
-273.5249802800017
 31
0.0
 11
256.6813313765996
 21
-274.2666510382241
 31
0.0
 11
253.4153621712612
 21
-275.6016584030248
 31
0.0
 11
250.0009429901565
 21
-276.4916633128918
 31
0.0
 11
245.1019949936881
 21
-277.9750048293371
 31
0.0
 11
236.9370836034204
 21
-278.71667558756
 31
0.0
 11
230.7020567673562
 21
-279.3100121941379
 31
0.0
 11
224.7639415059029
 21
-280.2000171040049
 31
0.0
 11
218.9527383741377
 21
-283.1667928790794
 31
0.0
  0
ELLIPSE
  5
1E40
100
AcDbEntity
  8
外形
  6
CONTINUOUS
100
AcDbEllipse
 10
236.265665
 20
-284.582872
 30
0.0
 11
-4.0
 21
0.0
 31
0.0
210
0.0
220
0.0
230
1.0
 40
0.31903
 41
0.0
 42
6.283185307179586
  0
LINE
  5
1E41
100
AcDbEntity
  8
外形
  6
CONTINUOUS
100
AcDbLine
 10
233.678175
 20
-283.609707
 30
0.0
 11
236.265665
 21
-285.156135
 31
0.0
  0
LINE
  5
1E42
100
AcDbEntity
  8
外形
  6
CONTINUOUS
100
AcDbLine
 10
236.265665
 20
-285.156135
 30
0.0
 11
238.348691
 21
-283.493443
 31
0.0
  0
LINE
  5
1E43
100
AcDbEntity
  8
外形
  6
CONTINUOUS
100
AcDbLine
 10
232.265665
 20
-284.582872
 30
0.0
 11
236.265665
 21
-285.156135
 31
0.0
  0
LINE
  5
1E44
100
AcDbEntity
  8
外形
  6
CONTINUOUS
100
AcDbLine
 10
236.265665
 20
-285.156135
 30
0.0
 11
240.265665
 21
-284.582872
 31
0.0
  0
LINE
  5
1E45
100
AcDbEntity
  8
外形
  6
CONTINUOUS
100
AcDbLine
 10
236.265665
 20
-285.156135
 30
0.0
 11
236.265665
 21
-285.85899
 31
0.0
  0
DIMENSION
  5
1E53
100
AcDbEntity
  8
寸法
  6
CONTINUOUS
100
AcDbDimension
  2
*D2
 10
206.71836
 20
-210.37496
 30
0.0
 11
204.21836
 21
-221.37496
 31
0.0
 70
    32
  3
STANDARD
100
AcDbAlignedDimension
 13
221.002738
 23
-232.37496
 33
0.0
 14
213.663145
 24
-210.37496
 34
0.0
 50
90.0
100
AcDbRotatedDimension
1001
ACAD
1000
DSTYLE
1002
{
1070
    40
1040
1.0
1002
}
  0
DIMENSION
  5
1E62
100
AcDbEntity
  8
寸法
  6
CONTINUOUS
100
AcDbDimension
  2
*D3
 10
221.002738
 20
-232.37496
 30
0.0
 11
195.507305
 21
-212.811625
 31
0.0
 70
    34
  3
STANDARD
100
AcDb2LineAngularDimension
 13
217.970968
 23
-221.060238
 33
0.0
 14
220.843859
 24
-231.782015
 34
0.0
 15
221.6166
 25
-232.37496
 35
0.0
 16
201.952898
 26
-209.672244
 36
0.0
1001
ACAD
1000
DSTYLE
1002
{
1070
    40
1040
1.0
1002
}
  0
DIMENSION
  5
1E75
100
AcDbEntity
  8
寸法
  6
CONTINUOUS
100
AcDbDimension
  2
*D4
 10
162.159966
 20
-232.37496
 30
0.0
 11
150.517576
 21
-245.779977
 31
0.0
 70
    34
  3
STANDARD
100
AcDb2LineAngularDimension
 13
162.159966
 23
-188.37496
 33
0.0
 14
162.159966
 24
-232.37496
 34
0.0
 15
168.6202
 25
-195.737153
 35
0.0
 16
161.03888
 26
-251.623273
 36
0.0
1001
ACAD
1000
DSTYLE
1002
{
1070
    40
1040
1.0
1002
}
  0
DIMENSION
  5
1E82
100
AcDbEntity
  8
寸法
  6
CONTINUOUS
100
AcDbDimension
  2
*D5
 10
404.101947
 20
-243.081374
 30
0.0
 11
389.101947
 21
-240.581374
 31
0.0
 70
    32
  3
STANDARD
100
AcDbAlignedDimension
 13
374.101947
 23
-215.942724
 33
0.0
 14
404.101947
 24
-215.942724
 34
0.0
100
AcDbRotatedDimension
1001
ACAD
1000
DSTYLE
1002
{
1070
    40
1040
1.0
1002
}
  0
DIMENSION
  5
1E8F
100
AcDbEntity
  8
寸法
  6
CONTINUOUS
100
AcDbDimension
  2
*D6
 10
471.002738
 20
-258.965592
 30
0.0
 11
346.002738
 21
-256.465592
 31
0.0
 70
    32
  3
STANDARD
100
AcDbAlignedDimension
 13
221.002738
 23
-232.37496
 33
0.0
 14
471.002738
 24
-223.37496
 34
0.0
100
AcDbRotatedDimension
1001
ACAD
1000
DSTYLE
1002
{
1070
    40
1040
1.0
1002
}
  0
DIMENSION
  5
1E9B
100
AcDbEntity
  8
寸法
  6
CONTINUOUS
100
AcDbDimension
  2
*D7
 10
397.753062
 20
-223.834462
 30
0.0
 11
375.403229
 21
-189.062338
 31
0.0
 70
   163
  3
STANDARD
100
AcDbDiametricDimension
 15
380.450833
 25
-196.915457
 35
0.0
 40
0.0
1001
ACAD
1000
DSTYLE
1002
{
1070
   288
1070
     1
1070
    40
1040
1.0
1002
}
  0
DIMENSION
  5
1EAE
100
AcDbEntity
  8
寸法
  6
CONTINUOUS
100
AcDbDimension
  2
*D8
 10
213.663145
 20
-287.969136
 30
0.0
 11
207.770834
 21
-280.393597
 31
0.0
 12
0.0
 22
33.516128
 32
0.0
 70
    34
  3
STANDARD
100
AcDb2LineAngularDimension
 13
221.002738
 23
-287.969136
 33
0.0
 14
241.002738
 24
-285.867051
 34
0.0
 15
477.355159
 25
-287.969136
 35
0.0
 16
203.916335
 26
-289.163934
 36
0.0
1001
ACAD
1000
DSTYLE
1002
{
1070
    40
1040
1.0
1002
}
  0
DIMENSION
  5
1EBB
100
AcDbEntity
  8
寸法
  6
CONTINUOUS
100
AcDbDimension
  2
*D9
 10
242.002738
 20
-319.827164
 30
0.0
 11
231.502738
 21
-317.327164
 31
0.0
 70
    32
  3
STANDARD
100
AcDbAlignedDimension
 13
221.002738
 23
-295.952872
 33
0.0
 14
242.002738
 24
-303.817597
 34
0.0
100
AcDbRotatedDimension
1001
ACAD
1000
DSTYLE
1002
{
1070
    40
1040
1.0
1002
}
  0
TEXT
  5
1EC7
100
AcDbEntity
  8
外形
  6
CONTINUOUS
 62
     2
100
AcDbText
 10
318.558483
 20
-336.909166
 30
0.0
 40
6.0
  1
S32SPSKNR12
100
AcDbText
  0
LINE
  5
1F35
100
AcDbEntity
  8
外形
  6
CONTINUOUS
100
AcDbLine
 10
233.567059
 20
-291.434792
 30
0.0
 11
233.069503
 21
-286.700868
 31
0.0
  0
LINE
  5
1F36
100
AcDbEntity
  8
外形
  6
CONTINUOUS
100
AcDbLine
 10
221.500294
 20
-292.70306
 30
0.0
 11
221.002738
 21
-287.969136
 31
0.0
  0
LINE
  5
1F37
100
AcDbEntity
  8
外形
  6
CONTINUOUS
100
AcDbLine
 10
218.441264
 20
-290.515547
 30
0.0
 11
217.943709
 21
-285.781622
 31
0.0
  0
LINE
  5
1F38
100
AcDbEntity
  8
外形
  6
CONTINUOUS
100
AcDbLine
 10
233.874596
 20
-294.599985
 30
0.0
 11
233.542196
 21
-291.437405
 31
0.0
  0
LINE
  5
1F39
100
AcDbEntity
  8
外形
  6
CONTINUOUS
100
AcDbLine
 10
221.857557
 20
-295.863027
 30
0.0
 11
221.525157
 21
-292.700447
 31
0.0
  0
LINE
  5
1F3A
100
AcDbEntity
  8
外形
  6
CONTINUOUS
100
AcDbLine
 10
218.798528
 20
-293.675513
 30
0.0
 11
218.468445
 21
-290.534983
 31
0.0
  0
ENDSEC
  0
SECTION
  2
OBJECTS
  0
DICTIONARY
  5
1E
100
AcDbDictionary
  3
ACAD_GROUP
350
1C
  3
ACAD_MLINESTYLE
350
1D
  3
ACDBVARIABLEDICTIONARY
350
147A
  3
DRAWINGVARIABLESDICT
350
C58
  0
DICTIONARY
  5
38
100
AcDbDictionary
280
     1
  3
ACAD_XREC_ROUNDTRIP
360
39
  0
DICTIONARY
  5
22
100
AcDbDictionary
280
     1
  3
ACAD_XREC_ROUNDTRIP
360
23
  0
DICTIONARY
  5
3
100
AcDbDictionary
280
     1
  3
ACAD_LAYOUTSELFREF
360
4
  0
DICTIONARY
  5
A
100
AcDbDictionary
280
     1
  3
ACAD_LAYOUTSELFREF
360
B
  0
DICTIONARY
  5
1C
102
{ACAD_REACTORS
330
1E
102
}
100
AcDbDictionary
  0
DICTIONARY
  5
1D
102
{ACAD_REACTORS
330
1E
102
}
100
AcDbDictionary
  3
STANDARD
350
20
  0
DICTIONARY
  5
147A
102
{ACAD_REACTORS
330
1E
102
}
100
AcDbDictionary
  3
SORTENTS
350
147B
  0
DICTIONARY
  5
C58
102
{ACAD_REACTORS
330
1E
102
}
100
AcDbDictionary
1001
DRAWINGVARIABLESXDATA
1000
POLARMODE
1000
0
  0
XRECORD
  5
39
102
{ACAD_REACTORS
330
38
102
}
100
AcDbXrecord
102
PLOTBIT
280
     0
  0
XRECORD
  5
23
102
{ACAD_REACTORS
330
22
102
}
100
AcDbXrecord
102
ACADR14ROUNDTRIP
1000
DSTYLE
1002
{
1070
   341
340
0
1070
   343
340
0
1070
   344
340
0
1002
}
  0
XRECORD
  5
4
102
{ACAD_REACTORS
330
3
102
}
100
AcDbXrecord
340
2
  0
XRECORD
  5
B
102
{ACAD_REACTORS
330
A
102
}
100
AcDbXrecord
340
9
  0
MLINESTYLE
  5
20
102
{ACAD_REACTORS
330
1D
102
}
100
AcDbMlineStyle
  2
STANDARD
 70
     0
  3

 62
     0
 51
90.0
 52
90.0
 71
     2
 49
0.5
 62
   256
  6
BYLAYER
 49
-0.5
 62
   256
  6
BYLAYER
  0
DICTIONARYVAR
  5
147B
102
{ACAD_REACTORS
330
147A
102
}
100
DictionaryVariables
280
     0
  1
96
  0
ENDSEC
  0
EOF
