  0
SECTION
  2
HEADER
  9
$ACADVER
  1
AC1014
  9
$ACADMAINTVER
 70
     0
  9
$DWGCODEPAGE
  3
ANSI_932
  9
$INSBASE
 10
396.632901
 20
206.378539
 30
0.0
  9
$EXTMIN
 10
400.55121
 20
182.015516
 30
0.0
  9
$EXTMAX
 10
768.586006
 20
344.777444
 30
0.0
  9
$LIMMIN
 10
-587.250952
 20
327.890188
  9
$LIMMAX
 10
600.749048
 20
957.890188
  9
$ORTHOMODE
 70
     0
  9
$REGENMODE
 70
     1
  9
$FILLMODE
 70
     1
  9
$QTEXTMODE
 70
     0
  9
$MIRRTEXT
 70
     1
  9
$DRAGMODE
 70
     2
  9
$LTSCALE
 40
5.0
  9
$OSMODE
 70
   303
  9
$ATTMODE
 70
     1
  9
$TEXTSIZE
 40
5.0
  9
$TRACEWID
 40
0.05
  9
$TEXTSTYLE
  7
STANDARD
  9
$CLAYER
  8
外形
  9
$CELTYPE
  6
CONTINUOUS
  9
$CECOLOR
 62
   256
  9
$CELTSCALE
 40
1.0
  9
$DELOBJ
 70
     1
  9
$DISPSILH
 70
     0
  9
$DIMSCALE
 40
0.0
  9
$DIMASZ
 40
2.0
  9
$DIMEXO
 40
1.0
  9
$DIMDLI
 40
8.0
  9
$DIMRND
 40
0.0
  9
$DIMDLE
 40
0.0
  9
$DIMEXE
 40
2.0
  9
$DIMTP
 40
0.0
  9
$DIMTM
 40
0.0
  9
$DIMTXT
 40
3.0
  9
$DIMCEN
 40
-1.0
  9
$DIMTSZ
 40
0.0
  9
$DIMTOL
 70
     0
  9
$DIMLIM
 70
     0
  9
$DIMTIH
 70
     0
  9
$DIMTOH
 70
     0
  9
$DIMSE1
 70
     0
  9
$DIMSE2
 70
     0
  9
$DIMTAD
 70
     1
  9
$DIMZIN
 70
     8
  9
$DIMBLK
  1

  9
$DIMASO
 70
     1
  9
$DIMSHO
 70
     1
  9
$DIMPOST
  1

  9
$DIMAPOST
  1

  9
$DIMALT
 70
     0
  9
$DIMALTD
 70
     2
  9
$DIMALTF
 40
25.4
  9
$DIMLFAC
 40
1.0
  9
$DIMTOFL
 70
     1
  9
$DIMTVP
 40
0.0
  9
$DIMTIX
 70
     0
  9
$DIMSOXD
 70
     0
  9
$DIMSAH
 70
     1
  9
$DIMBLK1
  1
_OPEN30
  9
$DIMBLK2
  1
_OPEN30
  9
$DIMSTYLE
  2
STANDARD
  9
$DIMCLRD
 70
     1
  9
$DIMCLRE
 70
     1
  9
$DIMCLRT
 70
     3
  9
$DIMTFAC
 40
1.0
  9
$DIMGAP
 40
1.0
  9
$DIMJUST
 70
     0
  9
$DIMSD1
 70
     0
  9
$DIMSD2
 70
     0
  9
$DIMTOLJ
 70
     1
  9
$DIMTZIN
 70
     8
  9
$DIMALTZ
 70
     0
  9
$DIMALTTZ
 70
     0
  9
$DIMFIT
 70
     3
  9
$DIMUPT
 70
     0
  9
$DIMUNIT
 70
     2
  9
$DIMDEC
 70
     2
  9
$DIMTDEC
 70
     2
  9
$DIMALTU
 70
     2
  9
$DIMALTTD
 70
     2
  9
$DIMTXSTY
  7
STANDARD
  9
$DIMAUNIT
 70
     1
  9
$LUNITS
 70
     2
  9
$LUPREC
 70
     3
  9
$SKETCHINC
 40
0.1
  9
$FILLETRAD
 40
5.0
  9
$AUNITS
 70
     0
  9
$AUPREC
 70
     3
  9
$MENU
  1
acad
  9
$ELEVATION
 40
0.0
  9
$PELEVATION
 40
0.0
  9
$THICKNESS
 40
0.0
  9
$LIMCHECK
 70
     0
  9
$BLIPMODE
 70
     0
  9
$CHAMFERA
 40
0.0
  9
$CHAMFERB
 40
0.0
  9
$CHAMFERC
 40
0.0
  9
$CHAMFERD
 40
0.0
  9
$SKPOLY
 70
     0
  9
$TDCREATE
 40
2450751.535399305
  9
$TDUPDATE
 40
2452030.592395833
  9
$TDINDWG
 40
4.8370747685
  9
$TDUSRTIMER
 40
4.8370747685
  9
$USRTIMER
 70
     1
  9
$ANGBASE
 50
0.0
  9
$ANGDIR
 70
     0
  9
$PDMODE
 70
    32
  9
$PDSIZE
 40
0.0
  9
$PLINEWID
 40
0.0
  9
$COORDS
 70
     2
  9
$SPLFRAME
 70
     0
  9
$SPLINETYPE
 70
     5
  9
$SPLINESEGS
 70
     8
  9
$ATTDIA
 70
     0
  9
$ATTREQ
 70
     1
  9
$HANDLING
 70
     1
  9
$HANDSEED
  5
4CF
  9
$SURFTAB1
 70
     6
  9
$SURFTAB2
 70
     6
  9
$SURFTYPE
 70
     6
  9
$SURFU
 70
     6
  9
$SURFV
 70
     6
  9
$UCSNAME
  2

  9
$UCSORG
 10
0.0
 20
0.0
 30
0.0
  9
$UCSXDIR
 10
1.0
 20
0.0
 30
0.0
  9
$UCSYDIR
 10
0.0
 20
1.0
 30
0.0
  9
$PUCSNAME
  2

  9
$PUCSORG
 10
0.0
 20
0.0
 30
0.0
  9
$PUCSXDIR
 10
1.0
 20
0.0
 30
0.0
  9
$PUCSYDIR
 10
0.0
 20
1.0
 30
0.0
  9
$USERI1
 70
     0
  9
$USERI2
 70
     0
  9
$USERI3
 70
     0
  9
$USERI4
 70
     0
  9
$USERI5
 70
     0
  9
$USERR1
 40
0.0
  9
$USERR2
 40
0.0
  9
$USERR3
 40
0.0
  9
$USERR4
 40
0.0
  9
$USERR5
 40
0.0
  9
$WORLDVIEW
 70
     1
  9
$SHADEDGE
 70
     3
  9
$SHADEDIF
 70
    70
  9
$TILEMODE
 70
     1
  9
$MAXACTVP
 70
    16
  9
$PINSBASE
 10
0.0
 20
0.0
 30
0.0
  9
$PLIMCHECK
 70
     0
  9
$PEXTMIN
 10
1.000000E+20
 20
1.000000E+20
 30
1.000000E+20
  9
$PEXTMAX
 10
-1.000000E+20
 20
-1.000000E+20
 30
-1.000000E+20
  9
$PLIMMIN
 10
0.0
 20
0.0
  9
$PLIMMAX
 10
12.0
 20
9.0
  9
$UNITMODE
 70
     0
  9
$VISRETAIN
 70
     0
  9
$PLINEGEN
 70
     0
  9
$PSLTSCALE
 70
     1
  9
$TREEDEPTH
 70
  3020
  9
$PICKSTYLE
 70
     1
  9
$CMLSTYLE
  2
STANDARD
  9
$CMLJUST
 70
     0
  9
$CMLSCALE
 40
1.0
  9
$PROXYGRAPHICS
 70
     1
  9
$MEASUREMENT
 70
     0
  0
ENDSEC
  0
SECTION
  2
CLASSES
  0
CLASS
  1
LWPOLYLINE
  2
AcDbPolyline
  3
"AutoCAD"
 90
        0
280
     0
281
     1
  0
CLASS
  1
ACDBDICTIONARYWDFLT
  2
AcDbDictionaryWithDefault
  3
AutoCAD 2000
 90
        0
280
     1
281
     0
  0
CLASS
  1
ACDBPLACEHOLDER
  2
AcDbPlaceHolder
  3
AutoCAD 2000
 90
        0
280
     1
281
     0
  0
CLASS
  1
LAYOUT
  2
AcDbLayout
  3
AutoCAD 2000
 90
        0
280
     1
281
     0
  0
CLASS
  1
LONG_TRANSACTION
  2
AcDbLongTransaction
  3
AutoCAD 2000
 90
        0
280
     1
281
     0
  0
CLASS
  1
LWPOLYLINE
  2
AcDbPolyline
  3
"AutoCAD"
 90
        0
280
     0
281
     1
  0
CLASS
  1
HATCH
  2
AcDbHatch
  3
"ACAD_SEDONA"
 90
        0
280
     0
281
     1
  0
CLASS
  1
XRECORD
  2
AcDbXrecord
  3
"<Built In>"
 90
        0
280
     0
281
     0
  0
CLASS
  1
DICTIONARYVAR
  2
AcDbDictionaryVar
  3
"AutoCAD"
 90
        0
280
     0
281
     0
  0
ENDSEC
  0
SECTION
  2
TABLES
  0
TABLE
  2
VPORT
  5
16
100
AcDbSymbolTable
 70
     1
  0
VPORT
  5
4CA
100
AcDbSymbolTableRecord
100
AcDbViewportTableRecord
  2
*ACTIVE
 70
     0
 10
0.0
 20
0.0
 11
1.0
 21
1.0
 12
591.526237
 22
270.004797
 13
0.0
 23
0.0
 14
1.0
 24
1.0
 15
10.0
 25
10.0
 16
0.0
 26
0.0
 36
1.0
 17
0.0
 27
0.0
 37
0.0
 40
261.176631
 41
1.710425
 42
50.0
 43
0.0
 44
0.0
 50
0.0
 51
0.0
 71
     0
 72
   100
 73
     1
 74
     1
 75
     0
 76
     0
 77
     0
 78
     2
  0
ENDTAB
  0
TABLE
  2
LTYPE
  5
11
100
AcDbSymbolTable
 70
     3
  0
LTYPE
  5
12
100
AcDbSymbolTableRecord
100
AcDbLinetypeTableRecord
  2
BYBLOCK
 70
     0
  3

 72
    65
 73
     0
 40
0.0
  0
LTYPE
  5
13
100
AcDbSymbolTableRecord
100
AcDbLinetypeTableRecord
  2
BYLAYER
 70
     0
  3

 72
    65
 73
     0
 40
0.0
  0
LTYPE
  5
7
100
AcDbSymbolTableRecord
100
AcDbLinetypeTableRecord
  2
CONTINUOUS
 70
     0
  3
Solid line
 72
    65
 73
     0
 40
0.0
  0
LTYPE
  5
50
100
AcDbSymbolTableRecord
100
AcDbLinetypeTableRecord
  2
CENTER
 70
     0
  3
Center ____ _ ____ _ ____ _ ____ _ ____ _ ____
 72
    65
 73
     4
 40
2.0
 49
1.25
 74
     0
 49
-0.25
 74
     0
 49
0.25
 74
     0
 49
-0.25
 74
     0
  0
LTYPE
  5
E8
100
AcDbSymbolTableRecord
100
AcDbLinetypeTableRecord
  2
HIDDEN
 70
     0
  3
Hidden __ __ __ __ __ __ __ __ __ __ __ __ __ _
 72
    65
 73
     2
 40
0.375
 49
0.25
 74
     0
 49
-0.125
 74
     0
  0
ENDTAB
  0
TABLE
  2
LAYER
  5
E
100
AcDbSymbolTable
 70
     5
  0
LAYER
  5
6
100
AcDbSymbolTableRecord
100
AcDbLayerTableRecord
  2
0
 70
     0
 62
     7
  6
CONTINUOUS
  0
LAYER
  5
1F
100
AcDbSymbolTableRecord
100
AcDbLayerTableRecord
  2
外形
 70
     0
 62
     4
  6
CONTINUOUS
  0
LAYER
  5
36
102
{ACAD_XDICTIONARY
360
37
102
}
100
AcDbSymbolTableRecord
100
AcDbLayerTableRecord
  2
DEFPOINTS
 70
     0
 62
     7
  6
CONTINUOUS
  0
LAYER
  5
57
100
AcDbSymbolTableRecord
100
AcDbLayerTableRecord
  2
寸法
 70
     0
 62
     1
  6
CONTINUOUS
  0
LAYER
  5
2D
100
AcDbSymbolTableRecord
100
AcDbLayerTableRecord
  2
参考
 70
     0
 62
     2
  6
CONTINUOUS
  0
ENDTAB
  0
TABLE
  2
STYLE
  5
F
100
AcDbSymbolTable
 70
     1
  0
STYLE
  5
10
100
AcDbSymbolTableRecord
100
AcDbTextStyleTableRecord
  2
STANDARD
 70
     0
 40
0.0
 41
1.0
 50
0.0
 71
     0
 42
5.0
  3
MONOTXT
  4
BIGFONT
  0
ENDTAB
  0
TABLE
  2
VIEW
  5
14
100
AcDbSymbolTable
 70
     0
  0
ENDTAB
  0
TABLE
  2
UCS
  5
15
100
AcDbSymbolTable
 70
     0
  0
ENDTAB
  0
TABLE
  2
APPID
  5
18
100
AcDbSymbolTable
 70
     1
  0
APPID
  5
19
100
AcDbSymbolTableRecord
100
AcDbRegAppTableRecord
  2
ACAD
 70
     0
  0
ENDTAB
  0
TABLE
  2
DIMSTYLE
  5
1A
100
AcDbSymbolTable
 70
     2
  0
DIMSTYLE
105
58
102
{ACAD_XDICTIONARY
360
59
102
}
102
{ACAD_REACTORS
330
269
330
484
330
4A7
102
}
100
AcDbSymbolTableRecord
100
AcDbDimStyleTableRecord
  2
STANDARD
 70
     0
  3

  4

  5

  6
_OPEN30
  7
_OPEN30
 40
0.0
 41
2.0
 42
1.0
 43
8.0
 44
2.0
 45
0.0
 46
0.0
 47
0.0
 48
0.0
140
3.0
141
-1.0
142
0.0
143
25.4
144
1.0
145
0.0
146
1.0
147
1.0
 71
     0
 72
     0
 73
     0
 74
     0
 75
     0
 76
     0
 77
     1
 78
     8
170
     0
171
     2
172
     1
173
     1
174
     0
175
     0
176
     1
177
     1
178
     3
270
     2
271
     2
272
     2
273
     2
274
     2
340
10
275
     0
280
     0
281
     0
282
     0
283
     1
284
     8
285
     0
286
     0
287
     3
288
     0
  0
DIMSTYLE
105
21
100
AcDbSymbolTableRecord
100
AcDbDimStyleTableRecord
  2
参考寸法
 70
     0
  3

  4

  5

  6
_DOTSMALL
  7
_DOTSMALL
 40
1.0
 41
2.0
 42
1.0
 43
8.0
 44
2.0
 45
0.0
 46
0.0
 47
0.0
 48
0.0
140
2.0
141
-1.0
142
0.0
143
25.4
144
1.0
145
0.0
146
1.0
147
1.0
 71
     0
 72
     0
 73
     0
 74
     0
 75
     0
 76
     0
 77
     1
 78
     8
170
     0
171
     2
172
     1
173
     1
174
     0
175
     0
176
     2
177
     2
178
     2
270
     2
271
     3
272
     2
273
     2
274
     2
340
10
275
     0
280
     0
281
     0
282
     0
283
     1
284
     8
285
     0
286
     0
287
     3
288
     0
  0
ENDTAB
  0
TABLE
  2
BLOCK_RECORD
  5
1
100
AcDbSymbolTable
 70
    23
  0
BLOCK_RECORD
  5
2
102
{ACAD_XDICTIONARY
360
3
102
}
100
AcDbSymbolTableRecord
100
AcDbBlockTableRecord
  2
*MODEL_SPACE
  0
BLOCK_RECORD
  5
9
102
{ACAD_XDICTIONARY
360
A
102
}
100
AcDbSymbolTableRecord
100
AcDbBlockTableRecord
  2
*PAPER_SPACE
  0
BLOCK_RECORD
  5
22
100
AcDbSymbolTableRecord
100
AcDbBlockTableRecord
  2
_DOTSMALL
  0
BLOCK_RECORD
  5
5B
100
AcDbSymbolTableRecord
100
AcDbBlockTableRecord
  2
_OPEN30
  0
BLOCK_RECORD
  5
2B3
100
AcDbSymbolTableRecord
100
AcDbBlockTableRecord
  2
*D4
  0
BLOCK_RECORD
  5
31D
100
AcDbSymbolTableRecord
100
AcDbBlockTableRecord
  2
*D12
  0
BLOCK_RECORD
  5
33F
100
AcDbSymbolTableRecord
100
AcDbBlockTableRecord
  2
*D15
  0
BLOCK_RECORD
  5
364
100
AcDbSymbolTableRecord
100
AcDbBlockTableRecord
  2
*D18
  0
BLOCK_RECORD
  5
370
100
AcDbSymbolTableRecord
100
AcDbBlockTableRecord
  2
*D19
  0
BLOCK_RECORD
  5
37B
100
AcDbSymbolTableRecord
100
AcDbBlockTableRecord
  2
*D20
  0
BLOCK_RECORD
  5
474
100
AcDbSymbolTableRecord
100
AcDbBlockTableRecord
  2
*D21
  0
BLOCK_RECORD
  5
497
100
AcDbSymbolTableRecord
100
AcDbBlockTableRecord
  2
*D22
  0
ENDTAB
  0
ENDSEC
  0
SECTION
  2
BLOCKS
  0
BLOCK
  5
5
100
AcDbEntity
  8
0
100
AcDbBlockBegin
  2
*MODEL_SPACE
 70
     0
 10
0.0
 20
0.0
 30
0.0
  3
*MODEL_SPACE
  1

  0
ENDBLK
  5
8
100
AcDbEntity
  8
0
100
AcDbBlockEnd
  0
BLOCK
  5
C
100
AcDbEntity
 67
     1
  8
0
100
AcDbBlockBegin
  2
*PAPER_SPACE
 70
     0
 10
0.0
 20
0.0
 30
0.0
  3
*PAPER_SPACE
  1

  0
ENDBLK
  5
D
100
AcDbEntity
 67
     1
  8
0
100
AcDbBlockEnd
  0
BLOCK
  5
27
100
AcDbEntity
  8
0
100
AcDbBlockBegin
  2
_DOTSMALL
 70
     0
 10
0.0
 20
0.0
 30
0.0
  3
_DOTSMALL
  1

  0
POLYLINE
  5
23
100
AcDbEntity
  8
0
  6
BYBLOCK
 62
     0
100
AcDb2dPolyline
 66
     1
 10
0.0
 20
0.0
 30
0.0
 70
     1
 40
0.5
 41
0.5
  0
VERTEX
  5
24
100
AcDbEntity
  8
0
  6
BYBLOCK
 62
     0
100
AcDbVertex
100
AcDb2dVertex
 10
-0.0625
 20
0.0
 30
0.0
 42
1.0
  0
VERTEX
  5
25
100
AcDbEntity
  8
0
  6
BYBLOCK
 62
     0
100
AcDbVertex
100
AcDb2dVertex
 10
0.0625
 20
0.0
 30
0.0
 42
1.0
  0
SEQEND
  5
26
100
AcDbEntity
  8
0
  6
BYBLOCK
 62
     0
  0
ENDBLK
  5
28
100
AcDbEntity
  8
0
100
AcDbBlockEnd
  0
BLOCK
  5
5F
100
AcDbEntity
  8
0
100
AcDbBlockBegin
  2
_OPEN30
 70
     0
 10
0.0
 20
0.0
 30
0.0
  3
_OPEN30
  1

  0
LINE
  5
5C
100
AcDbEntity
  8
0
  6
BYBLOCK
 62
     0
100
AcDbLine
 10
-1.0
 20
0.267949
 30
0.0
 11
0.0
 21
0.0
 31
0.0
  0
LINE
  5
5D
100
AcDbEntity
  8
0
  6
BYBLOCK
 62
     0
100
AcDbLine
 10
0.0
 20
0.0
 30
0.0
 11
-1.0
 21
-0.267949
 31
0.0
  0
LINE
  5
5E
100
AcDbEntity
  8
0
  6
BYBLOCK
 62
     0
100
AcDbLine
 10
0.0
 20
0.0
 30
0.0
 11
-1.0
 21
0.0
 31
0.0
  0
ENDBLK
  5
60
100
AcDbEntity
  8
0
100
AcDbBlockEnd
  0
BLOCK
  5
3A1
100
AcDbEntity
  8
0
100
AcDbBlockBegin
  2
*D4
 70
     1
 10
0.0
 20
0.0
 30
0.0
  3
*D4
  1

  0
LINE
  5
3A2
100
AcDbEntity
  8
0
  6
BYBLOCK
 62
     1
100
AcDbLine
 10
507.039769
 20
290.40822
 30
0.0
 11
507.039769
 21
267.127214
 31
0.0
  0
LINE
  5
3A3
100
AcDbEntity
  8
0
  6
BYBLOCK
 62
     1
100
AcDbLine
 10
757.035681
 20
300.40822
 30
0.0
 11
757.035681
 21
267.127214
 31
0.0
  0
LINE
  5
3A4
100
AcDbEntity
  8
0
  6
BYBLOCK
 62
     1
100
AcDbLine
 10
509.039769
 20
269.127214
 30
0.0
 11
755.035681
 21
269.127214
 31
0.0
  0
INSERT
  5
3A5
100
AcDbEntity
  8
0
  6
BYBLOCK
 62
     1
100
AcDbBlockReference
  2
_OPEN30
 10
507.039769
 20
269.127214
 30
0.0
 41
2.0
 42
2.0
 43
2.0
 50
180.0
  0
INSERT
  5
3A6
100
AcDbEntity
  8
0
  6
BYBLOCK
 62
     1
100
AcDbBlockReference
  2
_OPEN30
 10
757.035681
 20
269.127214
 30
0.0
 41
2.0
 42
2.0
 43
2.0
  0
MTEXT
  5
3A7
100
AcDbEntity
  8
0
  6
BYBLOCK
 62
     3
100
AcDbMText
 10
632.037725
 20
271.627214
 30
0.0
 40
3.0
 41
0.0
 71
     5
 72
     1
  1
\A1;250
  0
POINT
  5
3A8
100
AcDbEntity
  8
DEFPOINTS
  6
BYBLOCK
 62
     0
100
AcDbPoint
 10
507.039769
 20
291.40822
 30
0.0
  0
POINT
  5
3A9
100
AcDbEntity
  8
DEFPOINTS
  6
BYBLOCK
 62
     0
100
AcDbPoint
 10
757.035681
 20
301.40822
 30
0.0
  0
POINT
  5
3AA
100
AcDbEntity
  8
DEFPOINTS
  6
BYBLOCK
 62
     0
100
AcDbPoint
 10
757.035681
 20
269.127214
 30
0.0
  0
ENDBLK
  5
3AB
100
AcDbEntity
  8
0
100
AcDbBlockEnd
  0
BLOCK
  5
403
100
AcDbEntity
  8
0
100
AcDbBlockBegin
  2
*D12
 70
     1
 10
0.0
 20
0.0
 30
0.0
  3
*D12
  1

  0
LINE
  5
404
100
AcDbEntity
  8
0
  6
BYBLOCK
 62
     1
100
AcDbLine
 10
508.082793
 20
291.40822
 30
0.0
 11
518.402743
 21
291.40822
 31
0.0
  0
ARC
  5
405
100
AcDbEntity
  8
0
  6
BYBLOCK
 62
     1
100
AcDbCircle
 10
507.082793
 20
291.40822
 30
0.0
 40
9.31995
100
AcDbArc
 50
335.361975
 51
347.680988
  0
ARC
  5
406
100
AcDbEntity
  8
0
  6
BYBLOCK
 62
     1
100
AcDbCircle
 10
507.082793
 20
291.40822
 30
0.0
 40
9.31995
100
AcDbArc
 50
105.319012
 51
117.638025
  0
ARC
  5
407
100
AcDbEntity
  8
0
  6
BYBLOCK
 62
     1
100
AcDbCircle
 10
507.082793
 20
291.40822
 30
0.0
 40
9.31995
100
AcDbArc
 50
360.0
 51
93.0
  0
INSERT
  5
408
100
AcDbEntity
  8
0
  6
BYBLOCK
 62
     1
100
AcDbBlockReference
  2
_OPEN30
 10
516.402743
 20
291.40822
 30
0.0
 41
2.0
 42
2.0
 43
2.0
 50
83.840494
  0
INSERT
  5
409
100
AcDbEntity
  8
0
  6
BYBLOCK
 62
     1
100
AcDbBlockReference
  2
_OPEN30
 10
506.595025
 20
300.715397
 30
0.0
 41
2.0
 42
2.0
 43
2.0
 50
9.159506
  0
MTEXT
  5
40A
100
AcDbEntity
  8
0
  6
BYBLOCK
 62
     3
100
AcDbMText
 10
515.21911
 20
299.982109
 30
0.0
 40
3.0
 41
0.0
 71
     5
 72
     1
  1
\A1;93°
 11
0.725374
 21
-0.688355
 31
0.0
  0
POINT
  5
40B
100
AcDbEntity
  8
DEFPOINTS
  6
BYBLOCK
 62
     0
100
AcDbPoint
 10
515.07155
 20
296.208349
 30
0.0
  0
POINT
  5
40C
100
AcDbEntity
  8
DEFPOINTS
  6
BYBLOCK
 62
     0
100
AcDbPoint
 10
507.038673
 20
292.250088
 30
0.0
  0
POINT
  5
40D
100
AcDbEntity
  8
DEFPOINTS
  6
BYBLOCK
 62
     0
100
AcDbPoint
 10
506.239769
 20
291.40822
 30
0.0
  0
POINT
  5
40E
100
AcDbEntity
  8
DEFPOINTS
  6
BYBLOCK
 62
     0
100
AcDbPoint
 10
507.039769
 20
291.40822
 30
0.0
  0
POINT
  5
40F
100
AcDbEntity
  8
DEFPOINTS
  6
BYBLOCK
 62
     0
100
AcDbPoint
 10
506.302687
 20
306.29354
 30
0.0
  0
ENDBLK
  5
410
100
AcDbEntity
  8
0
100
AcDbBlockEnd
  0
BLOCK
  5
422
100
AcDbEntity
  8
0
100
AcDbBlockBegin
  2
*D15
 70
     1
 10
0.0
 20
0.0
 30
0.0
  3
*D15
  1

  0
LINE
  5
423
100
AcDbEntity
  8
0
  6
BYBLOCK
 62
     1
100
AcDbLine
 10
506.039769
 20
291.40822
 30
0.0
 11
458.664721
 21
291.40822
 31
0.0
  0
LINE
  5
424
100
AcDbEntity
  8
0
  6
BYBLOCK
 62
     1
100
AcDbLine
 10
481.524916
 20
313.40822
 30
0.0
 11
458.664721
 21
313.40822
 31
0.0
  0
LINE
  5
425
100
AcDbEntity
  8
0
  6
BYBLOCK
 62
     1
100
AcDbLine
 10
460.664721
 20
293.40822
 30
0.0
 11
460.664721
 21
311.40822
 31
0.0
  0
INSERT
  5
426
100
AcDbEntity
  8
0
  6
BYBLOCK
 62
     1
100
AcDbBlockReference
  2
_OPEN30
 10
460.664721
 20
291.40822
 30
0.0
 41
2.0
 42
2.0
 43
2.0
 50
270.0
  0
INSERT
  5
427
100
AcDbEntity
  8
0
  6
BYBLOCK
 62
     1
100
AcDbBlockReference
  2
_OPEN30
 10
460.664721
 20
313.40822
 30
0.0
 41
2.0
 42
2.0
 43
2.0
 50
90.0
  0
MTEXT
  5
428
100
AcDbEntity
  8
0
  6
BYBLOCK
 62
     3
100
AcDbMText
 10
458.164721
 20
302.40822
 30
0.0
 40
3.0
 41
0.0
 71
     5
 72
     1
  1
\A1;22
 11
0.0
 21
1.0
 31
0.0
  0
POINT
  5
429
100
AcDbEntity
  8
DEFPOINTS
  6
BYBLOCK
 62
     0
100
AcDbPoint
 10
507.039769
 20
291.40822
 30
0.0
  0
POINT
  5
42A
100
AcDbEntity
  8
DEFPOINTS
  6
BYBLOCK
 62
     0
100
AcDbPoint
 10
482.524916
 20
313.40822
 30
0.0
  0
POINT
  5
42B
100
AcDbEntity
  8
DEFPOINTS
  6
BYBLOCK
 62
     0
100
AcDbPoint
 10
460.664721
 20
313.40822
 30
0.0
  0
ENDBLK
  5
42C
100
AcDbEntity
  8
0
100
AcDbBlockEnd
  0
BLOCK
  5
469
100
AcDbEntity
  8
0
100
AcDbBlockBegin
  2
*D18
 70
     1
 10
0.0
 20
0.0
 30
0.0
  3
*D18
  1

  0
LINE
  5
46A
100
AcDbEntity
  8
0
  6
BYBLOCK
 62
     1
100
AcDbLine
 10
508.039769
 20
291.40822
 30
0.0
 11
541.499724
 21
291.40822
 31
0.0
  0
LINE
  5
46B
100
AcDbEntity
  8
0
  6
BYBLOCK
 62
     1
100
AcDbLine
 10
533.037018
 20
300.40822
 30
0.0
 11
541.499724
 21
300.40822
 31
0.0
  0
LINE
  5
46C
100
AcDbEntity
  8
0
  6
BYBLOCK
 62
     1
100
AcDbLine
 10
539.499724
 20
293.40822
 30
0.0
 11
539.499724
 21
298.40822
 31
0.0
  0
INSERT
  5
46D
100
AcDbEntity
  8
0
  6
BYBLOCK
 62
     1
100
AcDbBlockReference
  2
_OPEN30
 10
539.499724
 20
291.40822
 30
0.0
 41
2.0
 42
2.0
 43
2.0
 50
270.0
  0
INSERT
  5
46E
100
AcDbEntity
  8
0
  6
BYBLOCK
 62
     1
100
AcDbBlockReference
  2
_OPEN30
 10
539.499724
 20
300.40822
 30
0.0
 41
2.0
 42
2.0
 43
2.0
 50
90.0
  0
MTEXT
  5
46F
100
AcDbEntity
  8
0
  6
BYBLOCK
 62
     3
100
AcDbMText
 10
536.999724
 20
295.90822
 30
0.0
 40
3.0
 41
0.0
 71
     5
 72
     1
  1
\A1;9
 11
0.0
 21
1.0
 31
0.0
  0
POINT
  5
470
100
AcDbEntity
  8
DEFPOINTS
  6
BYBLOCK
 62
     0
100
AcDbPoint
 10
507.039769
 20
291.40822
 30
0.0
  0
POINT
  5
471
100
AcDbEntity
  8
DEFPOINTS
  6
BYBLOCK
 62
     0
100
AcDbPoint
 10
532.037018
 20
300.40822
 30
0.0
  0
POINT
  5
472
100
AcDbEntity
  8
DEFPOINTS
  6
BYBLOCK
 62
     0
100
AcDbPoint
 10
539.499724
 20
300.40822
 30
0.0
  0
ENDBLK
  5
473
100
AcDbEntity
  8
0
100
AcDbBlockEnd
  0
BLOCK
  5
44F
100
AcDbEntity
  8
0
100
AcDbBlockBegin
  2
*D19
 70
     1
 10
0.0
 20
0.0
 30
0.0
  3
*D19
  1

  0
LINE
  5
450
100
AcDbEntity
  8
0
  6
BYBLOCK
 62
     1
100
AcDbLine
 10
696.436686
 20
338.213354
 30
0.0
 11
686.868277
 21
327.066422
 31
0.0
  0
LINE
  5
451
100
AcDbEntity
  8
0
  6
BYBLOCK
 62
     1
100
AcDbLine
 10
663.420165
 20
299.750017
 30
0.0
 11
662.117492
 21
298.232439
 31
0.0
  0
MTEXT
  5
452
100
AcDbEntity
  8
0
  6
BYBLOCK
 62
     3
100
AcDbMText
 10
691.283031
 20
336.04775
 30
0.0
 40
3.0
 41
0.0
 71
     5
 72
     1
  1
\A1;\U+220532
 11
0.651336
 21
0.758789
 31
0.0
  0
LINE
  5
453
100
AcDbEntity
  8
0
  6
BYBLOCK
 62
     1
100
AcDbLine
 10
664.722838
 20
301.267595
 30
0.0
 11
685.565605
 21
325.548844
 31
0.0
  0
INSERT
  5
454
100
AcDbEntity
  8
0
  6
BYBLOCK
 62
     1
100
AcDbBlockReference
  2
_OPEN30
 10
664.722838
 20
301.267595
 30
0.0
 41
2.0
 42
2.0
 43
2.0
 50
49.357558
  0
INSERT
  5
455
100
AcDbEntity
  8
0
  6
BYBLOCK
 62
     1
100
AcDbBlockReference
  2
_OPEN30
 10
685.565605
 20
325.548844
 30
0.0
 41
2.0
 42
2.0
 43
2.0
 50
229.357558
  0
POINT
  5
456
100
AcDbEntity
  8
DEFPOINTS
  6
BYBLOCK
 62
     0
100
AcDbPoint
 10
685.565605
 20
325.548844
 30
0.0
  0
POINT
  5
457
100
AcDbEntity
  8
DEFPOINTS
  6
BYBLOCK
 62
     0
100
AcDbPoint
 10
664.722838
 20
301.267595
 30
0.0
  0
ENDBLK
  5
458
100
AcDbEntity
  8
0
100
AcDbBlockEnd
  0
BLOCK
  5
459
100
AcDbEntity
  8
0
100
AcDbBlockBegin
  2
*D20
 70
     1
 10
0.0
 20
0.0
 30
0.0
  3
*D20
  1

  0
LINE
  5
45A
100
AcDbEntity
  8
0
  6
BYBLOCK
 62
     1
100
AcDbLine
 10
660.144221
 20
306.840455
 30
0.0
 11
660.144221
 21
285.309056
 31
0.0
  0
LINE
  5
45B
100
AcDbEntity
  8
0
  6
BYBLOCK
 62
     1
100
AcDbLine
 10
690.144221
 20
306.840455
 30
0.0
 11
690.144221
 21
285.309056
 31
0.0
  0
LINE
  5
45C
100
AcDbEntity
  8
0
  6
BYBLOCK
 62
     1
100
AcDbLine
 10
662.144221
 20
287.309056
 30
0.0
 11
688.144221
 21
287.309056
 31
0.0
  0
INSERT
  5
45D
100
AcDbEntity
  8
0
  6
BYBLOCK
 62
     1
100
AcDbBlockReference
  2
_OPEN30
 10
660.144221
 20
287.309056
 30
0.0
 41
2.0
 42
2.0
 43
2.0
 50
180.0
  0
INSERT
  5
45E
100
AcDbEntity
  8
0
  6
BYBLOCK
 62
     1
100
AcDbBlockReference
  2
_OPEN30
 10
690.144221
 20
287.309056
 30
0.0
 41
2.0
 42
2.0
 43
2.0
  0
MTEXT
  5
45F
100
AcDbEntity
  8
0
  6
BYBLOCK
 62
     3
100
AcDbMText
 10
675.144221
 20
289.809056
 30
0.0
 40
3.0
 41
0.0
 71
     5
 72
     1
  1
\A1;30
  0
POINT
  5
460
100
AcDbEntity
  8
DEFPOINTS
  6
BYBLOCK
 62
     0
100
AcDbPoint
 10
660.144221
 20
307.840455
 30
0.0
  0
POINT
  5
461
100
AcDbEntity
  8
DEFPOINTS
  6
BYBLOCK
 62
     0
100
AcDbPoint
 10
690.144221
 20
307.840455
 30
0.0
  0
POINT
  5
462
100
AcDbEntity
  8
DEFPOINTS
  6
BYBLOCK
 62
     0
100
AcDbPoint
 10
690.144221
 20
287.309056
 30
0.0
  0
ENDBLK
  5
463
100
AcDbEntity
  8
0
100
AcDbBlockEnd
  0
BLOCK
  5
485
100
AcDbEntity
  8
0
100
AcDbBlockBegin
  2
*D21
 70
     1
 10
0.0
 20
0.0
 30
0.0
  3
*D21
  1

  0
LINE
  5
486
100
AcDbEntity
  8
0
  6
BYBLOCK
 62
     1
100
AcDbLine
 10
426.033604
 20
276.203611
 30
0.0
 11
423.233139
 21
254.93197
 31
0.0
  0
LINE
  5
487
100
AcDbEntity
  8
0
  6
BYBLOCK
 62
     1
100
AcDbLine
 10
426.16413
 20
276.195056
 30
0.0
 11
426.16413
 21
254.739862
 31
0.0
  0
ARC
  5
488
100
AcDbEntity
  8
0
  6
BYBLOCK
 62
     1
100
AcDbCircle
 10
426.16413
 20
277.195056
 30
0.0
 40
20.455193
100
AcDbArc
 50
251.277918
 51
262.5
  0
LINE
  5
489
100
AcDbEntity
  8
0
  6
BYBLOCK
 62
     1
100
AcDbLine
 10
419.598463
 20
257.822215
 30
0.0
 11
405.770998
 21
262.508495
 31
0.0
  0
ARC
  5
48A
100
AcDbEntity
  8
0
  6
BYBLOCK
 62
     1
100
AcDbCircle
 10
426.16413
 20
277.195056
 30
0.0
 40
20.455193
100
AcDbArc
 50
251.291379
 51
256.89569
  0
ARC
  5
48B
100
AcDbEntity
  8
0
  6
BYBLOCK
 62
     1
100
AcDbCircle
 10
426.16413
 20
277.195056
 30
0.0
 40
20.455193
100
AcDbArc
 50
275.60431
 51
281.208621
  0
ARC
  5
48C
100
AcDbEntity
  8
0
  6
BYBLOCK
 62
     1
100
AcDbCircle
 10
426.16413
 20
277.195056
 30
0.0
 40
20.455193
100
AcDbArc
 50
262.5
 51
270.0
  0
INSERT
  5
48D
100
AcDbEntity
  8
0
  6
BYBLOCK
 62
     1
100
AcDbBlockReference
  2
_OPEN30
 10
423.494192
 20
256.914859
 30
0.0
 41
2.0
 42
2.0
 43
2.0
 50
349.697845
  0
INSERT
  5
48E
100
AcDbEntity
  8
0
  6
BYBLOCK
 62
     1
100
AcDbBlockReference
  2
_OPEN30
 10
426.16413
 20
256.739862
 30
0.0
 41
2.0
 42
2.0
 43
2.0
 50
182.802155
  0
MTEXT
  5
48F
100
AcDbEntity
  8
0
  6
BYBLOCK
 62
     3
100
AcDbMText
 10
413.487175
 20
262.533072
 30
0.0
 40
3.0
 41
0.0
 71
     5
 72
     1
  1
\A1;7.5°
 11
0.947087
 21
-0.320978
 31
0.0
  0
POINT
  5
490
100
AcDbEntity
  8
DEFPOINTS
  6
BYBLOCK
 62
     0
100
AcDbPoint
 10
425.271887
 20
256.759331
 30
0.0
  0
POINT
  5
491
100
AcDbEntity
  8
DEFPOINTS
  6
BYBLOCK
 62
     0
100
AcDbPoint
 10
432.837608
 20
327.885152
 30
0.0
  0
POINT
  5
492
100
AcDbEntity
  8
DEFPOINTS
  6
BYBLOCK
 62
     0
100
AcDbPoint
 10
426.16413
 20
340.252163
 30
0.0
  0
POINT
  5
493
100
AcDbEntity
  8
DEFPOINTS
  6
BYBLOCK
 62
     0
100
AcDbPoint
 10
426.16413
 20
291.40822
 30
0.0
  0
POINT
  5
494
100
AcDbEntity
  8
DEFPOINTS
  6
BYBLOCK
 62
     0
100
AcDbPoint
 10
429.878464
 20
305.40822
 30
0.0
  0
ENDBLK
  5
495
100
AcDbEntity
  8
0
100
AcDbBlockEnd
  0
BLOCK
  5
4B9
100
AcDbEntity
  8
0
100
AcDbBlockBegin
  2
*D22
 70
     1
 10
0.0
 20
0.0
 30
0.0
  3
*D22
  1

  0
LINE
  5
4BA
100
AcDbEntity
  8
0
  6
BYBLOCK
 62
     1
100
AcDbLine
 10
486.038226
 20
222.087084
 30
0.0
 11
463.467071
 21
223.197513
 31
0.0
  0
LINE
  5
4BB
100
AcDbEntity
  8
0
  6
BYBLOCK
 62
     1
100
AcDbLine
 10
481.701477
 20
221.053875
 30
0.0
 11
463.414373
 21
221.053875
 31
0.0
  0
ARC
  5
4BC
100
AcDbEntity
  8
0
  6
BYBLOCK
 62
     1
100
AcDbCircle
 10
507.039769
 20
221.053875
 30
0.0
 40
41.625396
100
AcDbArc
 50
171.675531
 51
177.1835
  0
LINE
  5
4BD
100
AcDbEntity
  8
0
  6
BYBLOCK
 62
     1
100
AcDbLine
 10
465.852936
 20
227.080349
 30
0.0
 11
468.039096
 21
242.021256
 31
0.0
  0
ARC
  5
4BE
100
AcDbEntity
  8
0
  6
BYBLOCK
 62
     1
100
AcDbCircle
 10
507.039769
 20
221.053875
 30
0.0
 40
41.625396
100
AcDbArc
 50
171.677122
 51
174.430311
  0
ARC
  5
4BF
100
AcDbEntity
  8
0
  6
BYBLOCK
 62
     1
100
AcDbCircle
 10
507.039769
 20
221.053875
 30
0.0
 40
41.625396
100
AcDbArc
 50
182.753189
 51
185.506378
  0
ARC
  5
4C0
100
AcDbEntity
  8
0
  6
BYBLOCK
 62
     1
100
AcDbCircle
 10
507.039769
 20
221.053875
 30
0.0
 40
41.625396
100
AcDbArc
 50
177.1835
 51
180.0
  0
INSERT
  5
4C1
100
AcDbEntity
  8
0
  6
BYBLOCK
 62
     1
100
AcDbBlockReference
  2
_OPEN30
 10
465.464655
 20
223.099239
 30
0.0
 41
2.0
 42
2.0
 43
2.0
 50
265.806905
  0
INSERT
  5
4C2
100
AcDbEntity
  8
0
  6
BYBLOCK
 62
     1
100
AcDbBlockReference
  2
_OPEN30
 10
465.414373
 20
221.053875
 30
0.0
 41
2.0
 42
2.0
 43
2.0
 50
91.376595
  0
MTEXT
  5
4C3
100
AcDbEntity
  8
0
  6
BYBLOCK
 62
     3
100
AcDbMText
 10
464.472356
 20
234.912749
 30
0.0
 40
3.0
 41
0.0
 71
     5
 72
     1
  1
\A1;2°49'
 11
0.144779
 21
0.989464
 31
0.0
  0
POINT
  5
4C4
100
AcDbEntity
  8
DEFPOINTS
  6
BYBLOCK
 62
     0
100
AcDbPoint
 10
465.419961
 20
221.735907
 30
0.0
  0
POINT
  5
4C5
100
AcDbEntity
  8
DEFPOINTS
  6
BYBLOCK
 62
     0
100
AcDbPoint
 10
482.701477
 20
221.053875
 30
0.0
  0
POINT
  5
4C6
100
AcDbEntity
  8
DEFPOINTS
  6
BYBLOCK
 62
     0
100
AcDbPoint
 10
487.037018
 20
222.037947
 30
0.0
  0
POINT
  5
4C7
100
AcDbEntity
  8
DEFPOINTS
  6
BYBLOCK
 62
     0
100
AcDbPoint
 10
507.039769
 20
221.053875
 30
0.0
  0
POINT
  5
4C8
100
AcDbEntity
  8
DEFPOINTS
  6
BYBLOCK
 62
     0
100
AcDbPoint
 10
764.523675
 20
221.053875
 30
0.0
  0
ENDBLK
  5
4C9
100
AcDbEntity
  8
0
100
AcDbBlockEnd
  0
ENDSEC
  0
SECTION
  2
ENTITIES
  0
TEXT
  5
1E4
100
AcDbEntity
  8
外形
  6
CONTINUOUS
 62
     2
100
AcDbText
 10
608.470952
 20
182.015516
 30
0.0
 40
6.0
  1
S32S-SVZCR16
100
AcDbText
  0
LINE
  5
1E7
100
AcDbEntity
  8
外形
  6
CONTINUOUS
100
AcDbLine
 10
532.037018
 20
300.40822
 30
0.0
 11
658.144221
 21
300.40822
 31
0.0
  0
LINE
  5
1E8
100
AcDbEntity
  8
外形
  6
CENTER
 62
     1
100
AcDbLine
 10
482.524916
 20
313.40822
 30
0.0
 11
768.586006
 21
313.40822
 31
0.0
  0
LINE
  5
1E9
100
AcDbEntity
  8
外形
  6
CONTINUOUS
100
AcDbLine
 10
557.537018
 20
236.053875
 30
0.0
 11
755.035681
 21
236.053875
 31
0.0
  0
LINE
  5
1EA
100
AcDbEntity
  8
外形
  6
CONTINUOUS
100
AcDbLine
 10
557.537018
 20
206.053875
 30
0.0
 11
755.035681
 21
206.053875
 31
0.0
  0
LINE
  5
1EB
100
AcDbEntity
  8
外形
  6
CONTINUOUS
100
AcDbLine
 10
556.974518
 20
307.840455
 30
0.0
 11
658.144221
 21
307.840455
 31
0.0
  0
LINE
  5
1EC
100
AcDbEntity
  8
外形
  6
CONTINUOUS
100
AcDbLine
 10
557.474518
 20
329.40822
 30
0.0
 11
658.144221
 21
329.40822
 31
0.0
  0
LINE
  5
1ED
100
AcDbEntity
  8
外形
  6
CONTINUOUS
100
AcDbLine
 10
556.974518
 20
318.975984
 30
0.0
 11
658.144221
 21
318.975984
 31
0.0
  0
DIMENSION
  5
1EE
100
AcDbEntity
  8
寸法
  6
CONTINUOUS
100
AcDbDimension
  2
*D4
 10
757.035681
 20
269.127214
 30
0.0
 11
632.037725
 21
271.627214
 31
0.0
 70
    32
  3
STANDARD
100
AcDbAlignedDimension
 13
507.039769
 23
291.40822
 33
0.0
 14
757.035681
 24
301.40822
 34
0.0
100
AcDbRotatedDimension
1001
ACAD
1000
DSTYLE
1002
{
1070
    40
1040
1.0
1002
}
  0
LINE
  5
1EF
100
AcDbEntity
  8
外形
  6
CONTINUOUS
100
AcDbLine
 10
557.037018
 20
211.726496
 30
0.0
 11
755.035681
 21
211.726496
 31
0.0
  0
LINE
  5
1F0
100
AcDbEntity
  8
外形
  6
CONTINUOUS
100
AcDbLine
 10
557.037018
 20
230.381254
 30
0.0
 11
755.035681
 21
230.381254
 31
0.0
  0
LINE
  5
1F1
100
AcDbEntity
  8
外形
  6
CENTER
 62
     1
100
AcDbLine
 10
482.701477
 20
221.053875
 30
0.0
 11
764.523675
 21
221.053875
 31
0.0
  0
ARC
  5
1F6
100
AcDbEntity
  8
外形
  6
CONTINUOUS
100
AcDbCircle
 10
511.706715
 20
244.553875
 30
0.0
 40
20.0
100
AcDbArc
 50
297.510589
 51
336.421822
  0
SPLINE
  5
1F7
100
AcDbEntity
  8
外形
  6
CONTINUOUS
100
AcDbSpline
210
0.0
220
0.0
230
1.0
 70
     8
 71
     3
 72
     8
 73
     4
 74
     0
 42
0.0000001
 43
0.0000001
 40
0.0
 40
0.0
 40
0.0
 40
0.0
 40
9.238676796944433
 40
9.238676796944433
 40
9.238676796944433
 40
9.238676796944433
 10
530.0370180669824
 20
236.5538746829004
 30
0.0
 10
527.5168289269519
 20
234.6700725803432
 30
0.0
 10
524.9966397869214
 20
232.7862704777861
 30
0.0
 10
518.9874520266829
 20
230.9149732528642
 30
0.0
  0
LINE
  5
1F8
100
AcDbEntity
  8
外形
  6
CONTINUOUS
100
AcDbLine
 10
557.037018
 20
236.553875
 30
0.0
 11
557.037018
 21
229.494846
 31
0.0
  0
LINE
  5
1F9
100
AcDbEntity
  8
外形
  6
CONTINUOUS
100
AcDbLine
 10
557.537018
 20
230.381254
 30
0.0
 11
557.537018
 21
236.053875
 31
0.0
  0
LINE
  5
1FA
100
AcDbEntity
  8
外形
  6
CONTINUOUS
100
AcDbLine
 10
505.650112
 20
216.349807
 30
0.0
 11
505.511957
 21
213.172809
 31
0.0
  0
LINE
  5
1FB
100
AcDbEntity
  8
外形
  6
CONTINUOUS
100
AcDbLine
 10
506.037018
 20
213.149977
 30
0.0
 11
497.77474
 21
213.509271
 31
0.0
  0
ARC
  5
1FC
100
AcDbEntity
  8
外形
  6
CONTINUOUS
100
AcDbCircle
 10
511.037018
 20
213.024402
 30
0.0
 40
5.0
100
AcDbArc
 50
180.0
 51
270.0
  0
SPLINE
  5
1FD
100
AcDbEntity
  8
外形
  6
CONTINUOUS
100
AcDbSpline
210
0.0
220
0.0
230
1.0
 70
     8
 71
     3
 72
     9
 73
     5
 74
     0
 42
0.0000001
 43
0.0000001
 40
3.086456221521489
 40
3.086456221521489
 40
3.086456221521489
 40
3.086456221521489
 40
8.530864637825386
 40
11.33964629393634
 40
11.33964629393634
 40
11.33964629393634
 40
11.33964629393634
 10
505.6423651082571
 20
213.1671384237999
 30
0.0
 10
505.47040634945
 20
211.323938178212
 30
0.0
 10
504.9790812673006
 20
208.6236654676834
 30
0.0
 10
503.5213445827876
 20
206.3165665916244
 30
0.0
 10
502.9699931765911
 20
205.5538746829004
 30
0.0
  0
LINE
  5
1FE
100
AcDbEntity
  8
外形
  6
CONTINUOUS
100
AcDbLine
 10
495.732768
 20
223.490692
 30
0.0
 11
505.821187
 21
223.051986
 31
0.0
  0
LINE
  5
1FF
100
AcDbEntity
  8
外形
  6
CONTINUOUS
100
AcDbLine
 10
506.249068
 20
216.323761
 30
0.0
 11
497.328454
 21
216.711683
 31
0.0
  0
LINE
  5
200
100
AcDbEntity
  8
外形
  6
CONTINUOUS
100
AcDbLine
 10
487.037018
 20
222.037947
 30
0.0
 11
507.039769
 21
221.053875
 31
0.0
  0
SPLINE
  5
201
100
AcDbEntity
  8
外形
  6
CONTINUOUS
100
AcDbSpline
210
0.0
220
0.0
230
1.0
 70
     8
 71
     3
 72
     9
 73
     5
 74
     0
 42
0.0000001
 43
0.0000001
 40
0.0
 40
0.0
 40
0.0
 40
0.0
 40
11.40967209940657
 40
24.35528639381849
 40
24.35528639381849
 40
24.35528639381849
 40
24.35528639381849
 10
518.9874520266829
 20
230.9149732528642
 30
0.0
 10
515.3902617269491
 20
229.6263367809983
 30
0.0
 10
507.7116361538582
 20
226.8755907423416
 30
0.0
 10
499.6574345291902
 20
225.9973161832883
 30
0.0
 10
487.0370180669824
 20
224.6135448984933
 30
0.0
  0
LINE
  5
202
100
AcDbEntity
  8
外形
  6
CONTINUOUS
100
AcDbLine
 10
557.037018
 20
205.553875
 30
0.0
 11
487.037018
 21
205.553875
 31
0.0
  0
LINE
  5
203
100
AcDbEntity
  8
外形
  6
CONTINUOUS
100
AcDbLine
 10
497.77474
 20
213.509271
 30
0.0
 11
497.77474
 21
205.553875
 31
0.0
  0
LINE
  5
204
100
AcDbEntity
  8
外形
  6
CONTINUOUS
100
AcDbLine
 10
489.357436
 20
221.923789
 30
0.0
 11
489.357436
 21
206.300786
 31
0.0
  0
LINE
  5
205
100
AcDbEntity
  8
外形
  6
CONTINUOUS
100
AcDbLine
 10
487.037018
 20
224.613545
 30
0.0
 11
487.037018
 21
205.553875
 31
0.0
  0
LINE
  5
206
100
AcDbEntity
  8
外形
  6
CONTINUOUS
100
AcDbLine
 10
494.037018
 20
207.80708
 30
0.0
 11
487.037018
 21
205.553875
 31
0.0
  0
LINE
  5
207
100
AcDbEntity
  8
外形
  6
CONTINUOUS
100
AcDbLine
 10
494.037018
 20
207.80708
 30
0.0
 11
494.037018
 21
205.553875
 31
0.0
  0
LINE
  5
208
100
AcDbEntity
  8
外形
  6
CONTINUOUS
100
AcDbLine
 10
494.037018
 20
207.80708
 30
0.0
 11
495.337907
 21
205.553875
 31
0.0
  0
LINE
  5
209
100
AcDbEntity
  8
外形
  6
CONTINUOUS
100
AcDbLine
 10
496.95135
 20
221.49258
 30
0.0
 11
495.732768
 21
223.490692
 31
0.0
  0
LINE
  5
20A
100
AcDbEntity
  8
外形
  6
CONTINUOUS
100
AcDbLine
 10
497.92741
 20
216.685637
 30
0.0
 11
497.789255
 21
213.508639
 31
0.0
  0
LINE
  5
20B
100
AcDbEntity
  8
外形
  6
CONTINUOUS
100
AcDbLine
 10
496.95135
 20
221.49258
 30
0.0
 11
497.328454
 21
216.711683
 31
0.0
  0
LINE
  5
20C
100
AcDbEntity
  8
外形
  6
CONTINUOUS
100
AcDbLine
 10
506.037018
 20
216.332982
 30
0.0
 11
506.037018
 21
205.553875
 31
0.0
  0
ARC
  5
20D
100
AcDbEntity
  8
外形
  6
CONTINUOUS
100
AcDbCircle
 10
527.037018
 20
213.024402
 30
0.0
 40
5.0
100
AcDbArc
 50
270.0
 51
0.0
  0
LINE
  5
20E
100
AcDbEntity
  8
外形
  6
CONTINUOUS
100
AcDbLine
 10
557.037018
 20
212.612903
 30
0.0
 11
557.037018
 21
205.553875
 31
0.0
  0
LINE
  5
20F
100
AcDbEntity
  8
外形
  6
CONTINUOUS
100
AcDbLine
 10
557.537018
 20
206.053875
 30
0.0
 11
557.537018
 21
211.726496
 31
0.0
  0
LINE
  5
210
100
AcDbEntity
  8
外形
  6
CONTINUOUS
100
AcDbLine
 10
511.037018
 20
208.024402
 30
0.0
 11
527.037018
 21
208.024402
 31
0.0
  0
LINE
  5
211
100
AcDbEntity
  8
外形
  6
CONTINUOUS
100
AcDbLine
 10
511.137018
 20
208.024402
 30
0.0
 11
511.037018
 21
208.024402
 31
0.0
  0
LINE
  5
212
100
AcDbEntity
  8
外形
  6
CONTINUOUS
100
AcDbLine
 10
557.537018
 20
206.053875
 30
0.0
 11
557.037018
 21
205.553875
 31
0.0
  0
LINE
  5
213
100
AcDbEntity
  8
外形
  6
CONTINUOUS
100
AcDbLine
 10
557.037018
 20
212.612903
 30
0.0
 11
532.037018
 21
212.612903
 31
0.0
  0
LINE
  5
214
100
AcDbEntity
  8
外形
  6
CONTINUOUS
100
AcDbLine
 10
557.037018
 20
229.494846
 30
0.0
 11
531.793683
 21
229.494846
 31
0.0
  0
ARC
  5
215
100
AcDbEntity
  8
外形
  6
CONTINUOUS
100
AcDbCircle
 10
511.037018
 20
219.289609
 30
0.0
 40
5.0
100
AcDbArc
 50
90.0
 51
151.299015
  0
LINE
  5
216
100
AcDbEntity
  8
外形
  6
CONTINUOUS
100
AcDbLine
 10
532.037018
 20
227.954022
 30
0.0
 11
532.037018
 21
213.024402
 31
0.0
  0
LINE
  5
217
100
AcDbEntity
  8
外形
  6
CONTINUOUS
100
AcDbLine
 10
507.039769
 20
221.053875
 30
0.0
 11
505.821187
 21
223.051986
 31
0.0
  0
LINE
  5
218
100
AcDbEntity
  8
外形
  6
CONTINUOUS
100
AcDbLine
 10
507.039769
 20
221.053875
 30
0.0
 11
506.249068
 21
216.323761
 31
0.0
  0
SPLINE
  5
219
100
AcDbEntity
  8
外形
  6
CONTINUOUS
100
AcDbSpline
210
0.0
220
0.0
230
1.0
 70
     8
 71
     3
 72
     9
 73
     5
 74
     3
 42
0.0000001
 43
0.0000001
 44
0.0000000001
 40
0.0
 40
0.0
 40
0.0
 40
0.0
 40
5.5174973611608
 40
10.27641283071949
 40
10.27641283071949
 40
10.27641283071949
 40
10.27641283071949
 10
520.9449659676496
 20
226.8153650396291
 30
0.0
 10
519.2365011019026
 20
226.1011659651908
 30
0.0
 10
516.0544623771024
 20
224.7709606108738
 30
0.0
 10
512.6251173002153
 20
224.4419640799625
 30
0.0
 10
511.0370180669823
 20
224.2896087098372
 30
0.0
 11
520.9449659676496
 21
226.8153650396291
 31
0.0
 11
515.7482800835285
 21
224.961387436692
 31
0.0
 11
511.0370180669823
 21
224.2896087098372
 31
0.0
  0
ARC
  5
21A
100
AcDbEntity
  8
外形
  6
CONTINUOUS
100
AcDbCircle
 10
527.037018
 20
227.954022
 30
0.0
 40
5.0
100
AcDbArc
 50
0.0
 51
79.592396
  0
LINE
  5
21B
100
AcDbEntity
  8
外形
  6
CONTINUOUS
100
AcDbLine
 10
557.037018
 20
236.553875
 30
0.0
 11
530.037018
 21
236.553875
 31
0.0
  0
LINE
  5
21C
100
AcDbEntity
  8
外形
  6
CONTINUOUS
100
AcDbLine
 10
557.537018
 20
236.053875
 30
0.0
 11
557.037018
 21
236.553875
 31
0.0
  0
LEADER
  5
21D
100
AcDbEntity
  8
寸法
  6
CONTINUOUS
 62
     1
100
AcDbLeader
  3
STANDARD
 73
     0
 74
     0
 75
     1
 40
3.0
 41
26.0
 76
     3
 10
437.200705
 20
328.087269
 30
0.0
 10
445.16803
 20
341.328479
 30
0.0
 10
447.16803
 20
341.328479
 30
0.0
 77
   256
340
21E
213
-0.1129475379637483
223
0.5510341987360618
233
0.0
1001
ACAD
1000
DSTYLE
1002
{
1070
   284
1070
    13
1070
   146
1040
0.5
1070
   272
1070
     3
1070
    40
1040
1.0
1070
   287
1070
     0
1002
}
  0
MTEXT
  5
21E
102
{ACAD_REACTORS
330
21D
102
}
100
AcDbEntity
  8
寸法
  6
CONTINUOUS
 62
     3
100
AcDbMText
 10
448.280977
 20
343.277444
 30
0.0
 40
3.0
 41
0.0
 71
     4
 72
     1
  1
%%c40最小加工径
  0
LINE
  5
21F
100
AcDbEntity
  8
外形
  6
CENTER
 62
     1
100
AcDbLine
 10
451.470967
 20
313.40822
 30
0.0
 11
400.55121
 21
313.40822
 31
0.0
  0
LINE
  5
220
100
AcDbEntity
  8
外形
  6
CENTER
 62
     1
100
AcDbLine
 10
426.16413
 20
340.252163
 30
0.0
 11
426.16413
 21
291.40822
 31
0.0
  0
LINE
  5
222
100
AcDbEntity
  8
外形
  6
CONTINUOUS
100
AcDbLine
 10
411.16413
 20
309.757392
 30
0.0
 11
430.159545
 21
307.40822
 31
0.0
  0
LINE
  5
223
100
AcDbEntity
  8
外形
  6
CONTINUOUS
100
AcDbLine
 10
441.16413
 20
318.975984
 30
0.0
 11
441.16413
 21
307.840455
 31
0.0
  0
LINE
  5
224
100
AcDbEntity
  8
外形
  6
CONTINUOUS
100
AcDbLine
 10
411.16413
 20
318.975984
 30
0.0
 11
411.16413
 21
300.407331
 31
0.0
  0
CIRCLE
  5
225
100
AcDbEntity
  8
外形
  6
CENTER
 62
     1
100
AcDbCircle
 10
426.16413
 20
311.40822
 30
0.0
 40
20.0
  0
LINE
  5
226
100
AcDbEntity
  8
外形
  6
CONTINUOUS
100
AcDbLine
 10
432.837608
 20
327.885152
 30
0.0
 11
429.878464
 21
305.40822
 31
0.0
  0
LINE
  5
228
100
AcDbEntity
  8
外形
  6
CONTINUOUS
100
AcDbLine
 10
421.669155
 20
293.208601
 30
0.0
 11
418.598228
 21
294.034315
 31
0.0
  0
LINE
  5
229
100
AcDbEntity
  8
外形
  6
CONTINUOUS
100
AcDbLine
 10
422.059043
 20
306.905499
 30
0.0
 11
418.598228
 21
294.034315
 31
0.0
  0
LINE
  5
22B
100
AcDbEntity
  8
外形
  6
HIDDEN
100
AcDbLine
 10
411.16413
 20
305.40822
 30
0.0
 11
440.020537
 21
305.40822
 31
0.0
  0
LINE
  5
22C
100
AcDbEntity
  8
外形
  6
CONTINUOUS
100
AcDbLine
 10
421.075323
 20
303.246927
 30
0.0
 11
411.16413
 21
304.472649
 31
0.0
  0
LINE
  5
22D
100
AcDbEntity
  8
外形
  6
CONTINUOUS
100
AcDbLine
 10
411.16413
 20
306.745241
 30
0.0
 11
421.666714
 21
305.446381
 31
0.0
  0
LINE
  5
22E
100
AcDbEntity
  8
外形
  6
CONTINUOUS
100
AcDbLine
 10
418.16413
 20
294.533634
 30
0.0
 11
411.16413
 21
300.407331
 31
0.0
  0
ARC
  5
22F
100
AcDbEntity
  8
外形
100
AcDbCircle
 10
426.16413
 20
313.40822
 30
0.0
 40
20.5
100
AcDbArc
 50
247.030323
 51
248.576401
  0
LINE
  5
231
100
AcDbEntity
  8
外形
  6
CONTINUOUS
100
AcDbLine
 10
425.129971
 20
306.079786
 30
0.0
 11
421.669155
 21
293.208601
 31
0.0
  0
LINE
  5
232
100
AcDbEntity
  8
外形
  6
CONTINUOUS
100
AcDbLine
 10
429.878464
 20
305.40822
 30
0.0
 11
426.114131
 21
291.408219
 31
0.0
  0
LINE
  5
233
100
AcDbEntity
  8
外形
  6
CONTINUOUS
100
AcDbLine
 10
426.114131
 20
291.408219
 30
0.0
 11
421.669155
 21
293.208601
 31
0.0
  0
LINE
  5
234
100
AcDbEntity
  8
外形
  6
CONTINUOUS
100
AcDbLine
 10
436.151622
 20
300.90822
 30
0.0
 11
428.6685
 21
300.90822
 31
0.0
  0
LINE
  5
235
100
AcDbEntity
  8
外形
  6
CONTINUOUS
100
AcDbLine
 10
425.129971
 20
306.079786
 30
0.0
 11
422.059043
 21
306.905499
 31
0.0
  0
LINE
  5
236
100
AcDbEntity
  8
外形
  6
CONTINUOUS
100
AcDbLine
 10
429.878464
 20
305.40822
 30
0.0
 11
425.129971
 21
306.079786
 31
0.0
  0
ARC
  5
237
100
AcDbEntity
  8
外形
  6
CONTINUOUS
100
AcDbCircle
 10
426.16413
 20
313.40822
 30
0.0
 40
16.0
100
AcDbArc
 50
308.624833
 51
339.635865
  0
LINE
  5
238
100
AcDbEntity
  8
外形
  6
CONTINUOUS
100
AcDbLine
 10
432.548739
 20
324.40822
 30
0.0
 11
414.54518
 21
324.40822
 31
0.0
  0
ARC
  5
239
100
AcDbEntity
  8
外形
  6
CONTINUOUS
100
AcDbCircle
 10
426.16413
 20
313.40822
 30
0.0
 40
16.0
100
AcDbArc
 50
20.364135
 51
159.635865
  0
LINE
  5
23B
100
AcDbEntity
  8
外形
  6
CONTINUOUS
100
AcDbLine
 10
493.013032
 20
327.858473
 30
0.0
 11
518.838582
 21
327.858473
 31
0.0
  0
DIMENSION
  5
23C
100
AcDbEntity
  8
寸法
  6
CONTINUOUS
100
AcDbDimension
  2
*D12
 10
506.302687
 20
306.29354
 30
0.0
 11
515.21911
 21
299.982109
 31
0.0
 70
    34
  3
STANDARD
100
AcDb2LineAngularDimension
 13
506.239769
 23
291.40822
 33
0.0
 14
507.039769
 24
291.40822
 34
0.0
 15
507.038673
 25
292.250088
 35
0.0
 16
515.07155
 26
296.208349
 36
0.0
1001
ACAD
1000
DSTYLE
1002
{
1070
    40
1040
1.0
1002
}
  0
ARC
  5
23D
100
AcDbEntity
  8
外形
  6
CONTINUOUS
100
AcDbCircle
 10
510.624618
 20
300.90822
 30
0.0
 40
5.0
100
AcDbArc
 50
90.0
 51
183.0
  0
LINE
  5
240
100
AcDbEntity
  8
外形
  6
CENTER
 62
     1
100
AcDbLine
 10
494.957441
 20
304.54549
 30
0.0
 11
508.218907
 21
304.54549
 31
0.0
  0
LINE
  5
241
100
AcDbEntity
  8
外形
  6
CONTINUOUS
100
AcDbLine
 10
505.609361
 20
291.71569
 30
0.0
 11
496.95135
 21
302.797439
 31
0.0
  0
LINE
  5
242
100
AcDbEntity
  8
外形
  6
HIDDEN
100
AcDbLine
 10
505.837018
 20
292.90822
 30
0.0
 11
498.777627
 21
301.029121
 31
0.0
  0
LINE
  5
243
100
AcDbEntity
  8
外形
  6
CONTINUOUS
100
AcDbLine
 10
506.302687
 20
306.29354
 30
0.0
 11
497.644676
 21
317.375289
 31
0.0
  0
LINE
  5
245
100
AcDbEntity
  8
外形
  6
CONTINUOUS
100
AcDbLine
 10
556.974518
 20
328.90822
 30
0.0
 11
494.831247
 21
328.90822
 31
0.0
  0
DIMENSION
  5
246
100
AcDbEntity
  8
寸法
  6
CONTINUOUS
100
AcDbDimension
  2
*D15
 10
460.664721
 20
313.40822
 30
0.0
 11
458.164721
 21
302.40822
 31
0.0
 70
    32
  3
STANDARD
100
AcDbAlignedDimension
 13
507.039769
 23
291.40822
 33
0.0
 14
482.524916
 24
313.40822
 34
0.0
 50
90.0
100
AcDbRotatedDimension
1001
ACAD
1000
DSTYLE
1002
{
1070
    40
1040
1.0
1002
}
  0
LINE
  5
247
100
AcDbEntity
  8
外形
  6
CONTINUOUS
100
AcDbLine
 10
487.037018
 20
307.40822
 30
0.0
 11
487.037018
 21
324.40822
 31
0.0
  0
LINE
  5
248
100
AcDbEntity
  8
外形
  6
CONTINUOUS
100
AcDbLine
 10
496.95135
 20
302.797439
 30
0.0
 11
496.215363
 21
316.840891
 31
0.0
  0
LINE
  5
249
100
AcDbEntity
  8
外形
  6
CENTER
 62
     1
100
AcDbLine
 10
501.627018
 20
297.451804
 30
0.0
 11
501.627018
 21
311.908197
 31
0.0
  0
LINE
  5
24B
100
AcDbEntity
  8
外形
  6
CONTINUOUS
100
AcDbLine
 10
489.357436
 20
304.43822
 30
0.0
 11
496.298174
 21
302.578455
 31
0.0
  0
LINE
  5
24C
100
AcDbEntity
  8
外形
  6
CONTINUOUS
100
AcDbLine
 10
489.357436
 20
304.43822
 30
0.0
 11
487.037018
 21
307.40822
 31
0.0
  0
ARC
  5
24D
100
AcDbEntity
  8
外形
  6
HIDDEN
100
AcDbCircle
 10
495.004079
 20
297.748826
 30
0.0
 40
5.0
100
AcDbArc
 50
41.0
 51
75.0
  0
LINE
  5
24E
100
AcDbEntity
  8
外形
  6
CONTINUOUS
100
AcDbLine
 10
502.431154
 20
303.152685
 30
0.0
 11
501.822429
 21
303.500128
 31
0.0
  0
LINE
  5
24F
100
AcDbEntity
  8
外形
  6
CONTINUOUS
100
AcDbLine
 10
501.822429
 20
305.590851
 30
0.0
 11
502.431154
 21
305.938294
 31
0.0
  0
LINE
  5
250
100
AcDbEntity
  8
外形
  6
CONTINUOUS
100
AcDbLine
 10
500.018746
 20
304.54549
 30
0.0
 11
500.624003
 21
304.898939
 31
0.0
  0
LINE
  5
251
100
AcDbEntity
  8
外形
  6
CONTINUOUS
100
AcDbLine
 10
500.624003
 20
304.19204
 30
0.0
 11
500.018746
 21
304.54549
 31
0.0
  0
LINE
  5
252
100
AcDbEntity
  8
外形
  6
CONTINUOUS
100
AcDbLine
 10
501.431607
 20
303.500128
 30
0.0
 11
500.822882
 21
303.152685
 31
0.0
  0
LINE
  5
253
100
AcDbEntity
  8
外形
  6
CONTINUOUS
100
AcDbLine
 10
500.822882
 20
303.152685
 30
0.0
 11
500.819414
 21
303.853578
 31
0.0
  0
ARC
  5
254
100
AcDbEntity
  8
外形
  6
CONTINUOUS
100
AcDbCircle
 10
501.627018
 20
303.157766
 30
0.0
 40
0.394205
100
AcDbArc
 50
60.283476
 51
119.716524
  0
ARC
  5
255
100
AcDbEntity
  8
外形
  6
CONTINUOUS
100
AcDbCircle
 10
500.425214
 20
303.851628
 30
0.0
 40
0.394205
100
AcDbArc
 50
0.283476
 51
59.716524
  0
LINE
  5
256
100
AcDbEntity
  8
外形
  6
CONTINUOUS
100
AcDbLine
 10
500.819414
 20
305.237401
 30
0.0
 11
500.822882
 21
305.938294
 31
0.0
  0
LINE
  5
257
100
AcDbEntity
  8
外形
  6
CONTINUOUS
100
AcDbLine
 10
500.822882
 20
305.938294
 30
0.0
 11
501.431607
 21
305.590851
 31
0.0
  0
ARC
  5
258
100
AcDbEntity
  8
外形
  6
CONTINUOUS
100
AcDbCircle
 10
500.425214
 20
305.239351
 30
0.0
 40
0.394205
100
AcDbArc
 50
300.283476
 51
359.716524
  0
ARC
  5
259
100
AcDbEntity
  8
外形
  6
CONTINUOUS
100
AcDbCircle
 10
501.627018
 20
305.933213
 30
0.0
 40
0.394205
100
AcDbArc
 50
240.283476
 51
299.716524
  0
LINE
  5
25A
100
AcDbEntity
  8
外形
  6
CONTINUOUS
100
AcDbLine
 10
502.630033
 20
304.898939
 30
0.0
 11
503.23529
 21
304.54549
 31
0.0
  0
LINE
  5
25B
100
AcDbEntity
  8
外形
  6
CONTINUOUS
100
AcDbLine
 10
503.23529
 20
304.54549
 30
0.0
 11
502.630033
 21
304.19204
 31
0.0
  0
LINE
  5
25C
100
AcDbEntity
  8
外形
  6
CONTINUOUS
100
AcDbLine
 10
502.434622
 20
303.853578
 30
0.0
 11
502.431154
 21
303.152685
 31
0.0
  0
ARC
  5
25D
100
AcDbEntity
  8
外形
  6
CONTINUOUS
100
AcDbCircle
 10
502.828822
 20
303.851628
 30
0.0
 40
0.394205
100
AcDbArc
 50
120.283476
 51
179.716524
  0
LINE
  5
25E
100
AcDbEntity
  8
外形
  6
CONTINUOUS
100
AcDbLine
 10
502.431154
 20
305.938294
 30
0.0
 11
502.434622
 21
305.237401
 31
0.0
  0
ARC
  5
25F
100
AcDbEntity
  8
外形
  6
CONTINUOUS
100
AcDbCircle
 10
502.828822
 20
305.239351
 30
0.0
 40
0.394205
100
AcDbArc
 50
180.283476
 51
239.716524
  0
CIRCLE
  5
260
100
AcDbEntity
  8
外形
  6
CONTINUOUS
100
AcDbCircle
 10
501.627018
 20
304.54549
 30
0.0
 40
2.550019
  0
LINE
  5
262
100
AcDbEntity
  8
外形
  6
CONTINUOUS
100
AcDbLine
 10
500.360703
 20
313.898932
 30
0.0
 11
499.202808
 21
316.900876
 31
0.0
  0
ARC
  5
263
100
AcDbEntity
  8
外形
  6
CONTINUOUS
100
AcDbCircle
 10
497.014267
 20
316.88276
 30
0.0
 40
0.8
100
AcDbArc
 50
38.0
 51
183.0
  0
ARC
  5
264
100
AcDbEntity
  8
外形
  6
CONTINUOUS
100
AcDbCircle
 10
496.73275
 20
317.234309
 30
0.0
 40
1.75
100
AcDbArc
 50
19.614113
 51
255.12087
  0
ARC
  5
265
100
AcDbEntity
  8
外形
  6
CONTINUOUS
100
AcDbCircle
 10
497.570056
 20
316.271099
 30
0.0
 40
1.75
100
AcDbArc
 50
21.092375
 51
62.385887
  0
LINE
  5
266
100
AcDbEntity
  8
外形
  6
CONTINUOUS
100
AcDbLine
 10
487.037018
 20
324.40822
 30
0.0
 11
494.831247
 21
328.90822
 31
0.0
  0
SPLINE
  5
267
100
AcDbEntity
  8
外形
  6
CONTINUOUS
100
AcDbSpline
210
0.0
220
0.0
230
1.0
 70
     8
 71
     3
 72
     8
 73
     4
 74
     0
 42
0.0000001
 43
0.0000001
 40
13.37638085805953
 40
13.37638085805953
 40
13.37638085805953
 40
13.37638085805953
 40
17.36910896322785
 40
17.36910896322785
 40
17.36910896322785
 40
17.36910896322785
 10
529.5033156010396
 20
305.2576306903657
 30
0.0
 10
529.7992439961576
 20
306.5674332015988
 30
0.0
 10
529.9181310315701
 20
308.0352640024865
 30
0.0
 10
530.0370180669825
 20
309.503094803374
 30
0.0
  0
LINE
  5
268
100
AcDbEntity
  8
外形
  6
CONTINUOUS
100
AcDbLine
 10
556.974518
 20
300.40822
 30
0.0
 11
556.974518
 21
309.503095
 31
0.0
  0
DIMENSION
  5
269
100
AcDbEntity
  8
寸法
  6
CONTINUOUS
100
AcDbDimension
  2
*D18
 10
539.499724
 20
300.40822
 30
0.0
 11
536.999724
 21
295.90822
 31
0.0
 70
    32
  3
STANDARD
100
AcDbAlignedDimension
 13
507.039769
 23
291.40822
 33
0.0
 14
532.037018
 24
300.40822
 34
0.0
 50
90.0
100
AcDbRotatedDimension
1001
ACAD
1000
DSTYLE
1002
{
1070
    40
1040
1.0
1002
}
  0
LINE
  5
26A
100
AcDbEntity
  8
外形
  6
CONTINUOUS
100
AcDbLine
 10
507.038673
 20
292.250088
 30
0.0
 11
506.302687
 21
306.29354
 31
0.0
  0
LINE
  5
26B
100
AcDbEntity
  8
外形
  6
HIDDEN
100
AcDbLine
 10
506.037018
 20
292.90822
 30
0.0
 11
505.63147
 21
300.64654
 31
0.0
  0
LINE
  5
26C
100
AcDbEntity
  8
外形
  6
HIDDEN
100
AcDbLine
 10
505.837018
 20
292.90822
 30
0.0
 11
506.037018
 21
292.90822
 31
0.0
  0
ARC
  5
26D
100
AcDbEntity
  8
外形
  6
CONTINUOUS
100
AcDbCircle
 10
506.239769
 20
292.20822
 30
0.0
 40
0.8
100
AcDbArc
 50
218.0
 51
3.0
  0
LINE
  5
26E
100
AcDbEntity
  8
外形
  6
CONTINUOUS
100
AcDbLine
 10
506.69863
 20
291.552898
 30
0.0
 11
506.69863
 21
291.552898
 31
0.0
  0
LINE
  5
26F
100
AcDbEntity
  8
外形
  6
CONTINUOUS
 62
     1
100
AcDbLine
 10
507.039769
 20
292.20822
 30
0.0
 11
507.039769
 21
291.40822
 31
0.0
  0
LINE
  5
270
100
AcDbEntity
  8
外形
  6
CONTINUOUS
 62
     1
100
AcDbLine
 10
506.239769
 20
291.40822
 30
0.0
 11
507.039769
 21
291.40822
 31
0.0
  0
LINE
  5
271
100
AcDbEntity
  8
外形
  6
CONTINUOUS
100
AcDbLine
 10
510.624618
 20
305.90822
 30
0.0
 11
527.037018
 21
305.90822
 31
0.0
  0
ARC
  5
272
100
AcDbEntity
  8
外形
  6
CONTINUOUS
100
AcDbCircle
 10
527.037018
 20
300.90822
 30
0.0
 40
5.0
100
AcDbArc
 50
0.0
 51
90.0
  0
LINE
  5
273
100
AcDbEntity
  8
外形
  6
CONTINUOUS
100
AcDbLine
 10
532.037018
 20
300.40822
 30
0.0
 11
532.037018
 21
300.90822
 31
0.0
  0
LINE
  5
274
100
AcDbEntity
  8
外形
  6
CONTINUOUS
100
AcDbLine
 10
557.474518
 20
300.40822
 30
0.0
 11
557.474518
 21
307.840455
 31
0.0
  0
LINE
  5
275
100
AcDbEntity
  8
外形
  6
CONTINUOUS
100
AcDbLine
 10
556.974518
 20
309.503095
 30
0.0
 11
530.037018
 21
309.503095
 31
0.0
  0
LINE
  5
276
100
AcDbEntity
  8
外形
  6
CONTINUOUS
100
AcDbLine
 10
556.974518
 20
317.313344
 30
0.0
 11
530.037018
 21
317.313344
 31
0.0
  0
SPLINE
  5
277
100
AcDbEntity
  8
外形
  6
CONTINUOUS
100
AcDbSpline
210
0.0
220
0.0
230
-1.0
 70
     8
 71
     3
 72
     9
 73
     5
 74
     3
 42
0.0000001
 43
0.0000001
 44
0.0000000001
 40
0.0
 40
0.0
 40
0.0
 40
0.0
 40
10.09957453539899
 40
17.36910896322796
 40
17.36910896322796
 40
17.36910896322796
 40
17.36910896322796
 10
518.8385819546168
 20
327.8584729563121
 30
0.0
 10
522.6862367966321
 20
327.3116205219839
 30
0.0
 10
529.303380515867
 20
326.3711512492079
 30
0.0
 10
529.8205612048603
 20
319.9858145950047
 30
0.0
 10
530.0370180669826
 20
317.3133444792791
 30
0.0
 11
518.8385819546168
 21
327.8584729563121
 31
0.0
 11
528.3191209276188
 21
324.376980951802
 31
0.0
 11
530.0370180669826
 21
317.3133444792791
 31
0.0
  0
LINE
  5
278
100
AcDbEntity
  8
外形
  6
CONTINUOUS
100
AcDbLine
 10
530.037018
 20
317.313344
 30
0.0
 11
530.037018
 21
309.503095
 31
0.0
  0
LINE
  5
279
100
AcDbEntity
  8
外形
  6
CONTINUOUS
100
AcDbLine
 10
557.474518
 20
318.975984
 30
0.0
 11
557.474518
 21
329.40822
 31
0.0
  0
LINE
  5
27A
100
AcDbEntity
  8
外形
  6
CONTINUOUS
100
AcDbLine
 10
556.974518
 20
317.313344
 30
0.0
 11
556.974518
 21
328.90822
 31
0.0
  0
LINE
  5
27B
100
AcDbEntity
  8
外形
  6
CONTINUOUS
100
AcDbLine
 10
557.474518
 20
329.40822
 30
0.0
 11
556.974518
 21
328.90822
 31
0.0
  0
LINE
  5
27C
100
AcDbEntity
  8
外形
  6
CONTINUOUS
100
AcDbLine
 10
755.035681
 20
236.053875
 30
0.0
 11
757.035681
 21
234.053875
 31
0.0
  0
LINE
  5
27D
100
AcDbEntity
  8
外形
  6
CONTINUOUS
100
AcDbLine
 10
755.035681
 20
236.053875
 30
0.0
 11
755.035681
 21
230.381254
 31
0.0
  0
LINE
  5
27E
100
AcDbEntity
  8
外形
  6
CONTINUOUS
100
AcDbLine
 10
757.035681
 20
234.053875
 30
0.0
 11
757.035681
 21
208.053875
 31
0.0
  0
LINE
  5
27F
100
AcDbEntity
  8
外形
  6
CONTINUOUS
100
AcDbLine
 10
755.035681
 20
211.726496
 30
0.0
 11
755.035681
 21
206.053875
 31
0.0
  0
LINE
  5
280
100
AcDbEntity
  8
外形
  6
CONTINUOUS
100
AcDbLine
 10
755.035681
 20
206.053875
 30
0.0
 11
757.035681
 21
208.053875
 31
0.0
  0
ARC
  5
281
100
AcDbEntity
  8
外形
  6
CONTINUOUS
100
AcDbCircle
 10
742.035681
 20
221.053875
 30
0.0
 40
16.0
100
AcDbArc
 50
324.340912
 51
339.635865
  0
ARC
  5
282
100
AcDbEntity
  8
外形
  6
CONTINUOUS
100
AcDbCircle
 10
742.035681
 20
221.053875
 30
0.0
 40
16.0
100
AcDbArc
 50
20.364135
 51
35.659088
  0
LINE
  5
283
100
AcDbEntity
  8
外形
  6
CONTINUOUS
100
AcDbLine
 10
665.816842
 20
300.40822
 30
0.0
 11
684.4716
 21
300.40822
 31
0.0
  0
DIMENSION
  5
284
100
AcDbEntity
  8
寸法
  6
CONTINUOUS
100
AcDbDimension
  2
*D19
 10
664.722838
 20
301.267595
 30
0.0
 11
693.180003
 21
334.419409
 31
0.0
 70
   163
  3
STANDARD
100
AcDbDiametricDimension
 15
685.565605
 25
325.548844
 35
0.0
 40
0.0
1001
ACAD
1000
DSTYLE
1002
{
1070
    40
1040
1.0
1002
}
  0
ARC
  5
285
100
AcDbEntity
  8
外形
  6
CONTINUOUS
100
AcDbCircle
 10
675.144221
 20
313.40822
 30
0.0
 40
16.0
100
AcDbArc
 50
20.364135
 51
159.635865
  0
DIMENSION
  5
286
100
AcDbEntity
  8
寸法
  6
CONTINUOUS
100
AcDbDimension
  2
*D20
 10
690.144221
 20
287.309056
 30
0.0
 11
675.144221
 21
289.809056
 31
0.0
 70
    32
  3
STANDARD
100
AcDbAlignedDimension
 13
660.144221
 23
307.840455
 33
0.0
 14
690.144221
 24
307.840455
 34
0.0
100
AcDbRotatedDimension
1001
ACAD
1000
DSTYLE
1002
{
1070
    40
1040
1.0
1002
}
  0
LINE
  5
287
100
AcDbEntity
  8
外形
  6
CONTINUOUS
100
AcDbLine
 10
660.144221
 20
318.975984
 30
0.0
 11
660.144221
 21
307.840455
 31
0.0
  0
LINE
  5
288
100
AcDbEntity
  8
外形
  6
CENTER
 62
     1
100
AcDbLine
 10
675.144221
 20
332.180635
 30
0.0
 11
675.144221
 21
296.359258
 31
0.0
  0
ARC
  5
289
100
AcDbEntity
  8
外形
  6
CONTINUOUS
100
AcDbCircle
 10
675.144221
 20
313.40822
 30
0.0
 40
16.0
100
AcDbArc
 50
200.364135
 51
234.340912
  0
LINE
  5
28B
100
AcDbEntity
  8
外形
  6
CONTINUOUS
100
AcDbLine
 10
692.144221
 20
300.40822
 30
0.0
 11
755.035681
 21
300.40822
 31
0.0
  0
LINE
  5
28C
100
AcDbEntity
  8
外形
  6
CONTINUOUS
100
AcDbLine
 10
692.144221
 20
307.840455
 30
0.0
 11
755.035681
 21
307.840455
 31
0.0
  0
LINE
  5
28D
100
AcDbEntity
  8
外形
  6
CONTINUOUS
100
AcDbLine
 10
692.144221
 20
329.40822
 30
0.0
 11
755.035681
 21
329.40822
 31
0.0
  0
LINE
  5
28E
100
AcDbEntity
  8
外形
  6
CONTINUOUS
100
AcDbLine
 10
692.144221
 20
318.975984
 30
0.0
 11
755.035681
 21
318.975984
 31
0.0
  0
LINE
  5
28F
100
AcDbEntity
  8
外形
  6
CONTINUOUS
100
AcDbLine
 10
690.144221
 20
318.975984
 30
0.0
 11
690.144221
 21
307.840455
 31
0.0
  0
ARC
  5
290
100
AcDbEntity
  8
外形
  6
CONTINUOUS
100
AcDbCircle
 10
675.144221
 20
313.40822
 30
0.0
 40
16.0
100
AcDbArc
 50
305.659088
 51
339.635865
  0
ARC
  5
291
100
AcDbEntity
  8
外形
  6
CONTINUOUS
100
AcDbCircle
 10
740.035681
 20
313.40822
 30
0.0
 40
16.0
100
AcDbArc
 50
339.635865
 51
20.364135
  0
LINE
  5
292
100
AcDbEntity
  8
外形
  6
CONTINUOUS
100
AcDbLine
 10
757.035681
 20
302.40822
 30
0.0
 11
757.035681
 21
327.40822
 31
0.0
  0
LINE
  5
293
100
AcDbEntity
  8
外形
  6
CONTINUOUS
100
AcDbLine
 10
755.035681
 20
300.40822
 30
0.0
 11
757.035681
 21
302.40822
 31
0.0
  0
LINE
  5
294
100
AcDbEntity
  8
外形
  6
CONTINUOUS
100
AcDbLine
 10
755.035681
 20
307.840455
 30
0.0
 11
755.035681
 21
300.40822
 31
0.0
  0
LINE
  5
295
100
AcDbEntity
  8
外形
  6
CONTINUOUS
100
AcDbLine
 10
755.035681
 20
329.40822
 30
0.0
 11
755.035681
 21
318.975984
 31
0.0
  0
LINE
  5
296
100
AcDbEntity
  8
外形
  6
CONTINUOUS
100
AcDbLine
 10
755.035681
 20
329.40822
 30
0.0
 11
757.035681
 21
327.40822
 31
0.0
  0
DIMENSION
  5
484
100
AcDbEntity
  8
寸法
  6
CONTINUOUS
100
AcDbDimension
  2
*D21
 10
429.878464
 20
305.40822
 30
0.0
 11
413.487175
 21
262.533072
 31
0.0
 70
    34
  3
STANDARD
100
AcDb2LineAngularDimension
 13
426.16413
 23
340.252163
 33
0.0
 14
426.16413
 24
291.40822
 34
0.0
 15
432.837608
 25
327.885152
 35
0.0
 16
425.271887
 26
256.759331
 36
0.0
1001
ACAD
1000
DSTYLE
1002
{
1070
    40
1040
1.0
1002
}
  0
DIMENSION
  5
4A7
100
AcDbEntity
  8
寸法
  6
CONTINUOUS
100
AcDbDimension
  2
*D22
 10
764.523675
 20
221.053875
 30
0.0
 11
464.472356
 21
234.912749
 31
0.0
 70
    34
  3
STANDARD
100
AcDb2LineAngularDimension
 13
487.037018
 23
222.037947
 33
0.0
 14
507.039769
 24
221.053875
 34
0.0
 15
482.701477
 25
221.053875
 35
0.0
 16
465.419961
 26
221.735907
 36
0.0
1001
ACAD
1000
DSTYLE
1002
{
1070
    40
1040
1.0
1070
   275
1070
     1
1002
}
  0
ENDSEC
  0
SECTION
  2
OBJECTS
  0
DICTIONARY
  5
1E
100
AcDbDictionary
  3
ACAD_GROUP
350
1C
  3
ACAD_MLINESTYLE
350
1D
  0
DICTIONARY
  5
37
100
AcDbDictionary
280
     1
  3
ACAD_XREC_ROUNDTRIP
360
38
  0
DICTIONARY
  5
59
100
AcDbDictionary
280
     1
  3
ACAD_XREC_ROUNDTRIP
360
5A
  0
DICTIONARY
  5
3
100
AcDbDictionary
280
     1
  3
ACAD_LAYOUTSELFREF
360
4
  0
DICTIONARY
  5
A
100
AcDbDictionary
280
     1
  3
ACAD_LAYOUTSELFREF
360
B
  0
DICTIONARY
  5
1C
102
{ACAD_REACTORS
330
1E
102
}
100
AcDbDictionary
  0
DICTIONARY
  5
1D
102
{ACAD_REACTORS
330
1E
102
}
100
AcDbDictionary
  3
STANDARD
350
20
  0
XRECORD
  5
38
102
{ACAD_REACTORS
330
37
102
}
100
AcDbXrecord
102
PLOTBIT
280
     0
  0
XRECORD
  5
5A
102
{ACAD_REACTORS
330
59
102
}
100
AcDbXrecord
102
ACADR14ROUNDTRIP
1000
DSTYLE
1002
{
1070
   341
340
0
1070
   343
340
0
1070
   344
340
0
1002
}
  0
XRECORD
  5
4
102
{ACAD_REACTORS
330
3
102
}
100
AcDbXrecord
340
2
  0
XRECORD
  5
B
102
{ACAD_REACTORS
330
A
102
}
100
AcDbXrecord
340
9
  0
MLINESTYLE
  5
20
102
{ACAD_REACTORS
330
1D
102
}
100
AcDbMlineStyle
  2
STANDARD
 70
     0
  3

 62
     0
 51
90.0
 52
90.0
 71
     2
 49
0.5
 62
   256
  6
BYLAYER
 49
-0.5
 62
   256
  6
BYLAYER
  0
ENDSEC
  0
EOF
