  0
SECTION
  2
HEADER
  9
$ACADVER
  1
AC1014
  9
$ACADMAINTVER
 70
     0
  9
$DWGCODEPAGE
  3
ANSI_932
  9
$INSBASE
 10
-587.250952
 20
747.890188
 30
0.0
  9
$EXTMIN
 10
-1200.18411
 20
488.492794
 30
0.0
  9
$EXTMAX
 10
-723.606908
 20
740.40124
 30
0.0
  9
$LIMMIN
 10
-587.250952
 20
327.890188
  9
$LIMMAX
 10
600.749048
 20
957.890188
  9
$ORTHOMODE
 70
     1
  9
$REGENMODE
 70
     1
  9
$FILLMODE
 70
     1
  9
$QTEXTMODE
 70
     0
  9
$MIRRTEXT
 70
     1
  9
$DRAGMODE
 70
     2
  9
$LTSCALE
 40
5.0
  9
$OSMODE
 70
    39
  9
$ATTMODE
 70
     1
  9
$TEXTSIZE
 40
5.0
  9
$TRACEWID
 40
0.05
  9
$TEXTSTYLE
  7
STANDARD
  9
$CLAYER
  8
外形
  9
$CELTYPE
  6
CONTINUOUS
  9
$CECOLOR
 62
     7
  9
$CELTSCALE
 40
1.0
  9
$DELOBJ
 70
     1
  9
$DISPSILH
 70
     0
  9
$DIMSCALE
 40
0.0
  9
$DIMASZ
 40
2.0
  9
$DIMEXO
 40
1.0
  9
$DIMDLI
 40
8.0
  9
$DIMRND
 40
0.0
  9
$DIMDLE
 40
0.0
  9
$DIMEXE
 40
2.0
  9
$DIMTP
 40
0.0
  9
$DIMTM
 40
0.0
  9
$DIMTXT
 40
3.0
  9
$DIMCEN
 40
-1.0
  9
$DIMTSZ
 40
0.0
  9
$DIMTOL
 70
     0
  9
$DIMLIM
 70
     0
  9
$DIMTIH
 70
     0
  9
$DIMTOH
 70
     0
  9
$DIMSE1
 70
     0
  9
$DIMSE2
 70
     0
  9
$DIMTAD
 70
     3
  9
$DIMZIN
 70
     8
  9
$DIMBLK
  1

  9
$DIMASO
 70
     1
  9
$DIMSHO
 70
     1
  9
$DIMPOST
  1

  9
$DIMAPOST
  1

  9
$DIMALT
 70
     0
  9
$DIMALTD
 70
     2
  9
$DIMALTF
 40
25.4
  9
$DIMLFAC
 40
1.0
  9
$DIMTOFL
 70
     1
  9
$DIMTVP
 40
0.0
  9
$DIMTIX
 70
     0
  9
$DIMSOXD
 70
     0
  9
$DIMSAH
 70
     1
  9
$DIMBLK1
  1
_OPEN30
  9
$DIMBLK2
  1
_OPEN30
  9
$DIMSTYLE
  2
STANDARD
  9
$DIMCLRD
 70
     1
  9
$DIMCLRE
 70
     1
  9
$DIMCLRT
 70
     3
  9
$DIMTFAC
 40
1.0
  9
$DIMGAP
 40
1.0
  9
$DIMJUST
 70
     0
  9
$DIMSD1
 70
     0
  9
$DIMSD2
 70
     0
  9
$DIMTOLJ
 70
     1
  9
$DIMTZIN
 70
     8
  9
$DIMALTZ
 70
     0
  9
$DIMALTTZ
 70
     0
  9
$DIMFIT
 70
     4
  9
$DIMUPT
 70
     0
  9
$DIMUNIT
 70
     2
  9
$DIMDEC
 70
     3
  9
$DIMTDEC
 70
     2
  9
$DIMALTU
 70
     2
  9
$DIMALTTD
 70
     2
  9
$DIMTXSTY
  7
STANDARD
  9
$DIMAUNIT
 70
     0
  9
$LUNITS
 70
     2
  9
$LUPREC
 70
     2
  9
$SKETCHINC
 40
0.1
  9
$FILLETRAD
 40
0.2
  9
$AUNITS
 70
     0
  9
$AUPREC
 70
     2
  9
$MENU
  1
acad
  9
$ELEVATION
 40
0.0
  9
$PELEVATION
 40
0.0
  9
$THICKNESS
 40
0.0
  9
$LIMCHECK
 70
     0
  9
$BLIPMODE
 70
     0
  9
$CHAMFERA
 40
2.0
  9
$CHAMFERB
 40
2.0
  9
$CHAMFERC
 40
0.0
  9
$CHAMFERD
 40
0.0
  9
$SKPOLY
 70
     0
  9
$TDCREATE
 40
2450751.535399305
  9
$TDUPDATE
 40
2452038.711053240
  9
$TDINDWG
 40
3.4158517361
  9
$TDUSRTIMER
 40
3.4158517361
  9
$USRTIMER
 70
     1
  9
$ANGBASE
 50
0.0
  9
$ANGDIR
 70
     0
  9
$PDMODE
 70
    32
  9
$PDSIZE
 40
0.0
  9
$PLINEWID
 40
0.0
  9
$COORDS
 70
     2
  9
$SPLFRAME
 70
     0
  9
$SPLINETYPE
 70
     5
  9
$SPLINESEGS
 70
     8
  9
$ATTDIA
 70
     0
  9
$ATTREQ
 70
     1
  9
$HANDLING
 70
     1
  9
$HANDSEED
  5
50C9
  9
$SURFTAB1
 70
     6
  9
$SURFTAB2
 70
     6
  9
$SURFTYPE
 70
     6
  9
$SURFU
 70
     6
  9
$SURFV
 70
     6
  9
$UCSNAME
  2

  9
$UCSORG
 10
40.53800450572526
 20
146.9196145921314
 30
0.0
  9
$UCSXDIR
 10
1.0
 20
0.0
 30
0.0
  9
$UCSYDIR
 10
0.0
 20
1.0
 30
0.0
  9
$PUCSNAME
  2

  9
$PUCSORG
 10
0.0
 20
0.0
 30
0.0
  9
$PUCSXDIR
 10
1.0
 20
0.0
 30
0.0
  9
$PUCSYDIR
 10
0.0
 20
1.0
 30
0.0
  9
$USERI1
 70
     0
  9
$USERI2
 70
     0
  9
$USERI3
 70
     0
  9
$USERI4
 70
     0
  9
$USERI5
 70
     0
  9
$USERR1
 40
0.0
  9
$USERR2
 40
0.0
  9
$USERR3
 40
0.0
  9
$USERR4
 40
0.0
  9
$USERR5
 40
0.0
  9
$WORLDVIEW
 70
     1
  9
$SHADEDGE
 70
     3
  9
$SHADEDIF
 70
    70
  9
$TILEMODE
 70
     1
  9
$MAXACTVP
 70
    16
  9
$PINSBASE
 10
0.0
 20
0.0
 30
0.0
  9
$PLIMCHECK
 70
     0
  9
$PEXTMIN
 10
1.000000E+20
 20
1.000000E+20
 30
1.000000E+20
  9
$PEXTMAX
 10
-1.000000E+20
 20
-1.000000E+20
 30
-1.000000E+20
  9
$PLIMMIN
 10
0.0
 20
0.0
  9
$PLIMMAX
 10
12.0
 20
9.0
  9
$UNITMODE
 70
     0
  9
$VISRETAIN
 70
     0
  9
$PLINEGEN
 70
     0
  9
$PSLTSCALE
 70
     1
  9
$TREEDEPTH
 70
  3020
  9
$PICKSTYLE
 70
     1
  9
$CMLSTYLE
  2
STANDARD
  9
$CMLJUST
 70
     0
  9
$CMLSCALE
 40
1.0
  9
$PROXYGRAPHICS
 70
     1
  9
$MEASUREMENT
 70
     0
  0
ENDSEC
  0
SECTION
  2
CLASSES
  0
CLASS
  1
LWPOLYLINE
  2
AcDbPolyline
  3
"AutoCAD"
 90
        0
280
     0
281
     1
  0
CLASS
  1
ACDBDICTIONARYWDFLT
  2
AcDbDictionaryWithDefault
  3
AutoCAD 2000
 90
        0
280
     1
281
     0
  0
CLASS
  1
ACDBPLACEHOLDER
  2
AcDbPlaceHolder
  3
AutoCAD 2000
 90
        0
280
     1
281
     0
  0
CLASS
  1
LAYOUT
  2
AcDbLayout
  3
AutoCAD 2000
 90
        0
280
     1
281
     0
  0
CLASS
  1
LONG_TRANSACTION
  2
AcDbLongTransaction
  3
AutoCAD 2000
 90
        0
280
     1
281
     0
  0
CLASS
  1
LWPOLYLINE
  2
AcDbPolyline
  3
"AutoCAD"
 90
        0
280
     0
281
     1
  0
CLASS
  1
HATCH
  2
AcDbHatch
  3
"ACAD_SEDONA"
 90
        0
280
     0
281
     1
  0
CLASS
  1
XRECORD
  2
AcDbXrecord
  3
"<Built In>"
 90
        0
280
     0
281
     0
  0
CLASS
  1
DICTIONARYVAR
  2
AcDbDictionaryVar
  3
"AutoCAD"
 90
        0
280
     0
281
     0
  0
ENDSEC
  0
SECTION
  2
TABLES
  0
TABLE
  2
VPORT
  5
16
100
AcDbSymbolTable
 70
     1
  0
VPORT
  5
50C4
100
AcDbSymbolTableRecord
100
AcDbViewportTableRecord
  2
*ACTIVE
 70
     0
 10
0.0
 20
0.0
 11
1.0
 21
1.0
 12
-913.933196
 22
645.647637
 13
0.0
 23
0.0
 14
1.0
 24
1.0
 15
10.0
 25
10.0
 16
0.0
 26
0.0
 36
1.0
 17
0.0
 27
0.0
 37
0.0
 40
452.321528
 41
1.710425
 42
50.0
 43
0.0
 44
0.0
 50
0.0
 51
0.0
 71
     0
 72
   100
 73
     1
 74
     1
 75
     0
 76
     0
 77
     0
 78
     2
  0
ENDTAB
  0
TABLE
  2
LTYPE
  5
11
100
AcDbSymbolTable
 70
     3
  0
LTYPE
  5
12
100
AcDbSymbolTableRecord
100
AcDbLinetypeTableRecord
  2
BYBLOCK
 70
     0
  3

 72
    65
 73
     0
 40
0.0
  0
LTYPE
  5
13
100
AcDbSymbolTableRecord
100
AcDbLinetypeTableRecord
  2
BYLAYER
 70
     0
  3

 72
    65
 73
     0
 40
0.0
  0
LTYPE
  5
7
100
AcDbSymbolTableRecord
100
AcDbLinetypeTableRecord
  2
CONTINUOUS
 70
     0
  3
Solid line
 72
    65
 73
     0
 40
0.0
  0
LTYPE
  5
AA
100
AcDbSymbolTableRecord
100
AcDbLinetypeTableRecord
  2
CENTER
 70
     0
  3
Center ____ _ ____ _ ____ _ ____ _ ____ _ ____
 72
    65
 73
     4
 40
2.0
 49
1.25
 74
     0
 49
-0.25
 74
     0
 49
0.25
 74
     0
 49
-0.25
 74
     0
  0
LTYPE
  5
2837
100
AcDbSymbolTableRecord
100
AcDbLinetypeTableRecord
  2
PHANTOM
 70
     0
  3
Phantom ______  __  __  ______  __  __  ______
 72
    65
 73
     6
 40
2.5
 49
1.25
 74
     0
 49
-0.25
 74
     0
 49
0.25
 74
     0
 49
-0.25
 74
     0
 49
0.25
 74
     0
 49
-0.25
 74
     0
  0
ENDTAB
  0
TABLE
  2
LAYER
  5
E
100
AcDbSymbolTable
 70
     4
  0
LAYER
  5
6
100
AcDbSymbolTableRecord
100
AcDbLayerTableRecord
  2
0
 70
     0
 62
     7
  6
CONTINUOUS
  0
LAYER
  5
2C
100
AcDbSymbolTableRecord
100
AcDbLayerTableRecord
  2
外形
 70
     0
 62
     4
  6
CONTINUOUS
  0
LAYER
  5
37
102
{ACAD_XDICTIONARY
360
38
102
}
100
AcDbSymbolTableRecord
100
AcDbLayerTableRecord
  2
DEFPOINTS
 70
     0
 62
     7
  6
CONTINUOUS
  0
LAYER
  5
1F
100
AcDbSymbolTableRecord
100
AcDbLayerTableRecord
  2
寸法
 70
     0
 62
     1
  6
CONTINUOUS
  0
ENDTAB
  0
TABLE
  2
STYLE
  5
F
100
AcDbSymbolTable
 70
     1
  0
STYLE
  5
10
100
AcDbSymbolTableRecord
100
AcDbTextStyleTableRecord
  2
STANDARD
 70
     0
 40
0.0
 41
1.0
 50
0.0
 71
     0
 42
5.0
  3
MONOTXT
  4
BIGFONT
  0
ENDTAB
  0
TABLE
  2
VIEW
  5
14
100
AcDbSymbolTable
 70
     0
  0
ENDTAB
  0
TABLE
  2
UCS
  5
15
100
AcDbSymbolTable
 70
     0
  0
ENDTAB
  0
TABLE
  2
APPID
  5
18
100
AcDbSymbolTable
 70
     4
  0
APPID
  5
19
100
AcDbSymbolTableRecord
100
AcDbRegAppTableRecord
  2
ACAD
 70
     0
  0
APPID
  5
C59
100
AcDbSymbolTableRecord
100
AcDbRegAppTableRecord
  2
DRAWINGVARIABLESXDATA
 70
     0
  0
APPID
  5
4E02
100
AcDbSymbolTableRecord
100
AcDbRegAppTableRecord
  2
CONTENTTABDATA
 70
     0
  0
APPID
  5
4E03
100
AcDbSymbolTableRecord
100
AcDbRegAppTableRecord
  2
CONTENTCURRENTTAB
 70
     0
  0
ENDTAB
  0
TABLE
  2
DIMSTYLE
  5
1A
100
AcDbSymbolTable
 70
     1
  0
DIMSTYLE
105
21
102
{ACAD_XDICTIONARY
360
22
102
}
102
{ACAD_REACTORS
330
2F57
330
2F73
330
2F77
330
2FB2
330
2FB3
330
4354
330
43ED
330
2F2B
330
4669
102
}
100
AcDbSymbolTableRecord
100
AcDbDimStyleTableRecord
  2
STANDARD
 70
     0
  3

  4

  5

  6
_OPEN30
  7
_OPEN30
 40
0.0
 41
2.0
 42
1.0
 43
8.0
 44
2.0
 45
0.0
 46
0.0
 47
0.0
 48
0.0
140
3.0
141
-1.0
142
0.0
143
25.4
144
1.0
145
0.0
146
1.0
147
1.0
 71
     0
 72
     0
 73
     0
 74
     0
 75
     0
 76
     0
 77
     1
 78
     8
170
     0
171
     2
172
     1
173
     1
174
     0
175
     0
176
     1
177
     1
178
     3
270
     2
271
     2
272
     2
273
     2
274
     2
340
10
275
     0
280
     0
281
     0
282
     0
283
     1
284
     8
285
     0
286
     0
287
     3
288
     0
  0
ENDTAB
  0
TABLE
  2
BLOCK_RECORD
  5
1
100
AcDbSymbolTable
 70
    10
  0
BLOCK_RECORD
  5
2
102
{ACAD_XDICTIONARY
360
3
102
}
100
AcDbSymbolTableRecord
100
AcDbBlockTableRecord
  2
*MODEL_SPACE
  0
BLOCK_RECORD
  5
9
102
{ACAD_XDICTIONARY
360
A
102
}
100
AcDbSymbolTableRecord
100
AcDbBlockTableRecord
  2
*PAPER_SPACE
  0
BLOCK_RECORD
  5
470
100
AcDbSymbolTableRecord
100
AcDbBlockTableRecord
  2
_OPEN30
  0
BLOCK_RECORD
  5
3013
100
AcDbSymbolTableRecord
100
AcDbBlockTableRecord
  2
*D1
  0
BLOCK_RECORD
  5
3043
100
AcDbSymbolTableRecord
100
AcDbBlockTableRecord
  2
*D2
  0
BLOCK_RECORD
  5
30D1
100
AcDbSymbolTableRecord
100
AcDbBlockTableRecord
  2
*D3
  0
BLOCK_RECORD
  5
30ED
100
AcDbSymbolTableRecord
100
AcDbBlockTableRecord
  2
*D4
  0
BLOCK_RECORD
  5
3135
100
AcDbSymbolTableRecord
100
AcDbBlockTableRecord
  2
*D5
  0
BLOCK_RECORD
  5
3141
100
AcDbSymbolTableRecord
100
AcDbBlockTableRecord
  2
*D6
  0
BLOCK_RECORD
  5
4361
100
AcDbSymbolTableRecord
100
AcDbBlockTableRecord
  2
*D7
  0
BLOCK_RECORD
  5
43DF
100
AcDbSymbolTableRecord
100
AcDbBlockTableRecord
  2
*D8
  0
BLOCK_RECORD
  5
4658
100
AcDbSymbolTableRecord
100
AcDbBlockTableRecord
  2
*D9
  0
ENDTAB
  0
ENDSEC
  0
SECTION
  2
BLOCKS
  0
BLOCK
  5
5
100
AcDbEntity
  8
0
100
AcDbBlockBegin
  2
*MODEL_SPACE
 70
     0
 10
0.0
 20
0.0
 30
0.0
  3
*MODEL_SPACE
  1

  0
ENDBLK
  5
8
100
AcDbEntity
  8
0
100
AcDbBlockEnd
  0
BLOCK
  5
C
100
AcDbEntity
 67
     1
  8
0
100
AcDbBlockBegin
  2
*PAPER_SPACE
 70
     0
 10
0.0
 20
0.0
 30
0.0
  3
*PAPER_SPACE
  1

  0
ENDBLK
  5
D
100
AcDbEntity
 67
     1
  8
0
100
AcDbBlockEnd
  0
BLOCK
  5
471
100
AcDbEntity
  8
0
100
AcDbBlockBegin
  2
_OPEN30
 70
     0
 10
0.0
 20
0.0
 30
0.0
  3
_OPEN30
  1

  0
LINE
  5
472
100
AcDbEntity
  8
0
  6
BYBLOCK
 62
     0
100
AcDbLine
 10
-1.0
 20
0.267949
 30
0.0
 11
0.0
 21
0.0
 31
0.0
  0
LINE
  5
473
100
AcDbEntity
  8
0
  6
BYBLOCK
 62
     0
100
AcDbLine
 10
0.0
 20
0.0
 30
0.0
 11
-1.0
 21
-0.267949
 31
0.0
  0
LINE
  5
474
100
AcDbEntity
  8
0
  6
BYBLOCK
 62
     0
100
AcDbLine
 10
0.0
 20
0.0
 30
0.0
 11
-1.0
 21
0.0
 31
0.0
  0
ENDBLK
  5
475
100
AcDbEntity
  8
0
100
AcDbBlockEnd
  0
BLOCK
  5
4A9E
100
AcDbEntity
  8
0
100
AcDbBlockBegin
  2
*D1
 70
     1
 10
0.0
 20
0.0
 30
0.0
  3
*D1
  1

  0
LINE
  5
4A9F
100
AcDbEntity
  8
0
  6
BYBLOCK
 62
     1
100
AcDbLine
 10
-1082.002085
 20
547.388799
 30
0.0
 11
-1082.002085
 21
505.184997
 31
0.0
  0
LINE
  5
4AA0
100
AcDbEntity
  8
0
  6
BYBLOCK
 62
     1
100
AcDbLine
 10
-1045.759133
 20
527.701299
 30
0.0
 11
-1045.759133
 21
505.184997
 31
0.0
  0
LINE
  5
4AA1
100
AcDbEntity
  8
0
  6
BYBLOCK
 62
     1
100
AcDbLine
 10
-1080.002085
 20
507.184997
 30
0.0
 11
-1047.759133
 21
507.184997
 31
0.0
  0
INSERT
  5
4AA2
100
AcDbEntity
  8
0
  6
BYBLOCK
 62
     1
100
AcDbBlockReference
  2
_OPEN30
 10
-1082.002085
 20
507.184997
 30
0.0
 41
2.0
 42
2.0
 43
2.0
 50
180.0
  0
INSERT
  5
4AA3
100
AcDbEntity
  8
0
  6
BYBLOCK
 62
     1
100
AcDbBlockReference
  2
_OPEN30
 10
-1045.759133
 20
507.184997
 30
0.0
 41
2.0
 42
2.0
 43
2.0
  0
MTEXT
  5
4AA4
100
AcDbEntity
  8
0
  6
BYBLOCK
 62
     3
100
AcDbMText
 10
-1063.880609
 20
509.684997
 30
0.0
 40
3.0
 41
0.0
 71
     5
 72
     1
  1
\A1;29
  0
POINT
  5
4AA5
100
AcDbEntity
  8
DEFPOINTS
  6
BYBLOCK
 62
     0
100
AcDbPoint
 10
-1082.002085
 20
548.388799
 30
0.0
  0
POINT
  5
4AA6
100
AcDbEntity
  8
DEFPOINTS
  6
BYBLOCK
 62
     0
100
AcDbPoint
 10
-1045.759133
 20
528.701299
 30
0.0
  0
POINT
  5
4AA7
100
AcDbEntity
  8
DEFPOINTS
  6
BYBLOCK
 62
     0
100
AcDbPoint
 10
-1045.759133
 20
507.184997
 30
0.0
  0
ENDBLK
  5
4AA8
100
AcDbEntity
  8
0
100
AcDbBlockEnd
  0
BLOCK
  5
50B9
100
AcDbEntity
  8
0
100
AcDbBlockBegin
  2
*D2
 70
     1
 10
0.0
 20
0.0
 30
0.0
  3
*D2
  1

  0
LINE
  5
50BA
100
AcDbEntity
  8
0
  6
BYBLOCK
 62
     1
100
AcDbLine
 10
-1061.484284
 20
665.323403
 30
0.0
 11
-1061.484284
 21
621.914459
 31
0.0
  0
LINE
  5
50BB
100
AcDbEntity
  8
0
  6
BYBLOCK
 62
     1
100
AcDbLine
 10
-761.488089
 20
673.486247
 30
0.0
 11
-761.488089
 21
621.914459
 31
0.0
  0
LINE
  5
50BC
100
AcDbEntity
  8
0
  6
BYBLOCK
 62
     1
100
AcDbLine
 10
-1059.484284
 20
623.914459
 30
0.0
 11
-763.488089
 21
623.914459
 31
0.0
  0
INSERT
  5
50BD
100
AcDbEntity
  8
0
  6
BYBLOCK
 62
     1
100
AcDbBlockReference
  2
_OPEN30
 10
-1061.484284
 20
623.914459
 30
0.0
 41
2.0
 42
2.0
 43
2.0
 50
180.0
  0
INSERT
  5
50BE
100
AcDbEntity
  8
0
  6
BYBLOCK
 62
     1
100
AcDbBlockReference
  2
_OPEN30
 10
-761.488089
 20
623.914459
 30
0.0
 41
2.0
 42
2.0
 43
2.0
  0
MTEXT
  5
50BF
100
AcDbEntity
  8
0
  6
BYBLOCK
 62
     3
100
AcDbMText
 10
-911.486186
 20
626.414459
 30
0.0
 40
3.0
 41
0.0
 71
     5
 72
     1
  1
\A1;300
  0
POINT
  5
50C0
100
AcDbEntity
  8
DEFPOINTS
  6
BYBLOCK
 62
     0
100
AcDbPoint
 10
-1061.484284
 20
666.323403
 30
0.0
  0
POINT
  5
50C1
100
AcDbEntity
  8
DEFPOINTS
  6
BYBLOCK
 62
     0
100
AcDbPoint
 10
-761.488089
 20
674.486247
 30
0.0
  0
POINT
  5
50C2
100
AcDbEntity
  8
DEFPOINTS
  6
BYBLOCK
 62
     0
100
AcDbPoint
 10
-761.488089
 20
623.914459
 30
0.0
  0
ENDBLK
  5
50C3
100
AcDbEntity
  8
0
100
AcDbBlockEnd
  0
BLOCK
  5
4E7E
100
AcDbEntity
  8
0
100
AcDbBlockBegin
  2
*D3
 70
     1
 10
0.0
 20
0.0
 30
0.0
  3
*D3
  1

  0
LINE
  5
4E7F
100
AcDbEntity
  8
0
  6
BYBLOCK
 62
     1
100
AcDbLine
 10
-1186.202181
 20
653.180715
 30
0.0
 11
-1190.986868
 21
626.045406
 31
0.0
  0
LINE
  5
4E80
100
AcDbEntity
  8
0
  6
BYBLOCK
 62
     1
100
AcDbLine
 10
-1184.076465
 20
653.294006
 30
0.0
 11
-1184.076465
 21
625.440824
 31
0.0
  0
ARC
  5
4E81
100
AcDbEntity
  8
0
  6
BYBLOCK
 62
     1
100
AcDbCircle
 10
-1184.076465
 20
665.236247
 30
0.0
 40
37.795423
100
AcDbArc
 50
263.032244
 51
266.967756
  0
INSERT
  5
4E82
100
AcDbEntity
  8
0
  6
BYBLOCK
 62
     1
100
AcDbBlockReference
  2
_OPEN30
 10
-1190.639571
 20
628.015021
 30
0.0
 41
2.0
 42
2.0
 43
2.0
 50
171.516122
  0
INSERT
  5
4E83
100
AcDbEntity
  8
0
  6
BYBLOCK
 62
     1
100
AcDbBlockReference
  2
_OPEN30
 10
-1184.076465
 20
627.440824
 30
0.0
 41
2.0
 42
2.0
 43
2.0
 50
358.483878
  0
MTEXT
  5
4E84
100
AcDbEntity
  8
0
  6
BYBLOCK
 62
     3
100
AcDbMText
 10
-1187.51617
 20
631.602997
 30
0.0
 40
3.0
 41
0.0
 71
     5
 72
     1
  1
\A1;10°
  0
POINT
  5
4E85
100
AcDbEntity
  8
DEFPOINTS
  6
BYBLOCK
 62
     0
100
AcDbPoint
 10
-1186.274074
 20
627.504768
 30
0.0
  0
POINT
  5
4E86
100
AcDbEntity
  8
DEFPOINTS
  6
BYBLOCK
 62
     0
100
AcDbPoint
 10
-1184.384173
 20
663.491151
 30
0.0
  0
POINT
  5
4E87
100
AcDbEntity
  8
DEFPOINTS
  6
BYBLOCK
 62
     0
100
AcDbPoint
 10
-1184.076465
 20
730.6679
 30
0.0
  0
POINT
  5
4E88
100
AcDbEntity
  8
DEFPOINTS
  6
BYBLOCK
 62
     0
100
AcDbPoint
 10
-1184.076465
 20
654.294006
 30
0.0
  0
POINT
  5
4E89
100
AcDbEntity
  8
DEFPOINTS
  6
BYBLOCK
 62
     0
100
AcDbPoint
 10
-1186.028533
 20
654.165522
 30
0.0
  0
ENDBLK
  5
4E8A
100
AcDbEntity
  8
0
100
AcDbBlockEnd
  0
BLOCK
  5
4D38
100
AcDbEntity
  8
0
100
AcDbBlockBegin
  2
*D4
 70
     1
 10
0.0
 20
0.0
 30
0.0
  3
*D4
  1

  0
LINE
  5
4D39
100
AcDbEntity
  8
0
  6
BYBLOCK
 62
     1
100
AcDbLine
 10
-1082.007761
 20
665.236247
 30
0.0
 11
-1107.445224
 21
665.236247
 31
0.0
  0
LINE
  5
4D3A
100
AcDbEntity
  8
0
  6
BYBLOCK
 62
     1
100
AcDbLine
 10
-1095.404002
 20
692.236247
 30
0.0
 11
-1107.445224
 21
692.236247
 31
0.0
  0
LINE
  5
4D3B
100
AcDbEntity
  8
0
  6
BYBLOCK
 62
     1
100
AcDbLine
 10
-1105.445224
 20
667.236247
 30
0.0
 11
-1105.445224
 21
690.236247
 31
0.0
  0
INSERT
  5
4D3C
100
AcDbEntity
  8
0
  6
BYBLOCK
 62
     1
100
AcDbBlockReference
  2
_OPEN30
 10
-1105.445224
 20
665.236247
 30
0.0
 41
2.0
 42
2.0
 43
2.0
 50
270.0
  0
INSERT
  5
4D3D
100
AcDbEntity
  8
0
  6
BYBLOCK
 62
     1
100
AcDbBlockReference
  2
_OPEN30
 10
-1105.445224
 20
692.236247
 30
0.0
 41
2.0
 42
2.0
 43
2.0
 50
90.0
  0
MTEXT
  5
4D3E
100
AcDbEntity
  8
0
  6
BYBLOCK
 62
     3
100
AcDbMText
 10
-1107.945224
 20
678.736247
 30
0.0
 40
3.0
 41
0.0
 71
     5
 72
     1
  1
\A1;27
 11
0.0
 21
1.0
 31
0.0
  0
POINT
  5
4D3F
100
AcDbEntity
  8
DEFPOINTS
  6
BYBLOCK
 62
     0
100
AcDbPoint
 10
-1081.007761
 20
665.236247
 30
0.0
  0
POINT
  5
4D40
100
AcDbEntity
  8
DEFPOINTS
  6
BYBLOCK
 62
     0
100
AcDbPoint
 10
-1094.404002
 20
692.236247
 30
0.0
  0
POINT
  5
4D41
100
AcDbEntity
  8
DEFPOINTS
  6
BYBLOCK
 62
     0
100
AcDbPoint
 10
-1105.445224
 20
692.236247
 30
0.0
  0
ENDBLK
  5
4D42
100
AcDbEntity
  8
0
100
AcDbBlockEnd
  0
BLOCK
  5
4A89
100
AcDbEntity
  8
0
100
AcDbBlockBegin
  2
*D5
 70
     1
 10
0.0
 20
0.0
 30
0.0
  3
*D5
  1

  0
LINE
  5
4A8A
100
AcDbEntity
  8
0
  6
BYBLOCK
 62
     1
100
AcDbLine
 10
-923.727301
 20
684.869338
 30
0.0
 11
-923.727301
 21
636.309579
 31
0.0
  0
LINE
  5
4A8B
100
AcDbEntity
  8
0
  6
BYBLOCK
 62
     1
100
AcDbLine
 10
-886.727303
 20
684.869338
 30
0.0
 11
-886.727303
 21
636.309579
 31
0.0
  0
LINE
  5
4A8C
100
AcDbEntity
  8
0
  6
BYBLOCK
 62
     1
100
AcDbLine
 10
-921.727301
 20
638.309579
 30
0.0
 11
-888.727303
 21
638.309579
 31
0.0
  0
INSERT
  5
4A8D
100
AcDbEntity
  8
0
  6
BYBLOCK
 62
     1
100
AcDbBlockReference
  2
_OPEN30
 10
-923.727301
 20
638.309579
 30
0.0
 41
2.0
 42
2.0
 43
2.0
 50
180.0
  0
INSERT
  5
4A8E
100
AcDbEntity
  8
0
  6
BYBLOCK
 62
     1
100
AcDbBlockReference
  2
_OPEN30
 10
-886.727303
 20
638.309579
 30
0.0
 41
2.0
 42
2.0
 43
2.0
  0
MTEXT
  5
4A8F
100
AcDbEntity
  8
0
  6
BYBLOCK
 62
     3
100
AcDbMText
 10
-905.227302
 20
640.809579
 30
0.0
 40
3.0
 41
0.0
 71
     5
 72
     1
  1
\A1;37
  0
POINT
  5
4A90
100
AcDbEntity
  8
DEFPOINTS
  6
BYBLOCK
 62
     0
100
AcDbPoint
 10
-923.727301
 20
685.869338
 30
0.0
  0
POINT
  5
4A91
100
AcDbEntity
  8
DEFPOINTS
  6
BYBLOCK
 62
     0
100
AcDbPoint
 10
-886.727303
 20
685.869338
 30
0.0
  0
POINT
  5
4A92
100
AcDbEntity
  8
DEFPOINTS
  6
BYBLOCK
 62
     0
100
AcDbPoint
 10
-886.727303
 20
638.309579
 30
0.0
  0
ENDBLK
  5
4A93
100
AcDbEntity
  8
0
100
AcDbBlockEnd
  0
BLOCK
  5
4C1E
100
AcDbEntity
  8
0
100
AcDbBlockBegin
  2
*D6
 70
     1
 10
0.0
 20
0.0
 30
0.0
  3
*D6
  1

  0
LINE
  5
4C1F
100
AcDbEntity
  8
0
  6
BYBLOCK
 62
     1
100
AcDbLine
 10
-886.626481
 20
721.196912
 30
0.0
 11
-893.191477
 21
711.151972
 31
0.0
  0
LINE
  5
4C20
100
AcDbEntity
  8
0
  6
BYBLOCK
 62
     1
100
AcDbLine
 10
-917.263128
 20
674.320523
 30
0.0
 11
-918.357293
 21
672.646366
 31
0.0
  0
MTEXT
  5
4C21
100
AcDbEntity
  8
0
  6
BYBLOCK
 62
     3
100
AcDbMText
 10
-891.454592
 20
718.379228
 30
0.0
 40
3.0
 41
0.0
 71
     5
 72
     1
  1
\A1;\U+220540
 11
0.547083
 21
0.837078
 31
0.0
  0
LINE
  5
4C22
100
AcDbEntity
  8
0
  6
BYBLOCK
 62
     1
100
AcDbLine
 10
-916.168962
 20
675.99468
 30
0.0
 11
-894.285643
 21
709.477815
 31
0.0
  0
INSERT
  5
4C23
100
AcDbEntity
  8
0
  6
BYBLOCK
 62
     1
100
AcDbBlockReference
  2
_OPEN30
 10
-916.168962
 20
675.99468
 30
0.0
 41
2.0
 42
2.0
 43
2.0
 50
56.832878
  0
INSERT
  5
4C24
100
AcDbEntity
  8
0
  6
BYBLOCK
 62
     1
100
AcDbBlockReference
  2
_OPEN30
 10
-894.285643
 20
709.477815
 30
0.0
 41
2.0
 42
2.0
 43
2.0
 50
236.832878
  0
POINT
  5
4C25
100
AcDbEntity
  8
DEFPOINTS
  6
BYBLOCK
 62
     0
100
AcDbPoint
 10
-894.285643
 20
709.477815
 30
0.0
  0
POINT
  5
4C26
100
AcDbEntity
  8
DEFPOINTS
  6
BYBLOCK
 62
     0
100
AcDbPoint
 10
-916.168962
 20
675.99468
 30
0.0
  0
ENDBLK
  5
4C27
100
AcDbEntity
  8
0
100
AcDbBlockEnd
  0
BLOCK
  5
4D43
100
AcDbEntity
  8
0
100
AcDbBlockBegin
  2
*D7
 70
     1
 10
0.0
 20
0.0
 30
0.0
  3
*D7
  1

  0
LINE
  5
4D44
100
AcDbEntity
  8
0
  6
BYBLOCK
 62
     1
100
AcDbLine
 10
-1080.007761
 20
665.236247
 30
0.0
 11
-1022.497469
 21
665.236247
 31
0.0
  0
LINE
  5
4D45
100
AcDbEntity
  8
0
  6
BYBLOCK
 62
     1
100
AcDbLine
 10
-1019.407761
 20
673.736249
 30
0.0
 11
-1026.497469
 21
673.736249
 31
0.0
  0
LINE
  5
4D46
100
AcDbEntity
  8
0
  6
BYBLOCK
 62
     1
100
AcDbLine
 10
-1024.497469
 20
667.236247
 30
0.0
 11
-1024.497469
 21
671.736249
 31
0.0
  0
MTEXT
  5
4D47
100
AcDbEntity
  8
0
  6
BYBLOCK
 62
     3
100
AcDbMText
 10
-1027.346219
 20
668.079388
 30
0.0
 40
3.0
 41
0.0
 71
     5
 72
     1
  1
\A1;8.5
 11
0.0
 21
1.0
 31
0.0
  0
INSERT
  5
4D48
100
AcDbEntity
  8
0
  6
BYBLOCK
 62
     1
100
AcDbBlockReference
  2
_OPEN30
 10
-1024.497469
 20
665.236247
 30
0.0
 41
2.0
 42
2.0
 43
2.0
 50
270.0
  0
INSERT
  5
4D49
100
AcDbEntity
  8
0
  6
BYBLOCK
 62
     1
100
AcDbBlockReference
  2
_OPEN30
 10
-1024.497469
 20
673.736249
 30
0.0
 41
2.0
 42
2.0
 43
2.0
 50
90.0
  0
POINT
  5
4D4A
100
AcDbEntity
  8
DEFPOINTS
  6
BYBLOCK
 62
     0
100
AcDbPoint
 10
-1081.007761
 20
665.236247
 30
0.0
  0
POINT
  5
4D4B
100
AcDbEntity
  8
DEFPOINTS
  6
BYBLOCK
 62
     0
100
AcDbPoint
 10
-1018.407761
 20
673.736249
 30
0.0
  0
POINT
  5
4D4C
100
AcDbEntity
  8
DEFPOINTS
  6
BYBLOCK
 62
     0
100
AcDbPoint
 10
-1024.497469
 20
673.736249
 30
0.0
  0
ENDBLK
  5
4D4D
100
AcDbEntity
  8
0
100
AcDbBlockEnd
  0
BLOCK
  5
4B6E
100
AcDbEntity
  8
0
100
AcDbBlockBegin
  2
*D8
 70
     1
 10
0.0
 20
0.0
 30
0.0
  3
*D8
  1

  0
LINE
  5
4B6F
100
AcDbEntity
  8
0
  6
BYBLOCK
 62
     1
100
AcDbLine
 10
-1080.688859
 20
681.355029
 30
0.0
 11
-1077.860309
 21
713.685505
 31
0.0
  0
LINE
  5
4B70
100
AcDbEntity
  8
0
  6
BYBLOCK
 62
     1
100
AcDbLine
 10
-1106.445224
 20
665.236247
 30
0.0
 11
-1130.733395
 21
665.236247
 31
0.0
  0
ARC
  5
4B71
100
AcDbEntity
  8
0
  6
BYBLOCK
 62
     1
100
AcDbCircle
 10
-1082.099069
 20
665.236247
 30
0.0
 40
46.634326
100
AcDbArc
 50
87.457425
 51
177.542575
  0
INSERT
  5
4B72
100
AcDbEntity
  8
0
  6
BYBLOCK
 62
     1
100
AcDbBlockReference
  2
_OPEN30
 10
-1078.03462
 20
711.693115
 30
0.0
 41
2.0
 42
2.0
 43
2.0
 50
356.228712
  0
INSERT
  5
4B73
100
AcDbEntity
  8
0
  6
BYBLOCK
 62
     1
100
AcDbBlockReference
  2
_OPEN30
 10
-1128.733395
 20
665.236247
 30
0.0
 41
2.0
 42
2.0
 43
2.0
 50
268.771288
  0
MTEXT
  5
4B74
100
AcDbEntity
  8
0
  6
BYBLOCK
 62
     3
100
AcDbMText
 10
-1115.293739
 20
701.461872
 30
0.0
 40
3.0
 41
0.0
 71
     5
 72
     1
  1
\A1;95°
 11
0.737277
 21
0.67559
 31
0.0
  0
POINT
  5
4B75
100
AcDbEntity
  8
DEFPOINTS
  6
BYBLOCK
 62
     0
100
AcDbPoint
 10
-1103.028517
 20
706.910203
 30
0.0
  0
POINT
  5
4B76
100
AcDbEntity
  8
DEFPOINTS
  6
BYBLOCK
 62
     0
100
AcDbPoint
 10
-1105.445224
 20
665.236247
 30
0.0
  0
POINT
  5
4B77
100
AcDbEntity
  8
DEFPOINTS
  6
BYBLOCK
 62
     0
100
AcDbPoint
 10
-1080.776015
 20
680.358834
 30
0.0
  0
POINT
  5
4B78
100
AcDbEntity
  8
DEFPOINTS
  6
BYBLOCK
 62
     0
100
AcDbPoint
 10
-1082.003956
 20
666.323403
 30
0.0
  0
POINT
  5
4B79
100
AcDbEntity
  8
DEFPOINTS
  6
BYBLOCK
 62
     0
100
AcDbPoint
 10
-1082.257761
 20
665.236247
 30
0.0
  0
ENDBLK
  5
4B7A
100
AcDbEntity
  8
0
100
AcDbBlockEnd
  0
BLOCK
  5
4B9E
100
AcDbEntity
  8
0
100
AcDbBlockBegin
  2
*D9
 70
     1
 10
0.0
 20
0.0
 30
0.0
  3
*D9
  1

  0
LINE
  5
4B9F
100
AcDbEntity
  8
0
  6
BYBLOCK
 62
     1
100
AcDbLine
 10
-1099.183705
 20
548.388799
 30
0.0
 11
-1120.804752
 21
548.388799
 31
0.0
  0
LINE
  5
4BA0
100
AcDbEntity
  8
0
  6
BYBLOCK
 62
     1
100
AcDbLine
 10
-1083.002243
 20
548.28426
 30
0.0
 11
-1120.592184
 21
544.333084
 31
0.0
  0
ARC
  5
4BA1
100
AcDbEntity
  8
0
  6
BYBLOCK
 62
     1
100
AcDbCircle
 10
-1082.007703
 20
548.388799
 30
0.0
 40
36.797049
100
AcDbArc
 50
173.770932
 51
176.885466
  0
ARC
  5
4BA2
100
AcDbEntity
  8
0
  6
BYBLOCK
 62
     1
100
AcDbCircle
 10
-1082.007703
 20
548.388799
 30
0.0
 40
36.797049
100
AcDbArc
 50
189.115008
 51
192.229542
  0
ARC
  5
4BA3
100
AcDbEntity
  8
0
  6
BYBLOCK
 62
     1
100
AcDbCircle
 10
-1082.007703
 20
548.388799
 30
0.0
 40
36.797049
100
AcDbArc
 50
180.0
 51
186.000474
  0
INSERT
  5
4BA4
100
AcDbEntity
  8
0
  6
BYBLOCK
 62
     1
100
AcDbBlockReference
  2
_OPEN30
 10
-1118.804752
 20
548.388799
 30
0.0
 41
2.0
 42
2.0
 43
2.0
 50
268.442733
  0
INSERT
  5
4BA5
100
AcDbEntity
  8
0
  6
BYBLOCK
 62
     1
100
AcDbBlockReference
  2
_OPEN30
 10
-1118.603142
 20
544.542157
 30
0.0
 41
2.0
 42
2.0
 43
2.0
 50
97.557741
  0
MTEXT
  5
4BA6
100
AcDbEntity
  8
0
  6
BYBLOCK
 62
     3
100
AcDbMText
 10
-1122.343704
 20
545.005155
 30
0.0
 40
3.0
 41
0.0
 71
     5
 72
     1
  1
\A1;6°
  0
POINT
  5
4BA7
100
AcDbEntity
  8
DEFPOINTS
  6
BYBLOCK
 62
     0
100
AcDbPoint
 10
-1118.782333
 20
547.104499
 30
0.0
  0
POINT
  5
4BA8
100
AcDbEntity
  8
DEFPOINTS
  6
BYBLOCK
 62
     0
100
AcDbPoint
 10
-744.12658
 20
548.388799
 30
0.0
  0
POINT
  5
4BA9
100
AcDbEntity
  8
DEFPOINTS
  6
BYBLOCK
 62
     0
100
AcDbPoint
 10
-1066.034145
 20
550.067821
 30
0.0
  0
POINT
  5
4BAA
100
AcDbEntity
  8
DEFPOINTS
  6
BYBLOCK
 62
     0
100
AcDbPoint
 10
-1082.007722
 20
548.388797
 30
0.0
  0
POINT
  5
4BAB
100
AcDbEntity
  8
DEFPOINTS
  6
BYBLOCK
 62
     0
100
AcDbPoint
 10
-1098.183705
 20
548.388799
 30
0.0
  0
ENDBLK
  5
4BAC
100
AcDbEntity
  8
0
100
AcDbBlockEnd
  0
ENDSEC
  0
SECTION
  2
ENTITIES
  0
LINE
  5
2F1C
100
AcDbEntity
  8
外形
  6
CENTER
 62
     1
100
AcDbLine
 10
-744.121671
 20
548.388799
 30
0.0
 11
-1077.664033
 21
548.388799
 31
0.0
  0
ARC
  5
2F1F
100
AcDbEntity
  8
外形
  6
CONTINUOUS
100
AcDbCircle
 10
-1036.411219
 20
578.238849
 30
0.0
 40
27.281956
100
AcDbArc
 50
278.904501
 51
335.992
  0
ARC
  5
2F20
100
AcDbEntity
  8
外形
  6
CONTINUOUS
100
AcDbCircle
 10
-1029.32259
 20
577.025351
 30
0.0
 40
19.317925
100
AcDbArc
 50
273.492201
 51
328.350423
  0
LINE
  5
2F21
100
AcDbEntity
  8
外形
  6
CONTINUOUS
100
AcDbLine
 10
-994.175589
 20
529.8888
 30
0.0
 11
-1024.029154
 21
529.8888
 31
0.0
  0
LINE
  5
2F22
100
AcDbEntity
  8
外形
  6
CONTINUOUS
100
AcDbLine
 10
-862.825963
 20
566.888797
 30
0.0
 11
-1012.877758
 21
566.888797
 31
0.0
  0
LINE
  5
2F26
100
AcDbEntity
  8
外形
  6
CONTINUOUS
100
AcDbLine
 10
-1045.514473
 20
550.067821
 30
0.0
 11
-1045.033858
 21
542.134597
 31
0.0
  0
LINE
  5
2F28
100
AcDbEntity
  8
外形
  6
CONTINUOUS
100
AcDbLine
 10
-1060.369461
 20
551.899546
 30
0.0
 11
-1061.48805
 21
548.388797
 31
0.0
  0
LINE
  5
2F29
100
AcDbEntity
  8
外形
  6
CONTINUOUS
100
AcDbLine
 10
-1045.514473
 20
550.067821
 30
0.0
 11
-1061.48805
 21
548.388797
 31
0.0
  0
DIMENSION
  5
2F2B
100
AcDbEntity
  8
寸法
  6
CONTINUOUS
 62
     7
100
AcDbDimension
  2
*D1
 10
-1025.239461
 20
507.184997
 30
0.0
 11
-1043.360937
 21
509.684997
 31
0.0
 12
20.519672
 22
0.0
 32
0.0
 70
    32
  1
29
  3
STANDARD
100
AcDbAlignedDimension
 13
-1061.482413
 23
548.388799
 33
0.0
 14
-1025.239461
 24
528.701299
 34
0.0
100
AcDbRotatedDimension
1001
ACAD
1000
DSTYLE
1002
{
1070
    77
1070
     3
1070
    40
1040
1.0
1070
   287
1070
     4
1070
   271
1070
     3
1002
}
  0
LINE
  5
2F3A
100
AcDbEntity
  8
外形
  6
CONTINUOUS
100
AcDbLine
 10
-1032.188299
 20
551.285704
 30
0.0
 11
-1042.318278
 21
550.272177
 31
0.0
  0
LINE
  5
2F3B
100
AcDbEntity
  8
外形
  6
CONTINUOUS
100
AcDbLine
 10
-1028.145884
 20
557.743297
 30
0.0
 11
-1045.514473
 21
556.226571
 31
0.0
  0
ELLIPSE
  5
2F3C
100
AcDbEntity
  8
外形
  6
CONTINUOUS
100
AcDbEllipse
 10
-1036.435501
 20
553.444151
 30
0.0
 11
-5.014588849882619
 21
-0.5160458475952408
 31
0.0
210
0.0
220
0.0
230
1.0
 40
0.228477
 41
0.0
 42
6.283185307179586
  0
LINE
  5
2F3D
100
AcDbEntity
  8
外形
  6
CONTINUOUS
100
AcDbLine
 10
-1045.514473
 20
556.226571
 30
0.0
 11
-1059.186412
 21
554.788699
 31
0.0
  0
LINE
  5
2F3E
100
AcDbEntity
  8
外形
  6
CONTINUOUS
100
AcDbLine
 10
-1045.514473
 20
550.067821
 30
0.0
 11
-1042.318278
 21
550.272177
 31
0.0
  0
LINE
  5
2F3F
100
AcDbEntity
  8
外形
  6
CONTINUOUS
100
AcDbLine
 10
-1059.186412
 20
554.788699
 30
0.0
 11
-1060.098119
 21
551.927649
 31
0.0
  0
LINE
  5
2F40
100
AcDbEntity
  8
外形
  6
CONTINUOUS
100
AcDbLine
 10
-1044.228522
 20
553.596647
 30
0.0
 11
-1045.514473
 21
550.067821
 31
0.0
  0
LINE
  5
2F41
100
AcDbEntity
  8
外形
  6
CONTINUOUS
100
AcDbLine
 10
-1044.228522
 20
553.596647
 30
0.0
 11
-1060.369604
 21
551.899097
 31
0.0
  0
ELLIPSE
  5
2F43
100
AcDbEntity
  8
外形
  6
CONTINUOUS
100
AcDbEllipse
 10
-1052.699382
 20
550.989878
 30
0.0
 11
3.21959828974014
 21
0.4813847101379436
 31
0.0
210
0.0
220
0.0
230
1.0
 40
0.188131
 41
0.0
 42
6.283185307179586
  0
ELLIPSE
  5
2F44
100
AcDbEntity
  8
外形
  6
CONTINUOUS
100
AcDbEllipse
 10
-1036.435501
 20
553.444151
 30
0.0
 11
-2.171355766957854
 21
-0.2234518443554643
 31
0.0
210
0.0
220
0.0
230
1.0
 40
0.320301
 41
0.0
 42
6.283185307179586
  0
LINE
  5
2F45
100
AcDbEntity
  8
外形
  6
CONTINUOUS
100
AcDbLine
 10
-862.825963
 20
540.789454
 30
0.0
 11
-997.888089
 21
540.789454
 31
0.0
  0
LINE
  5
2F46
100
AcDbEntity
  8
外形
  6
CONTINUOUS
100
AcDbLine
 10
-862.825963
 20
529.8888
 30
0.0
 11
-994.175589
 21
529.8888
 31
0.0
  0
LINE
  5
2F4A
100
AcDbEntity
  8
外形
  6
CONTINUOUS
100
AcDbLine
 10
-862.825963
 20
555.988144
 30
0.0
 11
-997.888089
 21
555.988144
 31
0.0
  0
LINE
  5
2F50
100
AcDbEntity
  8
外形
  6
CONTINUOUS
100
AcDbLine
 10
-761.488089
 20
566.138799
 30
0.0
 11
-761.488089
 21
530.638799
 31
0.0
  0
LINE
  5
2F53
100
AcDbEntity
  8
外形
  6
CONTINUOUS
100
AcDbLine
 10
-762.238088
 20
529.8888
 30
0.0
 11
-761.488089
 21
530.638799
 31
0.0
  0
DIMENSION
  5
2F57
100
AcDbEntity
  8
寸法
  6
CONTINUOUS
 62
     7
100
AcDbDimension
  2
*D2
 10
-761.488089
 20
623.914459
 30
0.0
 11
-911.486186
 21
626.414459
 31
0.0
 70
    32
  1
300
  3
STANDARD
100
AcDbAlignedDimension
 13
-1061.484284
 23
666.323403
 33
0.0
 14
-761.488089
 24
674.486247
 34
0.0
100
AcDbRotatedDimension
1001
ACAD
1000
DSTYLE
1002
{
1070
    77
1070
     3
1070
    40
1040
1.0
1070
   287
1070
     4
1070
   271
1070
     3
1002
}
  0
LINE
  5
2F59
100
AcDbEntity
  8
外形
  6
CONTINUOUS
100
AcDbLine
 10
-763.488089
 20
684.636902
 30
0.0
 11
-876.656069
 21
684.636902
 31
0.0
  0
LINE
  5
2F5A
100
AcDbEntity
  8
外形
  6
CONTINUOUS
100
AcDbLine
 10
-763.488089
 20
699.835593
 30
0.0
 11
-876.656069
 21
699.835593
 31
0.0
  0
LINE
  5
2F5B
100
AcDbEntity
  8
外形
  6
CONTINUOUS
100
AcDbLine
 10
-762.238088
 20
673.736249
 30
0.0
 11
-876.656069
 21
673.736249
 31
0.0
  0
LINE
  5
2F5D
100
AcDbEntity
  8
外形
  6
CENTER
 62
     1
100
AcDbLine
 10
-744.121671
 20
692.236247
 30
0.0
 11
-1073.88433
 21
692.236247
 31
0.0
  0
LINE
  5
2F5E
100
AcDbEntity
  8
外形
  6
CENTER
 62
     1
100
AcDbLine
 10
-1127.022047
 20
692.236247
 30
0.0
 11
-1200.18411
 21
692.236247
 31
0.0
  0
LINE
  5
2F60
100
AcDbEntity
  8
寸法
  6
BYBLOCK
 62
     1
100
AcDbLine
 10
-1123.558605
 20
734.909359
 30
0.0
 11
-1143.394199
 21
713.7704
 31
0.0
  0
LINE
  5
2F67
100
AcDbEntity
  8
外形
  6
CONTINUOUS
100
AcDbLine
 10
-917.815738
 20
673.736249
 30
0.0
 11
-997.888089
 21
673.736249
 31
0.0
  0
DIMENSION
  5
2F73
100
AcDbEntity
  8
寸法
  6
CONTINUOUS
 62
     7
100
AcDbDimension
  2
*D3
 10
-1165.508861
 20
654.165522
 30
0.0
 11
-1167.309565
 21
628.541843
 31
0.0
 12
20.519672
 22
0.0
 32
0.0
 70
   162
  3
STANDARD
100
AcDb2LineAngularDimension
 13
-1163.556793
 23
730.6679
 33
0.0
 14
-1163.556793
 24
654.294006
 34
0.0
 15
-1163.864501
 25
663.491151
 35
0.0
 16
-1165.754402
 26
627.504768
 36
0.0
1001
ACAD
1000
DSTYLE
1002
{
1070
    77
1070
     3
1070
    40
1040
1.0
1070
   287
1070
     4
1070
   271
1070
     3
1002
}
  0
INSERT
  5
2F74
100
AcDbEntity
  8
寸法
  6
BYBLOCK
 62
     1
100
AcDbBlockReference
  2
_OPEN30
 10
-1182.055329
 20
672.56891
 30
0.0
 41
2.5
 42
2.5
 43
2.5
 50
46.821915
  0
DIMENSION
  5
2F77
100
AcDbEntity
  8
寸法
  6
CONTINUOUS
 62
     7
100
AcDbDimension
  2
*D4
 10
-1084.925552
 20
692.236247
 30
0.0
 11
-1087.425552
 21
678.736247
 31
0.0
 12
20.519672
 22
0.0
 32
0.0
 70
    32
  3
STANDARD
100
AcDbAlignedDimension
 13
-1060.488089
 23
665.236247
 33
0.0
 14
-1073.88433
 24
692.236247
 34
0.0
 50
90.0
100
AcDbRotatedDimension
1001
ACAD
1000
DSTYLE
1002
{
1070
    77
1070
     3
1070
    40
1040
1.0
1070
   287
1070
     4
1070
   271
1070
     3
1002
}
  0
LINE
  5
2F78
100
AcDbEntity
  8
外形
  6
CONTINUOUS
100
AcDbLine
 10
-1157.031149
 20
702.236247
 30
0.0
 11
-1163.556793
 21
665.236247
 31
0.0
  0
ARC
  5
2F7B
100
AcDbEntity
  8
外形
  6
CONTINUOUS
100
AcDbCircle
 10
-1163.621293
 20
692.28368
 30
0.0
 40
26.381065
100
AcDbArc
 50
211.76113
 51
253.077276
  0
LINE
  5
2F7C
100
AcDbEntity
  8
外形
  6
CENTER
 62
     1
100
AcDbLine
 10
-1163.556793
 20
733.417179
 30
0.0
 11
-1163.556793
 21
657.043285
 31
0.0
  0
LINE
  5
2F7F
100
AcDbEntity
  8
寸法
  6
CONTINUOUS
 62
     1
100
AcDbLine
 10
-1163.864501
 20
663.491151
 30
0.0
 11
-1165.508861
 21
654.165522
 31
0.0
  0
LINE
  5
2F80
100
AcDbEntity
  8
寸法
  6
BYBLOCK
 62
     1
100
AcDbLine
 10
-1183.766
 20
670.745834
 30
0.0
 11
-1185.839338
 21
668.536259
 31
0.0
  0
LINE
  5
2F81
100
AcDbEntity
  8
外形
  6
CONTINUOUS
100
AcDbLine
 10
-1171.300337
 20
667.044962
 30
0.0
 11
-1168.168649
 21
666.492761
 31
0.0
  0
LINE
  5
2F82
100
AcDbEntity
  8
外形
  6
CONTINUOUS
100
AcDbLine
 10
-1168.244478
 20
666.062813
 30
0.0
 11
-1163.556793
 21
665.236247
 31
0.0
  0
LINE
  5
2F87
100
AcDbEntity
  8
寸法
  6
BYBLOCK
 62
     1
100
AcDbLine
 10
-1182.055329
 20
672.56891
 30
0.0
 11
-1145.10487
 21
711.947324
 31
0.0
  0
LINE
  5
2F88
100
AcDbEntity
  8
外形
  6
CONTINUOUS
100
AcDbLine
 10
-1154.806793
 20
710.220616
 30
0.0
 11
-1157.031149
 21
702.236247
 31
0.0
  0
LINE
  5
2F89
100
AcDbEntity
  8
外形
  6
CONTINUOUS
100
AcDbLine
 10
-1157.031149
 20
702.236247
 30
0.0
 11
-1180.759377
 21
703.257742
 31
0.0
  0
ARC
  5
2F8A
100
AcDbEntity
  8
外形
  6
CONTINUOUS
100
AcDbCircle
 10
-1163.837977
 20
691.845296
 30
0.0
 40
20.410235
100
AcDbArc
 50
23.046911
 51
149.004914
  0
ARC
  5
2F8B
100
AcDbEntity
  8
外形
  6
CONTINUOUS
100
AcDbCircle
 10
-1163.840757
 20
691.886076
 30
0.0
 40
20.068596
100
AcDbArc
 50
20.611659
 51
145.539199
  0
ARC
  5
2F8C
100
AcDbEntity
  8
外形
  6
CONTINUOUS
100
AcDbCircle
 10
-1163.556793
 20
692.236247
 30
0.0
 40
20.0
100
AcDbArc
 50
292.331645
 51
337.668355
  0
ARC
  5
2F8D
100
AcDbEntity
  8
外形
  6
CONTINUOUS
100
AcDbCircle
 10
-1165.265179
 20
693.267569
 30
0.0
 40
21.635765
100
AcDbArc
 50
295.480318
 51
339.071495
  0
LINE
  5
2F90
100
AcDbEntity
  8
外形
  6
CONTINUOUS
100
AcDbLine
 10
-1168.55956
 20
682.584998
 30
0.0
 11
-1160.740187
 21
681.206232
 31
0.0
  0
ARC
  5
2F91
100
AcDbEntity
  8
外形
  6
CONTINUOUS
100
AcDbCircle
 10
-1156.224572
 20
686.151313
 30
0.0
 40
29.884166
100
AcDbArc
 50
147.163425
 51
176.689165
  0
INSERT
  5
2F93
100
AcDbEntity
  8
寸法
  6
BYBLOCK
 62
     1
100
AcDbBlockReference
  2
_OPEN30
 10
-1145.10487
 20
711.947324
 30
0.0
 41
2.5
 42
2.5
 43
2.5
 50
226.821915
  0
LINE
  5
2F94
100
AcDbEntity
  8
外形
  6
CONTINUOUS
100
AcDbLine
 10
-1041.023903
 20
711.986579
 30
0.0
 11
-1057.911973
 21
702.236247
 31
0.0
  0
LINE
  5
2FAE
100
AcDbEntity
  8
外形
  6
CONTINUOUS
100
AcDbLine
 10
-1028.979818
 20
709.873647
 30
0.0
 11
-1044.047623
 21
710.240834
 31
0.0
  0
DIMENSION
  5
2FB2
100
AcDbEntity
  8
寸法
  6
CONTINUOUS
 62
     7
100
AcDbDimension
  2
*D5
 10
-878.707631
 20
637.809579
 30
0.0
 11
-897.20763
 21
640.309579
 31
0.0
 12
8.019672
 22
-0.5
 32
0.0
 70
    32
  3
STANDARD
100
AcDbAlignedDimension
 13
-915.707629
 23
685.369338
 33
0.0
 14
-878.707631
 24
685.369338
 34
0.0
100
AcDbRotatedDimension
1001
ACAD
1000
DSTYLE
1002
{
1070
    77
1070
     3
1070
    40
1040
1.0
1070
   287
1070
     4
1070
   271
1070
     3
1002
}
  0
DIMENSION
  5
2FB3
100
AcDbEntity
  8
寸法
  6
CONTINUOUS
 62
     7
100
AcDbDimension
  2
*D6
 10
-908.14929
 20
675.49468
 30
0.0
 11
-881.342224
 21
716.51152
 31
0.0
 12
8.019672
 22
-0.5
 32
0.0
 70
   163
  3
STANDARD
100
AcDbDiametricDimension
 15
-886.265971
 25
708.977815
 35
0.0
 40
0.0
1001
ACAD
1000
DSTYLE
1002
{
1070
    77
1070
     3
1070
    40
1040
1.0
1070
   287
1070
     4
1070
   271
1070
     3
1002
}
  0
LINE
  5
2FB4
100
AcDbEntity
  8
外形
  6
CENTER
 62
     1
100
AcDbLine
 10
-897.20763
 20
718.798747
 30
0.0
 11
-897.20763
 21
665.673747
 31
0.0
  0
HATCH
  5
2FC1
100
AcDbEntity
  8
外形
  6
CONTINUOUS
 62
     7
100
AcDbHatch
 10
0.0
 20
0.0
 30
0.0
210
0.0
220
0.0
230
1.0
  2
ANSI31
 70
     0
 71
     0
 91
        4
 92
        7
 72
     1
 73
     1
 93
        4
 10
-878.7076312779495
 20
692.2362474072306
 42
0.0
 10
-878.7076312779495
 20
699.1031563240747
 42
0.313552872565989
 10
-897.2076300279494
 20
711.9695794072312
 42
0.0
 10
-897.2076300279493
 20
692.2362474072306
 42
0.0
 97
        0
 92
        7
 72
     1
 73
     1
 93
        4
 10
-897.2076300279494
 20
692.2362474072306
 42
0.0
 10
-897.2076300279494
 20
711.9695794072312
 42
0.3135528725659741
 10
-915.7076287779496
 20
699.1031563240762
 42
0.0
 10
-915.7076287779496
 20
692.2362474072306
 42
0.0
 97
        0
 92
        7
 72
     1
 73
     1
 93
        5
 10
-897.2076300279494
 20
692.2362474072306
 42
0.0
 10
-915.7076287779494
 20
692.2362474072306
 42
0.0
 10
-915.7076287779496
 20
685.3693384903843
 42
0.2183631446846416
 10
-904.0745389447948
 20
673.7362486572306
 42
0.0
 10
-897.2076300279494
 20
673.7362486572306
 42
0.0
 97
        0
 92
        7
 72
     1
 73
     1
 93
        5
 10
-897.2076300279498
 20
673.7362486572306
 42
0.0
 10
-890.3407211111046
 20
673.7362486572306
 42
0.2183631446846603
 10
-878.7076312779495
 20
685.3693384903862
 42
0.0
 10
-878.7076312779495
 20
692.2362474072306
 42
0.0
 10
-897.2076300279493
 20
692.2362474072306
 42
0.0
 97
        0
 75
     0
 76
     1
 52
0.0
 41
30.833331
 77
     0
 78
     1
 53
45.0
 43
268.96134
 44
19.182337
 45
-2.72530720168076
 46
2.72530720168076
 79
     0
 47
0.155889
 98
        4
 10
-888.57057
 20
696.749079
 10
-904.347031
 20
699.248506
 10
-903.76984
 20
683.098376
 10
-889.340151
 20
683.4829
  0
ARC
  5
2FC2
100
AcDbEntity
  8
外形
  6
CONTINUOUS
100
AcDbCircle
 10
-897.20763
 20
692.236247
 30
0.0
 40
20.0
100
AcDbArc
 50
22.331654
 51
157.668346
  0
LINE
  5
2FC3
100
AcDbEntity
  8
外形
  6
CONTINUOUS
100
AcDbLine
 10
-889.608285
 20
673.736249
 30
0.0
 11
-904.806975
 21
673.736249
 31
0.0
  0
LINE
  5
2FC4
100
AcDbEntity
  8
外形
  6
CONTINUOUS
100
AcDbLine
 10
-915.707629
 20
699.835593
 30
0.0
 11
-915.707629
 21
684.636902
 31
0.0
  0
ARC
  5
2FC5
100
AcDbEntity
  8
外形
  6
CONTINUOUS
100
AcDbCircle
 10
-897.20763
 20
692.236247
 30
0.0
 40
20.0
100
AcDbArc
 50
202.331654
 51
247.668346
  0
LINE
  5
2FC7
100
AcDbEntity
  8
外形
  6
CONTINUOUS
100
AcDbLine
 10
-878.707631
 20
699.835593
 30
0.0
 11
-878.707631
 21
684.636902
 31
0.0
  0
ARC
  5
2FC8
100
AcDbEntity
  8
外形
  6
CONTINUOUS
100
AcDbCircle
 10
-897.20763
 20
692.236247
 30
0.0
 40
20.0
100
AcDbArc
 50
292.331654
 51
337.668346
  0
LINE
  5
2FC9
100
AcDbEntity
  8
寸法
  6
CONTINUOUS
 62
     1
100
AcDbLine
 10
-1123.558605
 20
734.909359
 30
0.0
 11
-1084.697993
 21
734.909359
 31
0.0
  0
TEXT
  5
2FCA
100
AcDbEntity
  8
寸法
  6
CONTINUOUS
 62
     3
100
AcDbText
 10
-1120.189083
 20
736.90124
 30
0.0
 40
3.5
  1
%%C54　最小加工径
100
AcDbText
  0
LINE
  5
2FCD
100
AcDbEntity
  8
外形
  6
CONTINUOUS
100
AcDbLine
 10
-761.488089
 20
709.986247
 30
0.0
 11
-761.488089
 21
674.486247
 31
0.0
  0
ARC
  5
2FCF
100
AcDbEntity
  8
外形
  6
CONTINUOUS
100
AcDbCircle
 10
-791.56526
 20
692.236247
 30
0.0
 40
29.087413
100
AcDbArc
 50
344.855227
 51
15.144773
  0
LINE
  5
2FD1
100
AcDbEntity
  8
外形
  6
CONTINUOUS
100
AcDbLine
 10
-761.488089
 20
674.486247
 30
0.0
 11
-762.238088
 21
673.736249
 31
0.0
  0
LINE
  5
2FD2
100
AcDbEntity
  8
外形
  6
CONTINUOUS
100
AcDbLine
 10
-763.488089
 20
711.986247
 30
0.0
 11
-761.488089
 21
709.986247
 31
0.0
  0
LINE
  5
4344
100
AcDbEntity
  8
外形
  6
CONTINUOUS
100
AcDbLine
 10
-997.888089
 20
684.636902
 30
0.0
 11
-998.138089
 21
685.502181
 31
0.0
  0
LINE
  5
4345
100
AcDbEntity
  8
外形
  6
CONTINUOUS
100
AcDbLine
 10
-998.138089
 20
711.986579
 30
0.0
 11
-998.138089
 21
698.970314
 31
0.0
  0
LINE
  5
4346
100
AcDbEntity
  8
外形
  6
CONTINUOUS
100
AcDbLine
 10
-997.888089
 20
699.835593
 30
0.0
 11
-998.138089
 21
698.970314
 31
0.0
  0
LINE
  5
4347
100
AcDbEntity
  8
外形
  6
CONTINUOUS
100
AcDbLine
 10
-997.888089
 20
712.236579
 30
0.0
 11
-998.138089
 21
711.986579
 31
0.0
  0
LINE
  5
4349
100
AcDbEntity
  8
外形
  6
CONTINUOUS
100
AcDbLine
 10
-917.771422
 20
699.835593
 30
0.0
 11
-997.888089
 21
699.835593
 31
0.0
  0
LINE
  5
434A
100
AcDbEntity
  8
外形
  6
CONTINUOUS
100
AcDbLine
 10
-917.771422
 20
684.636902
 30
0.0
 11
-997.888089
 21
684.636902
 31
0.0
  0
LINE
  5
434B
100
AcDbEntity
  8
外形
  6
CONTINUOUS
100
AcDbLine
 10
-998.138089
 20
685.502181
 30
0.0
 11
-1011.506785
 21
685.502181
 31
0.0
  0
LINE
  5
434C
100
AcDbEntity
  8
外形
  6
CONTINUOUS
100
AcDbLine
 10
-998.138089
 20
698.970314
 30
0.0
 11
-1012.763526
 21
698.970314
 31
0.0
  0
ARC
  5
434D
100
AcDbEntity
  8
外形
  6
CONTINUOUS
100
AcDbCircle
 10
-1019.262592
 20
681.266793
 30
0.0
 40
7.531262
100
AcDbArc
 50
269.209221
 51
337.316819
  0
ARC
  5
434E
100
AcDbEntity
  8
外形
  6
CONTINUOUS
100
AcDbCircle
 10
-1041.323968
 20
685.257269
 30
0.0
 40
29.818189
100
AcDbArc
 50
346.630629
 51
0.470604
  0
LINE
  5
4350
100
AcDbEntity
  8
外形
  6
CONTINUOUS
100
AcDbLine
 10
-1012.763323
 20
698.970314
 30
0.0
 11
-1011.506785
 21
685.502181
 31
0.0
  0
ARC
  5
4351
100
AcDbEntity
  8
外形
  6
CONTINUOUS
100
AcDbCircle
 10
-1021.712925
 20
697.929595
 30
0.0
 40
9.00991
100
AcDbArc
 50
6.632943
 51
55.226375
  0
ARC
  5
4352
100
AcDbEntity
  8
外形
  6
CONTINUOUS
100
AcDbCircle
 10
-1028.956302
 20
690.729093
 30
0.0
 40
19.144569
100
AcDbArc
 50
49.701815
 51
90.070377
  0
DIMENSION
  5
4354
100
AcDbEntity
  8
寸法
  6
CONTINUOUS
 62
     7
100
AcDbDimension
  2
*D7
 10
-1003.977797
 20
673.736249
 30
0.0
 11
-1004.326547
 21
668.079388
 31
0.0
 12
20.519672
 22
0.0
 32
0.0
 70
   160
  3
STANDARD
100
AcDbAlignedDimension
 13
-1060.488089
 23
665.236247
 33
0.0
 14
-997.888089
 24
673.736249
 34
0.0
 50
90.0
100
AcDbRotatedDimension
1001
ACAD
1000
DSTYLE
1002
{
1070
    77
1070
     3
1070
    40
1040
1.0
1070
   287
1070
     4
1070
   271
1070
     3
1002
}
  0
LINE
  5
4379
100
AcDbEntity
  8
外形
  6
CONTINUOUS
100
AcDbLine
 10
-1044.187986
 20
681.66967
 30
0.0
 11
-1045.451327
 21
667.229614
 31
0.0
  0
LINE
  5
437C
100
AcDbEntity
  8
外形
  6
CONTINUOUS
100
AcDbLine
 10
-1060.221954
 20
680.545778
 30
0.0
 11
-1061.485295
 21
666.105722
 31
0.0
  0
CIRCLE
  5
437D
100
AcDbEntity
  8
外形
  6
CONTINUOUS
100
AcDbCircle
 10
-1052.836641
 20
673.893907
 30
0.0
 40
3.225
  0
CIRCLE
  5
437E
100
AcDbEntity
  8
外形
  6
CONTINUOUS
100
AcDbCircle
 10
-1036.39202
 20
679.873048
 30
0.0
 40
4.154375
  0
CIRCLE
  5
437F
100
AcDbEntity
  8
外形
  6
CONTINUOUS
100
AcDbCircle
 10
-1036.39202
 20
679.873048
 30
0.0
 40
5.0
  0
LINE
  5
4380
100
AcDbEntity
  8
外形
  6
CONTINUOUS
100
AcDbLine
 10
-1046.178559
 20
666.502383
 30
0.0
 11
-1060.618615
 21
665.239041
 31
0.0
  0
ARC
  5
4386
100
AcDbEntity
  8
外形
  6
CONTINUOUS
100
AcDbCircle
 10
-1023.989461
 20
672.486249
 30
0.0
 40
1.25
100
AcDbArc
 50
90.0
 51
165.522488
  0
LINE
  5
4387
100
AcDbEntity
  8
外形
  6
CONTINUOUS
100
AcDbLine
 10
-1025.199769
 20
672.798749
 30
0.0
 11
-1028.382426
 21
672.798749
 31
0.0
  0
LINE
  5
4388
100
AcDbEntity
  8
外形
  6
CONTINUOUS
100
AcDbLine
 10
-1045.467979
 20
667.122914
 30
0.0
 11
-1030.772617
 21
668.658816
 31
0.0
  0
LINE
  5
4389
100
AcDbEntity
  8
外形
  6
CONTINUOUS
100
AcDbLine
 10
-1030.772617
 20
668.658816
 30
0.0
 11
-1028.382426
 21
672.798749
 31
0.0
  0
ARC
  5
438A
100
AcDbEntity
  8
外形
  6
CONTINUOUS
100
AcDbCircle
 10
-1046.836641
 20
682.387696
 30
0.0
 40
3.125
100
AcDbArc
 50
324.810822
 51
175.0
  0
LINE
  5
438B
100
AcDbEntity
  8
外形
  6
CONTINUOUS
100
AcDbLine
 10
-1045.054666
 20
682.53635
 30
0.0
 11
-1059.494723
 21
681.273009
 31
0.0
  0
LINE
  5
438D
100
AcDbEntity
  8
外形
  6
CONTINUOUS
100
AcDbLine
 10
-1049.969511
 20
682.640295
 30
0.0
 11
-1050.018175
 21
682.084066
 31
0.0
  0
LINE
  5
438F
100
AcDbEntity
  8
外形
  6
CONTINUOUS
100
AcDbLine
 10
-1034.226934
 20
679.873053
 30
0.0
 11
-1035.309465
 21
681.748052
 31
0.0
  0
LINE
  5
4390
100
AcDbEntity
  8
外形
  6
CONTINUOUS
100
AcDbLine
 10
-1035.309465
 20
681.748052
 30
0.0
 11
-1037.474528
 21
681.748052
 31
0.0
  0
LINE
  5
4391
100
AcDbEntity
  8
外形
  6
CONTINUOUS
100
AcDbLine
 10
-1037.474528
 20
681.748052
 30
0.0
 11
-1038.557059
 21
679.873053
 31
0.0
  0
LINE
  5
4392
100
AcDbEntity
  8
外形
  6
CONTINUOUS
 62
     7
100
AcDbLine
 10
-1036.39202
 20
679.873048
 30
0.0
 11
-1036.39202
 21
679.873048
 31
0.0
  0
LINE
  5
4393
100
AcDbEntity
  8
外形
  6
CONTINUOUS
100
AcDbLine
 10
-1037.474528
 20
677.998053
 30
0.0
 11
-1035.309465
 21
677.998053
 31
0.0
  0
LINE
  5
4394
100
AcDbEntity
  8
外形
  6
CONTINUOUS
100
AcDbLine
 10
-1035.309465
 20
677.998053
 30
0.0
 11
-1034.226934
 21
679.873053
 31
0.0
  0
LINE
  5
4395
100
AcDbEntity
  8
外形
  6
CONTINUOUS
100
AcDbLine
 10
-1038.557059
 20
679.873053
 30
0.0
 11
-1037.474528
 21
677.998053
 31
0.0
  0
LINE
  5
439A
100
AcDbEntity
  8
外形
  6
CONTINUOUS
100
AcDbLine
 10
-1059.751861
 20
681.206232
 30
0.0
 11
-1057.911973
 21
702.236247
 31
0.0
  0
DIMENSION
  5
43ED
100
AcDbEntity
  8
寸法
  6
CONTINUOUS
 62
     7
100
AcDbDimension
  2
*D8
 10
-1061.738089
 20
665.236247
 30
0.0
 11
-1094.774067
 21
701.461872
 31
0.0
 12
20.519672
 22
0.0
 32
0.0
 70
    34
  3
STANDARD
100
AcDb2LineAngularDimension
 13
-1060.256343
 23
680.358834
 33
0.0
 14
-1061.484284
 24
666.323403
 34
0.0
 15
-1084.925552
 25
665.236247
 35
0.0
 16
-1082.508845
 26
706.910203
 36
0.0
1001
ACAD
1000
DSTYLE
1002
{
1070
    77
1070
     3
1070
    40
1040
1.0
1070
   287
1070
     4
1070
   271
1070
     3
1002
}
  0
LINE
  5
44F5
100
AcDbEntity
  8
外形
  6
CONTINUOUS
100
AcDbLine
 10
-1029.861887
 20
525.888799
 30
0.0
 11
-1028.238089
 21
528.701299
 31
0.0
  0
LINE
  5
44F6
100
AcDbEntity
  8
外形
  6
CONTINUOUS
100
AcDbLine
 10
-1028.238089
 20
552.209922
 30
0.0
 11
-1028.238089
 21
528.701299
 31
0.0
  0
LINE
  5
44F7
100
AcDbEntity
  8
外形
  6
CONTINUOUS
100
AcDbLine
 10
-1025.239461
 20
528.701299
 30
0.0
 11
-1028.238089
 21
528.701299
 31
0.0
  0
ARC
  5
44F8
100
AcDbEntity
  8
外形
  6
CONTINUOUS
100
AcDbCircle
 10
-1024.104156
 20
528.735627
 30
0.0
 40
1.15561
100
AcDbArc
 50
86.278759
 51
169.243729
  0
LINE
  5
44FA
100
AcDbEntity
  8
外形
  6
CONTINUOUS
100
AcDbLine
 10
-1030.772617
 20
551.545942
 30
0.0
 11
-1030.772617
 21
525.888799
 31
0.0
  0
LINE
  5
44FC
100
AcDbEntity
  8
外形
  6
CONTINUOUS
100
AcDbLine
 10
-1026.860639
 20
552.683194
 30
0.0
 11
-1026.860639
 21
541.654732
 31
0.0
  0
ARC
  5
451E
100
AcDbEntity
  8
外形
  6
CONTINUOUS
100
AcDbCircle
 10
-1044.205861
 20
553.41058
 30
0.0
 40
0.318197
100
AcDbArc
 50
295.324305
 51
92.041885
  0
ARC
  5
451F
100
AcDbEntity
  8
外形
  6
CONTINUOUS
100
AcDbCircle
 10
-1045.670724
 20
540.593565
 30
0.0
 40
13.215189
100
AcDbArc
 50
83.685316
 51
110.732854
  0
ARC
  5
4520
100
AcDbEntity
  8
外形
  6
CONTINUOUS
100
AcDbCircle
 10
-1045.130159
 20
555.656959
 30
0.0
 40
2.746926
100
AcDbArc
 50
284.393881
 51
292.707887
  0
LINE
  5
455F
100
AcDbEntity
  8
0
  6
BYBLOCK
 62
     1
100
AcDbLine
 10
-1078.914033
 20
548.388799
 30
0.0
 11
-1100.625756
 21
548.388799
 31
0.0
  0
POINT
  5
4567
100
AcDbEntity
  8
DEFPOINTS
  6
BYBLOCK
 62
     0
100
AcDbPoint
 10
-1045.514473
 20
551.360132
 30
0.0
  0
POINT
  5
4568
100
AcDbEntity
  8
DEFPOINTS
  6
BYBLOCK
 62
     0
100
AcDbPoint
 10
-736.106908
 20
548.388799
 30
0.0
  0
POINT
  5
4569
100
AcDbEntity
  8
DEFPOINTS
  6
BYBLOCK
 62
     0
100
AcDbPoint
 10
-1077.664033
 20
548.388799
 30
0.0
  0
POINT
  5
456A
100
AcDbEntity
  8
DEFPOINTS
  6
BYBLOCK
 62
     0
100
AcDbPoint
 10
-1061.48805
 20
548.388797
 30
0.0
  0
LINE
  5
456B
100
AcDbEntity
  8
0
  6
BYBLOCK
 62
     1
100
AcDbLine
 10
-1078.914033
 20
548.388799
 30
0.0
 11
-1099.956342
 21
548.388799
 31
0.0
  0
POINT
  5
4573
100
AcDbEntity
  8
DEFPOINTS
  6
BYBLOCK
 62
     0
100
AcDbPoint
 10
-1097.441127
 20
547.342818
 30
0.0
  0
POINT
  5
4574
100
AcDbEntity
  8
DEFPOINTS
  6
BYBLOCK
 62
     0
100
AcDbPoint
 10
-1077.664033
 20
546.974024
 30
0.0
  0
POINT
  5
4575
100
AcDbEntity
  8
DEFPOINTS
  6
BYBLOCK
 62
     0
100
AcDbPoint
 10
-736.106908
 20
548.388799
 30
0.0
  0
POINT
  5
4576
100
AcDbEntity
  8
DEFPOINTS
  6
BYBLOCK
 62
     0
100
AcDbPoint
 10
-1077.664033
 20
548.388799
 30
0.0
  0
POINT
  5
4577
100
AcDbEntity
  8
DEFPOINTS
  6
BYBLOCK
 62
     0
100
AcDbPoint
 10
-1063.15752
 20
548.24318
 30
0.0
  0
LINE
  5
45C0
100
AcDbEntity
  8
外形
  6
CONTINUOUS
100
AcDbLine
 10
-1061.487933
 20
548.388799
 30
0.0
 11
-1061.00732
 21
540.455585
 31
0.0
  0
LINE
  5
45C1
100
AcDbEntity
  8
外形
  6
CONTINUOUS
100
AcDbLine
 10
-1060.653885
 20
540.492735
 30
0.0
 11
-1059.769142
 21
525.888799
 31
0.0
  0
DIMENSION
  5
4669
100
AcDbEntity
  8
寸法
  6
CONTINUOUS
 62
     7
100
AcDbDimension
  2
*D9
 10
-1077.664033
 20
548.388799
 30
0.0
 11
-1106.302235
 21
544.629495
 31
0.0
 12
20.519672
 22
0.0
 32
0.0
 70
   162
  3
STANDARD
100
AcDb2LineAngularDimension
 13
-1045.514473
 23
550.067821
 33
0.0
 14
-1061.48805
 24
548.388797
 34
0.0
 15
-723.606908
 25
548.388799
 35
0.0
 16
-1098.262661
 26
547.104499
 36
0.0
1001
ACAD
1000
DSTYLE
1002
{
1070
    77
1070
     3
1070
    40
1040
1.0
1070
   287
1070
     4
1070
   271
1070
     3
1002
}
  0
TEXT
  5
4A43
100
AcDbEntity
  8
外形
  6
CONTINUOUS
 62
     2
100
AcDbText
 10
-972.654682
 20
488.492794
 30
0.0
 40
6.0
  1
S40T-PCLN R12
100
AcDbText
  0
LINE
  5
4A70
100
AcDbEntity
  8
外形
  6
CONTINUOUS
100
AcDbLine
 10
-763.488089
 20
711.969579
 30
0.0
 11
-763.488089
 21
699.835593
 31
0.0
  0
LINE
  5
4A72
100
AcDbEntity
  8
外形
  6
CONTINUOUS
100
AcDbLine
 10
-763.488089
 20
684.636902
 30
0.0
 11
-763.488089
 21
673.736249
 31
0.0
  0
LINE
  5
4C2A
100
AcDbEntity
  8
外形
  6
CONTINUOUS
100
AcDbLine
 10
-762.238088
 20
529.8888
 30
0.0
 11
-862.825963
 21
529.8888
 31
0.0
  0
LINE
  5
4C2B
100
AcDbEntity
  8
外形
  6
CONTINUOUS
100
AcDbLine
 10
-763.488089
 20
540.789454
 30
0.0
 11
-862.825963
 21
540.789454
 31
0.0
  0
LINE
  5
4C2C
100
AcDbEntity
  8
外形
  6
CONTINUOUS
100
AcDbLine
 10
-763.488089
 20
555.988144
 30
0.0
 11
-862.825963
 21
555.988144
 31
0.0
  0
ARC
  5
4C2D
100
AcDbEntity
  8
外形
  6
CONTINUOUS
100
AcDbCircle
 10
-791.56526
 20
548.388799
 30
0.0
 40
29.087413
100
AcDbArc
 50
344.855227
 51
15.144773
  0
LINE
  5
4C2E
100
AcDbEntity
  8
外形
  6
CONTINUOUS
100
AcDbLine
 10
-763.488089
 20
540.789454
 30
0.0
 11
-763.488089
 21
529.8888
 31
0.0
  0
LINE
  5
4C2F
100
AcDbEntity
  8
外形
  6
CONTINUOUS
100
AcDbLine
 10
-763.488089
 20
566.888797
 30
0.0
 11
-763.488089
 21
555.988144
 31
0.0
  0
LINE
  5
4C32
100
AcDbEntity
  8
外形
  6
CONTINUOUS
100
AcDbLine
 10
-762.238088
 20
566.888797
 30
0.0
 11
-862.825963
 21
566.888797
 31
0.0
  0
LINE
  5
4C33
100
AcDbEntity
  8
外形
  6
CONTINUOUS
100
AcDbLine
 10
-762.238088
 20
566.888797
 30
0.0
 11
-761.488089
 21
566.138799
 31
0.0
  0
LINE
  5
4C37
100
AcDbEntity
  8
外形
  6
CONTINUOUS
100
AcDbLine
 10
-997.888089
 20
712.236579
 30
0.0
 11
-997.888089
 21
699.835593
 31
0.0
  0
LINE
  5
4C39
100
AcDbEntity
  8
外形
  6
CONTINUOUS
100
AcDbLine
 10
-763.488089
 20
712.236579
 30
0.0
 11
-876.656069
 21
712.236579
 31
0.0
  0
LINE
  5
4C3A
100
AcDbEntity
  8
外形
  6
CONTINUOUS
100
AcDbLine
 10
-917.815738
 20
712.236579
 30
0.0
 11
-997.888089
 21
712.236579
 31
0.0
  0
LINE
  5
4C3D
100
AcDbEntity
  8
外形
  6
CONTINUOUS
100
AcDbLine
 10
-997.888089
 20
673.736249
 30
0.0
 11
-1023.989461
 21
673.736249
 31
0.0
  0
LINE
  5
4C3E
100
AcDbEntity
  8
外形
  6
CONTINUOUS
100
AcDbLine
 10
-1041.023903
 20
711.986579
 30
0.0
 11
-998.138089
 21
711.986579
 31
0.0
  0
LINE
  5
4C3F
100
AcDbEntity
  8
外形
  6
CONTINUOUS
100
AcDbLine
 10
-997.888089
 20
684.636902
 30
0.0
 11
-997.888089
 21
673.736249
 31
0.0
  0
LINE
  5
4C41
100
AcDbEntity
  8
外形
  6
CONTINUOUS
100
AcDbLine
 10
-998.138089
 20
685.502181
 30
0.0
 11
-998.138089
 21
673.736249
 31
0.0
  0
ARC
  5
4E0F
100
AcDbEntity
  8
外形
  6
CONTINUOUS
100
AcDbCircle
 10
-1044.984942
 20
681.739394
 30
0.0
 40
0.8
100
AcDbArc
 50
355.0
 51
95.0
  0
ARC
  5
4E10
100
AcDbEntity
  8
外形
  6
CONTINUOUS
100
AcDbCircle
 10
-1059.424998
 20
680.476053
 30
0.0
 40
0.8
100
AcDbArc
 50
95.0
 51
175.0
  0
ARC
  5
4E11
100
AcDbEntity
  8
外形
  6
CONTINUOUS
100
AcDbCircle
 10
-1046.248283
 20
667.299338
 30
0.0
 40
0.8
100
AcDbArc
 50
275.0
 51
355.0
  0
ARC
  5
4E12
100
AcDbEntity
  8
外形
  6
CONTINUOUS
100
AcDbCircle
 10
-1060.688339
 20
666.035997
 30
0.0
 40
0.8
100
AcDbArc
 50
175.0
 51
275.0
  0
CIRCLE
  5
4E8D
100
AcDbEntity
  8
寸法
  6
PHANTOM
 62
     1
100
AcDbCircle
 10
-1163.556793
 20
692.236247
 30
0.0
 40
27.0
  0
LINE
  5
4EA6
100
AcDbEntity
  8
外形
  6
CONTINUOUS
100
AcDbLine
 10
-1155.957451
 20
673.736247
 30
0.0
 11
-1162.09846
 21
673.736247
 31
0.0
  0
LINE
  5
4EA7
100
AcDbEntity
  8
外形
  6
CONTINUOUS
100
AcDbLine
 10
-1145.056793
 20
699.835589
 30
0.0
 11
-1145.056793
 21
684.636905
 31
0.0
  0
LINE
  5
4EA8
100
AcDbEntity
  8
外形
  6
CONTINUOUS
100
AcDbLine
 10
-1186.051793
 20
687.861247
 30
0.0
 11
-1186.051793
 21
678.397239
 31
0.0
  0
LINE
  5
4EBF
100
AcDbEntity
  8
外形
  6
CONTINUOUS
100
AcDbLine
 10
-1165.427871
 20
682.032797
 30
0.0
 11
-1168.244444
 21
666.063003
 31
0.0
  0
LINE
  5
4EC0
100
AcDbEntity
  8
外形
  6
CONTINUOUS
100
AcDbLine
 10
-1168.55956
 20
682.584998
 30
0.0
 11
-1171.300337
 21
667.044962
 31
0.0
  0
LINE
  5
4F44
100
AcDbEntity
  8
外形
  6
CONTINUOUS
100
AcDbLine
 10
-997.888089
 20
540.789454
 30
0.0
 11
-998.138089
 21
541.654732
 31
0.0
  0
LINE
  5
4F45
100
AcDbEntity
  8
外形
  6
CONTINUOUS
100
AcDbLine
 10
-998.138089
 20
541.654732
 30
0.0
 11
-998.138089
 21
529.8888
 31
0.0
  0
LINE
  5
4F46
100
AcDbEntity
  8
外形
  6
CONTINUOUS
100
AcDbLine
 10
-997.888089
 20
540.789454
 30
0.0
 11
-997.888089
 21
529.8888
 31
0.0
  0
LINE
  5
4F47
100
AcDbEntity
  8
外形
  6
CONTINUOUS
100
AcDbLine
 10
-998.138089
 20
566.888797
 30
0.0
 11
-998.138089
 21
555.122866
 31
0.0
  0
LINE
  5
4F48
100
AcDbEntity
  8
外形
  6
CONTINUOUS
100
AcDbLine
 10
-997.888089
 20
566.888797
 30
0.0
 11
-997.888089
 21
555.988144
 31
0.0
  0
LINE
  5
4F49
100
AcDbEntity
  8
外形
  6
CONTINUOUS
100
AcDbLine
 10
-997.888089
 20
555.988144
 30
0.0
 11
-998.138089
 21
555.122866
 31
0.0
  0
LINE
  5
4F4B
100
AcDbEntity
  8
外形
  6
CONTINUOUS
100
AcDbLine
 10
-998.138089
 20
555.122866
 30
0.0
 11
-1021.921346
 21
555.122866
 31
0.0
  0
LINE
  5
4F4C
100
AcDbEntity
  8
外形
  6
CONTINUOUS
100
AcDbLine
 10
-998.138089
 20
541.654732
 30
0.0
 11
-1026.860639
 21
541.654732
 31
0.0
  0
LINE
  5
4F65
100
AcDbEntity
  8
外形
  6
CONTINUOUS
100
AcDbLine
 10
-1025.239461
 20
528.701299
 30
0.0
 11
-1025.239461
 21
528.9513
 31
0.0
  0
LINE
  5
4F7C
100
AcDbEntity
  8
外形
  6
CONTINUOUS
100
AcDbLine
 10
-1045.226346
 20
545.311883
 30
0.0
 11
-1061.199808
 21
543.632871
 31
0.0
  0
LINE
  5
4F7D
100
AcDbEntity
  8
外形
  6
CONTINUOUS
100
AcDbLine
 10
-1045.033858
 20
542.134597
 30
0.0
 11
-1061.00732
 21
540.455585
 31
0.0
  0
LINE
  5
5085
100
AcDbEntity
  8
外形
  6
CONTINUOUS
100
AcDbLine
 10
-1029.861887
 20
525.888799
 30
0.0
 11
-1059.769142
 21
525.888799
 31
0.0
  0
ENDSEC
  0
SECTION
  2
OBJECTS
  0
DICTIONARY
  5
1E
100
AcDbDictionary
  3
ACAD_GROUP
350
1C
  3
ACAD_MLINESTYLE
350
1D
  3
ACDBVARIABLEDICTIONARY
350
147A
  3
CONTENTDICTIONARY
350
4E01
  3
DRAWINGVARIABLESDICT
350
C58
  0
DICTIONARY
  5
38
100
AcDbDictionary
280
     1
  3
ACAD_XREC_ROUNDTRIP
360
39
  0
DICTIONARY
  5
22
100
AcDbDictionary
280
     1
  3
ACAD_XREC_ROUNDTRIP
360
23
  0
DICTIONARY
  5
3
100
AcDbDictionary
280
     1
  3
ACAD_LAYOUTSELFREF
360
4
  0
DICTIONARY
  5
A
100
AcDbDictionary
280
     1
  3
ACAD_LAYOUTSELFREF
360
B
  0
DICTIONARY
  5
1C
102
{ACAD_REACTORS
330
1E
102
}
100
AcDbDictionary
  0
DICTIONARY
  5
1D
102
{ACAD_REACTORS
330
1E
102
}
100
AcDbDictionary
  3
STANDARD
350
20
  0
DICTIONARY
  5
147A
102
{ACAD_REACTORS
330
1E
102
}
100
AcDbDictionary
  3
SORTENTS
350
147B
  0
DICTIONARY
  5
4E01
102
{ACAD_REACTORS
330
1E
102
}
100
AcDbDictionary
  0
DICTIONARY
  5
C58
102
{ACAD_REACTORS
330
1E
102
}
100
AcDbDictionary
1001
DRAWINGVARIABLESXDATA
1000
POLARMODE
1000
0
  0
XRECORD
  5
39
102
{ACAD_REACTORS
330
38
102
}
100
AcDbXrecord
102
PLOTBIT
280
     0
  0
XRECORD
  5
23
102
{ACAD_REACTORS
330
22
102
}
100
AcDbXrecord
102
ACADR14ROUNDTRIP
1000
DSTYLE
1002
{
1070
   341
340
0
1070
   343
340
0
1070
   344
340
0
1002
}
  0
XRECORD
  5
4
102
{ACAD_REACTORS
330
3
102
}
100
AcDbXrecord
340
2
  0
XRECORD
  5
B
102
{ACAD_REACTORS
330
A
102
}
100
AcDbXrecord
340
9
  0
MLINESTYLE
  5
20
102
{ACAD_REACTORS
330
1D
102
}
100
AcDbMlineStyle
  2
STANDARD
 70
     0
  3

 62
     0
 51
90.0
 52
90.0
 71
     2
 49
0.5
 62
   256
  6
BYLAYER
 49
-0.5
 62
   256
  6
BYLAYER
  0
DICTIONARYVAR
  5
147B
102
{ACAD_REACTORS
330
147A
102
}
100
DictionaryVariables
280
     0
  1
96
  0
ENDSEC
  0
EOF
