  0
SECTION
  2
HEADER
  9
$ACADVER
  1
AC1014
  9
$ACADMAINTVER
 70
     0
  9
$DWGCODEPAGE
  3
ANSI_932
  9
$INSBASE
 10
-587.250952
 20
747.890188
 30
0.0
  9
$EXTMIN
 10
559.082482
 20
-336.909166
 30
0.0
  9
$EXTMAX
 10
963.441899
 20
-157.772532
 30
0.0
  9
$LIMMIN
 10
506.292395
 20
-426.066681
  9
$LIMMAX
 10
1038.93808
 20
-59.104442
  9
$ORTHOMODE
 70
     1
  9
$REGENMODE
 70
     1
  9
$FILLMODE
 70
     1
  9
$QTEXTMODE
 70
     0
  9
$MIRRTEXT
 70
     1
  9
$DRAGMODE
 70
     2
  9
$LTSCALE
 40
5.0
  9
$OSMODE
 70
    47
  9
$ATTMODE
 70
     1
  9
$TEXTSIZE
 40
5.0
  9
$TRACEWID
 40
0.05
  9
$TEXTSTYLE
  7
STANDARD
  9
$CLAYER
  8
外形
  9
$CELTYPE
  6
CONTINUOUS
  9
$CECOLOR
 62
   256
  9
$CELTSCALE
 40
1.0
  9
$DELOBJ
 70
     1
  9
$DISPSILH
 70
     0
  9
$DIMSCALE
 40
1.0
  9
$DIMASZ
 40
2.0
  9
$DIMEXO
 40
1.0
  9
$DIMDLI
 40
8.0
  9
$DIMRND
 40
0.0
  9
$DIMDLE
 40
0.0
  9
$DIMEXE
 40
2.0
  9
$DIMTP
 40
0.0
  9
$DIMTM
 40
0.0
  9
$DIMTXT
 40
2.0
  9
$DIMCEN
 40
-1.0
  9
$DIMTSZ
 40
0.0
  9
$DIMTOL
 70
     0
  9
$DIMLIM
 70
     0
  9
$DIMTIH
 70
     0
  9
$DIMTOH
 70
     0
  9
$DIMSE1
 70
     0
  9
$DIMSE2
 70
     0
  9
$DIMTAD
 70
     1
  9
$DIMZIN
 70
     8
  9
$DIMBLK
  1

  9
$DIMASO
 70
     1
  9
$DIMSHO
 70
     1
  9
$DIMPOST
  1

  9
$DIMAPOST
  1

  9
$DIMALT
 70
     0
  9
$DIMALTD
 70
     2
  9
$DIMALTF
 40
25.4
  9
$DIMLFAC
 40
1.0
  9
$DIMTOFL
 70
     1
  9
$DIMTVP
 40
0.0
  9
$DIMTIX
 70
     0
  9
$DIMSOXD
 70
     0
  9
$DIMSAH
 70
     1
  9
$DIMBLK1
  1
_DOTSMALL
  9
$DIMBLK2
  1
_DOTSMALL
  9
$DIMSTYLE
  2
参考寸法
  9
$DIMCLRD
 70
     2
  9
$DIMCLRE
 70
     2
  9
$DIMCLRT
 70
     2
  9
$DIMTFAC
 40
1.0
  9
$DIMGAP
 40
1.0
  9
$DIMJUST
 70
     0
  9
$DIMSD1
 70
     0
  9
$DIMSD2
 70
     0
  9
$DIMTOLJ
 70
     1
  9
$DIMTZIN
 70
     8
  9
$DIMALTZ
 70
     0
  9
$DIMALTTZ
 70
     0
  9
$DIMFIT
 70
     3
  9
$DIMUPT
 70
     0
  9
$DIMUNIT
 70
     2
  9
$DIMDEC
 70
     3
  9
$DIMTDEC
 70
     2
  9
$DIMALTU
 70
     2
  9
$DIMALTTD
 70
     2
  9
$DIMTXSTY
  7
STANDARD
  9
$DIMAUNIT
 70
     0
  9
$LUNITS
 70
     2
  9
$LUPREC
 70
     3
  9
$SKETCHINC
 40
0.1
  9
$FILLETRAD
 40
1.0
  9
$AUNITS
 70
     0
  9
$AUPREC
 70
     3
  9
$MENU
  1
acad
  9
$ELEVATION
 40
0.0
  9
$PELEVATION
 40
0.0
  9
$THICKNESS
 40
0.0
  9
$LIMCHECK
 70
     0
  9
$BLIPMODE
 70
     0
  9
$CHAMFERA
 40
0.0
  9
$CHAMFERB
 40
0.0
  9
$CHAMFERC
 40
0.0
  9
$CHAMFERD
 40
0.0
  9
$SKPOLY
 70
     0
  9
$TDCREATE
 40
2450751.535399305
  9
$TDUPDATE
 40
2452031.397812500
  9
$TDINDWG
 40
1.8845446759
  9
$TDUSRTIMER
 40
1.8845446759
  9
$USRTIMER
 70
     1
  9
$ANGBASE
 50
0.0
  9
$ANGDIR
 70
     0
  9
$PDMODE
 70
    32
  9
$PDSIZE
 40
0.0
  9
$PLINEWID
 40
0.0
  9
$COORDS
 70
     2
  9
$SPLFRAME
 70
     0
  9
$SPLINETYPE
 70
     5
  9
$SPLINESEGS
 70
     8
  9
$ATTDIA
 70
     0
  9
$ATTREQ
 70
     1
  9
$HANDLING
 70
     1
  9
$HANDSEED
  5
2C47
  9
$SURFTAB1
 70
     6
  9
$SURFTAB2
 70
     6
  9
$SURFTYPE
 70
     6
  9
$SURFU
 70
     6
  9
$SURFV
 70
     6
  9
$UCSNAME
  2

  9
$UCSORG
 10
40.53800450572526
 20
146.9196145921314
 30
0.0
  9
$UCSXDIR
 10
1.0
 20
0.0
 30
0.0
  9
$UCSYDIR
 10
0.0
 20
1.0
 30
0.0
  9
$PUCSNAME
  2

  9
$PUCSORG
 10
0.0
 20
0.0
 30
0.0
  9
$PUCSXDIR
 10
1.0
 20
0.0
 30
0.0
  9
$PUCSYDIR
 10
0.0
 20
1.0
 30
0.0
  9
$USERI1
 70
     0
  9
$USERI2
 70
     0
  9
$USERI3
 70
     0
  9
$USERI4
 70
     0
  9
$USERI5
 70
     0
  9
$USERR1
 40
0.0
  9
$USERR2
 40
0.0
  9
$USERR3
 40
0.0
  9
$USERR4
 40
0.0
  9
$USERR5
 40
0.0
  9
$WORLDVIEW
 70
     1
  9
$SHADEDGE
 70
     3
  9
$SHADEDIF
 70
    70
  9
$TILEMODE
 70
     1
  9
$MAXACTVP
 70
    16
  9
$PINSBASE
 10
0.0
 20
0.0
 30
0.0
  9
$PLIMCHECK
 70
     0
  9
$PEXTMIN
 10
1.000000E+20
 20
1.000000E+20
 30
1.000000E+20
  9
$PEXTMAX
 10
-1.000000E+20
 20
-1.000000E+20
 30
-1.000000E+20
  9
$PLIMMIN
 10
0.0
 20
0.0
  9
$PLIMMAX
 10
12.0
 20
9.0
  9
$UNITMODE
 70
     0
  9
$VISRETAIN
 70
     0
  9
$PLINEGEN
 70
     0
  9
$PSLTSCALE
 70
     1
  9
$TREEDEPTH
 70
  3020
  9
$PICKSTYLE
 70
     1
  9
$CMLSTYLE
  2
STANDARD
  9
$CMLJUST
 70
     0
  9
$CMLSCALE
 40
1.0
  9
$PROXYGRAPHICS
 70
     1
  9
$MEASUREMENT
 70
     0
  0
ENDSEC
  0
SECTION
  2
CLASSES
  0
CLASS
  1
LWPOLYLINE
  2
AcDbPolyline
  3
"AutoCAD"
 90
        0
280
     0
281
     1
  0
CLASS
  1
ACDBDICTIONARYWDFLT
  2
AcDbDictionaryWithDefault
  3
AutoCAD 2000
 90
        0
280
     1
281
     0
  0
CLASS
  1
ACDBPLACEHOLDER
  2
AcDbPlaceHolder
  3
AutoCAD 2000
 90
        0
280
     1
281
     0
  0
CLASS
  1
LAYOUT
  2
AcDbLayout
  3
AutoCAD 2000
 90
        0
280
     1
281
     0
  0
CLASS
  1
LONG_TRANSACTION
  2
AcDbLongTransaction
  3
AutoCAD 2000
 90
        0
280
     1
281
     0
  0
CLASS
  1
LWPOLYLINE
  2
AcDbPolyline
  3
"AutoCAD"
 90
        0
280
     0
281
     1
  0
CLASS
  1
HATCH
  2
AcDbHatch
  3
"ACAD_SEDONA"
 90
        0
280
     0
281
     1
  0
CLASS
  1
XRECORD
  2
AcDbXrecord
  3
"<Built In>"
 90
        0
280
     0
281
     0
  0
CLASS
  1
DICTIONARYVAR
  2
AcDbDictionaryVar
  3
"AutoCAD"
 90
        0
280
     0
281
     0
  0
ENDSEC
  0
SECTION
  2
TABLES
  0
TABLE
  2
VPORT
  5
16
100
AcDbSymbolTable
 70
     1
  0
VPORT
  5
2C42
100
AcDbSymbolTableRecord
100
AcDbViewportTableRecord
  2
*ACTIVE
 70
     0
 10
0.0
 20
0.0
 11
1.0
 21
1.0
 12
762.787284
 22
-250.498356
 13
0.0
 23
0.0
 14
1.0
 24
1.0
 15
10.0
 25
10.0
 16
0.0
 26
0.0
 36
1.0
 17
0.0
 27
0.0
 37
0.0
 40
349.46587
 41
1.710425
 42
50.0
 43
0.0
 44
0.0
 50
0.0
 51
0.0
 71
     0
 72
   100
 73
     1
 74
     1
 75
     0
 76
     0
 77
     0
 78
     2
  0
ENDTAB
  0
TABLE
  2
LTYPE
  5
11
100
AcDbSymbolTable
 70
     2
  0
LTYPE
  5
12
100
AcDbSymbolTableRecord
100
AcDbLinetypeTableRecord
  2
BYBLOCK
 70
     0
  3

 72
    65
 73
     0
 40
0.0
  0
LTYPE
  5
13
100
AcDbSymbolTableRecord
100
AcDbLinetypeTableRecord
  2
BYLAYER
 70
     0
  3

 72
    65
 73
     0
 40
0.0
  0
LTYPE
  5
7
100
AcDbSymbolTableRecord
100
AcDbLinetypeTableRecord
  2
CONTINUOUS
 70
     0
  3
Solid line
 72
    65
 73
     0
 40
0.0
  0
LTYPE
  5
AA
100
AcDbSymbolTableRecord
100
AcDbLinetypeTableRecord
  2
CENTER
 70
     0
  3
Center ____ _ ____ _ ____ _ ____ _ ____ _ ____
 72
    65
 73
     4
 40
2.0
 49
1.25
 74
     0
 49
-0.25
 74
     0
 49
0.25
 74
     0
 49
-0.25
 74
     0
  0
ENDTAB
  0
TABLE
  2
LAYER
  5
E
100
AcDbSymbolTable
 70
     5
  0
LAYER
  5
6
100
AcDbSymbolTableRecord
100
AcDbLayerTableRecord
  2
0
 70
     0
 62
     7
  6
CONTINUOUS
  0
LAYER
  5
2C
100
AcDbSymbolTableRecord
100
AcDbLayerTableRecord
  2
外形
 70
     0
 62
     4
  6
CONTINUOUS
  0
LAYER
  5
37
102
{ACAD_XDICTIONARY
360
38
102
}
100
AcDbSymbolTableRecord
100
AcDbLayerTableRecord
  2
DEFPOINTS
 70
     0
 62
     7
  6
CONTINUOUS
  0
LAYER
  5
1F
100
AcDbSymbolTableRecord
100
AcDbLayerTableRecord
  2
寸法
 70
     0
 62
     1
  6
CONTINUOUS
  0
LAYER
  5
673
100
AcDbSymbolTableRecord
100
AcDbLayerTableRecord
  2
参考
 70
     0
 62
     2
  6
CONTINUOUS
  0
ENDTAB
  0
TABLE
  2
STYLE
  5
F
100
AcDbSymbolTable
 70
     1
  0
STYLE
  5
10
100
AcDbSymbolTableRecord
100
AcDbTextStyleTableRecord
  2
STANDARD
 70
     0
 40
0.0
 41
1.0
 50
0.0
 71
     0
 42
5.0
  3
MONOTXT
  4
BIGFONT
  0
ENDTAB
  0
TABLE
  2
VIEW
  5
14
100
AcDbSymbolTable
 70
     0
  0
ENDTAB
  0
TABLE
  2
UCS
  5
15
100
AcDbSymbolTable
 70
     0
  0
ENDTAB
  0
TABLE
  2
APPID
  5
18
100
AcDbSymbolTable
 70
     2
  0
APPID
  5
19
100
AcDbSymbolTableRecord
100
AcDbRegAppTableRecord
  2
ACAD
 70
     0
  0
APPID
  5
C59
100
AcDbSymbolTableRecord
100
AcDbRegAppTableRecord
  2
DRAWINGVARIABLESXDATA
 70
     0
  0
ENDTAB
  0
TABLE
  2
DIMSTYLE
  5
1A
100
AcDbSymbolTable
 70
     2
  0
DIMSTYLE
105
21
102
{ACAD_XDICTIONARY
360
22
102
}
102
{ACAD_REACTORS
330
2087
330
20B9
330
232F
330
246F
102
}
100
AcDbSymbolTableRecord
100
AcDbDimStyleTableRecord
  2
STANDARD
 70
     0
  3

  4

  5

  6
_OPEN30
  7
_OPEN30
 40
0.0
 41
2.0
 42
1.0
 43
8.0
 44
2.0
 45
0.0
 46
0.0
 47
0.0
 48
0.0
140
3.0
141
-1.0
142
0.0
143
25.4
144
1.0
145
0.0
146
1.0
147
1.0
 71
     0
 72
     0
 73
     0
 74
     0
 75
     0
 76
     0
 77
     1
 78
     8
170
     0
171
     2
172
     1
173
     1
174
     0
175
     0
176
     1
177
     1
178
     3
270
     2
271
     2
272
     2
273
     2
274
     2
340
10
275
     0
280
     0
281
     0
282
     0
283
     1
284
     8
285
     0
286
     0
287
     3
288
     0
  0
DIMSTYLE
105
674
100
AcDbSymbolTableRecord
100
AcDbDimStyleTableRecord
  2
参考寸法
 70
     0
  3

  4

  5

  6
_DOTSMALL
  7
_DOTSMALL
 40
1.0
 41
2.0
 42
1.0
 43
8.0
 44
2.0
 45
0.0
 46
0.0
 47
0.0
 48
0.0
140
2.0
141
-1.0
142
0.0
143
25.4
144
1.0
145
0.0
146
1.0
147
1.0
 71
     0
 72
     0
 73
     0
 74
     0
 75
     0
 76
     0
 77
     1
 78
     8
170
     0
171
     2
172
     1
173
     1
174
     0
175
     0
176
     2
177
     2
178
     2
270
     2
271
     3
272
     2
273
     2
274
     2
340
10
275
     0
280
     0
281
     0
282
     0
283
     1
284
     8
285
     0
286
     0
287
     3
288
     0
  0
ENDTAB
  0
TABLE
  2
BLOCK_RECORD
  5
1
100
AcDbSymbolTable
 70
    10
  0
BLOCK_RECORD
  5
2
102
{ACAD_XDICTIONARY
360
3
102
}
100
AcDbSymbolTableRecord
100
AcDbBlockTableRecord
  2
*MODEL_SPACE
  0
BLOCK_RECORD
  5
9
102
{ACAD_XDICTIONARY
360
A
102
}
100
AcDbSymbolTableRecord
100
AcDbBlockTableRecord
  2
*PAPER_SPACE
  0
BLOCK_RECORD
  5
24
100
AcDbSymbolTableRecord
100
AcDbBlockTableRecord
  2
_DOTSMALL
  0
BLOCK_RECORD
  5
470
100
AcDbSymbolTableRecord
100
AcDbBlockTableRecord
  2
_OPEN30
  0
BLOCK_RECORD
  5
2155
100
AcDbSymbolTableRecord
100
AcDbBlockTableRecord
  2
*D2
  0
BLOCK_RECORD
  5
216F
100
AcDbSymbolTableRecord
100
AcDbBlockTableRecord
  2
*D3
  0
BLOCK_RECORD
  5
2181
100
AcDbSymbolTableRecord
100
AcDbBlockTableRecord
  2
*D4
  0
BLOCK_RECORD
  5
218D
100
AcDbSymbolTableRecord
100
AcDbBlockTableRecord
  2
*D5
  0
BLOCK_RECORD
  5
21A4
100
AcDbSymbolTableRecord
100
AcDbBlockTableRecord
  2
*D6
  0
BLOCK_RECORD
  5
21B6
100
AcDbSymbolTableRecord
100
AcDbBlockTableRecord
  2
*D7
  0
BLOCK_RECORD
  5
2325
100
AcDbSymbolTableRecord
100
AcDbBlockTableRecord
  2
*D8
  0
BLOCK_RECORD
  5
2461
100
AcDbSymbolTableRecord
100
AcDbBlockTableRecord
  2
*D9
  0
ENDTAB
  0
ENDSEC
  0
SECTION
  2
BLOCKS
  0
BLOCK
  5
5
100
AcDbEntity
  8
0
100
AcDbBlockBegin
  2
*MODEL_SPACE
 70
     0
 10
0.0
 20
0.0
 30
0.0
  3
*MODEL_SPACE
  1

  0
ENDBLK
  5
8
100
AcDbEntity
  8
0
100
AcDbBlockEnd
  0
BLOCK
  5
C
100
AcDbEntity
 67
     1
  8
0
100
AcDbBlockBegin
  2
*PAPER_SPACE
 70
     0
 10
0.0
 20
0.0
 30
0.0
  3
*PAPER_SPACE
  1

  0
ENDBLK
  5
D
100
AcDbEntity
 67
     1
  8
0
100
AcDbBlockEnd
  0
BLOCK
  5
29
100
AcDbEntity
  8
0
100
AcDbBlockBegin
  2
_DOTSMALL
 70
     0
 10
0.0
 20
0.0
 30
0.0
  3
_DOTSMALL
  1

  0
POLYLINE
  5
25
100
AcDbEntity
  8
0
  6
BYBLOCK
 62
     0
100
AcDb2dPolyline
 66
     1
 10
0.0
 20
0.0
 30
0.0
 70
     1
 40
0.5
 41
0.5
  0
VERTEX
  5
26
100
AcDbEntity
  8
0
  6
BYBLOCK
 62
     0
100
AcDbVertex
100
AcDb2dVertex
 10
-0.0625
 20
0.0
 30
0.0
 42
1.0
  0
VERTEX
  5
27
100
AcDbEntity
  8
0
  6
BYBLOCK
 62
     0
100
AcDbVertex
100
AcDb2dVertex
 10
0.0625
 20
0.0
 30
0.0
 42
1.0
  0
SEQEND
  5
28
100
AcDbEntity
  8
0
  6
BYBLOCK
 62
     0
  0
ENDBLK
  5
2A
100
AcDbEntity
  8
0
100
AcDbBlockEnd
  0
BLOCK
  5
471
100
AcDbEntity
  8
0
100
AcDbBlockBegin
  2
_OPEN30
 70
     0
 10
0.0
 20
0.0
 30
0.0
  3
_OPEN30
  1

  0
LINE
  5
472
100
AcDbEntity
  8
0
  6
BYBLOCK
 62
     0
100
AcDbLine
 10
-1.0
 20
0.267949
 30
0.0
 11
0.0
 21
0.0
 31
0.0
  0
LINE
  5
473
100
AcDbEntity
  8
0
  6
BYBLOCK
 62
     0
100
AcDbLine
 10
0.0
 20
0.0
 30
0.0
 11
-1.0
 21
-0.267949
 31
0.0
  0
LINE
  5
474
100
AcDbEntity
  8
0
  6
BYBLOCK
 62
     0
100
AcDbLine
 10
0.0
 20
0.0
 30
0.0
 11
-1.0
 21
0.0
 31
0.0
  0
ENDBLK
  5
475
100
AcDbEntity
  8
0
100
AcDbBlockEnd
  0
BLOCK
  5
243D
100
AcDbEntity
  8
0
100
AcDbBlockBegin
  2
*D2
 70
     1
 10
0.0
 20
0.0
 30
0.0
  3
*D2
  1

  0
LINE
  5
243E
100
AcDbEntity
  8
0
  6
BYBLOCK
 62
     1
100
AcDbLine
 10
622.417661
 20
-237.37496
 30
0.0
 11
607.133283
 21
-237.37496
 31
0.0
  0
LINE
  5
243F
100
AcDbEntity
  8
0
  6
BYBLOCK
 62
     1
100
AcDbLine
 10
615.078068
 20
-210.37496
 30
0.0
 11
607.133283
 21
-210.37496
 31
0.0
  0
LINE
  5
2440
100
AcDbEntity
  8
0
  6
BYBLOCK
 62
     1
100
AcDbLine
 10
609.133283
 20
-235.37496
 30
0.0
 11
609.133283
 21
-212.37496
 31
0.0
  0
INSERT
  5
2441
100
AcDbEntity
  8
0
  6
BYBLOCK
 62
     1
100
AcDbBlockReference
  2
_OPEN30
 10
609.133283
 20
-237.37496
 30
0.0
 41
2.0
 42
2.0
 43
2.0
 50
270.0
  0
INSERT
  5
2442
100
AcDbEntity
  8
0
  6
BYBLOCK
 62
     1
100
AcDbBlockReference
  2
_OPEN30
 10
609.133283
 20
-210.37496
 30
0.0
 41
2.0
 42
2.0
 43
2.0
 50
90.0
  0
MTEXT
  5
2443
100
AcDbEntity
  8
0
  6
BYBLOCK
 62
     3
100
AcDbMText
 10
606.633283
 20
-223.87496
 30
0.0
 40
3.0
 41
0.0
 71
     5
 72
     1
  1
\A1;27
 11
0.0
 21
1.0
 31
0.0
  0
POINT
  5
2444
100
AcDbEntity
  8
DEFPOINTS
  6
BYBLOCK
 62
     0
100
AcDbPoint
 10
623.417661
 20
-237.37496
 30
0.0
  0
POINT
  5
2445
100
AcDbEntity
  8
DEFPOINTS
  6
BYBLOCK
 62
     0
100
AcDbPoint
 10
616.078068
 20
-210.37496
 30
0.0
  0
POINT
  5
2446
100
AcDbEntity
  8
DEFPOINTS
  6
BYBLOCK
 62
     0
100
AcDbPoint
 10
609.133283
 20
-210.37496
 30
0.0
  0
ENDBLK
  5
2447
100
AcDbEntity
  8
0
100
AcDbBlockEnd
  0
BLOCK
  5
2170
100
AcDbEntity
  8
0
100
AcDbBlockBegin
  2
*D3
 70
     1
 10
0.0
 20
0.0
 30
0.0
  3
*D3
  1

  0
LINE
  5
2171
100
AcDbEntity
  8
0
  6
BYBLOCK
 62
     1
100
AcDbLine
 10
161.986318
 20
-233.359767
 30
0.0
 11
158.464571
 21
-253.332588
 31
0.0
  0
LINE
  5
2172
100
AcDbEntity
  8
0
  6
BYBLOCK
 62
     1
100
AcDbLine
 10
162.159966
 20
-233.37496
 30
0.0
 11
162.159966
 21
-253.655894
 31
0.0
  0
ARC
  5
2173
100
AcDbEntity
  8
0
  6
BYBLOCK
 62
     1
100
AcDbCircle
 10
162.159966
 20
-232.37496
 30
0.0
 40
19.280934
100
AcDbArc
 50
248.092065
 51
260.0
  0
LINE
  5
2174
100
AcDbEntity
  8
0
  6
BYBLOCK
 62
     1
100
AcDbLine
 10
154.965936
 20
-250.263513
 30
0.0
 11
144.203635
 21
-245.935364
 31
0.0
  0
ARC
  5
2175
100
AcDbEntity
  8
0
  6
BYBLOCK
 62
     1
100
AcDbCircle
 10
162.159966
 20
-232.37496
 30
0.0
 40
19.280934
100
AcDbArc
 50
248.108149
 51
254.054075
  0
ARC
  5
2176
100
AcDbEntity
  8
0
  6
BYBLOCK
 62
     1
100
AcDbCircle
 10
162.159966
 20
-232.37496
 30
0.0
 40
19.280934
100
AcDbArc
 50
275.945925
 51
281.891851
  0
ARC
  5
2177
100
AcDbEntity
  8
0
  6
BYBLOCK
 62
     1
100
AcDbCircle
 10
162.159966
 20
-232.37496
 30
0.0
 40
19.280934
100
AcDbArc
 50
260.0
 51
270.0
  0
INSERT
  5
2178
100
AcDbEntity
  8
0
  6
BYBLOCK
 62
     1
100
AcDbBlockReference
  2
_OPEN30
 10
158.811867
 20
-251.362973
 30
0.0
 41
2.0
 42
2.0
 43
2.0
 50
347.027037
  0
INSERT
  5
2179
100
AcDbEntity
  8
0
  6
BYBLOCK
 62
     1
100
AcDbBlockReference
  2
_OPEN30
 10
162.159966
 20
-251.655894
 30
0.0
 41
2.0
 42
2.0
 43
2.0
 50
182.972963
  0
MTEXT
  5
217A
100
AcDbEntity
  8
0
  6
BYBLOCK
 62
     3
100
AcDbMText
 10
150.517576
 20
-245.779977
 30
0.0
 40
3.0
 41
0.0
 71
     5
 72
     1
  1
\A1;10°
 11
0.927785
 21
-0.373116
 31
0.0
  0
POINT
  5
217B
100
AcDbEntity
  8
DEFPOINTS
  6
BYBLOCK
 62
     0
100
AcDbPoint
 10
161.03888
 20
-251.623273
 30
0.0
  0
POINT
  5
217C
100
AcDbEntity
  8
DEFPOINTS
  6
BYBLOCK
 62
     0
100
AcDbPoint
 10
168.6202
 20
-195.737153
 30
0.0
  0
POINT
  5
217D
100
AcDbEntity
  8
DEFPOINTS
  6
BYBLOCK
 62
     0
100
AcDbPoint
 10
162.159966
 20
-188.37496
 30
0.0
  0
POINT
  5
217E
100
AcDbEntity
  8
DEFPOINTS
  6
BYBLOCK
 62
     0
100
AcDbPoint
 10
162.159966
 20
-232.37496
 30
0.0
  0
POINT
  5
217F
100
AcDbEntity
  8
DEFPOINTS
  6
BYBLOCK
 62
     0
100
AcDbPoint
 10
162.159966
 20
-232.37496
 30
0.0
  0
ENDBLK
  5
2180
100
AcDbEntity
  8
0
100
AcDbBlockEnd
  0
BLOCK
  5
22BC
100
AcDbEntity
  8
0
100
AcDbBlockBegin
  2
*D4
 70
     1
 10
0.0
 20
0.0
 30
0.0
  3
*D4
  1

  0
LINE
  5
22BD
100
AcDbEntity
  8
0
  6
BYBLOCK
 62
     1
100
AcDbLine
 10
823.01687
 20
-218.974302
 30
0.0
 11
823.01687
 21
-243.160774
 31
0.0
  0
LINE
  5
22BE
100
AcDbEntity
  8
0
  6
BYBLOCK
 62
     1
100
AcDbLine
 10
860.01687
 20
-218.974302
 30
0.0
 11
860.01687
 21
-243.160774
 31
0.0
  0
LINE
  5
22BF
100
AcDbEntity
  8
0
  6
BYBLOCK
 62
     1
100
AcDbLine
 10
825.01687
 20
-241.160774
 30
0.0
 11
858.01687
 21
-241.160774
 31
0.0
  0
INSERT
  5
22C0
100
AcDbEntity
  8
0
  6
BYBLOCK
 62
     1
100
AcDbBlockReference
  2
_OPEN30
 10
823.01687
 20
-241.160774
 30
0.0
 41
2.0
 42
2.0
 43
2.0
 50
180.0
  0
INSERT
  5
22C1
100
AcDbEntity
  8
0
  6
BYBLOCK
 62
     1
100
AcDbBlockReference
  2
_OPEN30
 10
860.01687
 20
-241.160774
 30
0.0
 41
2.0
 42
2.0
 43
2.0
  0
MTEXT
  5
22C2
100
AcDbEntity
  8
0
  6
BYBLOCK
 62
     3
100
AcDbMText
 10
841.51687
 20
-238.660774
 30
0.0
 40
3.0
 41
0.0
 71
     5
 72
     1
  1
\A1;37
  0
POINT
  5
22C3
100
AcDbEntity
  8
DEFPOINTS
  6
BYBLOCK
 62
     0
100
AcDbPoint
 10
823.01687
 20
-217.974302
 30
0.0
  0
POINT
  5
22C4
100
AcDbEntity
  8
DEFPOINTS
  6
BYBLOCK
 62
     0
100
AcDbPoint
 10
860.01687
 20
-217.974302
 30
0.0
  0
POINT
  5
22C5
100
AcDbEntity
  8
DEFPOINTS
  6
BYBLOCK
 62
     0
100
AcDbPoint
 10
860.01687
 20
-241.160774
 30
0.0
  0
ENDBLK
  5
22C6
100
AcDbEntity
  8
0
100
AcDbBlockEnd
  0
BLOCK
  5
2BF7
100
AcDbEntity
  8
0
100
AcDbBlockBegin
  2
*D5
 70
     1
 10
0.0
 20
0.0
 30
0.0
  3
*D5
  1

  0
LINE
  5
2BF8
100
AcDbEntity
  8
0
  6
BYBLOCK
 62
     1
100
AcDbLine
 10
657.089478
 20
-238.37496
 30
0.0
 11
657.089478
 21
-261.003871
 31
0.0
  0
LINE
  5
2BF9
100
AcDbEntity
  8
0
  6
BYBLOCK
 62
     1
100
AcDbLine
 10
957.089478
 20
-227.87496
 30
0.0
 11
957.089478
 21
-261.003871
 31
0.0
  0
LINE
  5
2BFA
100
AcDbEntity
  8
0
  6
BYBLOCK
 62
     1
100
AcDbLine
 10
659.089478
 20
-259.003871
 30
0.0
 11
955.089478
 21
-259.003871
 31
0.0
  0
INSERT
  5
2BFB
100
AcDbEntity
  8
0
  6
BYBLOCK
 62
     1
100
AcDbBlockReference
  2
_OPEN30
 10
657.089478
 20
-259.003871
 30
0.0
 41
2.0
 42
2.0
 43
2.0
 50
180.0
  0
INSERT
  5
2BFC
100
AcDbEntity
  8
0
  6
BYBLOCK
 62
     1
100
AcDbBlockReference
  2
_OPEN30
 10
957.089478
 20
-259.003871
 30
0.0
 41
2.0
 42
2.0
 43
2.0
  0
MTEXT
  5
2BFD
100
AcDbEntity
  8
0
  6
BYBLOCK
 62
     3
100
AcDbMText
 10
807.089478
 20
-256.503871
 30
0.0
 40
3.0
 41
0.0
 71
     5
 72
     1
  1
\A1;300
  0
POINT
  5
2BFE
100
AcDbEntity
  8
DEFPOINTS
  6
BYBLOCK
 62
     0
100
AcDbPoint
 10
657.089478
 20
-237.37496
 30
0.0
  0
POINT
  5
2BFF
100
AcDbEntity
  8
DEFPOINTS
  6
BYBLOCK
 62
     0
100
AcDbPoint
 10
957.089478
 20
-226.87496
 30
0.0
  0
POINT
  5
2C00
100
AcDbEntity
  8
DEFPOINTS
  6
BYBLOCK
 62
     0
100
AcDbPoint
 10
957.089478
 20
-259.003871
 30
0.0
  0
ENDBLK
  5
2C01
100
AcDbEntity
  8
0
100
AcDbBlockEnd
  0
BLOCK
  5
2278
100
AcDbEntity
  8
0
100
AcDbBlockBegin
  2
*D6
 70
     1
 10
0.0
 20
0.0
 30
0.0
  3
*D6
  1

  0
LINE
  5
2279
100
AcDbEntity
  8
0
  6
BYBLOCK
 62
     1
100
AcDbLine
 10
615.078068
 20
-287.969136
 30
0.0
 11
604.289534
 21
-287.969136
 31
0.0
  0
LINE
  5
227A
100
AcDbEntity
  8
0
  6
BYBLOCK
 62
     1
100
AcDbLine
 10
622.423139
 20
-288.073665
 30
0.0
 11
604.39432
 21
-289.96857
 31
0.0
  0
ARC
  5
227B
100
AcDbEntity
  8
0
  6
BYBLOCK
 62
     1
100
AcDbCircle
 10
623.417661
 20
-287.969136
 30
0.0
 40
17.128127
100
AcDbArc
 50
166.588893
 51
180.0
  0
LINE
  5
227C
100
AcDbEntity
  8
0
  6
BYBLOCK
 62
     1
100
AcDbLine
 10
606.756602
 20
-283.996499
 30
0.0
 11
608.751256
 21
-275.631013
 31
0.0
  0
ARC
  5
227D
100
AcDbEntity
  8
0
  6
BYBLOCK
 62
     1
100
AcDbCircle
 10
623.417661
 20
-287.969136
 30
0.0
 40
17.128127
100
AcDbArc
 50
166.611874
 51
173.305937
  0
ARC
  5
227E
100
AcDbEntity
  8
0
  6
BYBLOCK
 62
     1
100
AcDbCircle
 10
623.417661
 20
-287.969136
 30
0.0
 40
17.128127
100
AcDbArc
 50
192.694063
 51
199.388126
  0
ARC
  5
227F
100
AcDbEntity
  8
0
  6
BYBLOCK
 62
     1
100
AcDbCircle
 10
623.417661
 20
-287.969136
 30
0.0
 40
17.128127
100
AcDbArc
 50
180.0
 51
186.0
  0
INSERT
  5
2280
100
AcDbEntity
  8
0
  6
BYBLOCK
 62
     1
100
AcDbBlockReference
  2
_OPEN30
 10
606.289534
 20
-287.969136
 30
0.0
 41
2.0
 42
2.0
 43
2.0
 50
266.652969
  0
INSERT
  5
2281
100
AcDbEntity
  8
0
  6
BYBLOCK
 62
     1
100
AcDbBlockReference
  2
_OPEN30
 10
606.383364
 20
-289.759513
 30
0.0
 41
2.0
 42
2.0
 43
2.0
 50
99.347031
  0
MTEXT
  5
2282
100
AcDbEntity
  8
0
  6
BYBLOCK
 62
     3
100
AcDbMText
 10
610.185756
 20
-280.393597
 30
0.0
 40
3.0
 41
0.0
 71
     5
 72
     1
  1
\A1;6°
 11
-0.231936
 21
-0.972731
 31
0.0
  0
POINT
  5
2283
100
AcDbEntity
  8
DEFPOINTS
  6
BYBLOCK
 62
     0
100
AcDbPoint
 10
606.331258
 20
-289.163934
 30
0.0
  0
POINT
  5
2284
100
AcDbEntity
  8
DEFPOINTS
  6
BYBLOCK
 62
     0
100
AcDbPoint
 10
929.770082
 20
-287.969136
 30
0.0
  0
POINT
  5
2285
100
AcDbEntity
  8
DEFPOINTS
  6
BYBLOCK
 62
     0
100
AcDbPoint
 10
623.417661
 20
-287.969136
 30
0.0
  0
POINT
  5
2286
100
AcDbEntity
  8
DEFPOINTS
  6
BYBLOCK
 62
     0
100
AcDbPoint
 10
643.417661
 20
-285.867051
 30
0.0
  0
POINT
  5
2287
100
AcDbEntity
  8
DEFPOINTS
  6
BYBLOCK
 62
     0
100
AcDbPoint
 10
616.078068
 20
-287.969136
 30
0.0
  0
ENDBLK
  5
2288
100
AcDbEntity
  8
0
100
AcDbBlockEnd
  0
BLOCK
  5
2A4D
100
AcDbEntity
  8
0
100
AcDbBlockBegin
  2
*D7
 70
     1
 10
0.0
 20
0.0
 30
0.0
  3
*D7
  1

  0
LINE
  5
2A4E
100
AcDbEntity
  8
0
  6
BYBLOCK
 62
     1
100
AcDbLine
 10
623.417661
 20
-288.969136
 30
0.0
 11
623.417661
 21
-326.827164
 31
0.0
  0
LINE
  5
2A4F
100
AcDbEntity
  8
0
  6
BYBLOCK
 62
     1
100
AcDbLine
 10
644.417661
 20
-309.817597
 30
0.0
 11
644.417661
 21
-326.827164
 31
0.0
  0
LINE
  5
2A50
100
AcDbEntity
  8
0
  6
BYBLOCK
 62
     1
100
AcDbLine
 10
625.417661
 20
-324.827164
 30
0.0
 11
642.417661
 21
-324.827164
 31
0.0
  0
INSERT
  5
2A51
100
AcDbEntity
  8
0
  6
BYBLOCK
 62
     1
100
AcDbBlockReference
  2
_OPEN30
 10
623.417661
 20
-324.827164
 30
0.0
 41
2.0
 42
2.0
 43
2.0
 50
180.0
  0
INSERT
  5
2A52
100
AcDbEntity
  8
0
  6
BYBLOCK
 62
     1
100
AcDbBlockReference
  2
_OPEN30
 10
644.417661
 20
-324.827164
 30
0.0
 41
2.0
 42
2.0
 43
2.0
  0
MTEXT
  5
2A53
100
AcDbEntity
  8
0
  6
BYBLOCK
 62
     3
100
AcDbMText
 10
633.917661
 20
-322.327164
 30
0.0
 40
3.0
 41
0.0
 71
     5
 72
     1
  1
\A1;21
  0
POINT
  5
2A54
100
AcDbEntity
  8
DEFPOINTS
  6
BYBLOCK
 62
     0
100
AcDbPoint
 10
623.417661
 20
-287.969136
 30
0.0
  0
POINT
  5
2A55
100
AcDbEntity
  8
DEFPOINTS
  6
BYBLOCK
 62
     0
100
AcDbPoint
 10
644.417661
 20
-308.817597
 30
0.0
  0
POINT
  5
2A56
100
AcDbEntity
  8
DEFPOINTS
  6
BYBLOCK
 62
     0
100
AcDbPoint
 10
644.417661
 20
-324.827164
 30
0.0
  0
ENDBLK
  5
2A57
100
AcDbEntity
  8
0
100
AcDbBlockEnd
  0
BLOCK
  5
2330
100
AcDbEntity
  8
0
100
AcDbBlockBegin
  2
*D8
 70
     1
 10
0.0
 20
0.0
 30
0.0
  3
*D8
  1

  0
LINE
  5
2331
100
AcDbEntity
  8
0
  6
BYBLOCK
 62
     1
100
AcDbLine
 10
822.193423
 20
-181.23482
 30
0.0
 11
829.358506
 21
-192.039906
 31
0.0
  0
LINE
  5
2332
100
AcDbEntity
  8
0
  6
BYBLOCK
 62
     1
100
AcDbLine
 10
853.675234
 20
-228.710013
 30
0.0
 11
854.78054
 21
-230.376836
 31
0.0
  0
MTEXT
  5
2333
100
AcDbEntity
  8
0
  6
BYBLOCK
 62
     3
100
AcDbMText
 10
827.040216
 20
-184.020245
 30
0.0
 40
3.0
 41
0.0
 71
     5
 72
     1
  1
\A1;\U+220540
 11
0.552653
 21
-0.833412
 31
0.0
  0
LINE
  5
2334
100
AcDbEntity
  8
0
  6
BYBLOCK
 62
     1
100
AcDbLine
 10
852.569928
 20
-227.04319
 30
0.0
 11
830.463812
 21
-193.706729
 31
0.0
  0
INSERT
  5
2335
100
AcDbEntity
  8
0
  6
BYBLOCK
 62
     1
100
AcDbBlockReference
  2
_OPEN30
 10
852.569928
 20
-227.04319
 30
0.0
 41
2.0
 42
2.0
 43
2.0
 50
123.549205
  0
INSERT
  5
2336
100
AcDbEntity
  8
0
  6
BYBLOCK
 62
     1
100
AcDbBlockReference
  2
_OPEN30
 10
830.463812
 20
-193.706729
 30
0.0
 41
2.0
 42
2.0
 43
2.0
 50
303.549205
  0
POINT
  5
2337
100
AcDbEntity
  8
DEFPOINTS
  6
BYBLOCK
 62
     0
100
AcDbPoint
 10
830.463812
 20
-193.706729
 30
0.0
  0
POINT
  5
2338
100
AcDbEntity
  8
DEFPOINTS
  6
BYBLOCK
 62
     0
100
AcDbPoint
 10
852.569928
 20
-227.04319
 30
0.0
  0
ENDBLK
  5
2339
100
AcDbEntity
  8
0
100
AcDbBlockEnd
  0
BLOCK
  5
2AB5
100
AcDbEntity
  8
0
100
AcDbBlockBegin
  2
*D9
 70
     1
 10
0.0
 20
0.0
 30
0.0
  3
*D9
  1

  0
LINE
  5
2AB6
100
AcDbEntity
  8
0
  6
BYBLOCK
 62
     1
100
AcDbLine
 10
620.127072
 20
-225.094312
 30
0.0
 11
614.81096
 21
-205.254316
 31
0.0
  0
LINE
  5
2AB7
100
AcDbEntity
  8
0
  6
BYBLOCK
 62
     1
100
AcDbLine
 10
615.078068
 20
-237.37496
 30
0.0
 11
590.163923
 21
-237.37496
 31
0.0
  0
ARC
  5
2AB8
100
AcDbEntity
  8
0
  6
BYBLOCK
 62
     1
100
AcDbCircle
 10
623.417661
 20
-237.37496
 30
0.0
 40
31.253738
100
AcDbArc
 50
108.667117
 51
176.332883
  0
INSERT
  5
2AB9
100
AcDbEntity
  8
0
  6
BYBLOCK
 62
     1
100
AcDbBlockReference
  2
_OPEN30
 10
615.328599
 20
-207.186167
 30
0.0
 41
2.0
 42
2.0
 43
2.0
 50
16.833559
  0
INSERT
  5
2ABA
100
AcDbEntity
  8
0
  6
BYBLOCK
 62
     1
100
AcDbBlockReference
  2
_OPEN30
 10
592.163923
 20
-237.37496
 30
0.0
 41
2.0
 42
2.0
 43
2.0
 50
268.166441
  0
MTEXT
  5
2ABB
100
AcDbEntity
  8
0
  6
BYBLOCK
 62
     3
100
AcDbMText
 10
596.639021
 20
-216.826986
 30
0.0
 40
3.0
 41
0.0
 71
     5
 72
     1
  1
\A1;75°
 11
0.608761
 21
0.793353
 31
0.0
  0
POINT
  5
2ABC
100
AcDbEntity
  8
DEFPOINTS
  6
BYBLOCK
 62
     0
100
AcDbPoint
 10
603.328146
 20
-213.433208
 30
0.0
  0
POINT
  5
2ABD
100
AcDbEntity
  8
DEFPOINTS
  6
BYBLOCK
 62
     0
100
AcDbPoint
 10
620.385891
 20
-226.060238
 30
0.0
  0
POINT
  5
2ABE
100
AcDbEntity
  8
DEFPOINTS
  6
BYBLOCK
 62
     0
100
AcDbPoint
 10
929.770082
 20
-237.37496
 30
0.0
  0
POINT
  5
2ABF
100
AcDbEntity
  8
DEFPOINTS
  6
BYBLOCK
 62
     0
100
AcDbPoint
 10
616.078068
 20
-237.37496
 30
0.0
  0
POINT
  5
2AC0
100
AcDbEntity
  8
DEFPOINTS
  6
BYBLOCK
 62
     0
100
AcDbPoint
 10
623.258782
 20
-236.782015
 30
0.0
  0
ENDBLK
  5
2AC1
100
AcDbEntity
  8
0
100
AcDbBlockEnd
  0
ENDSEC
  0
SECTION
  2
ENTITIES
  0
DIMENSION
  5
2087
100
AcDbEntity
  8
寸法
  6
CONTINUOUS
100
AcDbDimension
  2
*D6
 10
649.749885
 20
-287.969136
 30
0.0
 11
643.857573
 21
-280.393597
 31
0.0
 12
33.671817
 22
0.0
 32
0.0
 70
    34
  3
STANDARD
100
AcDb2LineAngularDimension
 13
657.089478
 23
-287.969136
 33
0.0
 14
677.089478
 24
-285.867051
 34
0.0
 15
963.441899
 25
-287.969136
 35
0.0
 16
640.003074
 26
-289.163934
 36
0.0
1001
ACAD
1000
DSTYLE
1002
{
1070
    40
1040
1.0
1002
}
  0
DIMENSION
  5
2089
100
AcDbEntity
  8
寸法
  6
CONTINUOUS
100
AcDbDimension
  2
*D5
 10
957.089478
 20
-259.003871
 30
0.0
 11
807.089478
 21
-256.503871
 31
0.0
 70
    32
  3
STANDARD
100
AcDbAlignedDimension
 13
657.089478
 23
-237.37496
 33
0.0
 14
957.089478
 24
-226.87496
 34
0.0
100
AcDbRotatedDimension
1001
ACAD
1000
DSTYLE
1002
{
1070
    40
1040
1.0
1002
}
  0
DIMENSION
  5
208A
100
AcDbEntity
  8
寸法
  6
CONTINUOUS
100
AcDbDimension
  2
*D4
 10
893.688687
 20
-241.160774
 30
0.0
 11
875.188687
 21
-238.660774
 31
0.0
 12
33.671817
 22
0.0
 32
0.0
 70
    32
  3
STANDARD
100
AcDbAlignedDimension
 13
856.688687
 23
-217.974302
 33
0.0
 14
893.688687
 24
-217.974302
 34
0.0
100
AcDbRotatedDimension
1001
ACAD
1000
DSTYLE
1002
{
1070
    40
1040
1.0
1002
}
  0
LINE
  5
208F
100
AcDbEntity
  8
外形
  6
CENTER
 62
     1
100
AcDbLine
 10
963.441899
 20
-287.969136
 30
0.0
 11
649.749885
 21
-287.969136
 31
0.0
  0
LINE
  5
2093
102
{ACAD_REACTORS
330
2B82
102
}
100
AcDbEntity
  8
外形
  6
CENTER
 62
     1
100
AcDbLine
 10
963.441899
 20
-210.37496
 30
0.0
 11
649.749885
 21
-210.37496
 31
0.0
  0
LEADER
  5
2094
100
AcDbEntity
  8
寸法
  6
CONTINUOUS
 62
     1
100
AcDbLeader
  3
STANDARD
 73
     0
 74
     0
 75
     1
 40
3.0
 41
26.0
 76
     3
 10
595.124839
 20
-184.877862
 30
0.0
 10
603.174071
 20
-161.772532
 30
0.0
 10
605.174071
 20
-161.772532
 30
0.0
 77
   256
340
2096
1001
ACAD
1000
DSTYLE
1002
{
1070
    40
1040
1.0
1002
}
  0
MTEXT
  5
2096
102
{ACAD_REACTORS
330
2094
102
}
100
AcDbEntity
  8
寸法
  6
CONTINUOUS
 62
     3
100
AcDbMText
 10
606.174071
 20
-159.272532
 30
0.0
 40
3.0
 41
0.0
 71
     4
 72
     1
  1
%%C54最小加工径
  0
DIMENSION
  5
209D
100
AcDbEntity
  8
寸法
  6
CONTINUOUS
100
AcDbDimension
  2
*D3
 10
586.242384
 20
-237.37496
 30
0.0
 11
574.599994
 21
-250.779977
 31
0.0
 12
424.082418
 22
-5.0
 32
0.0
 70
    34
  3
STANDARD
100
AcDb2LineAngularDimension
 13
586.242384
 23
-193.37496
 33
0.0
 14
586.242384
 24
-237.37496
 34
0.0
 15
592.702618
 25
-200.737153
 35
0.0
 16
585.121298
 26
-256.623273
 36
0.0
1001
ACAD
1000
DSTYLE
1002
{
1070
    40
1040
1.0
1002
}
  0
LINE
  5
209F
100
AcDbEntity
  8
外形
  6
CENTER
 62
     1
100
AcDbLine
 10
605.979351
 20
-210.37496
 30
0.0
 11
564.466684
 21
-210.37496
 31
0.0
  0
LINE
  5
20A5
100
AcDbEntity
  8
外形
  6
CONTINUOUS
100
AcDbLine
 10
594.235843
 20
-192.041803
 30
0.0
 11
586.242384
 21
-237.37496
 31
0.0
  0
LINE
  5
20A6
100
AcDbEntity
  8
外形
  6
CENTER
 62
     1
100
AcDbLine
 10
586.242384
 20
-180.74984
 30
0.0
 11
586.242384
 21
-237.876456
 31
0.0
  0
LINE
  5
20A7
100
AcDbEntity
  8
外形
  6
CONTINUOUS
100
AcDbLine
 10
580.606183
 20
-223.614806
 30
0.0
 11
583.737872
 21
-224.167008
 31
0.0
  0
LINE
  5
20A8
100
AcDbEntity
  8
外形
  6
CONTINUOUS
100
AcDbLine
 10
581.554699
 20
-236.548394
 30
0.0
 11
586.242384
 21
-237.37496
 31
0.0
  0
LINE
  5
20A9
100
AcDbEntity
  8
外形
  6
CONTINUOUS
100
AcDbLine
 10
583.742213
 20
-224.142387
 30
0.0
 11
581.554699
 21
-236.548394
 31
0.0
  0
LINE
  5
20AA
100
AcDbEntity
  8
外形
  6
CONTINUOUS
100
AcDbLine
 10
580.606183
 20
-223.614806
 30
0.0
 11
578.427352
 21
-235.971573
 31
0.0
  0
LINE
  5
20AB
100
AcDbEntity
  8
外形
  6
CONTINUOUS
100
AcDbLine
 10
578.427352
 20
-235.971573
 30
0.0
 11
581.559041
 21
-236.523774
 31
0.0
  0
LINE
  5
20AC
100
AcDbEntity
  8
外形
  6
CONTINUOUS
100
AcDbLine
 10
583.742213
 20
-224.142387
 30
0.0
 11
588.429898
 21
-224.968953
 31
0.0
  0
LINE
  5
20B1
100
AcDbEntity
  8
外形
  6
CONTINUOUS
100
AcDbLine
 10
654.885267
 20
-293.675513
 30
0.0
 11
654.555184
 21
-290.534983
 31
0.0
  0
LINE
  5
20B2
100
AcDbEntity
  8
外形
  6
CONTINUOUS
100
AcDbLine
 10
669.961336
 20
-294.599985
 30
0.0
 11
669.628935
 21
-291.437405
 31
0.0
  0
LINE
  5
20B3
100
AcDbEntity
  8
外形
  6
CONTINUOUS
100
AcDbLine
 10
657.587034
 20
-292.70306
 30
0.0
 11
657.089478
 21
-287.969136
 31
0.0
  0
LINE
  5
20B4
100
AcDbEntity
  8
外形
  6
CONTINUOUS
100
AcDbLine
 10
680.089478
 20
-294.883794
 30
0.0
 11
680.089478
 21
-285.531349
 31
0.0
  0
LINE
  5
20B5
100
AcDbEntity
  8
外形
  6
CONTINUOUS
100
AcDbLine
 10
677.135961
 20
-285.822867
 30
0.0
 11
677.135961
 21
-310.469136
 31
0.0
  0
LINE
  5
20B6
100
AcDbEntity
  8
外形
  6
CONTINUOUS
100
AcDbLine
 10
678.089478
 20
-285.685176
 30
0.0
 11
678.089478
 21
-308.817597
 31
0.0
  0
LINE
  5
20B7
100
AcDbEntity
  8
外形
  6
CONTINUOUS
100
AcDbLine
 10
654.528004
 20
-290.515547
 30
0.0
 11
657.587034
 21
-292.70306
 31
0.0
  0
LINE
  5
20B8
100
AcDbEntity
  8
外形
  6
CONTINUOUS
100
AcDbLine
 10
657.587034
 20
-292.70306
 30
0.0
 11
669.653798
 21
-291.434792
 31
0.0
  0
DIMENSION
  5
20B9
100
AcDbEntity
  8
寸法
  6
CONTINUOUS
100
AcDbDimension
  2
*D7
 10
678.089478
 20
-324.827164
 30
0.0
 11
667.589478
 21
-322.327164
 31
0.0
 12
33.671817
 22
0.0
 32
0.0
 70
    32
  3
STANDARD
100
AcDbAlignedDimension
 13
657.089478
 23
-287.969136
 33
0.0
 14
678.089478
 24
-308.817597
 34
0.0
100
AcDbRotatedDimension
1001
ACAD
1000
DSTYLE
1002
{
1070
    40
1040
1.0
1002
}
  0
LINE
  5
20BA
100
AcDbEntity
  8
外形
  6
CONTINUOUS
100
AcDbLine
 10
677.135961
 20
-310.469136
 30
0.0
 11
658.055714
 21
-310.469136
 31
0.0
  0
LINE
  5
20BC
100
AcDbEntity
  8
外形
  6
CONTINUOUS
100
AcDbLine
 10
657.944297
 20
-295.863027
 30
0.0
 11
669.961336
 21
-294.599985
 31
0.0
  0
LINE
  5
20BD
100
AcDbEntity
  8
外形
  6
CONTINUOUS
100
AcDbLine
 10
657.944297
 20
-295.863027
 30
0.0
 11
657.611897
 21
-292.700447
 31
0.0
  0
LINE
  5
20BE
100
AcDbEntity
  8
外形
  6
CONTINUOUS
100
AcDbLine
 10
658.055714
 20
-310.469136
 30
0.0
 11
655.039478
 21
-304.319891
 31
0.0
  0
LINE
  5
20BF
100
AcDbEntity
  8
外形
  6
CONTINUOUS
100
AcDbLine
 10
658.055714
 20
-310.469136
 30
0.0
 11
658.055714
 21
-295.851316
 31
0.0
  0
LINE
  5
20C0
100
AcDbEntity
  8
外形
  6
CONTINUOUS
100
AcDbLine
 10
655.039478
 20
-304.319891
 30
0.0
 11
655.039478
 21
-293.785789
 31
0.0
  0
LINE
  5
20C1
100
AcDbEntity
  8
外形
  6
CONTINUOUS
100
AcDbLine
 10
654.885267
 20
-293.675513
 30
0.0
 11
657.944297
 21
-295.863027
 31
0.0
  0
LINE
  5
20C4
100
AcDbEntity
  8
外形
  6
CONTINUOUS
100
AcDbLine
 10
677.135961
 20
-310.469136
 30
0.0
 11
678.089478
 21
-308.817597
 31
0.0
  0
LINE
  5
20C7
100
AcDbEntity
  8
外形
  6
CONTINUOUS
100
AcDbLine
 10
721.389478
 20
-307.719136
 30
0.0
 11
721.633555
 21
-307.475059
 31
0.0
  0
TEXT
  5
20C8
100
AcDbEntity
  8
外形
  6
CONTINUOUS
 62
     2
100
AcDbText
 10
777.626254
 20
-336.909166
 30
0.0
 40
6.0
  1
S40TPSKNR12
100
AcDbText
  0
LINE
  5
20CF
100
AcDbEntity
  8
外形
  6
CONTINUOUS
100
AcDbLine
 10
672.352404
 20
-285.156135
 30
0.0
 11
676.352404
 21
-284.582872
 31
0.0
  0
ELLIPSE
  5
20D0
100
AcDbEntity
  8
外形
  6
CONTINUOUS
100
AcDbEllipse
 10
672.352404
 20
-284.582872
 30
0.0
 11
-4.0
 21
0.0
 31
0.0
210
0.0
220
0.0
230
1.0
 40
0.31903
 41
0.0
 42
6.283185307179586
  0
SPLINE
  5
20D1
100
AcDbEntity
  8
外形
  6
CONTINUOUS
100
AcDbSpline
210
0.0
220
0.0
230
1.0
 70
     8
 71
     3
 72
    16
 73
    12
 74
     0
 42
0.0000001
 43
0.0000001
 40
0.0
 40
0.0
 40
0.0
 40
0.0
 40
1.668861210214553
 40
3.328349479907231
 40
6.856635113793956
 40
23.02783032953757
 40
28.1464232540152
 40
36.34495077574284
 40
42.60814548572482
 40
48.61258730806699
 40
52.83041432997067
 40
52.83041432997067
 40
52.83041432997067
 40
52.83041432997067
 10
705.2914780343597
 20
-268.2191360571542
 30
0.0
 10
704.9839691697493
 20
-268.7018046439366
 30
0.0
 10
704.3706785238116
 20
-269.6644309725684
 30
0.0
 10
702.1514949645312
 20
-270.4826280443155
 30
0.0
 10
695.6989207204146
 20
-273.3140410641285
 30
0.0
 10
687.5514341521125
 20
-275.1745303759651
 30
0.0
 10
678.2661317048203
 20
-278.5580410737617
 30
0.0
 10
671.6308226500066
 20
-278.5192031556785
 30
0.0
 10
664.9103782095453
 20
-279.3650549621051
 30
0.0
 10
659.3082997527581
 20
-279.7074814490765
 30
0.0
 10
656.267899433451
 20
-281.2397893075417
 30
0.0
 10
655.0394780343593
 20
-281.9514909534993
 30
0.0
  0
LINE
  5
20D2
100
AcDbEntity
  8
外形
  6
CONTINUOUS
100
AcDbLine
 10
657.089478
 20
-287.969136
 30
0.0
 11
676.135961
 21
-285.96727
 31
0.0
  0
CIRCLE
  5
20D7
100
AcDbEntity
  8
外形
  6
CONTINUOUS
100
AcDbCircle
 10
672.352404
 20
-220.778599
 30
0.0
 40
4.0
  0
LINE
  5
20D9
100
AcDbEntity
  8
参考
  6
CENTER
 62
     1
100
AcDbLine
 10
661.627782
 20
-194.983605
 30
0.0
 11
661.627782
 21
-242.633032
 31
0.0
  0
LINE
  5
20DA
100
AcDbEntity
  8
外形
  6
CONTINUOUS
100
AcDbLine
 10
654.030448
 20
-285.781622
 30
0.0
 11
666.097213
 21
-284.513354
 31
0.0
  0
LINE
  5
20DB
100
AcDbEntity
  8
外形
  6
CONTINUOUS
100
AcDbLine
 10
654.528004
 20
-290.515547
 30
0.0
 11
654.030448
 21
-285.781622
 31
0.0
  0
LINE
  5
20DC
100
AcDbEntity
  8
外形
  6
CONTINUOUS
100
AcDbLine
 10
655.039478
 20
-285.675569
 30
0.0
 11
655.039478
 21
-281.951491
 31
0.0
  0
LINE
  5
20DD
100
AcDbEntity
  8
外形
  6
CONTINUOUS
100
AcDbLine
 10
654.030448
 20
-285.781622
 30
0.0
 11
657.089478
 21
-287.969136
 31
0.0
  0
LINE
  5
20DE
100
AcDbEntity
  8
外形
  6
CONTINUOUS
100
AcDbLine
 10
669.653798
 20
-291.434792
 30
0.0
 11
669.156243
 21
-286.700868
 31
0.0
  0
LINE
  5
20DF
100
AcDbEntity
  8
外形
  6
CONTINUOUS
100
AcDbLine
 10
672.352404
 20
-285.156135
 30
0.0
 11
672.352404
 21
-285.85899
 31
0.0
  0
LINE
  5
20E0
100
AcDbEntity
  8
外形
  6
CONTINUOUS
100
AcDbLine
 10
668.352404
 20
-284.582872
 30
0.0
 11
672.352404
 21
-285.156135
 31
0.0
  0
LINE
  5
20E1
100
AcDbEntity
  8
外形
  6
CONTINUOUS
100
AcDbLine
 10
672.352404
 20
-285.156135
 30
0.0
 11
674.43543
 21
-283.493443
 31
0.0
  0
LINE
  5
20E2
100
AcDbEntity
  8
外形
  6
CONTINUOUS
100
AcDbLine
 10
669.764915
 20
-283.609707
 30
0.0
 11
672.352404
 21
-285.156135
 31
0.0
  0
LINE
  5
20E3
100
AcDbEntity
  8
外形
  6
CONTINUOUS
100
AcDbLine
 10
666.097213
 20
-284.513354
 30
0.0
 11
669.156243
 21
-286.700868
 31
0.0
  0
DIMENSION
  5
20E5
100
AcDbEntity
  8
寸法
  6
CONTINUOUS
100
AcDbDimension
  2
*D2
 10
642.8051
 20
-210.37496
 30
0.0
 11
640.3051
 21
-223.87496
 31
0.0
 12
33.671817
 22
0.0
 32
0.0
 70
    32
  3
STANDARD
100
AcDbAlignedDimension
 13
657.089478
 23
-237.37496
 33
0.0
 14
649.749885
 24
-210.37496
 34
0.0
 50
90.0
100
AcDbRotatedDimension
1001
ACAD
1000
DSTYLE
1002
{
1070
    40
1040
1.0
1002
}
  0
LINE
  5
20E8
100
AcDbEntity
  8
外形
  6
CONTINUOUS
100
AcDbLine
 10
655.039478
 20
-200.37496
 30
0.0
 11
655.039478
 21
-224.968953
 31
0.0
  0
CIRCLE
  5
20E9
100
AcDbEntity
  8
外形
  6
CONTINUOUS
100
AcDbCircle
 10
661.627782
 20
-229.777626
 30
0.0
 40
2.35
  0
ARC
  5
20EA
100
AcDbEntity
  8
外形
  6
CONTINUOUS
100
AcDbCircle
 10
664.027782
 20
-222.560544
 30
0.0
 40
2.5
100
AcDbArc
 50
344.944872
 51
195.0
  0
LINE
  5
20EB
100
AcDbEntity
  8
外形
  6
CONTINUOUS
100
AcDbLine
 10
665.34517
 20
-222.207551
 30
0.0
 11
654.623393
 21
-225.080442
 31
0.0
  0
LINE
  5
20EC
100
AcDbEntity
  8
外形
  6
CONTINUOUS
100
AcDbLine
 10
657.910395
 20
-237.3477
 30
0.0
 11
668.632172
 21
-234.474809
 31
0.0
  0
CIRCLE
  5
20ED
100
AcDbEntity
  8
外形
  6
CONTINUOUS
100
AcDbCircle
 10
661.627782
 20
-229.777626
 30
0.0
 40
2.58
  0
LINE
  5
20EF
100
AcDbEntity
  8
外形
  6
CONTINUOUS
 62
     1
100
AcDbLine
 10
656.930599
 20
-236.782015
 30
0.0
 11
657.089478
 21
-237.37496
 31
0.0
  0
LINE
  5
20F0
100
AcDbEntity
  8
外形
  6
CONTINUOUS
 62
     1
100
AcDbLine
 10
657.70334
 20
-237.37496
 30
0.0
 11
657.089478
 21
-237.37496
 31
0.0
  0
ARC
  5
20F1
100
AcDbEntity
  8
外形
  6
CONTINUOUS
100
AcDbCircle
 10
657.70334
 20
-236.57496
 30
0.0
 40
0.8
100
AcDbArc
 50
195.0
 51
285.0
  0
ARC
  5
20F2
100
AcDbEntity
  8
外形
  6
CONTINUOUS
100
AcDbCircle
 10
654.830448
 20
-225.853183
 30
0.0
 40
0.8
100
AcDbArc
 50
105.0
 51
195.0
  0
LINE
  5
20F3
100
AcDbEntity
  8
外形
  6
CONTINUOUS
100
AcDbLine
 10
654.057708
 20
-226.060238
 30
0.0
 11
656.930599
 21
-236.782015
 31
0.0
  0
LWPOLYLINE
  5
20F4
100
AcDbEntity
  8
外形
  6
CONTINUOUS
100
AcDbPolyline
 90
        6
 70
     1
 43
0.0
 10
670.852404
 20
-221.644625
 10
672.352404
 20
-222.51065
 10
673.852404
 20
-221.644625
 10
673.852404
 20
-219.912574
 10
672.352404
 20
-219.046548
 10
670.852404
 20
-219.912574
  0
ARC
  5
20F5
100
AcDbEntity
  8
外形
  6
CONTINUOUS
100
AcDbCircle
 10
668.425116
 20
-233.702068
 30
0.0
 40
0.8
100
AcDbArc
 50
285.0
 51
15.0
  0
ARC
  5
20F6
100
AcDbEntity
  8
外形
  6
CONTINUOUS
100
AcDbCircle
 10
665.552225
 20
-222.980292
 30
0.0
 40
0.8
100
AcDbArc
 50
15.0
 51
105.0
  0
LINE
  5
20F7
100
AcDbEntity
  8
外形
  6
CONTINUOUS
100
AcDbLine
 10
669.197857
 20
-233.495013
 30
0.0
 11
666.324966
 21
-222.773236
 31
0.0
  0
LINE
  5
20F8
100
AcDbEntity
  8
外形
  6
CONTINUOUS
100
AcDbLine
 10
671.926973
 20
-190.62496
 30
0.0
 11
655.039478
 21
-200.37496
 31
0.0
  0
LINE
  5
2105
100
AcDbEntity
  8
外形
  6
CONTINUOUS
100
AcDbLine
 10
707.089478
 20
-217.300449
 30
0.0
 11
705.991264
 21
-201.354712
 31
0.0
  0
LINE
  5
2109
100
AcDbEntity
  8
外形
  6
CONTINUOUS
100
AcDbLine
 10
721.389478
 20
-230.12496
 30
0.0
 11
721.633555
 21
-229.880883
 31
0.0
  0
LINE
  5
210A
100
AcDbEntity
  8
外形
  6
CONTINUOUS
100
AcDbLine
 10
721.633555
 20
-217.974302
 30
0.0
 11
721.633555
 21
-229.880883
 31
0.0
  0
LINE
  5
210B
100
AcDbEntity
  8
外形
  6
CONTINUOUS
100
AcDbLine
 10
721.389478
 20
-217.289618
 30
0.0
 11
721.389478
 21
-230.12496
 31
0.0
  0
LINE
  5
210C
100
AcDbEntity
  8
外形
  6
CONTINUOUS
100
AcDbLine
 10
721.633555
 20
-202.775618
 30
0.0
 11
721.633555
 21
-190.380883
 31
0.0
  0
LINE
  5
210D
100
AcDbEntity
  8
外形
  6
CONTINUOUS
100
AcDbLine
 10
721.633555
 20
-190.380883
 30
0.0
 11
721.389478
 21
-190.62496
 31
0.0
  0
LINE
  5
210E
100
AcDbEntity
  8
外形
  6
CONTINUOUS
100
AcDbLine
 10
721.389478
 20
-201.572617
 30
0.0
 11
721.389478
 21
-190.62496
 31
0.0
  0
LINE
  5
2110
100
AcDbEntity
  8
外形
  6
CONTINUOUS
100
AcDbLine
 10
957.089478
 20
-271.469136
 30
0.0
 11
957.089478
 21
-304.469136
 31
0.0
  0
LINE
  5
2112
100
AcDbEntity
  8
外形
  6
CONTINUOUS
100
AcDbLine
 10
957.089478
 20
-304.469136
 30
0.0
 11
955.089478
 21
-306.469136
 31
0.0
  0
LINE
  5
2113
100
AcDbEntity
  8
外形
  6
CONTINUOUS
100
AcDbLine
 10
955.089478
 20
-295.568478
 30
0.0
 11
955.089478
 21
-306.469136
 31
0.0
  0
LINE
  5
2114
100
AcDbEntity
  8
外形
  6
CONTINUOUS
100
AcDbLine
 10
955.089478
 20
-269.469136
 30
0.0
 11
957.089478
 21
-271.469136
 31
0.0
  0
LINE
  5
2115
100
AcDbEntity
  8
外形
  6
CONTINUOUS
100
AcDbLine
 10
957.089478
 20
-226.87496
 30
0.0
 11
955.089478
 21
-228.87496
 31
0.0
  0
LINE
  5
2116
100
AcDbEntity
  8
外形
  6
CONTINUOUS
100
AcDbLine
 10
955.089478
 20
-190.37496
 30
0.0
 11
957.089478
 21
-192.37496
 31
0.0
  0
LINE
  5
211D
102
{ACAD_REACTORS
330
2B82
102
}
100
AcDbEntity
  8
外形
  6
CENTER
 62
     1
100
AcDbLine
 10
875.188687
 20
-186.055498
 30
0.0
 11
875.188687
 21
-234.471173
 31
0.0
  0
LINE
  5
2120
100
AcDbEntity
  8
外形
  6
CONTINUOUS
100
AcDbLine
 10
955.089478
 20
-269.469136
 30
0.0
 11
955.089478
 21
-280.369794
 31
0.0
  0
LINE
  5
2122
100
AcDbEntity
  8
外形
  6
CONTINUOUS
100
AcDbLine
 10
955.089478
 20
-217.974302
 30
0.0
 11
955.089478
 21
-228.87496
 31
0.0
  0
LINE
  5
2123
100
AcDbEntity
  8
外形
  6
CONTINUOUS
100
AcDbLine
 10
955.089478
 20
-190.37496
 30
0.0
 11
955.089478
 21
-202.775618
 31
0.0
  0
LINE
  5
2124
100
AcDbEntity
  8
外形
  6
CONTINUOUS
100
AcDbLine
 10
957.089478
 20
-192.37496
 30
0.0
 11
957.089478
 21
-226.87496
 31
0.0
  0
LINE
  5
22A2
102
{ACAD_REACTORS
330
2B82
102
}
100
AcDbEntity
  8
外形
  6
CONTINUOUS
100
AcDbLine
 10
856.688687
 20
-217.974302
 30
0.0
 11
856.688687
 21
-202.775618
 31
0.0
  0
LINE
  5
22A3
102
{ACAD_REACTORS
330
2B82
102
}
100
AcDbEntity
  8
外形
  6
CONTINUOUS
100
AcDbLine
 10
893.688687
 20
-217.974302
 30
0.0
 11
893.688687
 21
-202.775618
 31
0.0
  0
ARC
  5
22A4
102
{ACAD_REACTORS
330
2B82
102
}
100
AcDbEntity
  8
外形
  6
CONTINUOUS
100
AcDbCircle
 10
875.188687
 20
-210.37496
 30
0.0
 40
20.0
100
AcDbArc
 50
22.331645
 51
157.668355
  0
LINE
  5
22A5
100
AcDbEntity
  8
外形
  6
CONTINUOUS
100
AcDbLine
 10
955.089478
 20
-228.87496
 30
0.0
 11
895.838687
 21
-228.87496
 31
0.0
  0
LINE
  5
22C7
100
AcDbEntity
  8
外形
  6
CONTINUOUS
100
AcDbLine
 10
721.633555
 20
-190.37496
 30
0.0
 11
854.538687
 21
-190.37496
 31
0.0
  0
LINE
  5
22DF
100
AcDbEntity
  8
外形
  6
CONTINUOUS
100
AcDbLine
 10
721.389478
 20
-202.775618
 30
0.0
 11
854.538687
 21
-202.775618
 31
0.0
  0
LINE
  5
22E0
100
AcDbEntity
  8
外形
  6
CONTINUOUS
100
AcDbLine
 10
721.389478
 20
-217.974302
 30
0.0
 11
854.538687
 21
-217.974302
 31
0.0
  0
ARC
  5
22E1
100
AcDbEntity
  8
外形
  6
CONTINUOUS
100
AcDbCircle
 10
936.589478
 20
-210.37496
 30
0.0
 40
20.0
100
AcDbArc
 50
337.668355
 51
22.331645
  0
ARC
  5
22F9
102
{ACAD_REACTORS
330
2B82
102
}
100
AcDbEntity
  8
外形
  6
CONTINUOUS
100
AcDbCircle
 10
875.188687
 20
-210.37496
 30
0.0
 40
20.0
100
AcDbArc
 50
202.331645
 51
247.668355
  0
LINE
  5
22FB
100
AcDbEntity
  8
外形
  6
CONTINUOUS
100
AcDbLine
 10
721.389478
 20
-190.62496
 30
0.0
 11
671.926973
 21
-190.62496
 31
0.0
  0
LINE
  5
22FC
100
AcDbEntity
  8
外形
  6
CONTINUOUS
100
AcDbLine
 10
721.389478
 20
-230.12496
 30
0.0
 11
680.089478
 21
-230.12496
 31
0.0
  0
LINE
  5
22FD
100
AcDbEntity
  8
外形
  6
CONTINUOUS
100
AcDbLine
 10
721.389478
 20
-203.460301
 30
0.0
 11
706.13628
 21
-203.460301
 31
0.0
  0
LINE
  5
22FE
100
AcDbEntity
  8
外形
  6
CONTINUOUS
100
AcDbLine
 10
721.389478
 20
-217.289618
 30
0.0
 11
707.088732
 21
-217.289618
 31
0.0
  0
DIMENSION
  5
232F
100
AcDbEntity
  8
寸法
  6
CONTINUOUS
100
AcDbDimension
  2
*D8
 10
886.241745
 20
-227.04319
 30
0.0
 11
858.628504
 21
-185.401877
 31
0.0
 12
33.671817
 22
0.0
 32
0.0
 70
   163
  3
STANDARD
100
AcDbDiametricDimension
 15
864.135629
 25
-193.706729
 35
0.0
 40
0.0
1001
ACAD
1000
DSTYLE
1002
{
1070
    40
1040
1.0
1002
}
  0
LINE
  5
233F
100
AcDbEntity
  8
外形
  6
CONTINUOUS
100
AcDbLine
 10
677.215887
 20
-232.029673
 30
0.0
 11
677.800803
 21
-231.01657
 31
0.0
  0
LINE
  5
2350
100
AcDbEntity
  8
外形
  6
CONTINUOUS
100
AcDbLine
 10
680.089478
 20
-285.531349
 30
0.0
 11
680.089478
 21
-285.396369
 31
0.0
  0
LINE
  5
2351
100
AcDbEntity
  8
外形
  6
CONTINUOUS
100
AcDbLine
 10
668.632172
 20
-234.474809
 30
0.0
 11
677.215887
 21
-232.029673
 31
0.0
  0
LINE
  5
2390
100
AcDbEntity
  8
外形
  6
CONTINUOUS
100
AcDbLine
 10
721.389478
 20
-190.62496
 30
0.0
 11
721.389478
 21
-203.460301
 31
0.0
  0
ARC
  5
2394
102
{ACAD_REACTORS
330
2B82
102
}
100
AcDbEntity
  8
外形
  6
CONTINUOUS
100
AcDbCircle
 10
875.188687
 20
-210.37496
 30
0.0
 40
20.0
100
AcDbArc
 50
292.331645
 51
337.668355
  0
LINE
  5
239B
100
AcDbEntity
  8
外形
  6
CONTINUOUS
100
AcDbLine
 10
955.089478
 20
-306.469136
 30
0.0
 11
721.633555
 21
-306.469136
 31
0.0
  0
LINE
  5
239F
100
AcDbEntity
  8
外形
  6
CONTINUOUS
100
AcDbLine
 10
955.089478
 20
-269.469136
 30
0.0
 11
721.633555
 21
-269.469136
 31
0.0
  0
LINE
  5
23E4
100
AcDbEntity
  8
外形
  6
CONTINUOUS
100
AcDbLine
 10
721.389478
 20
-280.369794
 30
0.0
 11
955.089478
 21
-280.369794
 31
0.0
  0
LINE
  5
23E5
100
AcDbEntity
  8
外形
  6
CONTINUOUS
100
AcDbLine
 10
721.389478
 20
-295.568478
 30
0.0
 11
955.089478
 21
-295.568478
 31
0.0
  0
LINE
  5
23E6
100
AcDbEntity
  8
外形
  6
CONTINUOUS
100
AcDbLine
 10
721.389478
 20
-281.054478
 30
0.0
 11
699.851823
 21
-281.054478
 31
0.0
  0
LINE
  5
23E7
100
AcDbEntity
  8
外形
  6
CONTINUOUS
100
AcDbLine
 10
721.389478
 20
-294.883794
 30
0.0
 11
680.089478
 21
-294.883794
 31
0.0
  0
LINE
  5
23E8
100
AcDbEntity
  8
外形
  6
CONTINUOUS
100
AcDbLine
 10
721.389478
 20
-268.219136
 30
0.0
 11
721.389478
 21
-281.054478
 31
0.0
  0
LINE
  5
23E9
100
AcDbEntity
  8
外形
  6
CONTINUOUS
100
AcDbLine
 10
721.389478
 20
-307.719136
 30
0.0
 11
678.089478
 21
-307.719136
 31
0.0
  0
LINE
  5
23EA
100
AcDbEntity
  8
外形
  6
CONTINUOUS
100
AcDbLine
 10
721.633555
 20
-268.463213
 30
0.0
 11
721.633555
 21
-280.369794
 31
0.0
  0
LINE
  5
23EB
100
AcDbEntity
  8
外形
  6
CONTINUOUS
100
AcDbLine
 10
721.389478
 20
-268.219136
 30
0.0
 11
705.291478
 21
-268.219136
 31
0.0
  0
LINE
  5
23EC
100
AcDbEntity
  8
外形
  6
CONTINUOUS
100
AcDbLine
 10
721.389478
 20
-268.219136
 30
0.0
 11
721.633555
 21
-268.463213
 31
0.0
  0
ARC
  5
23ED
100
AcDbEntity
  8
外形
  6
CONTINUOUS
100
AcDbCircle
 10
936.589478
 20
-287.969136
 30
0.0
 40
20.0
100
AcDbArc
 50
337.668355
 51
22.331645
  0
LINE
  5
23EE
100
AcDbEntity
  8
外形
  6
CONTINUOUS
100
AcDbLine
 10
721.389478
 20
-294.883794
 30
0.0
 11
721.389478
 21
-307.719136
 31
0.0
  0
LINE
  5
23EF
100
AcDbEntity
  8
外形
  6
CONTINUOUS
100
AcDbLine
 10
721.633555
 20
-295.568478
 30
0.0
 11
721.633555
 21
-307.475059
 31
0.0
  0
ARC
  5
2407
100
AcDbEntity
  8
外形
  6
CONTINUOUS
100
AcDbCircle
 10
692.089478
 20
-268.219136
 30
0.0
 40
15.0
100
AcDbArc
 50
278.216904
 51
0.0
  0
SPLINE
  5
2408
100
AcDbEntity
  8
外形
  6
CONTINUOUS
100
AcDbSpline
210
0.0
220
0.0
230
1.0
 70
     8
 71
     3
 72
     8
 73
     4
 74
     0
 42
0.0000001
 43
0.0000001
 40
0.0
 40
0.0
 40
0.0
 40
0.0
 40
16.22043497270625
 40
16.22043497270625
 40
16.22043497270625
 40
16.22043497270625
 10
676.1359614007282
 20
-285.9672699884319
 30
0.0
 10
681.4872673134421
 20
-285.1945233747372
 30
0.0
 10
686.8385732261558
 20
-284.4217767610425
 30
0.0
 10
694.2332921598608
 20
-283.0651476762828
 30
0.0
  0
DIMENSION
  5
246F
100
AcDbEntity
  8
寸法
  6
CONTINUOUS
100
AcDbDimension
  2
*D9
 10
656.930599
 20
-236.782015
 30
0.0
 11
630.310837
 21
-216.826986
 31
0.0
 12
33.671817
 22
0.0
 32
0.0
 70
    34
  3
STANDARD
100
AcDb2LineAngularDimension
 13
963.441899
 23
-237.37496
 33
0.0
 14
649.749885
 24
-237.37496
 34
0.0
 15
654.057708
 25
-226.060238
 35
0.0
 16
636.999963
 26
-213.433208
 36
0.0
1001
ACAD
1000
DSTYLE
1002
{
1070
    40
1040
1.0
1002
}
  0
ARC
  5
24A0
100
AcDbEntity
  8
外形
  6
CONTINUOUS
100
AcDbCircle
 10
695.117837
 20
-218.12496
 30
0.0
 40
12.0
100
AcDbArc
 50
270.0
 51
3.939851
  0
ARC
  5
24A1
100
AcDbEntity
  8
外形
  6
CONTINUOUS
100
AcDbCircle
 10
586.242384
 20
-212.87496
 30
0.0
 40
22.5
100
AcDbArc
 50
90.0
 51
180.0
  0
ARC
  5
24A2
100
AcDbEntity
  8
外形
  6
CONTINUOUS
100
AcDbCircle
 10
586.242384
 20
-210.37496
 30
0.0
 40
20.0
100
AcDbArc
 50
22.331645
 51
90.0
  0
ARC
  5
24A5
100
AcDbEntity
  8
外形
  6
CONTINUOUS
100
AcDbCircle
 10
586.242384
 20
-210.37496
 30
0.0
 40
26.25
100
AcDbArc
 50
211.002719
 51
252.88469
  0
CIRCLE
  5
24A6
100
AcDbEntity
  8
外形
  6
CENTER
 62
     1
100
AcDbCircle
 10
586.242384
 20
-210.37496
 30
0.0
 40
27.0
  0
LINE
  5
24D4
100
AcDbEntity
  8
外形
  6
CONTINUOUS
100
AcDbLine
 10
604.742384
 20
-202.775618
 30
0.0
 11
604.742384
 21
-217.974302
 31
0.0
  0
LINE
  5
24D5
100
AcDbEntity
  8
外形
  6
CONTINUOUS
100
AcDbLine
 10
593.841726
 20
-228.87496
 30
0.0
 11
587.741164
 21
-228.87496
 31
0.0
  0
ARC
  5
24D6
100
AcDbEntity
  8
外形
  6
CONTINUOUS
100
AcDbCircle
 10
586.242384
 20
-210.37496
 30
0.0
 40
20.0
100
AcDbArc
 50
292.331645
 51
337.668355
  0
LINE
  5
24D9
100
AcDbEntity
  8
外形
  6
CONTINUOUS
100
AcDbLine
 10
563.742384
 20
-210.37496
 30
0.0
 11
563.742384
 21
-223.895777
 31
0.0
  0
LINE
  5
24FE
100
AcDbEntity
  8
外形
  6
CONTINUOUS
100
AcDbLine
 10
669.472928
 20
-192.041803
 30
0.0
 11
696.014897
 21
-192.041803
 31
0.0
  0
ARC
  5
2502
100
AcDbEntity
  8
外形
  6
CONTINUOUS
100
AcDbCircle
 10
696.014897
 20
-202.041803
 30
0.0
 40
10.0
100
AcDbArc
 50
3.939851
 51
90.0
  0
LINE
  5
2509
100
AcDbEntity
  8
外形
  6
CONTINUOUS
100
AcDbLine
 10
657.089478
 20
-237.37496
 30
0.0
 11
657.089478
 21
-238.556221
 31
0.0
  0
LINE
  5
250E
100
AcDbEntity
  8
外形
  6
CONTINUOUS
100
AcDbLine
 10
680.089478
 20
-230.51657
 30
0.0
 11
680.089478
 21
-230.12496
 31
0.0
  0
LINE
  5
250F
100
AcDbEntity
  8
外形
  6
CONTINUOUS
100
AcDbLine
 10
680.089478
 20
-230.51657
 30
0.0
 11
678.666828
 21
-230.51657
 31
0.0
  0
LINE
  5
2B31
100
AcDbEntity
  8
外形
  6
CONTINUOUS
100
AcDbLine
 10
895.838687
 20
-202.775618
 30
0.0
 11
955.089478
 21
-202.775618
 31
0.0
  0
LINE
  5
2B32
100
AcDbEntity
  8
外形
  6
CONTINUOUS
100
AcDbLine
 10
895.838687
 20
-190.37496
 30
0.0
 11
955.089478
 21
-190.37496
 31
0.0
  0
LINE
  5
2B33
100
AcDbEntity
  8
外形
  6
CONTINUOUS
100
AcDbLine
 10
895.838687
 20
-217.974302
 30
0.0
 11
955.089478
 21
-217.974302
 31
0.0
  0
LINE
  5
2B34
100
AcDbEntity
  8
外形
  6
CONTINUOUS
100
AcDbLine
 10
854.538687
 20
-228.87496
 30
0.0
 11
721.633555
 21
-228.87496
 31
0.0
  0
LINE
  5
2B35
102
{ACAD_REACTORS
330
2B82
102
}
100
AcDbEntity
  8
外形
  6
CONTINUOUS
100
AcDbLine
 10
882.788029
 20
-228.87496
 30
0.0
 11
867.589345
 21
-228.87496
 31
0.0
  0
HATCH
  5
2B82
100
AcDbEntity
  8
外形
  6
CONTINUOUS
100
AcDbHatch
 10
0.0
 20
0.0
 30
0.0
210
0.0
220
0.0
230
1.0
  2
ANSI31
 70
     0
 71
     1
 91
        4
 92
        7
 72
     1
 73
     1
 93
        4
 10
875.1886869337095
 20
-190.3749597171722
 42
0.0
 10
875.1886869337095
 20
-210.3749597171722
 42
0.0
 10
893.6886869337095
 20
-210.3749597171722
 42
0.0
 10
893.6886869337095
 20
-202.7756176403871
 42
0.3041490459075467
 97
        4
330
211D
330
2093
330
22A3
330
22A4
 92
        7
 72
     1
 73
     1
 93
        4
 10
875.1886869337095
 20
-190.3749597171723
 42
0.3041490459075455
 10
856.6886869337094
 20
-202.7756176403871
 42
0.0
 10
856.6886869337096
 20
-210.3749597171722
 42
0.0
 10
875.1886869337097
 20
-210.3749597171723
 42
0.0
 97
        4
330
22A4
330
22A2
330
2093
330
211D
 92
        7
 72
     1
 73
     1
 93
        5
 10
875.1886869337097
 20
-210.3749597171722
 42
0.0
 10
856.6886869337094
 20
-210.3749597171722
 42
0.0
 10
856.6886869337094
 20
-217.9743017939574
 42
0.2004401189421272
 10
867.5893448569242
 20
-228.8749597171722
 42
0.0
 10
875.1886869337095
 20
-228.8749597171721
 42
0.0
 97
        5
330
2093
330
22A2
330
22F9
330
2B35
330
211D
 92
        7
 72
     1
 73
     1
 93
        5
 10
893.6886869337095
 20
-210.3749597171723
 42
0.0
 10
875.1886869337095
 20
-210.3749597171723
 42
0.0
 10
875.1886869337095
 20
-228.8749597171721
 42
0.0
 10
882.788029010495
 20
-228.8749597171722
 42
0.2004401189421209
 10
893.6886869337092
 20
-217.9743017939578
 42
0.0
 97
        5
330
2093
330
211D
330
2B35
330
2394
330
22A3
 75
     0
 76
     1
 52
0.0
 41
15.0
 77
     0
 78
     1
 53
45.0
 43
40.538005
 44
146.919615
 45
-1.325825214724776
 46
1.325825214724776
 79
     0
 47
0.251208
 98
        4
 10
883.329411
 20
-201.776324
 10
870.253089
 20
-197.756999
 10
863.966401
 20
-219.360865
 10
890.873437
 20
-216.095165
  0
ARC
  5
2C30
100
AcDbEntity
  8
外形
  6
CONTINUOUS
100
AcDbCircle
 10
678.666828
 20
-231.51657
 30
0.0
 40
1.0
100
AcDbArc
 50
90.0
 51
150.0
  0
LINE
  5
2C3C
100
AcDbEntity
  8
外形
  6
CONTINUOUS
100
AcDbLine
 10
592.766483
 20
-200.37496
 30
0.0
 11
567.534097
 21
-200.37496
 31
0.0
  0
ENDSEC
  0
SECTION
  2
OBJECTS
  0
DICTIONARY
  5
1E
100
AcDbDictionary
  3
ACAD_GROUP
350
1C
  3
ACAD_MLINESTYLE
350
1D
  3
ACDBVARIABLEDICTIONARY
350
147A
  3
DRAWINGVARIABLESDICT
350
C58
  0
DICTIONARY
  5
38
100
AcDbDictionary
280
     1
  3
ACAD_XREC_ROUNDTRIP
360
39
  0
DICTIONARY
  5
22
100
AcDbDictionary
280
     1
  3
ACAD_XREC_ROUNDTRIP
360
23
  0
DICTIONARY
  5
3
100
AcDbDictionary
280
     1
  3
ACAD_LAYOUTSELFREF
360
4
  0
DICTIONARY
  5
A
100
AcDbDictionary
280
     1
  3
ACAD_LAYOUTSELFREF
360
B
  0
DICTIONARY
  5
1C
102
{ACAD_REACTORS
330
1E
102
}
100
AcDbDictionary
  0
DICTIONARY
  5
1D
102
{ACAD_REACTORS
330
1E
102
}
100
AcDbDictionary
  3
STANDARD
350
20
  0
DICTIONARY
  5
147A
102
{ACAD_REACTORS
330
1E
102
}
100
AcDbDictionary
  3
SORTENTS
350
147B
  0
DICTIONARY
  5
C58
102
{ACAD_REACTORS
330
1E
102
}
100
AcDbDictionary
1001
DRAWINGVARIABLESXDATA
1000
POLARMODE
1000
0
  0
XRECORD
  5
39
102
{ACAD_REACTORS
330
38
102
}
100
AcDbXrecord
102
PLOTBIT
280
     0
  0
XRECORD
  5
23
102
{ACAD_REACTORS
330
22
102
}
100
AcDbXrecord
102
ACADR14ROUNDTRIP
1000
DSTYLE
1002
{
1070
   341
340
0
1070
   343
340
0
1070
   344
340
0
1002
}
  0
XRECORD
  5
4
102
{ACAD_REACTORS
330
3
102
}
100
AcDbXrecord
340
2
  0
XRECORD
  5
B
102
{ACAD_REACTORS
330
A
102
}
100
AcDbXrecord
340
9
  0
MLINESTYLE
  5
20
102
{ACAD_REACTORS
330
1D
102
}
100
AcDbMlineStyle
  2
STANDARD
 70
     0
  3

 62
     0
 51
90.0
 52
90.0
 71
     2
 49
0.5
 62
   256
  6
BYLAYER
 49
-0.5
 62
   256
  6
BYLAYER
  0
DICTIONARYVAR
  5
147B
102
{ACAD_REACTORS
330
147A
102
}
100
DictionaryVariables
280
     0
  1
96
  0
ENDSEC
  0
EOF
