  0
SECTION
  2
HEADER
  9
$ACADVER
  1
AC1014
  9
$ACADMAINTVER
 70
     0
  9
$DWGCODEPAGE
  3
ANSI_932
  9
$INSBASE
 10
-587.250952
 20
747.890188
 30
0.0
  9
$EXTMIN
 10
589.757684
 20
-83.845764
 30
0.0
  9
$EXTMAX
 10
1002.794845
 20
86.165821
 30
0.0
  9
$LIMMIN
 10
552.474894
 20
-174.721974
  9
$LIMMAX
 10
1065.059394
 20
168.923687
  9
$ORTHOMODE
 70
     1
  9
$REGENMODE
 70
     1
  9
$FILLMODE
 70
     1
  9
$QTEXTMODE
 70
     0
  9
$MIRRTEXT
 70
     1
  9
$DRAGMODE
 70
     2
  9
$LTSCALE
 40
5.0
  9
$OSMODE
 70
    47
  9
$ATTMODE
 70
     1
  9
$TEXTSIZE
 40
5.0
  9
$TRACEWID
 40
0.05
  9
$TEXTSTYLE
  7
STANDARD
  9
$CLAYER
  8
外形
  9
$CELTYPE
  6
CONTINUOUS
  9
$CECOLOR
 62
   256
  9
$CELTSCALE
 40
1.0
  9
$DELOBJ
 70
     1
  9
$DISPSILH
 70
     0
  9
$DIMSCALE
 40
1.0
  9
$DIMASZ
 40
2.0
  9
$DIMEXO
 40
1.0
  9
$DIMDLI
 40
8.0
  9
$DIMRND
 40
0.0
  9
$DIMDLE
 40
0.0
  9
$DIMEXE
 40
2.0
  9
$DIMTP
 40
0.0
  9
$DIMTM
 40
0.0
  9
$DIMTXT
 40
2.0
  9
$DIMCEN
 40
-1.0
  9
$DIMTSZ
 40
0.0
  9
$DIMTOL
 70
     0
  9
$DIMLIM
 70
     0
  9
$DIMTIH
 70
     0
  9
$DIMTOH
 70
     0
  9
$DIMSE1
 70
     0
  9
$DIMSE2
 70
     0
  9
$DIMTAD
 70
     1
  9
$DIMZIN
 70
     8
  9
$DIMBLK
  1

  9
$DIMASO
 70
     1
  9
$DIMSHO
 70
     1
  9
$DIMPOST
  1

  9
$DIMAPOST
  1

  9
$DIMALT
 70
     0
  9
$DIMALTD
 70
     2
  9
$DIMALTF
 40
25.4
  9
$DIMLFAC
 40
1.0
  9
$DIMTOFL
 70
     1
  9
$DIMTVP
 40
0.0
  9
$DIMTIX
 70
     0
  9
$DIMSOXD
 70
     0
  9
$DIMSAH
 70
     1
  9
$DIMBLK1
  1
_DOTSMALL
  9
$DIMBLK2
  1
_DOTSMALL
  9
$DIMSTYLE
  2
参考寸法
  9
$DIMCLRD
 70
     2
  9
$DIMCLRE
 70
     2
  9
$DIMCLRT
 70
     2
  9
$DIMTFAC
 40
1.0
  9
$DIMGAP
 40
1.0
  9
$DIMJUST
 70
     0
  9
$DIMSD1
 70
     0
  9
$DIMSD2
 70
     0
  9
$DIMTOLJ
 70
     1
  9
$DIMTZIN
 70
     8
  9
$DIMALTZ
 70
     0
  9
$DIMALTTZ
 70
     0
  9
$DIMFIT
 70
     3
  9
$DIMUPT
 70
     0
  9
$DIMUNIT
 70
     2
  9
$DIMDEC
 70
     3
  9
$DIMTDEC
 70
     2
  9
$DIMALTU
 70
     2
  9
$DIMALTTD
 70
     2
  9
$DIMTXSTY
  7
STANDARD
  9
$DIMAUNIT
 70
     0
  9
$LUNITS
 70
     2
  9
$LUPREC
 70
     3
  9
$SKETCHINC
 40
0.1
  9
$FILLETRAD
 40
12.0
  9
$AUNITS
 70
     0
  9
$AUPREC
 70
     3
  9
$MENU
  1
acad
  9
$ELEVATION
 40
0.0
  9
$PELEVATION
 40
0.0
  9
$THICKNESS
 40
0.0
  9
$LIMCHECK
 70
     0
  9
$BLIPMODE
 70
     0
  9
$CHAMFERA
 40
0.0
  9
$CHAMFERB
 40
0.0
  9
$CHAMFERC
 40
0.0
  9
$CHAMFERD
 40
0.0
  9
$SKPOLY
 70
     0
  9
$TDCREATE
 40
2450751.535399305
  9
$TDUPDATE
 40
2452031.370706018
  9
$TDINDWG
 40
1.7066726852
  9
$TDUSRTIMER
 40
1.7066726852
  9
$USRTIMER
 70
     1
  9
$ANGBASE
 50
0.0
  9
$ANGDIR
 70
     0
  9
$PDMODE
 70
    32
  9
$PDSIZE
 40
0.0
  9
$PLINEWID
 40
0.0
  9
$COORDS
 70
     2
  9
$SPLFRAME
 70
     0
  9
$SPLINETYPE
 70
     5
  9
$SPLINESEGS
 70
     8
  9
$ATTDIA
 70
     0
  9
$ATTREQ
 70
     1
  9
$HANDLING
 70
     1
  9
$HANDSEED
  5
2922
  9
$SURFTAB1
 70
     6
  9
$SURFTAB2
 70
     6
  9
$SURFTYPE
 70
     6
  9
$SURFU
 70
     6
  9
$SURFV
 70
     6
  9
$UCSNAME
  2

  9
$UCSORG
 10
40.53800450572526
 20
146.9196145921314
 30
0.0
  9
$UCSXDIR
 10
1.0
 20
0.0
 30
0.0
  9
$UCSYDIR
 10
0.0
 20
1.0
 30
0.0
  9
$PUCSNAME
  2

  9
$PUCSORG
 10
0.0
 20
0.0
 30
0.0
  9
$PUCSXDIR
 10
1.0
 20
0.0
 30
0.0
  9
$PUCSYDIR
 10
0.0
 20
1.0
 30
0.0
  9
$USERI1
 70
     0
  9
$USERI2
 70
     0
  9
$USERI3
 70
     0
  9
$USERI4
 70
     0
  9
$USERI5
 70
     0
  9
$USERR1
 40
0.0
  9
$USERR2
 40
0.0
  9
$USERR3
 40
0.0
  9
$USERR4
 40
0.0
  9
$USERR5
 40
0.0
  9
$WORLDVIEW
 70
     1
  9
$SHADEDGE
 70
     3
  9
$SHADEDIF
 70
    70
  9
$TILEMODE
 70
     1
  9
$MAXACTVP
 70
    16
  9
$PINSBASE
 10
0.0
 20
0.0
 30
0.0
  9
$PLIMCHECK
 70
     0
  9
$PEXTMIN
 10
1.000000E+20
 20
1.000000E+20
 30
1.000000E+20
  9
$PEXTMAX
 10
-1.000000E+20
 20
-1.000000E+20
 30
-1.000000E+20
  9
$PLIMMIN
 10
0.0
 20
0.0
  9
$PLIMMAX
 10
12.0
 20
9.0
  9
$UNITMODE
 70
     0
  9
$VISRETAIN
 70
     0
  9
$PLINEGEN
 70
     0
  9
$PSLTSCALE
 70
     1
  9
$TREEDEPTH
 70
  3020
  9
$PICKSTYLE
 70
     1
  9
$CMLSTYLE
  2
STANDARD
  9
$CMLJUST
 70
     0
  9
$CMLSCALE
 40
1.0
  9
$PROXYGRAPHICS
 70
     1
  9
$MEASUREMENT
 70
     0
  0
ENDSEC
  0
SECTION
  2
CLASSES
  0
CLASS
  1
LWPOLYLINE
  2
AcDbPolyline
  3
"AutoCAD"
 90
        0
280
     0
281
     1
  0
CLASS
  1
ACDBDICTIONARYWDFLT
  2
AcDbDictionaryWithDefault
  3
AutoCAD 2000
 90
        0
280
     1
281
     0
  0
CLASS
  1
ACDBPLACEHOLDER
  2
AcDbPlaceHolder
  3
AutoCAD 2000
 90
        0
280
     1
281
     0
  0
CLASS
  1
LAYOUT
  2
AcDbLayout
  3
AutoCAD 2000
 90
        0
280
     1
281
     0
  0
CLASS
  1
LONG_TRANSACTION
  2
AcDbLongTransaction
  3
AutoCAD 2000
 90
        0
280
     1
281
     0
  0
CLASS
  1
LWPOLYLINE
  2
AcDbPolyline
  3
"AutoCAD"
 90
        0
280
     0
281
     1
  0
CLASS
  1
HATCH
  2
AcDbHatch
  3
"ACAD_SEDONA"
 90
        0
280
     0
281
     1
  0
CLASS
  1
XRECORD
  2
AcDbXrecord
  3
"<Built In>"
 90
        0
280
     0
281
     0
  0
CLASS
  1
DICTIONARYVAR
  2
AcDbDictionaryVar
  3
"AutoCAD"
 90
        0
280
     0
281
     0
  0
ENDSEC
  0
SECTION
  2
TABLES
  0
TABLE
  2
VPORT
  5
16
100
AcDbSymbolTable
 70
     1
  0
VPORT
  5
291D
100
AcDbSymbolTableRecord
100
AcDbViewportTableRecord
  2
*ACTIVE
 70
     0
 10
0.0
 20
0.0
 11
1.0
 21
1.0
 12
827.779753
 22
2.646412
 13
0.0
 23
0.0
 14
1.0
 24
1.0
 15
10.0
 25
10.0
 16
0.0
 26
0.0
 36
1.0
 17
0.0
 27
0.0
 37
0.0
 40
313.684192
 41
1.710425
 42
50.0
 43
0.0
 44
0.0
 50
0.0
 51
0.0
 71
     0
 72
   100
 73
     1
 74
     1
 75
     0
 76
     0
 77
     0
 78
     2
  0
ENDTAB
  0
TABLE
  2
LTYPE
  5
11
100
AcDbSymbolTable
 70
     2
  0
LTYPE
  5
12
100
AcDbSymbolTableRecord
100
AcDbLinetypeTableRecord
  2
BYBLOCK
 70
     0
  3

 72
    65
 73
     0
 40
0.0
  0
LTYPE
  5
13
100
AcDbSymbolTableRecord
100
AcDbLinetypeTableRecord
  2
BYLAYER
 70
     0
  3

 72
    65
 73
     0
 40
0.0
  0
LTYPE
  5
7
100
AcDbSymbolTableRecord
100
AcDbLinetypeTableRecord
  2
CONTINUOUS
 70
     0
  3
Solid line
 72
    65
 73
     0
 40
0.0
  0
LTYPE
  5
AA
100
AcDbSymbolTableRecord
100
AcDbLinetypeTableRecord
  2
CENTER
 70
     0
  3
Center ____ _ ____ _ ____ _ ____ _ ____ _ ____
 72
    65
 73
     4
 40
2.0
 49
1.25
 74
     0
 49
-0.25
 74
     0
 49
0.25
 74
     0
 49
-0.25
 74
     0
  0
ENDTAB
  0
TABLE
  2
LAYER
  5
E
100
AcDbSymbolTable
 70
     4
  0
LAYER
  5
6
100
AcDbSymbolTableRecord
100
AcDbLayerTableRecord
  2
0
 70
     0
 62
     7
  6
CONTINUOUS
  0
LAYER
  5
2C
100
AcDbSymbolTableRecord
100
AcDbLayerTableRecord
  2
外形
 70
     0
 62
     4
  6
CONTINUOUS
  0
LAYER
  5
37
102
{ACAD_XDICTIONARY
360
38
102
}
100
AcDbSymbolTableRecord
100
AcDbLayerTableRecord
  2
DEFPOINTS
 70
     0
 62
     7
  6
CONTINUOUS
  0
LAYER
  5
1F
100
AcDbSymbolTableRecord
100
AcDbLayerTableRecord
  2
寸法
 70
     0
 62
     1
  6
CONTINUOUS
  0
ENDTAB
  0
TABLE
  2
STYLE
  5
F
100
AcDbSymbolTable
 70
     1
  0
STYLE
  5
10
100
AcDbSymbolTableRecord
100
AcDbTextStyleTableRecord
  2
STANDARD
 70
     0
 40
0.0
 41
1.0
 50
0.0
 71
     0
 42
5.0
  3
MONOTXT
  4
BIGFONT
  0
ENDTAB
  0
TABLE
  2
VIEW
  5
14
100
AcDbSymbolTable
 70
     0
  0
ENDTAB
  0
TABLE
  2
UCS
  5
15
100
AcDbSymbolTable
 70
     0
  0
ENDTAB
  0
TABLE
  2
APPID
  5
18
100
AcDbSymbolTable
 70
     2
  0
APPID
  5
19
100
AcDbSymbolTableRecord
100
AcDbRegAppTableRecord
  2
ACAD
 70
     0
  0
APPID
  5
C59
100
AcDbSymbolTableRecord
100
AcDbRegAppTableRecord
  2
DRAWINGVARIABLESXDATA
 70
     0
  0
ENDTAB
  0
TABLE
  2
DIMSTYLE
  5
1A
100
AcDbSymbolTable
 70
     2
  0
DIMSTYLE
105
21
102
{ACAD_XDICTIONARY
360
22
102
}
102
{ACAD_REACTORS
330
1E90
330
2648
330
1F23
330
2206
330
28E4
330
2907
102
}
100
AcDbSymbolTableRecord
100
AcDbDimStyleTableRecord
  2
STANDARD
 70
     0
  3

  4

  5

  6
_OPEN30
  7
_OPEN30
 40
0.0
 41
2.0
 42
1.0
 43
8.0
 44
2.0
 45
0.0
 46
0.0
 47
0.0
 48
0.0
140
3.0
141
-1.0
142
0.0
143
25.4
144
1.0
145
0.0
146
1.0
147
1.0
 71
     0
 72
     0
 73
     0
 74
     0
 75
     0
 76
     0
 77
     1
 78
     8
170
     0
171
     2
172
     1
173
     1
174
     0
175
     0
176
     1
177
     1
178
     3
270
     2
271
     2
272
     2
273
     2
274
     2
340
10
275
     0
280
     0
281
     0
282
     0
283
     1
284
     8
285
     0
286
     0
287
     3
288
     0
  0
DIMSTYLE
105
674
102
{ACAD_REACTORS
330
1F0B
330
20B7
102
}
100
AcDbSymbolTableRecord
100
AcDbDimStyleTableRecord
  2
参考寸法
 70
     0
  3

  4

  5

  6
_DOTSMALL
  7
_DOTSMALL
 40
1.0
 41
2.0
 42
1.0
 43
8.0
 44
2.0
 45
0.0
 46
0.0
 47
0.0
 48
0.0
140
2.0
141
-1.0
142
0.0
143
25.4
144
1.0
145
0.0
146
1.0
147
1.0
 71
     0
 72
     0
 73
     0
 74
     0
 75
     0
 76
     0
 77
     1
 78
     8
170
     0
171
     2
172
     1
173
     1
174
     0
175
     0
176
     2
177
     2
178
     2
270
     2
271
     3
272
     2
273
     2
274
     2
340
10
275
     0
280
     0
281
     0
282
     0
283
     1
284
     8
285
     0
286
     0
287
     3
288
     0
  0
ENDTAB
  0
TABLE
  2
BLOCK_RECORD
  5
1
100
AcDbSymbolTable
 70
    10
  0
BLOCK_RECORD
  5
2
102
{ACAD_XDICTIONARY
360
3
102
}
100
AcDbSymbolTableRecord
100
AcDbBlockTableRecord
  2
*MODEL_SPACE
  0
BLOCK_RECORD
  5
9
102
{ACAD_XDICTIONARY
360
A
102
}
100
AcDbSymbolTableRecord
100
AcDbBlockTableRecord
  2
*PAPER_SPACE
  0
BLOCK_RECORD
  5
24
100
AcDbSymbolTableRecord
100
AcDbBlockTableRecord
  2
_DOTSMALL
  0
BLOCK_RECORD
  5
470
100
AcDbSymbolTableRecord
100
AcDbBlockTableRecord
  2
_OPEN30
  0
BLOCK_RECORD
  5
1E84
100
AcDbSymbolTableRecord
100
AcDbBlockTableRecord
  2
*D2
  0
BLOCK_RECORD
  5
1EFF
100
AcDbSymbolTableRecord
100
AcDbBlockTableRecord
  2
*D3
  0
BLOCK_RECORD
  5
1F17
100
AcDbSymbolTableRecord
100
AcDbBlockTableRecord
  2
*D4
  0
BLOCK_RECORD
  5
20AB
100
AcDbSymbolTableRecord
100
AcDbBlockTableRecord
  2
*D5
  0
BLOCK_RECORD
  5
21F6
100
AcDbSymbolTableRecord
100
AcDbBlockTableRecord
  2
*D6
  0
BLOCK_RECORD
  5
263E
100
AcDbSymbolTableRecord
100
AcDbBlockTableRecord
  2
*D7
  0
BLOCK_RECORD
  5
28D6
100
AcDbSymbolTableRecord
100
AcDbBlockTableRecord
  2
*D8
  0
BLOCK_RECORD
  5
28F7
100
AcDbSymbolTableRecord
100
AcDbBlockTableRecord
  2
*D9
  0
ENDTAB
  0
ENDSEC
  0
SECTION
  2
BLOCKS
  0
BLOCK
  5
5
100
AcDbEntity
  8
0
100
AcDbBlockBegin
  2
*MODEL_SPACE
 70
     0
 10
0.0
 20
0.0
 30
0.0
  3
*MODEL_SPACE
  1

  0
ENDBLK
  5
8
100
AcDbEntity
  8
0
100
AcDbBlockEnd
  0
BLOCK
  5
C
100
AcDbEntity
 67
     1
  8
0
100
AcDbBlockBegin
  2
*PAPER_SPACE
 70
     0
 10
0.0
 20
0.0
 30
0.0
  3
*PAPER_SPACE
  1

  0
ENDBLK
  5
D
100
AcDbEntity
 67
     1
  8
0
100
AcDbBlockEnd
  0
BLOCK
  5
29
100
AcDbEntity
  8
0
100
AcDbBlockBegin
  2
_DOTSMALL
 70
     0
 10
0.0
 20
0.0
 30
0.0
  3
_DOTSMALL
  1

  0
POLYLINE
  5
25
100
AcDbEntity
  8
0
  6
BYBLOCK
 62
     0
100
AcDb2dPolyline
 66
     1
 10
0.0
 20
0.0
 30
0.0
 70
     1
 40
0.5
 41
0.5
  0
VERTEX
  5
26
100
AcDbEntity
  8
0
  6
BYBLOCK
 62
     0
100
AcDbVertex
100
AcDb2dVertex
 10
-0.0625
 20
0.0
 30
0.0
 42
1.0
  0
VERTEX
  5
27
100
AcDbEntity
  8
0
  6
BYBLOCK
 62
     0
100
AcDbVertex
100
AcDb2dVertex
 10
0.0625
 20
0.0
 30
0.0
 42
1.0
  0
SEQEND
  5
28
100
AcDbEntity
  8
0
  6
BYBLOCK
 62
     0
  0
ENDBLK
  5
2A
100
AcDbEntity
  8
0
100
AcDbBlockEnd
  0
BLOCK
  5
471
100
AcDbEntity
  8
0
100
AcDbBlockBegin
  2
_OPEN30
 70
     0
 10
0.0
 20
0.0
 30
0.0
  3
_OPEN30
  1

  0
LINE
  5
472
100
AcDbEntity
  8
0
  6
BYBLOCK
 62
     0
100
AcDbLine
 10
-1.0
 20
0.267949
 30
0.0
 11
0.0
 21
0.0
 31
0.0
  0
LINE
  5
473
100
AcDbEntity
  8
0
  6
BYBLOCK
 62
     0
100
AcDbLine
 10
0.0
 20
0.0
 30
0.0
 11
-1.0
 21
-0.267949
 31
0.0
  0
LINE
  5
474
100
AcDbEntity
  8
0
  6
BYBLOCK
 62
     0
100
AcDbLine
 10
0.0
 20
0.0
 30
0.0
 11
-1.0
 21
0.0
 31
0.0
  0
ENDBLK
  5
475
100
AcDbEntity
  8
0
100
AcDbBlockEnd
  0
BLOCK
  5
2092
100
AcDbEntity
  8
0
100
AcDbBlockBegin
  2
*D2
 70
     1
 10
0.0
 20
0.0
 30
0.0
  3
*D2
  1

  0
LINE
  5
2093
100
AcDbEntity
  8
0
  6
BYBLOCK
 62
     1
100
AcDbLine
 10
881.075855
 20
36.410137
 30
0.0
 11
881.075855
 21
5.627507
 31
0.0
  0
LINE
  5
2094
100
AcDbEntity
  8
0
  6
BYBLOCK
 62
     1
100
AcDbLine
 10
918.075855
 20
36.410137
 30
0.0
 11
918.075855
 21
5.627507
 31
0.0
  0
LINE
  5
2095
100
AcDbEntity
  8
0
  6
BYBLOCK
 62
     1
100
AcDbLine
 10
883.075855
 20
7.627507
 30
0.0
 11
916.075855
 21
7.627507
 31
0.0
  0
INSERT
  5
2096
100
AcDbEntity
  8
0
  6
BYBLOCK
 62
     1
100
AcDbBlockReference
  2
_OPEN30
 10
881.075855
 20
7.627507
 30
0.0
 41
2.0
 42
2.0
 43
2.0
 50
180.0
  0
INSERT
  5
2097
100
AcDbEntity
  8
0
  6
BYBLOCK
 62
     1
100
AcDbBlockReference
  2
_OPEN30
 10
918.075855
 20
7.627507
 30
0.0
 41
2.0
 42
2.0
 43
2.0
  0
MTEXT
  5
2098
100
AcDbEntity
  8
0
  6
BYBLOCK
 62
     3
100
AcDbMText
 10
899.575855
 20
10.127507
 30
0.0
 40
3.0
 41
0.0
 71
     5
 72
     1
  1
\A1;37
  0
POINT
  5
2099
100
AcDbEntity
  8
DEFPOINTS
  6
BYBLOCK
 62
     0
100
AcDbPoint
 10
881.075855
 20
37.410137
 30
0.0
  0
POINT
  5
209A
100
AcDbEntity
  8
DEFPOINTS
  6
BYBLOCK
 62
     0
100
AcDbPoint
 10
918.075855
 20
37.410137
 30
0.0
  0
POINT
  5
209B
100
AcDbEntity
  8
DEFPOINTS
  6
BYBLOCK
 62
     0
100
AcDbPoint
 10
918.075855
 20
7.627507
 30
0.0
  0
ENDBLK
  5
209C
100
AcDbEntity
  8
0
100
AcDbBlockEnd
  0
BLOCK
  5
207A
100
AcDbEntity
  8
0
100
AcDbBlockBegin
  2
*D3
 70
     1
 10
0.0
 20
0.0
 30
0.0
  3
*D3
  1

  0
LINE
  5
207B
100
AcDbEntity
  8
0
  6
BYBLOCK
 62
     1
100
AcDbLine
 10
693.328764
 20
17.009479
 30
0.0
 11
693.328764
 21
-5.611875
 31
0.0
  0
LINE
  5
207C
100
AcDbEntity
  8
0
  6
BYBLOCK
 62
     1
100
AcDbLine
 10
993.328764
 20
27.509479
 30
0.0
 11
993.328764
 21
-5.611875
 31
0.0
  0
LINE
  5
207D
100
AcDbEntity
  8
0
  6
BYBLOCK
 62
     1
100
AcDbLine
 10
695.328764
 20
-3.611875
 30
0.0
 11
991.328764
 21
-3.611875
 31
0.0
  0
INSERT
  5
207E
100
AcDbEntity
  8
0
  6
BYBLOCK
 62
     1
100
AcDbBlockReference
  2
_OPEN30
 10
693.328764
 20
-3.611875
 30
0.0
 41
2.0
 42
2.0
 43
2.0
 50
180.0
  0
INSERT
  5
207F
100
AcDbEntity
  8
0
  6
BYBLOCK
 62
     1
100
AcDbBlockReference
  2
_OPEN30
 10
993.328764
 20
-3.611875
 30
0.0
 41
2.0
 42
2.0
 43
2.0
  0
MTEXT
  5
2080
100
AcDbEntity
  8
0
  6
BYBLOCK
 62
     3
100
AcDbMText
 10
843.328764
 20
-1.111875
 30
0.0
 40
3.0
 41
0.0
 71
     5
 72
     1
  1
\A1;300
  0
POINT
  5
2081
100
AcDbEntity
  8
DEFPOINTS
  6
BYBLOCK
 62
     0
100
AcDbPoint
 10
693.328764
 20
18.009479
 30
0.0
  0
POINT
  5
2082
100
AcDbEntity
  8
DEFPOINTS
  6
BYBLOCK
 62
     0
100
AcDbPoint
 10
993.328764
 20
28.509479
 30
0.0
  0
POINT
  5
2083
100
AcDbEntity
  8
DEFPOINTS
  6
BYBLOCK
 62
     0
100
AcDbPoint
 10
993.328764
 20
-3.611875
 30
0.0
  0
ENDBLK
  5
2084
100
AcDbEntity
  8
0
100
AcDbBlockEnd
  0
BLOCK
  5
2748
100
AcDbEntity
  8
0
100
AcDbBlockBegin
  2
*D4
 70
     1
 10
0.0
 20
0.0
 30
0.0
  3
*D4
  1

  0
LINE
  5
2749
100
AcDbEntity
  8
0
  6
BYBLOCK
 62
     1
100
AcDbLine
 10
692.328764
 20
18.009479
 30
0.0
 11
675.286054
 21
18.009479
 31
0.0
  0
LINE
  5
274A
100
AcDbEntity
  8
0
  6
BYBLOCK
 62
     1
100
AcDbLine
 10
685.717355
 20
45.009479
 30
0.0
 11
675.286054
 21
45.009479
 31
0.0
  0
LINE
  5
274B
100
AcDbEntity
  8
0
  6
BYBLOCK
 62
     1
100
AcDbLine
 10
677.286054
 20
20.009479
 30
0.0
 11
677.286054
 21
43.009479
 31
0.0
  0
INSERT
  5
274C
100
AcDbEntity
  8
0
  6
BYBLOCK
 62
     1
100
AcDbBlockReference
  2
_OPEN30
 10
677.286054
 20
18.009479
 30
0.0
 41
2.0
 42
2.0
 43
2.0
 50
270.0
  0
INSERT
  5
274D
100
AcDbEntity
  8
0
  6
BYBLOCK
 62
     1
100
AcDbBlockReference
  2
_OPEN30
 10
677.286054
 20
45.009479
 30
0.0
 41
2.0
 42
2.0
 43
2.0
 50
90.0
  0
MTEXT
  5
274E
100
AcDbEntity
  8
0
  6
BYBLOCK
 62
     3
100
AcDbMText
 10
674.786054
 20
31.509479
 30
0.0
 40
3.0
 41
0.0
 71
     5
 72
     1
  1
\A1;27
 11
0.0
 21
1.0
 31
0.0
  0
POINT
  5
274F
100
AcDbEntity
  8
DEFPOINTS
  6
BYBLOCK
 62
     0
100
AcDbPoint
 10
693.328764
 20
18.009479
 30
0.0
  0
POINT
  5
2750
100
AcDbEntity
  8
DEFPOINTS
  6
BYBLOCK
 62
     0
100
AcDbPoint
 10
686.717355
 20
45.009479
 30
0.0
  0
POINT
  5
2751
100
AcDbEntity
  8
DEFPOINTS
  6
BYBLOCK
 62
     0
100
AcDbPoint
 10
677.286054
 20
45.009479
 30
0.0
  0
ENDBLK
  5
2752
100
AcDbEntity
  8
0
100
AcDbBlockEnd
  0
BLOCK
  5
20B8
100
AcDbEntity
  8
0
100
AcDbBlockBegin
  2
*D5
 70
     1
 10
0.0
 20
0.0
 30
0.0
  3
*D5
  1

  0
LINE
  5
20B9
100
AcDbEntity
  8
0
  6
BYBLOCK
 62
     1
100
AcDbLine
 10
693.328764
 20
-38.557561
 30
0.0
 11
693.328764
 21
-69.165377
 31
0.0
  0
LINE
  5
20BA
100
AcDbEntity
  8
0
  6
BYBLOCK
 62
     1
100
AcDbLine
 10
719.328764
 20
-58.057561
 30
0.0
 11
719.328764
 21
-69.165377
 31
0.0
  0
LINE
  5
20BB
100
AcDbEntity
  8
0
  6
BYBLOCK
 62
     1
100
AcDbLine
 10
695.328764
 20
-67.165377
 30
0.0
 11
717.328764
 21
-67.165377
 31
0.0
  0
INSERT
  5
20BC
100
AcDbEntity
  8
0
  6
BYBLOCK
 62
     1
100
AcDbBlockReference
  2
_OPEN30
 10
693.328764
 20
-67.165377
 30
0.0
 41
2.0
 42
2.0
 43
2.0
 50
180.0
  0
INSERT
  5
20BD
100
AcDbEntity
  8
0
  6
BYBLOCK
 62
     1
100
AcDbBlockReference
  2
_OPEN30
 10
719.328764
 20
-67.165377
 30
0.0
 41
2.0
 42
2.0
 43
2.0
  0
MTEXT
  5
20BE
100
AcDbEntity
  8
0
  6
BYBLOCK
 62
     3
100
AcDbMText
 10
706.328764
 20
-64.665377
 30
0.0
 40
3.0
 41
0.0
 71
     5
 72
     1
  1
\A1;26
  0
POINT
  5
20BF
100
AcDbEntity
  8
DEFPOINTS
  6
BYBLOCK
 62
     0
100
AcDbPoint
 10
693.328764
 20
-37.557561
 30
0.0
  0
POINT
  5
20C0
100
AcDbEntity
  8
DEFPOINTS
  6
BYBLOCK
 62
     0
100
AcDbPoint
 10
719.328764
 20
-57.057561
 30
0.0
  0
POINT
  5
20C1
100
AcDbEntity
  8
DEFPOINTS
  6
BYBLOCK
 62
     0
100
AcDbPoint
 10
719.328764
 20
-67.165377
 30
0.0
  0
ENDBLK
  5
20C2
100
AcDbEntity
  8
0
100
AcDbBlockEnd
  0
BLOCK
  5
2207
100
AcDbEntity
  8
0
100
AcDbBlockBegin
  2
*D6
 70
     1
 10
0.0
 20
0.0
 30
0.0
  3
*D6
  1

  0
LINE
  5
2208
100
AcDbEntity
  8
0
  6
BYBLOCK
 62
     1
100
AcDbLine
 10
623.452528
 20
22.024671
 30
0.0
 11
620.014121
 21
2.524498
 31
0.0
  0
LINE
  5
2209
100
AcDbEntity
  8
0
  6
BYBLOCK
 62
     1
100
AcDbLine
 10
623.626176
 20
22.009479
 30
0.0
 11
623.626176
 21
2.208485
 31
0.0
  0
ARC
  5
220A
100
AcDbEntity
  8
0
  6
BYBLOCK
 62
     1
100
AcDbCircle
 10
623.626176
 20
23.009479
 30
0.0
 40
18.800994
100
AcDbArc
 50
247.786945
 51
260.0
  0
LINE
  5
220B
100
AcDbEntity
  8
0
  6
BYBLOCK
 62
     1
100
AcDbLine
 10
616.518427
 20
5.60381
 30
0.0
 11
605.779327
 21
9.989211
 31
0.0
  0
ARC
  5
220C
100
AcDbEntity
  8
0
  6
BYBLOCK
 62
     1
100
AcDbCircle
 10
623.626176
 20
23.009479
 30
0.0
 40
18.800994
100
AcDbArc
 50
247.804298
 51
253.902149
  0
ARC
  5
220D
100
AcDbEntity
  8
0
  6
BYBLOCK
 62
     1
100
AcDbCircle
 10
623.626176
 20
23.009479
 30
0.0
 40
18.800994
100
AcDbArc
 50
276.097851
 51
282.195702
  0
ARC
  5
220E
100
AcDbEntity
  8
0
  6
BYBLOCK
 62
     1
100
AcDbCircle
 10
623.626176
 20
23.009479
 30
0.0
 40
18.800994
100
AcDbArc
 50
260.0
 51
270.0
  0
INSERT
  5
220F
100
AcDbEntity
  8
0
  6
BYBLOCK
 62
     1
100
AcDbBlockReference
  2
_OPEN30
 10
620.361417
 20
4.494114
 30
0.0
 41
2.0
 42
2.0
 43
2.0
 50
346.951075
  0
INSERT
  5
2210
100
AcDbEntity
  8
0
  6
BYBLOCK
 62
     1
100
AcDbBlockReference
  2
_OPEN30
 10
623.626176
 20
4.208485
 30
0.0
 41
2.0
 42
2.0
 43
2.0
 50
183.048925
  0
MTEXT
  5
2211
100
AcDbEntity
  8
0
  6
BYBLOCK
 62
     3
100
AcDbMText
 10
612.094007
 20
10.110972
 30
0.0
 40
3.0
 41
0.0
 71
     5
 72
     1
  1
\A1;10°
 11
0.925784
 21
-0.378052
 31
0.0
  0
POINT
  5
2212
100
AcDbEntity
  8
DEFPOINTS
  6
BYBLOCK
 62
     0
100
AcDbPoint
 10
622.532995
 20
4.240293
 30
0.0
  0
POINT
  5
2213
100
AcDbEntity
  8
DEFPOINTS
  6
BYBLOCK
 62
     0
100
AcDbPoint
 10
623.626176
 20
23.009479
 30
0.0
  0
POINT
  5
2214
100
AcDbEntity
  8
DEFPOINTS
  6
BYBLOCK
 62
     0
100
AcDbPoint
 10
629.001714
 20
53.495673
 30
0.0
  0
POINT
  5
2215
100
AcDbEntity
  8
DEFPOINTS
  6
BYBLOCK
 62
     0
100
AcDbPoint
 10
623.626176
 20
23.009479
 30
0.0
  0
POINT
  5
2216
100
AcDbEntity
  8
DEFPOINTS
  6
BYBLOCK
 62
     0
100
AcDbPoint
 10
623.626176
 20
83.198229
 30
0.0
  0
ENDBLK
  5
2217
100
AcDbEntity
  8
0
100
AcDbBlockEnd
  0
BLOCK
  5
2649
100
AcDbEntity
  8
0
100
AcDbBlockBegin
  2
*D7
 70
     1
 10
0.0
 20
0.0
 30
0.0
  3
*D7
  1

  0
LINE
  5
264A
100
AcDbEntity
  8
0
  6
BYBLOCK
 62
     1
100
AcDbLine
 10
880.27232
 20
74.892609
 30
0.0
 11
887.638544
 21
63.489214
 31
0.0
  0
LINE
  5
264B
100
AcDbEntity
  8
0
  6
BYBLOCK
 62
     1
100
AcDbLine
 10
911.513166
 20
26.529744
 30
0.0
 11
912.598376
 21
24.849768
 31
0.0
  0
MTEXT
  5
264C
100
AcDbEntity
  8
0
  6
BYBLOCK
 62
     3
100
AcDbMText
 10
885.085315
 20
72.049181
 30
0.0
 40
3.0
 41
0.0
 71
     5
 72
     1
  1
\A1;\U+220540
 11
0.542605
 21
-0.839988
 31
0.0
  0
LINE
  5
264D
100
AcDbEntity
  8
0
  6
BYBLOCK
 62
     1
100
AcDbLine
 10
910.427956
 20
28.20972
 30
0.0
 11
888.723754
 21
61.809238
 31
0.0
  0
INSERT
  5
264E
100
AcDbEntity
  8
0
  6
BYBLOCK
 62
     1
100
AcDbBlockReference
  2
_OPEN30
 10
910.427956
 20
28.20972
 30
0.0
 41
2.0
 42
2.0
 43
2.0
 50
122.861152
  0
INSERT
  5
264F
100
AcDbEntity
  8
0
  6
BYBLOCK
 62
     1
100
AcDbBlockReference
  2
_OPEN30
 10
888.723754
 20
61.809238
 30
0.0
 41
2.0
 42
2.0
 43
2.0
 50
302.861152
  0
POINT
  5
2650
100
AcDbEntity
  8
DEFPOINTS
  6
BYBLOCK
 62
     0
100
AcDbPoint
 10
888.723754
 20
61.809238
 30
0.0
  0
POINT
  5
2651
100
AcDbEntity
  8
DEFPOINTS
  6
BYBLOCK
 62
     0
100
AcDbPoint
 10
910.427956
 20
28.20972
 30
0.0
  0
ENDBLK
  5
2652
100
AcDbEntity
  8
0
100
AcDbBlockEnd
  0
BLOCK
  5
28E5
100
AcDbEntity
  8
0
100
AcDbBlockBegin
  2
*D8
 70
     1
 10
0.0
 20
0.0
 30
0.0
  3
*D8
  1

  0
LINE
  5
28E6
100
AcDbEntity
  8
0
  6
BYBLOCK
 62
     1
100
AcDbLine
 10
693.681874
 20
39.046124
 30
0.0
 11
694.1106
 21
63.607821
 31
0.0
  0
LINE
  5
28E7
100
AcDbEntity
  8
0
  6
BYBLOCK
 62
     1
100
AcDbLine
 10
692.314678
 20
18.009479
 30
0.0
 11
647.70939
 21
18.009479
 31
0.0
  0
ARC
  5
28E8
100
AcDbEntity
  8
0
  6
BYBLOCK
 62
     1
100
AcDbCircle
 10
693.314678
 20
18.009479
 30
0.0
 40
43.605288
100
AcDbArc
 50
91.628158
 51
177.371842
  0
INSERT
  5
28E9
100
AcDbEntity
  8
0
  6
BYBLOCK
 62
     1
100
AcDbBlockReference
  2
_OPEN30
 10
694.075695
 20
61.608126
 30
0.0
 41
2.0
 42
2.0
 43
2.0
 50
0.314079
  0
INSERT
  5
28EA
100
AcDbEntity
  8
0
  6
BYBLOCK
 62
     1
100
AcDbBlockReference
  2
_OPEN30
 10
649.70939
 20
18.009479
 30
0.0
 41
2.0
 42
2.0
 43
2.0
 50
268.685921
  0
MTEXT
  5
28EB
100
AcDbEntity
  8
0
  6
BYBLOCK
 62
     3
100
AcDbMText
 10
660.999054
 20
50.894096
 30
0.0
 40
3.0
 41
0.0
 71
     5
 72
     1
  1
\A1;91°
 11
0.71325
 21
0.700909
 31
0.0
  0
POINT
  5
28EC
100
AcDbEntity
  8
DEFPOINTS
  6
BYBLOCK
 62
     0
100
AcDbPoint
 10
671.952896
 20
56.023889
 30
0.0
  0
POINT
  5
28ED
100
AcDbEntity
  8
DEFPOINTS
  6
BYBLOCK
 62
     0
100
AcDbPoint
 10
694.128764
 20
18.009479
 30
0.0
  0
POINT
  5
28EE
100
AcDbEntity
  8
DEFPOINTS
  6
BYBLOCK
 62
     0
100
AcDbPoint
 10
693.664421
 20
38.046276
 30
0.0
  0
POINT
  5
28EF
100
AcDbEntity
  8
DEFPOINTS
  6
BYBLOCK
 62
     0
100
AcDbPoint
 10
693.328886
 20
18.823441
 30
0.0
  0
POINT
  5
28F0
100
AcDbEntity
  8
DEFPOINTS
  6
BYBLOCK
 62
     0
100
AcDbPoint
 10
693.328764
 20
18.009479
 30
0.0
  0
ENDBLK
  5
28F1
100
AcDbEntity
  8
0
100
AcDbBlockEnd
  0
BLOCK
  5
2908
100
AcDbEntity
  8
0
100
AcDbBlockBegin
  2
*D9
 70
     1
 10
0.0
 20
0.0
 30
0.0
  3
*D9
  1

  0
LINE
  5
2909
100
AcDbEntity
  8
0
  6
BYBLOCK
 62
     1
100
AcDbLine
 10
685.717355
 20
-37.557561
 30
0.0
 11
675.844064
 21
-37.557561
 31
0.0
  0
LINE
  5
290A
100
AcDbEntity
  8
0
  6
BYBLOCK
 62
     1
100
AcDbLine
 10
692.334242
 20
-37.662089
 30
0.0
 11
675.939847
 21
-39.38521
 31
0.0
  0
ARC
  5
290B
100
AcDbEntity
  8
0
  6
BYBLOCK
 62
     1
100
AcDbCircle
 10
693.328764
 20
-37.557561
 30
0.0
 40
15.4847
100
AcDbArc
 50
165.15792
 51
180.0
  0
LINE
  5
290C
100
AcDbEntity
  8
0
  6
BYBLOCK
 62
     1
100
AcDbLine
 10
678.360703
 20
-33.591066
 30
0.0
 11
680.563642
 21
-25.278
 31
0.0
  0
ARC
  5
290D
100
AcDbEntity
  8
0
  6
BYBLOCK
 62
     1
100
AcDbCircle
 10
693.328764
 20
-37.557561
 30
0.0
 40
15.4847
100
AcDbArc
 50
165.189076
 51
172.594538
  0
ARC
  5
290E
100
AcDbEntity
  8
0
  6
BYBLOCK
 62
     1
100
AcDbCircle
 10
693.328764
 20
-37.557561
 30
0.0
 40
15.4847
100
AcDbArc
 50
193.405462
 51
200.810924
  0
ARC
  5
290F
100
AcDbEntity
  8
0
  6
BYBLOCK
 62
     1
100
AcDbCircle
 10
693.328764
 20
-37.557561
 30
0.0
 40
15.4847
100
AcDbArc
 50
180.0
 51
186.0
  0
INSERT
  5
2910
100
AcDbEntity
  8
0
  6
BYBLOCK
 62
     1
100
AcDbBlockReference
  2
_OPEN30
 10
677.844064
 20
-37.557561
 30
0.0
 41
2.0
 42
2.0
 43
2.0
 50
266.297269
  0
INSERT
  5
2911
100
AcDbEntity
  8
0
  6
BYBLOCK
 62
     1
100
AcDbBlockReference
  2
_OPEN30
 10
677.92889
 20
-39.176153
 30
0.0
 41
2.0
 42
2.0
 43
2.0
 50
99.702731
  0
MTEXT
  5
2912
100
AcDbEntity
  8
0
  6
BYBLOCK
 62
     3
100
AcDbMText
 10
681.878761
 20
-30.074922
 30
0.0
 40
3.0
 41
0.0
 71
     5
 72
     1
  1
\A1;6°
 11
-0.256156
 21
-0.966636
 31
0.0
  0
POINT
  5
2913
100
AcDbEntity
  8
DEFPOINTS
  6
BYBLOCK
 62
     0
100
AcDbPoint
 10
677.881784
 20
-38.637719
 30
0.0
  0
POINT
  5
2914
100
AcDbEntity
  8
DEFPOINTS
  6
BYBLOCK
 62
     0
100
AcDbPoint
 10
1002.794845
 20
-37.557561
 30
0.0
  0
POINT
  5
2915
100
AcDbEntity
  8
DEFPOINTS
  6
BYBLOCK
 62
     0
100
AcDbPoint
 10
693.328764
 20
-37.557561
 30
0.0
  0
POINT
  5
2916
100
AcDbEntity
  8
DEFPOINTS
  6
BYBLOCK
 62
     0
100
AcDbPoint
 10
715.098248
 20
-35.269496
 30
0.0
  0
POINT
  5
2917
100
AcDbEntity
  8
DEFPOINTS
  6
BYBLOCK
 62
     0
100
AcDbPoint
 10
686.717355
 20
-37.557561
 30
0.0
  0
ENDBLK
  5
2918
100
AcDbEntity
  8
0
100
AcDbBlockEnd
  0
ENDSEC
  0
SECTION
  2
ENTITIES
  0
CIRCLE
  5
1B96
100
AcDbEntity
  8
外形
  6
CONTINUOUS
100
AcDbCircle
 10
699.845686
 20
28.324036
 30
0.0
 40
3.45
  0
CIRCLE
  5
1B97
100
AcDbEntity
  8
外形
  6
CONTINUOUS
100
AcDbCircle
 10
699.845686
 20
28.324036
 30
0.0
 40
2.58
  0
LINE
  5
1B98
100
AcDbEntity
  8
外形
  6
CONTINUOUS
100
AcDbLine
 10
712.543752
 20
28.10239
 30
0.0
 11
694.87633
 21
38.718048
 31
0.0
  0
LINE
  5
1B99
100
AcDbEntity
  8
外形
  6
CONTINUOUS
100
AcDbLine
 10
693.664421
 20
38.046276
 30
0.0
 11
693.328886
 21
18.823441
 31
0.0
  0
LINE
  5
1B9A
100
AcDbEntity
  8
外形
  6
CONTINUOUS
100
AcDbLine
 10
694.516611
 20
18.109783
 30
0.0
 11
712.543752
 21
28.10239
 31
0.0
  0
ARC
  5
1B9B
100
AcDbEntity
  8
外形
  6
CONTINUOUS
100
AcDbCircle
 10
694.128764
 20
18.809479
 30
0.0
 40
0.8
100
AcDbArc
 50
179.0
 51
299.0
  0
ARC
  5
1B9C
100
AcDbEntity
  8
外形
  6
CONTINUOUS
100
AcDbCircle
 10
710.943996
 20
28.130314
 30
0.0
 40
0.8
100
AcDbArc
 50
299.0
 51
59.0
  0
ARC
  5
1B9D
100
AcDbEntity
  8
外形
  6
CONTINUOUS
100
AcDbCircle
 10
694.4643
 20
38.032314
 30
0.0
 40
0.8
100
AcDbArc
 50
59.0
 51
179.0
  0
TEXT
  5
1BA1
100
AcDbEntity
  8
外形
  6
CONTINUOUS
 62
     2
100
AcDbText
 10
807.42989
 20
-83.845764
 30
0.0
 40
6.0
  1
S40TPTFNR22
100
AcDbText
  0
LINE
  5
1BA6
102
{ACAD_REACTORS
330
23D6
102
}
100
AcDbEntity
  8
外形
  6
CENTER
 62
     1
100
AcDbLine
 10
1002.794845
 20
45.009479
 30
0.0
 11
686.717355
 21
45.009479
 31
0.0
  0
LINE
  5
1BA7
100
AcDbEntity
  8
外形
  6
CENTER
 62
     1
100
AcDbLine
 10
1002.794845
 20
-37.557561
 30
0.0
 11
686.717355
 21
-37.557561
 31
0.0
  0
LINE
  5
1BA9
100
AcDbEntity
  8
外形
  6
CONTINUOUS
100
AcDbLine
 10
991.328764
 20
-56.057561
 30
0.0
 11
719.328764
 21
-56.057561
 31
0.0
  0
LINE
  5
1BAA
100
AcDbEntity
  8
外形
  6
CONTINUOUS
100
AcDbLine
 10
991.328764
 20
-45.156903
 30
0.0
 11
758.578764
 21
-45.156903
 31
0.0
  0
LINE
  5
1BAB
100
AcDbEntity
  8
外形
  6
CONTINUOUS
100
AcDbLine
 10
991.328764
 20
-29.958219
 30
0.0
 11
758.578764
 21
-29.958219
 31
0.0
  0
TEXT
  5
1BB0
100
AcDbEntity
  8
寸法
  6
CONTINUOUS
 62
     3
100
AcDbText
 10
661.409545
 20
83.165821
 30
0.0
 40
3.0
  1
54最小加工径
100
AcDbText
  0
LWPOLYLINE
  5
1BB3
100
AcDbEntity
  8
寸法
100
AcDbPolyline
 90
        3
 70
     0
 43
0.0
 10
635.999573
 20
68.614099
 10
655.522102
 20
81.729349
 10
684.522102
 20
81.729349
1001
ACAD
1000
DSTYLE
1002
{
1070
    40
1040
1.0
1002
}
  0
LINE
  5
1BB5
100
AcDbEntity
  8
外形
  6
CONTINUOUS
100
AcDbLine
 10
630.150274
 20
55.009479
 30
0.0
 11
623.626176
 21
18.009479
 31
0.0
  0
LINE
  5
1BBD
100
AcDbEntity
  8
外形
  6
CENTER
 62
     1
100
AcDbLine
 10
656.404196
 20
45.009479
 30
0.0
 11
589.757684
 21
45.009479
 31
0.0
  0
LINE
  5
1BC9
100
AcDbEntity
  8
外形
  6
CONTINUOUS
100
AcDbLine
 10
615.806802
 20
19.388245
 30
0.0
 11
623.626176
 21
18.009479
 31
0.0
  0
LINE
  5
1BCA
100
AcDbEntity
  8
外形
  6
CONTINUOUS
100
AcDbLine
 10
622.715807
 20
40.258271
 30
0.0
 11
618.938491
 21
18.836044
 31
0.0
  0
LINE
  5
1BCE
100
AcDbEntity
  8
外形
  6
CONTINUOUS
100
AcDbLine
 10
619.584119
 20
40.810472
 30
0.0
 11
627.403492
 21
39.431706
 31
0.0
  0
LINE
  5
1BD2
100
AcDbEntity
  8
外形
  6
CONTINUOUS
100
AcDbLine
 10
630.150274
 20
55.009479
 30
0.0
 11
634.463563
 21
61.818733
 31
0.0
  0
TEXT
  5
1BD9
100
AcDbEntity
  8
寸法
  6
CONTINUOUS
 62
     3
100
AcDbText
 10
658.270986
 20
82.729349
 30
0.0
 40
3.0
  1
\U+2205
100
AcDbText
  0
LINE
  5
1BDF
100
AcDbEntity
  8
外形
  6
CONTINUOUS
100
AcDbLine
 10
700.635796
 20
-44.773296
 30
0.0
 11
702.299207
 21
-46.371451
 31
0.0
  0
LINE
  5
1BE0
100
AcDbEntity
  8
外形
  6
CONTINUOUS
100
AcDbLine
 10
695.722494
 20
-60.057561
 30
0.0
 11
694.187289
 21
-45.451062
 31
0.0
  0
LINE
  5
1BE1
100
AcDbEntity
  8
外形
  6
CONTINUOUS
100
AcDbLine
 10
701.335113
 20
-37.198704
 30
0.0
 11
702.299207
 21
-46.371451
 31
0.0
  0
LINE
  5
1BEB
100
AcDbEntity
  8
外形
  6
CONTINUOUS
100
AcDbLine
 10
718.328764
 20
-57.057561
 30
0.0
 11
716.596713
 21
-60.057561
 31
0.0
  0
LINE
  5
1BF2
100
AcDbEntity
  8
外形
  6
CONTINUOUS
100
AcDbLine
 10
758.328764
 20
64.759479
 30
0.0
 11
758.328764
 21
51.924137
 31
0.0
  0
LINE
  5
1BF3
100
AcDbEntity
  8
外形
  6
CONTINUOUS
100
AcDbLine
 10
758.578764
 20
65.009479
 30
0.0
 11
758.578764
 21
52.608821
 31
0.0
  0
LINE
  5
1BF4
100
AcDbEntity
  8
外形
  6
CONTINUOUS
100
AcDbLine
 10
743.377891
 20
38.997289
 30
0.0
 11
742.917779
 21
50.306544
 31
0.0
  0
SPLINE
  5
1BFB
100
AcDbEntity
  8
外形
  6
CONTINUOUS
100
AcDbSpline
210
0.0
220
0.0
230
1.0
 70
     8
 71
     3
 72
    14
 73
    10
 74
     8
 42
0.0000001
 43
0.0000001
 44
0.0000000001
 40
0.0
 40
0.0
 40
0.0
 40
0.0
 40
2.296319330445129
 40
5.367861763134349
 40
21.2978113534748
 40
24.65055118693761
 40
33.62435242556557
 40
39.42813862470349
 40
48.79183204370431
 40
48.79183204370431
 40
48.79183204370431
 40
48.79183204370431
 10
740.9659426675132
 20
-19.05756070339953
 30
0.0
 10
740.4412327609732
 20
-19.62745025388763
 30
0.0
 10
739.2146741518501
 20
-20.95962051728121
 30
0.0
 10
732.4498000974998
 20
-23.53992753562921
 30
0.0
 10
725.3821211440005
 20
-25.73734649096968
 30
0.0
 10
716.0441462438495
 20
-27.16661980591383
 30
0.0
 10
709.8983808756993
 20
-26.21838535403539
 30
0.0
 10
702.1450042241033
 20
-28.70616074565275
 30
0.0
 10
697.1562659207982
 20
-29.50520741442688
 30
0.0
 10
694.0764519242849
 20
-29.99850150297982
 30
0.0
 11
740.9659426675132
 21
-19.05756070339953
 31
0.0
 11
739.3042547839614
 21
-20.64245055604965
 31
0.0
 11
736.5347736628038
 21
-21.97073788767693
 31
0.0
 11
721.2173684898163
 21
-26.34571134100486
 31
0.0
 11
717.8939927226084
 21
-26.78847301597682
 31
0.0
 11
708.9208742056936
 21
-26.8991651647533
 31
0.0
 11
703.2711314559848
 21
-28.22745018966941
 31
0.0
 11
694.0764519242849
 21
-29.99850150297982
 31
0.0
  0
SPLINE
  5
1BFC
100
AcDbEntity
  8
外形
  6
CONTINUOUS
100
AcDbSpline
210
0.0
220
0.0
230
1.0
 70
     8
 71
     3
 72
     9
 73
     5
 74
     0
 42
0.0000001
 43
0.0000001
 40
3.129585732472143
 40
3.129585732472143
 40
3.129585732472143
 40
3.129585732472143
 40
7.755333414506441
 40
7.968128628701145
 40
7.968128628701145
 40
7.968128628701145
 40
7.968128628701145
 10
718.3287637787168
 20
-33.46275622659988
 30
0.0
 10
720.321584504377
 20
-33.11251428476932
 30
0.0
 10
726.6747526478297
 20
-32.37244349747152
 30
0.0
 10
737.7892327747092
 20
-30.66367335602364
 30
0.0
 10
737.8566102662443
 20
-30.6429023604293
 30
0.0
  0
LINE
  5
1BFE
100
AcDbEntity
  8
外形
  6
CONTINUOUS
100
AcDbLine
 10
712.543752
 20
-33.737996
 30
0.0
 11
693.328764
 21
-37.557561
 31
0.0
  0
LINE
  5
1BFF
100
AcDbEntity
  8
外形
  6
CONTINUOUS
100
AcDbLine
 10
693.328764
 20
-33.737996
 30
0.0
 11
712.543752
 21
-33.737996
 31
0.0
  0
LINE
  5
1C00
100
AcDbEntity
  8
外形
  6
CONTINUOUS
100
AcDbLine
 10
693.328764
 20
-37.557561
 30
0.0
 11
715.098248
 21
-35.269496
 31
0.0
  0
LINE
  5
1C0B
100
AcDbEntity
  8
外形
  6
CONTINUOUS
100
AcDbLine
 10
693.826319
 20
-42.291485
 30
0.0
 11
701.782494
 21
-41.455257
 31
0.0
  0
LINE
  5
1C0C
100
AcDbEntity
  8
外形
  6
CONTINUOUS
100
AcDbLine
 10
694.076452
 20
-29.998502
 30
0.0
 11
694.076452
 21
-33.737996
 31
0.0
  0
LINE
  5
1C0D
100
AcDbEntity
  8
外形
  6
CONTINUOUS
100
AcDbLine
 10
693.328764
 20
-34.855453
 30
0.0
 11
693.328764
 21
-37.557561
 31
0.0
  0
LINE
  5
1C0E
100
AcDbEntity
  8
外形
  6
CONTINUOUS
100
AcDbLine
 10
693.328764
 20
-37.557561
 30
0.0
 11
693.328764
 21
-33.737996
 31
0.0
  0
LINE
  5
1C0F
100
AcDbEntity
  8
外形
  6
CONTINUOUS
100
AcDbLine
 10
693.845215
 20
-42.289499
 30
0.0
 11
694.177616
 21
-45.452079
 31
0.0
  0
LINE
  5
1C10
100
AcDbEntity
  8
外形
  6
CONTINUOUS
100
AcDbLine
 10
693.328764
 20
-37.557561
 30
0.0
 11
693.826319
 21
-42.291485
 31
0.0
  0
LINE
  5
1C14
100
AcDbEntity
  8
外形
  6
CONTINUOUS
100
AcDbLine
 10
715.098248
 20
-35.269496
 30
0.0
 11
718.328764
 21
-33.462756
 31
0.0
  0
LINE
  5
1C15
100
AcDbEntity
  8
外形
  6
CONTINUOUS
100
AcDbLine
 10
715.348616
 20
-30.941626
 30
0.0
 11
712.543752
 21
-32.527153
 31
0.0
  0
ELLIPSE
  5
1C16
100
AcDbEntity
  8
外形
  6
CONTINUOUS
100
AcDbEllipse
 10
712.51856
 20
-31.449353
 30
0.0
 11
-3.0
 21
0.0
 31
0.0
210
0.0
220
0.0
230
1.0
 40
0.510083
 41
0.0
 42
6.283185307179586
  0
LINE
  5
1C17
100
AcDbEntity
  8
外形
  6
CONTINUOUS
100
AcDbLine
 10
710.917313
 20
-30.155311
 30
0.0
 11
712.543752
 21
-32.527153
 31
0.0
  0
LINE
  5
1C18
100
AcDbEntity
  8
外形
  6
CONTINUOUS
100
AcDbLine
 10
712.543752
 20
-32.527153
 30
0.0
 11
713.207362
 21
-29.959986
 31
0.0
  0
LINE
  5
1C19
100
AcDbEntity
  8
外形
  6
CONTINUOUS
100
AcDbLine
 10
709.531227
 20
-31.589825
 30
0.0
 11
712.543752
 21
-32.527153
 31
0.0
  0
LINE
  5
1C48
100
AcDbEntity
  8
外形
  6
CONTINUOUS
100
AcDbLine
 10
758.328764
 20
-30.642902
 30
0.0
 11
758.578764
 21
-30.392902
 31
0.0
  0
LINE
  5
1C49
100
AcDbEntity
  8
外形
  6
CONTINUOUS
100
AcDbLine
 10
758.328764
 20
-44.472219
 30
0.0
 11
758.578764
 21
-44.722219
 31
0.0
  0
LINE
  5
1C4E
100
AcDbEntity
  8
外形
  6
CONTINUOUS
100
AcDbLine
 10
711.148011
 20
64.759479
 30
0.0
 11
694.260515
 21
55.009479
 31
0.0
  0
LINE
  5
1C52
100
AcDbEntity
  8
外形
  6
CONTINUOUS
100
AcDbLine
 10
758.578764
 20
65.009479
 30
0.0
 11
758.328764
 21
64.759479
 31
0.0
  0
LINE
  5
1C5A
102
{ACAD_REACTORS
330
23D6
102
}
100
AcDbEntity
  8
外形
  6
CENTER
 62
     1
100
AcDbLine
 10
899.575855
 20
65.767322
 30
0.0
 11
899.575855
 21
25.468229
 31
0.0
  0
LINE
  5
1C97
100
AcDbEntity
  8
外形
  6
CONTINUOUS
100
AcDbLine
 10
991.328764
 20
-45.156903
 30
0.0
 11
991.328764
 21
-56.057561
 31
0.0
  0
LINE
  5
1C98
100
AcDbEntity
  8
外形
  6
CONTINUOUS
100
AcDbLine
 10
993.328764
 20
-21.057561
 30
0.0
 11
993.328764
 21
-54.057561
 31
0.0
  0
LINE
  5
1C99
100
AcDbEntity
  8
外形
  6
CONTINUOUS
100
AcDbLine
 10
993.328764
 20
-54.057561
 30
0.0
 11
991.328764
 21
-56.057561
 31
0.0
  0
LINE
  5
1C9A
100
AcDbEntity
  8
外形
  6
CONTINUOUS
100
AcDbLine
 10
993.328764
 20
63.009479
 30
0.0
 11
993.328764
 21
28.509479
 31
0.0
  0
LINE
  5
1C9D
100
AcDbEntity
  8
外形
  6
CONTINUOUS
100
AcDbLine
 10
991.328764
 20
-19.057561
 30
0.0
 11
993.328764
 21
-21.057561
 31
0.0
  0
LINE
  5
1C9E
100
AcDbEntity
  8
外形
  6
CONTINUOUS
100
AcDbLine
 10
991.328764
 20
-19.057561
 30
0.0
 11
991.328764
 21
-29.958219
 31
0.0
  0
LINE
  5
1CA3
100
AcDbEntity
  8
外形
  6
CONTINUOUS
100
AcDbLine
 10
991.328764
 20
37.410137
 30
0.0
 11
991.328764
 21
26.509479
 31
0.0
  0
LINE
  5
1CA4
100
AcDbEntity
  8
外形
  6
CONTINUOUS
100
AcDbLine
 10
993.328764
 20
28.509479
 30
0.0
 11
991.328764
 21
26.509479
 31
0.0
  0
LINE
  5
1CA6
100
AcDbEntity
  8
外形
  6
CONTINUOUS
100
AcDbLine
 10
991.328764
 20
65.009479
 30
0.0
 11
993.328764
 21
63.009479
 31
0.0
  0
LINE
  5
1CA7
100
AcDbEntity
  8
外形
  6
CONTINUOUS
100
AcDbLine
 10
991.328764
 20
65.009479
 30
0.0
 11
991.328764
 21
52.608821
 31
0.0
  0
LINE
  5
1D74
100
AcDbEntity
  8
外形
  6
CONTINUOUS
 62
     1
100
AcDbLine
 10
694.128764
 20
18.009479
 30
0.0
 11
693.328764
 21
18.009479
 31
0.0
  0
LINE
  5
1D76
100
AcDbEntity
  8
外形
  6
CONTINUOUS
 62
     1
100
AcDbLine
 10
693.328764
 20
18.809479
 30
0.0
 11
693.328764
 21
18.009479
 31
0.0
  0
CIRCLE
  5
1D8F
100
AcDbEntity
  8
外形
  6
CONTINUOUS
100
AcDbCircle
 10
710.245686
 20
36.74579
 30
0.0
 40
4.0
  0
LINE
  5
1D90
100
AcDbEntity
  8
外形
  6
CONTINUOUS
100
AcDbLine
 10
708.745689
 20
37.611803
 30
0.0
 11
708.745689
 21
35.879753
 31
0.0
  0
LINE
  5
1D91
100
AcDbEntity
  8
外形
  6
CONTINUOUS
100
AcDbLine
 10
711.745688
 20
35.879753
 30
0.0
 11
711.745688
 21
37.611803
 31
0.0
  0
LINE
  5
1D92
100
AcDbEntity
  8
外形
  6
CONTINUOUS
100
AcDbLine
 10
708.745689
 20
35.879753
 30
0.0
 11
710.245688
 21
35.013728
 31
0.0
  0
LINE
  5
1D93
100
AcDbEntity
  8
外形
  6
CONTINUOUS
100
AcDbLine
 10
710.245688
 20
35.013728
 30
0.0
 11
711.745688
 21
35.879753
 31
0.0
  0
LINE
  5
1D94
100
AcDbEntity
  8
外形
  6
CONTINUOUS
100
AcDbLine
 10
710.245688
 20
38.477828
 30
0.0
 11
708.745689
 21
37.611803
 31
0.0
  0
LINE
  5
1D95
100
AcDbEntity
  8
外形
  6
CONTINUOUS
100
AcDbLine
 10
711.745688
 20
37.611803
 30
0.0
 11
710.245688
 21
38.477828
 31
0.0
  0
ARC
  5
1DB1
100
AcDbEntity
  8
外形
  6
CONTINUOUS
100
AcDbCircle
 10
710.245686
 20
28.624036
 30
0.0
 40
2.5
100
AcDbArc
 50
247.913495
 51
131.867554
  0
ARC
  5
1E81
102
{ACAD_REACTORS
330
23D6
102
}
100
AcDbEntity
  8
外形
  6
CONTINUOUS
100
AcDbCircle
 10
899.575855
 20
45.009479
 30
0.0
 40
20.0
100
AcDbArc
 50
292.331645
 51
337.668355
  0
LINE
  5
1E82
102
{ACAD_REACTORS
330
23D6
102
}
100
AcDbEntity
  8
外形
  6
CONTINUOUS
100
AcDbLine
 10
881.075855
 20
52.608821
 30
0.0
 11
881.075855
 21
37.410137
 31
0.0
  0
LINE
  5
1E83
102
{ACAD_REACTORS
330
23D6
102
}
100
AcDbEntity
  8
外形
  6
CONTINUOUS
100
AcDbLine
 10
918.075855
 20
52.608821
 30
0.0
 11
918.075855
 21
37.410137
 31
0.0
  0
DIMENSION
  5
1E90
100
AcDbEntity
  8
寸法
100
AcDbDimension
  2
*D2
 10
918.075855
 20
7.627507
 30
0.0
 11
899.575855
 21
10.127507
 31
0.0
 70
    32
  3
STANDARD
100
AcDbAlignedDimension
 13
881.075855
 23
37.410137
 33
0.0
 14
918.075855
 24
37.410137
 34
0.0
100
AcDbRotatedDimension
  0
LINE
  5
1EB2
100
AcDbEntity
  8
外形
  6
CONTINUOUS
100
AcDbLine
 10
731.38781
 20
26.509479
 30
0.0
 11
719.328764
 21
26.509479
 31
0.0
  0
LINE
  5
1EBF
100
AcDbEntity
  8
外形
  6
CONTINUOUS
100
AcDbLine
 10
758.578764
 20
65.009479
 30
0.0
 11
878.925855
 21
65.009479
 31
0.0
  0
LINE
  5
1EC1
100
AcDbEntity
  8
外形
  6
CONTINUOUS
100
AcDbLine
 10
758.328764
 20
51.924137
 30
0.0
 11
742.741558
 21
51.924137
 31
0.0
  0
LINE
  5
1EC2
100
AcDbEntity
  8
外形
  6
CONTINUOUS
100
AcDbLine
 10
758.328764
 20
38.09482
 30
0.0
 11
743.328764
 21
38.09482
 31
0.0
  0
LINE
  5
1EC3
100
AcDbEntity
  8
外形
  6
CONTINUOUS
100
AcDbLine
 10
758.328764
 20
52.608821
 30
0.0
 11
878.925855
 21
52.608821
 31
0.0
  0
LINE
  5
1EC4
100
AcDbEntity
  8
外形
  6
CONTINUOUS
100
AcDbLine
 10
758.328764
 20
37.410137
 30
0.0
 11
878.925855
 21
37.410137
 31
0.0
  0
LINE
  5
1EC6
100
AcDbEntity
  8
外形
  6
CONTINUOUS
100
AcDbLine
 10
758.328764
 20
64.759479
 30
0.0
 11
758.328764
 21
51.924137
 31
0.0
  0
LINE
  5
1EC7
100
AcDbEntity
  8
外形
  6
CONTINUOUS
100
AcDbLine
 10
758.328764
 20
64.759479
 30
0.0
 11
711.148011
 21
64.759479
 31
0.0
  0
LINE
  5
1ECA
100
AcDbEntity
  8
外形
  6
CONTINUOUS
100
AcDbLine
 10
758.578764
 20
37.410137
 30
0.0
 11
758.578764
 21
26.509479
 31
0.0
  0
LINE
  5
1ECB
100
AcDbEntity
  8
外形
  6
CONTINUOUS
100
AcDbLine
 10
758.328764
 20
38.09482
 30
0.0
 11
758.328764
 21
26.509479
 31
0.0
  0
LINE
  5
1ECC
100
AcDbEntity
  8
外形
  6
CONTINUOUS
100
AcDbLine
 10
758.328764
 20
38.09482
 30
0.0
 11
758.328764
 21
34.009479
 31
0.0
  0
DIMENSION
  5
1F0B
100
AcDbEntity
  8
寸法
100
AcDbDimension
  2
*D3
 10
993.328764
 20
-3.611875
 30
0.0
 11
843.328764
 21
-1.111875
 31
0.0
 70
    32
  3
STANDARD
100
AcDbAlignedDimension
 13
693.328764
 23
18.009479
 33
0.0
 14
993.328764
 24
28.509479
 34
0.0
100
AcDbRotatedDimension
  0
DIMENSION
  5
1F23
100
AcDbEntity
  8
寸法
100
AcDbDimension
  2
*D4
 10
677.286054
 20
45.009479
 30
0.0
 11
674.786054
 21
31.509479
 31
0.0
 70
    32
  3
STANDARD
100
AcDbAlignedDimension
 13
693.328764
 23
18.009479
 33
0.0
 14
686.717355
 24
45.009479
 34
0.0
 50
90.0
100
AcDbRotatedDimension
  0
ARC
  5
1F48
100
AcDbEntity
  8
外形
  6
CONTINUOUS
100
AcDbCircle
 10
972.828764
 20
45.009479
 30
0.0
 40
20.0
100
AcDbArc
 50
337.668355
 51
22.331645
  0
ARC
  5
1F49
102
{ACAD_REACTORS
330
23D6
102
}
100
AcDbEntity
  8
外形
  6
CONTINUOUS
100
AcDbCircle
 10
899.575855
 20
45.009479
 30
0.0
 40
20.0
100
AcDbArc
 50
202.331645
 51
247.668355
  0
ARC
  5
1F4B
102
{ACAD_REACTORS
330
23D6
102
}
100
AcDbEntity
  8
外形
  6
CONTINUOUS
100
AcDbCircle
 10
899.575855
 20
45.009479
 30
0.0
 40
20.0
100
AcDbArc
 50
22.331645
 51
157.668355
  0
LINE
  5
1F55
100
AcDbEntity
  8
外形
  6
CONTINUOUS
100
AcDbLine
 10
740.965943
 20
-19.057561
 30
0.0
 11
991.328764
 21
-19.057561
 31
0.0
  0
ARC
  5
1F9C
100
AcDbEntity
  8
外形
  6
CONTINUOUS
100
AcDbCircle
 10
972.828764
 20
-37.557561
 30
0.0
 40
20.0
100
AcDbArc
 50
337.668355
 51
22.331645
  0
LINE
  5
1F9E
100
AcDbEntity
  8
外形
  6
CONTINUOUS
100
AcDbLine
 10
758.328764
 20
-30.642902
 30
0.0
 11
737.85661
 21
-30.642902
 31
0.0
  0
LINE
  5
1F9F
100
AcDbEntity
  8
外形
  6
CONTINUOUS
100
AcDbLine
 10
758.328764
 20
-44.472219
 30
0.0
 11
719.328764
 21
-44.472219
 31
0.0
  0
LINE
  5
1FA2
100
AcDbEntity
  8
外形
  6
CONTINUOUS
100
AcDbLine
 10
758.578764
 20
-19.057561
 30
0.0
 11
758.578764
 21
-30.392902
 31
0.0
  0
LINE
  5
1FA3
100
AcDbEntity
  8
外形
  6
CONTINUOUS
100
AcDbLine
 10
758.578764
 20
-44.722219
 30
0.0
 11
758.578764
 21
-56.057561
 31
0.0
  0
LINE
  5
1FA4
100
AcDbEntity
  8
外形
  6
CONTINUOUS
100
AcDbLine
 10
758.328764
 20
-44.472219
 30
0.0
 11
758.328764
 21
-56.057561
 31
0.0
  0
LINE
  5
1FA5
100
AcDbEntity
  8
外形
  6
CONTINUOUS
100
AcDbLine
 10
758.328764
 20
-19.057561
 30
0.0
 11
758.328764
 21
-30.642902
 31
0.0
  0
LINE
  5
1FB8
100
AcDbEntity
  8
外形
  6
CONTINUOUS
100
AcDbLine
 10
694.260515
 20
55.009479
 30
0.0
 11
693.975228
 21
38.66541
 31
0.0
  0
LINE
  5
1FB9
100
AcDbEntity
  8
外形
  6
CONTINUOUS
100
AcDbLine
 10
702.052531
 20
18.772709
 30
0.0
 11
715.098248
 21
19.914062
 31
0.0
  0
LINE
  5
1FCA
100
AcDbEntity
  8
外形
  6
CONTINUOUS
100
AcDbLine
 10
719.328764
 20
25.509479
 30
0.0
 11
719.328764
 21
25.509479
 31
0.0
  0
LINE
  5
1FDC
100
AcDbEntity
  8
外形
  6
CONTINUOUS
100
AcDbLine
 10
719.328764
 20
25.509479
 30
0.0
 11
718.906114
 21
25.509479
 31
0.0
  0
LINE
  5
1FED
100
AcDbEntity
  8
外形
  6
CONTINUOUS
100
AcDbLine
 10
701.284939
 20
-36.721333
 30
0.0
 11
701.782494
 21
-41.455257
 31
0.0
  0
LINE
  5
1FEE
100
AcDbEntity
  8
外形
  6
CONTINUOUS
100
AcDbLine
 10
701.80139
 20
-41.453271
 30
0.0
 11
702.083617
 21
-44.13848
 31
0.0
  0
LINE
  5
2009
100
AcDbEntity
  8
外形
  6
CONTINUOUS
100
AcDbLine
 10
700.562382
 20
21.461008
 30
0.0
 11
702.052531
 21
18.772709
 31
0.0
  0
LINE
  5
201A
100
AcDbEntity
  8
外形
  6
CONTINUOUS
100
AcDbLine
 10
716.596713
 20
-60.057561
 30
0.0
 11
695.722494
 21
-60.057561
 31
0.0
  0
LINE
  5
202A
100
AcDbEntity
  8
外形
  6
CONTINUOUS
100
AcDbLine
 10
694.177616
 20
-45.452079
 30
0.0
 11
702.114895
 21
-44.617837
 31
0.0
  0
ARC
  5
204B
100
AcDbEntity
  8
外形
  6
CONTINUOUS
100
AcDbCircle
 10
728.328764
 20
-19.057561
 30
0.0
 40
15.0
100
AcDbArc
 50
309.43406
 51
0.0
  0
LINE
  5
204D
100
AcDbEntity
  8
外形
  6
CONTINUOUS
100
AcDbLine
 10
712.543752
 20
-32.527153
 30
0.0
 11
712.660268
 21
-32.977893
 31
0.0
  0
LINE
  5
204E
100
AcDbEntity
  8
外形
  6
CONTINUOUS
100
AcDbLine
 10
712.238091
 20
-32.972899
 30
0.0
 11
712.543752
 21
-32.527153
 31
0.0
  0
LINE
  5
204F
100
AcDbEntity
  8
外形
  6
CONTINUOUS
100
AcDbLine
 10
719.328764
 20
-33.304627
 30
0.0
 11
719.328764
 21
-44.472219
 31
0.0
  0
LINE
  5
2050
100
AcDbEntity
  8
外形
  6
CONTINUOUS
100
AcDbLine
 10
719.328764
 20
-57.057561
 30
0.0
 11
718.328764
 21
-57.057561
 31
0.0
  0
LINE
  5
2051
100
AcDbEntity
  8
外形
  6
CONTINUOUS
100
AcDbLine
 10
718.328764
 20
-33.462756
 30
0.0
 11
718.328764
 21
-57.057561
 31
0.0
  0
LINE
  5
2062
100
AcDbEntity
  8
外形
  6
CONTINUOUS
100
AcDbLine
 10
719.328764
 20
-56.057561
 30
0.0
 11
719.328764
 21
-57.057561
 31
0.0
  0
DIMENSION
  5
20B7
100
AcDbEntity
  8
寸法
100
AcDbDimension
  2
*D5
 10
719.328764
 20
-67.165377
 30
0.0
 11
706.328764
 21
-64.665377
 31
0.0
 70
    32
  3
STANDARD
100
AcDbAlignedDimension
 13
693.328764
 23
-37.557561
 33
0.0
 14
719.328764
 24
-57.057561
 34
0.0
100
AcDbRotatedDimension
  0
LINE
  5
2180
100
AcDbEntity
  8
外形
  6
CONTINUOUS
100
AcDbLine
 10
718.040089
 20
25.009479
 30
0.0
 11
715.098248
 21
19.914062
 31
0.0
  0
LINE
  5
2181
100
AcDbEntity
  8
外形
  6
CONTINUOUS
100
AcDbLine
 10
715.098248
 20
-35.269496
 30
0.0
 11
715.098248
 21
-60.057561
 31
0.0
  0
LINE
  5
21F5
100
AcDbEntity
  8
外形
  6
CENTER
 62
     1
100
AcDbLine
 10
623.626176
 20
23.009479
 30
0.0
 11
623.626176
 21
76.968801
 31
0.0
  0
DIMENSION
  5
2206
100
AcDbEntity
  8
寸法
100
AcDbDimension
  2
*D6
 10
623.626176
 20
78.198229
 30
0.0
 11
612.094007
 21
5.110972
 31
0.0
 12
0.0
 22
-5.0
 32
0.0
 70
    34
  3
STANDARD
100
AcDb2LineAngularDimension
 13
629.001714
 23
48.495673
 33
0.0
 14
623.626176
 24
18.009479
 34
0.0
 15
623.626176
 25
18.009479
 35
0.0
 16
622.532995
 26
-0.759707
 36
0.0
  0
LINE
  5
223F
100
AcDbEntity
  8
外形
  6
CONTINUOUS
100
AcDbLine
 10
619.584119
 20
40.810472
 30
0.0
 11
615.806802
 21
19.388245
 31
0.0
  0
CIRCLE
  5
224C
100
AcDbEntity
  8
外形
  6
CENTER
 62
     1
100
AcDbCircle
 10
623.626176
 20
45.009479
 30
0.0
 40
27.0
  0
ARC
  5
224D
100
AcDbEntity
  8
外形
  6
CONTINUOUS
100
AcDbCircle
 10
623.626176
 20
42.509479
 30
0.0
 40
22.5
100
AcDbArc
 50
90.0
 51
180.0
  0
ARC
  5
224E
100
AcDbEntity
  8
外形
  6
CONTINUOUS
100
AcDbCircle
 10
623.626176
 20
45.009479
 30
0.0
 40
26.0
100
AcDbArc
 50
210.073348
 51
252.815914
  0
ARC
  5
224F
100
AcDbEntity
  8
外形
  6
CONTINUOUS
100
AcDbCircle
 10
623.626176
 20
45.009479
 30
0.0
 40
20.0
100
AcDbArc
 50
22.331645
 51
90.0
  0
LINE
  5
2250
100
AcDbEntity
  8
外形
  6
CONTINUOUS
100
AcDbLine
 10
601.126176
 20
42.509479
 30
0.0
 11
601.126176
 21
31.980664
 31
0.0
  0
LINE
  5
2281
100
AcDbEntity
  8
外形
  6
CONTINUOUS
100
AcDbLine
 10
630.150274
 20
55.009479
 30
0.0
 11
604.917889
 21
55.009479
 31
0.0
  0
LINE
  5
2282
100
AcDbEntity
  8
外形
  6
CONTINUOUS
100
AcDbLine
 10
642.126176
 20
52.608821
 30
0.0
 11
642.126176
 21
37.410137
 31
0.0
  0
ARC
  5
2283
100
AcDbEntity
  8
外形
  6
CONTINUOUS
100
AcDbCircle
 10
623.626176
 20
45.009479
 30
0.0
 40
20.0
100
AcDbArc
 50
292.331645
 51
337.668355
  0
LINE
  5
2284
100
AcDbEntity
  8
外形
  6
CONTINUOUS
100
AcDbLine
 10
631.225518
 20
26.509479
 30
0.0
 11
625.124955
 21
26.509479
 31
0.0
  0
LINE
  5
2285
100
AcDbEntity
  8
外形
  6
CONTINUOUS
100
AcDbLine
 10
706.05449
 20
61.818733
 30
0.0
 11
730.927698
 21
61.818733
 31
0.0
  0
ARC
  5
2287
100
AcDbEntity
  8
外形
  6
CONTINUOUS
100
AcDbCircle
 10
730.927698
 20
49.818733
 30
0.0
 40
12.0
100
AcDbArc
 50
2.329766
 51
90.0
  0
ARC
  5
2288
100
AcDbEntity
  8
外形
  6
CONTINUOUS
100
AcDbCircle
 10
731.38781
 20
38.509479
 30
0.0
 40
12.0
100
AcDbArc
 50
270.0
 51
2.329766
  0
LINE
  5
2289
100
AcDbEntity
  8
外形
  6
CONTINUOUS
100
AcDbLine
 10
731.38781
 20
26.509479
 30
0.0
 11
878.925855
 21
26.509479
 31
0.0
  0
LINE
  5
23A4
100
AcDbEntity
  8
外形
  6
CONTINUOUS
100
AcDbLine
 10
920.225855
 20
52.608821
 30
0.0
 11
991.328764
 21
52.608821
 31
0.0
  0
LINE
  5
23A5
100
AcDbEntity
  8
外形
  6
CONTINUOUS
100
AcDbLine
 10
920.225855
 20
65.009479
 30
0.0
 11
991.328764
 21
65.009479
 31
0.0
  0
LINE
  5
23A6
100
AcDbEntity
  8
外形
  6
CONTINUOUS
100
AcDbLine
 10
920.225855
 20
37.410137
 30
0.0
 11
991.328764
 21
37.410137
 31
0.0
  0
LINE
  5
23A7
100
AcDbEntity
  8
外形
  6
CONTINUOUS
100
AcDbLine
 10
920.225855
 20
26.509479
 30
0.0
 11
991.328764
 21
26.509479
 31
0.0
  0
LINE
  5
23A8
102
{ACAD_REACTORS
330
23D6
102
}
100
AcDbEntity
  8
外形
  6
CONTINUOUS
100
AcDbLine
 10
891.976513
 20
26.509479
 30
0.0
 11
907.175197
 21
26.509479
 31
0.0
  0
HATCH
  5
23D6
100
AcDbEntity
  8
外形
  6
CONTINUOUS
100
AcDbHatch
 10
0.0
 20
0.0
 30
0.0
210
0.0
220
0.0
230
1.0
  2
ANSI31
 70
     0
 71
     1
 91
        4
 92
        7
 72
     1
 73
     1
 93
        4
 10
918.0758548435457
 20
52.60882072138094
 42
0.3041490459075414
 10
899.5758548435459
 20
65.00947864459551
 42
0.0
 10
899.5758548435459
 20
45.0094786445955
 42
0.0
 10
918.0758548435457
 20
45.00947864459551
 42
0.0
 97
        4
330
1F4B
330
1C5A
330
1BA6
330
1E83
 92
        7
 72
     1
 73
     1
 93
        4
 10
899.5758548435459
 20
65.00947864459553
 42
0.3041490459075415
 10
881.0758548435458
 20
52.60882072138094
 42
0.0
 10
881.075854843546
 20
45.0094786445955
 42
0.0
 10
899.5758548435459
 20
45.00947864459551
 42
0.0
 97
        4
330
1F4B
330
1E82
330
1BA6
330
1C5A
 92
        7
 72
     1
 73
     1
 93
        5
 10
899.5758548435459
 20
45.0094786445955
 42
0.0
 10
881.075854843546
 20
45.0094786445955
 42
0.0
 10
881.0758548435458
 20
37.41013656781027
 42
0.2004401189421262
 10
891.9765127667604
 20
26.5094786445955
 42
0.0
 10
899.5758548435459
 20
26.50947864459549
 42
0.0
 97
        5
330
1BA6
330
1E82
330
1F49
330
23A8
330
1C5A
 92
        7
 72
     1
 73
     1
 93
        5
 10
918.0758548435457
 20
37.41013656780997
 42
0.0
 10
918.0758548435457
 20
45.0094786445955
 42
0.0
 10
899.5758548435459
 20
45.0094786445955
 42
0.0
 10
899.575854843546
 20
26.50947864459549
 42
0.0
 10
907.175196920331
 20
26.5094786445955
 42
0.200440118942123
 97
        5
330
1E83
330
1BA6
330
1C5A
330
23A8
330
1E81
 75
     0
 76
     1
 52
0.0
 41
15.0
 77
     0
 78
     1
 53
45.0
 43
40.538005
 44
146.919615
 45
-1.325825214724776
 46
1.325825214724776
 79
     0
 47
0.134721
 98
        4
 10
906.813174
 20
49.905455
 10
893.731723
 20
51.522107
 10
891.573958
 20
40.205546
 10
909.105802
 20
35.086149
  0
DIMENSION
  5
2648
100
AcDbEntity
  8
寸法
100
AcDbDimension
  2
*D7
 10
910.427956
 20
28.20972
 30
0.0
 11
882.985345
 21
70.692669
 31
0.0
 70
   163
  3
STANDARD
100
AcDbDiametricDimension
 15
888.723754
 25
61.809238
 35
0.0
 40
0.0
  0
ARC
  5
27E9
100
AcDbEntity
  8
外形
  6
CONTINUOUS
100
AcDbCircle
 10
718.906114
 20
24.509479
 30
0.0
 40
1.0
100
AcDbArc
 50
90.0
 51
150.0
  0
LINE
  5
27EA
100
AcDbEntity
  8
外形
  6
CONTINUOUS
100
AcDbLine
 10
719.328764
 20
25.509479
 30
0.0
 11
719.328764
 21
26.509479
 31
0.0
  0
DIMENSION
  5
28E4
100
AcDbEntity
  8
寸法
100
AcDbDimension
  2
*D8
 10
693.328764
 20
18.009479
 30
0.0
 11
660.999054
 21
50.894096
 31
0.0
 70
    34
  3
STANDARD
100
AcDb2LineAngularDimension
 13
693.664421
 23
38.046276
 33
0.0
 14
693.328886
 24
18.823441
 34
0.0
 15
694.128764
 25
18.009479
 35
0.0
 16
671.952896
 26
56.023889
 36
0.0
  0
DIMENSION
  5
2907
100
AcDbEntity
  8
寸法
100
AcDbDimension
  2
*D9
 10
686.717355
 20
-37.557561
 30
0.0
 11
681.878761
 21
-30.074922
 31
0.0
 70
    34
  3
STANDARD
100
AcDb2LineAngularDimension
 13
693.328764
 23
-37.557561
 33
0.0
 14
715.098248
 24
-35.269496
 34
0.0
 15
1002.794845
 25
-37.557561
 35
0.0
 16
677.881784
 26
-38.637719
 36
0.0
  0
LEADER
  5
291B
100
AcDbEntity
  8
寸法
 62
     1
100
AcDbLeader
  3
STANDARD
 76
     2
 10
636.328361
 20
68.834979
 30
0.0
 10
655.522102
 20
81.729349
 30
0.0
 77
   256
  0
ENDSEC
  0
SECTION
  2
OBJECTS
  0
DICTIONARY
  5
1E
100
AcDbDictionary
  3
ACAD_GROUP
350
1C
  3
ACAD_MLINESTYLE
350
1D
  3
ACDBVARIABLEDICTIONARY
350
147A
  3
DRAWINGVARIABLESDICT
350
C58
  0
DICTIONARY
  5
38
100
AcDbDictionary
280
     1
  3
ACAD_XREC_ROUNDTRIP
360
39
  0
DICTIONARY
  5
22
100
AcDbDictionary
280
     1
  3
ACAD_XREC_ROUNDTRIP
360
23
  0
DICTIONARY
  5
3
100
AcDbDictionary
280
     1
  3
ACAD_LAYOUTSELFREF
360
4
  0
DICTIONARY
  5
A
100
AcDbDictionary
280
     1
  3
ACAD_LAYOUTSELFREF
360
B
  0
DICTIONARY
  5
1C
102
{ACAD_REACTORS
330
1E
102
}
100
AcDbDictionary
  0
DICTIONARY
  5
1D
102
{ACAD_REACTORS
330
1E
102
}
100
AcDbDictionary
  3
STANDARD
350
20
  0
DICTIONARY
  5
147A
102
{ACAD_REACTORS
330
1E
102
}
100
AcDbDictionary
  3
SORTENTS
350
147B
  0
DICTIONARY
  5
C58
102
{ACAD_REACTORS
330
1E
102
}
100
AcDbDictionary
1001
DRAWINGVARIABLESXDATA
1000
POLARMODE
1000
0
  0
XRECORD
  5
39
102
{ACAD_REACTORS
330
38
102
}
100
AcDbXrecord
102
PLOTBIT
280
     0
  0
XRECORD
  5
23
102
{ACAD_REACTORS
330
22
102
}
100
AcDbXrecord
102
ACADR14ROUNDTRIP
1000
DSTYLE
1002
{
1070
   341
340
0
1070
   343
340
0
1070
   344
340
0
1002
}
  0
XRECORD
  5
4
102
{ACAD_REACTORS
330
3
102
}
100
AcDbXrecord
340
2
  0
XRECORD
  5
B
102
{ACAD_REACTORS
330
A
102
}
100
AcDbXrecord
340
9
  0
MLINESTYLE
  5
20
102
{ACAD_REACTORS
330
1D
102
}
100
AcDbMlineStyle
  2
STANDARD
 70
     0
  3

 62
     0
 51
90.0
 52
90.0
 71
     2
 49
0.5
 62
   256
  6
BYLAYER
 49
-0.5
 62
   256
  6
BYLAYER
  0
DICTIONARYVAR
  5
147B
102
{ACAD_REACTORS
330
147A
102
}
100
DictionaryVariables
280
     0
  1
96
  0
ENDSEC
  0
EOF
