  0
SECTION
  2
HEADER
  9
$ACADVER
  1
AC1014
  9
$ACADMAINTVER
 70
     0
  9
$DWGCODEPAGE
  3
ANSI_932
  9
$INSBASE
 10
117.947582
 20
-124.028593
 30
0.0
  9
$EXTMIN
 10
77.63337
 20
-141.383251
 30
0.0
  9
$EXTMAX
 10
492.817618
 20
25.666066
 30
0.0
  9
$LIMMIN
 10
-587.250952
 20
327.890188
  9
$LIMMAX
 10
600.749048
 20
957.890188
  9
$ORTHOMODE
 70
     1
  9
$REGENMODE
 70
     1
  9
$FILLMODE
 70
     1
  9
$QTEXTMODE
 70
     0
  9
$MIRRTEXT
 70
     1
  9
$DRAGMODE
 70
     2
  9
$LTSCALE
 40
5.0
  9
$OSMODE
 70
   303
  9
$ATTMODE
 70
     1
  9
$TEXTSIZE
 40
5.0
  9
$TRACEWID
 40
0.05
  9
$TEXTSTYLE
  7
STANDARD
  9
$CLAYER
  8
外形
  9
$CELTYPE
  6
CONTINUOUS
  9
$CECOLOR
 62
   256
  9
$CELTSCALE
 40
1.0
  9
$DELOBJ
 70
     1
  9
$DISPSILH
 70
     0
  9
$DIMSCALE
 40
1.0
  9
$DIMASZ
 40
2.0
  9
$DIMEXO
 40
1.0
  9
$DIMDLI
 40
8.0
  9
$DIMRND
 40
0.0
  9
$DIMDLE
 40
0.0
  9
$DIMEXE
 40
2.0
  9
$DIMTP
 40
0.0
  9
$DIMTM
 40
0.0
  9
$DIMTXT
 40
2.0
  9
$DIMCEN
 40
-1.0
  9
$DIMTSZ
 40
0.0
  9
$DIMTOL
 70
     0
  9
$DIMLIM
 70
     0
  9
$DIMTIH
 70
     0
  9
$DIMTOH
 70
     0
  9
$DIMSE1
 70
     0
  9
$DIMSE2
 70
     0
  9
$DIMTAD
 70
     1
  9
$DIMZIN
 70
     8
  9
$DIMBLK
  1

  9
$DIMASO
 70
     1
  9
$DIMSHO
 70
     1
  9
$DIMPOST
  1

  9
$DIMAPOST
  1

  9
$DIMALT
 70
     0
  9
$DIMALTD
 70
     2
  9
$DIMALTF
 40
25.4
  9
$DIMLFAC
 40
1.0
  9
$DIMTOFL
 70
     1
  9
$DIMTVP
 40
0.0
  9
$DIMTIX
 70
     0
  9
$DIMSOXD
 70
     0
  9
$DIMSAH
 70
     1
  9
$DIMBLK1
  1
_DOTSMALL
  9
$DIMBLK2
  1
_DOTSMALL
  9
$DIMSTYLE
  2
参考寸法
  9
$DIMCLRD
 70
     2
  9
$DIMCLRE
 70
     2
  9
$DIMCLRT
 70
     2
  9
$DIMTFAC
 40
1.0
  9
$DIMGAP
 40
1.0
  9
$DIMJUST
 70
     0
  9
$DIMSD1
 70
     0
  9
$DIMSD2
 70
     0
  9
$DIMTOLJ
 70
     1
  9
$DIMTZIN
 70
     8
  9
$DIMALTZ
 70
     0
  9
$DIMALTTZ
 70
     0
  9
$DIMFIT
 70
     3
  9
$DIMUPT
 70
     0
  9
$DIMUNIT
 70
     2
  9
$DIMDEC
 70
     3
  9
$DIMTDEC
 70
     2
  9
$DIMALTU
 70
     2
  9
$DIMALTTD
 70
     2
  9
$DIMTXSTY
  7
STANDARD
  9
$DIMAUNIT
 70
     0
  9
$LUNITS
 70
     2
  9
$LUPREC
 70
     3
  9
$SKETCHINC
 40
0.1
  9
$FILLETRAD
 40
6.5
  9
$AUNITS
 70
     0
  9
$AUPREC
 70
     3
  9
$MENU
  1
acad
  9
$ELEVATION
 40
0.0
  9
$PELEVATION
 40
0.0
  9
$THICKNESS
 40
0.0
  9
$LIMCHECK
 70
     0
  9
$BLIPMODE
 70
     0
  9
$CHAMFERA
 40
0.0
  9
$CHAMFERB
 40
0.0
  9
$CHAMFERC
 40
0.0
  9
$CHAMFERD
 40
0.0
  9
$SKPOLY
 70
     0
  9
$TDCREATE
 40
2450751.535399305
  9
$TDUPDATE
 40
2452030.548599537
  9
$TDINDWG
 40
4.5882377315
  9
$TDUSRTIMER
 40
4.5882377315
  9
$USRTIMER
 70
     1
  9
$ANGBASE
 50
0.0
  9
$ANGDIR
 70
     0
  9
$PDMODE
 70
    32
  9
$PDSIZE
 40
0.0
  9
$PLINEWID
 40
0.0
  9
$COORDS
 70
     2
  9
$SPLFRAME
 70
     0
  9
$SPLINETYPE
 70
     5
  9
$SPLINESEGS
 70
     8
  9
$ATTDIA
 70
     0
  9
$ATTREQ
 70
     1
  9
$HANDLING
 70
     1
  9
$HANDSEED
  5
482
  9
$SURFTAB1
 70
     6
  9
$SURFTAB2
 70
     6
  9
$SURFTYPE
 70
     6
  9
$SURFU
 70
     6
  9
$SURFV
 70
     6
  9
$UCSNAME
  2

  9
$UCSORG
 10
0.0
 20
0.0
 30
0.0
  9
$UCSXDIR
 10
1.0
 20
0.0
 30
0.0
  9
$UCSYDIR
 10
0.0
 20
1.0
 30
0.0
  9
$PUCSNAME
  2

  9
$PUCSORG
 10
0.0
 20
0.0
 30
0.0
  9
$PUCSXDIR
 10
1.0
 20
0.0
 30
0.0
  9
$PUCSYDIR
 10
0.0
 20
1.0
 30
0.0
  9
$USERI1
 70
     0
  9
$USERI2
 70
     0
  9
$USERI3
 70
     0
  9
$USERI4
 70
     0
  9
$USERI5
 70
     0
  9
$USERR1
 40
0.0
  9
$USERR2
 40
0.0
  9
$USERR3
 40
0.0
  9
$USERR4
 40
0.0
  9
$USERR5
 40
0.0
  9
$WORLDVIEW
 70
     1
  9
$SHADEDGE
 70
     3
  9
$SHADEDIF
 70
    70
  9
$TILEMODE
 70
     1
  9
$MAXACTVP
 70
    16
  9
$PINSBASE
 10
0.0
 20
0.0
 30
0.0
  9
$PLIMCHECK
 70
     0
  9
$PEXTMIN
 10
1.000000E+20
 20
1.000000E+20
 30
1.000000E+20
  9
$PEXTMAX
 10
-1.000000E+20
 20
-1.000000E+20
 30
-1.000000E+20
  9
$PLIMMIN
 10
0.0
 20
0.0
  9
$PLIMMAX
 10
12.0
 20
9.0
  9
$UNITMODE
 70
     0
  9
$VISRETAIN
 70
     0
  9
$PLINEGEN
 70
     0
  9
$PSLTSCALE
 70
     1
  9
$TREEDEPTH
 70
  3020
  9
$PICKSTYLE
 70
     1
  9
$CMLSTYLE
  2
STANDARD
  9
$CMLJUST
 70
     0
  9
$CMLSCALE
 40
1.0
  9
$PROXYGRAPHICS
 70
     1
  9
$MEASUREMENT
 70
     0
  0
ENDSEC
  0
SECTION
  2
CLASSES
  0
CLASS
  1
LWPOLYLINE
  2
AcDbPolyline
  3
"AutoCAD"
 90
        0
280
     0
281
     1
  0
CLASS
  1
ACDBDICTIONARYWDFLT
  2
AcDbDictionaryWithDefault
  3
AutoCAD 2000
 90
        0
280
     1
281
     0
  0
CLASS
  1
ACDBPLACEHOLDER
  2
AcDbPlaceHolder
  3
AutoCAD 2000
 90
        0
280
     1
281
     0
  0
CLASS
  1
LAYOUT
  2
AcDbLayout
  3
AutoCAD 2000
 90
        0
280
     1
281
     0
  0
CLASS
  1
LONG_TRANSACTION
  2
AcDbLongTransaction
  3
AutoCAD 2000
 90
        0
280
     1
281
     0
  0
CLASS
  1
LWPOLYLINE
  2
AcDbPolyline
  3
"AutoCAD"
 90
        0
280
     0
281
     1
  0
CLASS
  1
HATCH
  2
AcDbHatch
  3
"ACAD_SEDONA"
 90
        0
280
     0
281
     1
  0
CLASS
  1
XRECORD
  2
AcDbXrecord
  3
"<Built In>"
 90
        0
280
     0
281
     0
  0
CLASS
  1
DICTIONARYVAR
  2
AcDbDictionaryVar
  3
"AutoCAD"
 90
        0
280
     0
281
     0
  0
ENDSEC
  0
SECTION
  2
TABLES
  0
TABLE
  2
VPORT
  5
16
100
AcDbSymbolTable
 70
     1
  0
VPORT
  5
47D
100
AcDbSymbolTableRecord
100
AcDbViewportTableRecord
  2
*ACTIVE
 70
     0
 10
0.0
 20
0.0
 11
1.0
 21
1.0
 12
282.11975
 22
-59.078586
 13
0.0
 23
0.0
 14
1.0
 24
1.0
 15
10.0
 25
10.0
 16
0.0
 26
0.0
 36
1.0
 17
0.0
 27
0.0
 37
0.0
 40
358.015984
 41
1.710425
 42
50.0
 43
0.0
 44
0.0
 50
0.0
 51
0.0
 71
     0
 72
   100
 73
     1
 74
     1
 75
     0
 76
     0
 77
     0
 78
     2
  0
ENDTAB
  0
TABLE
  2
LTYPE
  5
11
100
AcDbSymbolTable
 70
     2
  0
LTYPE
  5
12
100
AcDbSymbolTableRecord
100
AcDbLinetypeTableRecord
  2
BYBLOCK
 70
     0
  3

 72
    65
 73
     0
 40
0.0
  0
LTYPE
  5
13
100
AcDbSymbolTableRecord
100
AcDbLinetypeTableRecord
  2
BYLAYER
 70
     0
  3

 72
    65
 73
     0
 40
0.0
  0
LTYPE
  5
7
100
AcDbSymbolTableRecord
100
AcDbLinetypeTableRecord
  2
CONTINUOUS
 70
     0
  3
Solid line
 72
    65
 73
     0
 40
0.0
  0
LTYPE
  5
53
100
AcDbSymbolTableRecord
100
AcDbLinetypeTableRecord
  2
CENTER
 70
     0
  3
Center ____ _ ____ _ ____ _ ____ _ ____ _ ____
 72
    65
 73
     4
 40
2.0
 49
1.25
 74
     0
 49
-0.25
 74
     0
 49
0.25
 74
     0
 49
-0.25
 74
     0
  0
ENDTAB
  0
TABLE
  2
LAYER
  5
E
100
AcDbSymbolTable
 70
     5
  0
LAYER
  5
6
100
AcDbSymbolTableRecord
100
AcDbLayerTableRecord
  2
0
 70
     0
 62
     7
  6
CONTINUOUS
  0
LAYER
  5
1F
100
AcDbSymbolTableRecord
100
AcDbLayerTableRecord
  2
外形
 70
     0
 62
     4
  6
CONTINUOUS
  0
LAYER
  5
43
102
{ACAD_XDICTIONARY
360
44
102
}
100
AcDbSymbolTableRecord
100
AcDbLayerTableRecord
  2
DEFPOINTS
 70
     0
 62
     7
  6
CONTINUOUS
  0
LAYER
  5
2D
100
AcDbSymbolTableRecord
100
AcDbLayerTableRecord
  2
寸法
 70
     0
 62
     1
  6
CONTINUOUS
  0
LAYER
  5
65
100
AcDbSymbolTableRecord
100
AcDbLayerTableRecord
  2
参考
 70
     0
 62
     2
  6
CONTINUOUS
  0
ENDTAB
  0
TABLE
  2
STYLE
  5
F
100
AcDbSymbolTable
 70
     1
  0
STYLE
  5
10
100
AcDbSymbolTableRecord
100
AcDbTextStyleTableRecord
  2
STANDARD
 70
     0
 40
0.0
 41
1.0
 50
0.0
 71
     0
 42
5.0
  3
MONOTXT
  4
BIGFONT
  0
ENDTAB
  0
TABLE
  2
VIEW
  5
14
100
AcDbSymbolTable
 70
     0
  0
ENDTAB
  0
TABLE
  2
UCS
  5
15
100
AcDbSymbolTable
 70
     0
  0
ENDTAB
  0
TABLE
  2
APPID
  5
18
100
AcDbSymbolTable
 70
     1
  0
APPID
  5
19
100
AcDbSymbolTableRecord
100
AcDbRegAppTableRecord
  2
ACAD
 70
     0
  0
ENDTAB
  0
TABLE
  2
DIMSTYLE
  5
1A
100
AcDbSymbolTable
 70
     2
  0
DIMSTYLE
105
2E
102
{ACAD_XDICTIONARY
360
2F
102
}
102
{ACAD_REACTORS
330
57
330
8C
330
E0
330
D3
330
18A
330
1A0
330
C3
330
2C
330
21E
330
447
330
46A
102
}
100
AcDbSymbolTableRecord
100
AcDbDimStyleTableRecord
  2
STANDARD
 70
     0
  3

  4

  5

  6
_OPEN30
  7
_OPEN30
 40
0.0
 41
2.0
 42
1.0
 43
8.0
 44
2.0
 45
0.0
 46
0.0
 47
0.0
 48
0.0
140
3.0
141
-1.0
142
0.0
143
25.4
144
1.0
145
0.0
146
1.0
147
1.0
 71
     0
 72
     0
 73
     0
 74
     0
 75
     0
 76
     0
 77
     1
 78
     8
170
     0
171
     2
172
     1
173
     1
174
     0
175
     0
176
     1
177
     1
178
     3
270
     2
271
     2
272
     2
273
     2
274
     2
340
10
275
     0
280
     0
281
     0
282
     0
283
     1
284
     8
285
     0
286
     0
287
     3
288
     0
  0
DIMSTYLE
105
21
102
{ACAD_REACTORS
330
7F
330
F2
330
14E
330
13F
330
104
330
72
330
64
330
11E
330
17A
330
12F
102
}
100
AcDbSymbolTableRecord
100
AcDbDimStyleTableRecord
  2
参考寸法
 70
     0
  3

  4

  5

  6
_DOTSMALL
  7
_DOTSMALL
 40
1.0
 41
2.0
 42
1.0
 43
8.0
 44
2.0
 45
0.0
 46
0.0
 47
0.0
 48
0.0
140
2.0
141
-1.0
142
0.0
143
25.4
144
1.0
145
0.0
146
1.0
147
1.0
 71
     0
 72
     0
 73
     0
 74
     0
 75
     0
 76
     0
 77
     1
 78
     8
170
     0
171
     2
172
     1
173
     1
174
     0
175
     0
176
     2
177
     2
178
     2
270
     2
271
     3
272
     2
273
     2
274
     2
340
10
275
     0
280
     0
281
     0
282
     0
283
     1
284
     8
285
     0
286
     0
287
     3
288
     0
  0
ENDTAB
  0
TABLE
  2
BLOCK_RECORD
  5
1
100
AcDbSymbolTable
 70
    41
  0
BLOCK_RECORD
  5
2
102
{ACAD_XDICTIONARY
360
3
102
}
100
AcDbSymbolTableRecord
100
AcDbBlockTableRecord
  2
*MODEL_SPACE
  0
BLOCK_RECORD
  5
9
102
{ACAD_XDICTIONARY
360
A
102
}
100
AcDbSymbolTableRecord
100
AcDbBlockTableRecord
  2
*PAPER_SPACE
  0
BLOCK_RECORD
  5
22
100
AcDbSymbolTableRecord
100
AcDbBlockTableRecord
  2
_DOTSMALL
  0
BLOCK_RECORD
  5
31
100
AcDbSymbolTableRecord
100
AcDbBlockTableRecord
  2
_OPEN30
  0
BLOCK_RECORD
  5
58
100
AcDbSymbolTableRecord
100
AcDbBlockTableRecord
  2
*D2
  0
BLOCK_RECORD
  5
F3
100
AcDbSymbolTableRecord
100
AcDbBlockTableRecord
  2
*D3
  0
BLOCK_RECORD
  5
80
100
AcDbSymbolTableRecord
100
AcDbBlockTableRecord
  2
*D4
  0
BLOCK_RECORD
  5
14F
100
AcDbSymbolTableRecord
100
AcDbBlockTableRecord
  2
*D5
  0
BLOCK_RECORD
  5
140
100
AcDbSymbolTableRecord
100
AcDbBlockTableRecord
  2
*D6
  0
BLOCK_RECORD
  5
D4
100
AcDbSymbolTableRecord
100
AcDbBlockTableRecord
  2
*D7
  0
BLOCK_RECORD
  5
E1
100
AcDbSymbolTableRecord
100
AcDbBlockTableRecord
  2
*D8
  0
BLOCK_RECORD
  5
18B
100
AcDbSymbolTableRecord
100
AcDbBlockTableRecord
  2
*D9
  0
BLOCK_RECORD
  5
8D
100
AcDbSymbolTableRecord
100
AcDbBlockTableRecord
  2
*D10
  0
BLOCK_RECORD
  5
105
100
AcDbSymbolTableRecord
100
AcDbBlockTableRecord
  2
*D11
  0
BLOCK_RECORD
  5
73
100
AcDbSymbolTableRecord
100
AcDbBlockTableRecord
  2
*D12
  0
BLOCK_RECORD
  5
66
100
AcDbSymbolTableRecord
100
AcDbBlockTableRecord
  2
*D13
  0
BLOCK_RECORD
  5
1A1
100
AcDbSymbolTableRecord
100
AcDbBlockTableRecord
  2
*D14
  0
BLOCK_RECORD
  5
11F
100
AcDbSymbolTableRecord
100
AcDbBlockTableRecord
  2
*D15
  0
BLOCK_RECORD
  5
C4
100
AcDbSymbolTableRecord
100
AcDbBlockTableRecord
  2
*D16
  0
BLOCK_RECORD
  5
17B
100
AcDbSymbolTableRecord
100
AcDbBlockTableRecord
  2
*D17
  0
BLOCK_RECORD
  5
130
100
AcDbSymbolTableRecord
100
AcDbBlockTableRecord
  2
*D18
  0
BLOCK_RECORD
  5
37
100
AcDbSymbolTableRecord
100
AcDbBlockTableRecord
  2
*D19
  0
BLOCK_RECORD
  5
2A
100
AcDbSymbolTableRecord
100
AcDbBlockTableRecord
  2
3
  0
BLOCK_RECORD
  5
273
100
AcDbSymbolTableRecord
100
AcDbBlockTableRecord
  2
*D22
  0
BLOCK_RECORD
  5
2B5
100
AcDbSymbolTableRecord
100
AcDbBlockTableRecord
  2
*D27
  0
BLOCK_RECORD
  5
2C3
100
AcDbSymbolTableRecord
100
AcDbBlockTableRecord
  2
*D28
  0
BLOCK_RECORD
  5
31A
100
AcDbSymbolTableRecord
100
AcDbBlockTableRecord
  2
*D35
  0
BLOCK_RECORD
  5
32F
100
AcDbSymbolTableRecord
100
AcDbBlockTableRecord
  2
*D37
  0
BLOCK_RECORD
  5
33B
100
AcDbSymbolTableRecord
100
AcDbBlockTableRecord
  2
*D38
  0
BLOCK_RECORD
  5
437
100
AcDbSymbolTableRecord
100
AcDbBlockTableRecord
  2
*D39
  0
BLOCK_RECORD
  5
45A
100
AcDbSymbolTableRecord
100
AcDbBlockTableRecord
  2
*D40
  0
ENDTAB
  0
ENDSEC
  0
SECTION
  2
BLOCKS
  0
BLOCK
  5
5
100
AcDbEntity
  8
0
100
AcDbBlockBegin
  2
*MODEL_SPACE
 70
     0
 10
0.0
 20
0.0
 30
0.0
  3
*MODEL_SPACE
  1

  0
ENDBLK
  5
8
100
AcDbEntity
  8
0
100
AcDbBlockEnd
  0
BLOCK
  5
C
100
AcDbEntity
 67
     1
  8
0
100
AcDbBlockBegin
  2
*PAPER_SPACE
 70
     0
 10
0.0
 20
0.0
 30
0.0
  3
*PAPER_SPACE
  1

  0
ENDBLK
  5
D
100
AcDbEntity
 67
     1
  8
0
100
AcDbBlockEnd
  0
BLOCK
  5
27
100
AcDbEntity
  8
0
100
AcDbBlockBegin
  2
_DOTSMALL
 70
     0
 10
0.0
 20
0.0
 30
0.0
  3
_DOTSMALL
  1

  0
POLYLINE
  5
23
100
AcDbEntity
  8
0
  6
BYBLOCK
 62
     0
100
AcDb2dPolyline
 66
     1
 10
0.0
 20
0.0
 30
0.0
 70
     1
 40
0.5
 41
0.5
  0
VERTEX
  5
24
100
AcDbEntity
  8
0
  6
BYBLOCK
 62
     0
100
AcDbVertex
100
AcDb2dVertex
 10
-0.0625
 20
0.0
 30
0.0
 42
1.0
  0
VERTEX
  5
25
100
AcDbEntity
  8
0
  6
BYBLOCK
 62
     0
100
AcDbVertex
100
AcDb2dVertex
 10
0.0625
 20
0.0
 30
0.0
 42
1.0
  0
SEQEND
  5
26
100
AcDbEntity
  8
0
  6
BYBLOCK
 62
     0
  0
ENDBLK
  5
28
100
AcDbEntity
  8
0
100
AcDbBlockEnd
  0
BLOCK
  5
35
100
AcDbEntity
  8
0
100
AcDbBlockBegin
  2
_OPEN30
 70
     0
 10
0.0
 20
0.0
 30
0.0
  3
_OPEN30
  1

  0
LINE
  5
32
100
AcDbEntity
  8
0
  6
BYBLOCK
 62
     0
100
AcDbLine
 10
-1.0
 20
0.267949
 30
0.0
 11
0.0
 21
0.0
 31
0.0
  0
LINE
  5
33
100
AcDbEntity
  8
0
  6
BYBLOCK
 62
     0
100
AcDbLine
 10
0.0
 20
0.0
 30
0.0
 11
-1.0
 21
-0.267949
 31
0.0
  0
LINE
  5
34
100
AcDbEntity
  8
0
  6
BYBLOCK
 62
     0
100
AcDbLine
 10
0.0
 20
0.0
 30
0.0
 11
-1.0
 21
0.0
 31
0.0
  0
ENDBLK
  5
36
100
AcDbEntity
  8
0
100
AcDbBlockEnd
  0
BLOCK
  5
62
100
AcDbEntity
  8
0
100
AcDbBlockBegin
  2
*D2
 70
     1
 10
0.0
 20
0.0
 30
0.0
  3
*D2
  1

  0
LINE
  5
59
100
AcDbEntity
  8
0
  6
BYBLOCK
 62
     1
100
AcDbLine
 10
-9.318082
 20
546.094634
 30
0.0
 11
-9.318082
 21
527.813628
 31
0.0
  0
LINE
  5
5A
100
AcDbEntity
  8
0
  6
BYBLOCK
 62
     1
100
AcDbLine
 10
290.67783
 20
558.094634
 30
0.0
 11
290.67783
 21
527.813628
 31
0.0
  0
LINE
  5
5B
100
AcDbEntity
  8
0
  6
BYBLOCK
 62
     1
100
AcDbLine
 10
-7.318082
 20
529.813628
 30
0.0
 11
288.67783
 21
529.813628
 31
0.0
  0
INSERT
  5
5C
100
AcDbEntity
  8
0
  6
BYBLOCK
 62
     1
100
AcDbBlockReference
  2
_OPEN30
 10
-9.318082
 20
529.813628
 30
0.0
 41
2.0
 42
2.0
 43
2.0
 50
180.0
  0
INSERT
  5
5D
100
AcDbEntity
  8
0
  6
BYBLOCK
 62
     1
100
AcDbBlockReference
  2
_OPEN30
 10
290.67783
 20
529.813628
 30
0.0
 41
2.0
 42
2.0
 43
2.0
  0
MTEXT
  5
5E
100
AcDbEntity
  8
0
  6
BYBLOCK
 62
     3
100
AcDbMText
 10
140.679874
 20
532.313628
 30
0.0
 40
3.0
 41
0.0
 71
     5
 72
     1
  1
\A1;300
  0
POINT
  5
5F
100
AcDbEntity
  8
DEFPOINTS
  6
BYBLOCK
 62
     0
100
AcDbPoint
 10
-9.318082
 20
547.094634
 30
0.0
  0
POINT
  5
60
100
AcDbEntity
  8
DEFPOINTS
  6
BYBLOCK
 62
     0
100
AcDbPoint
 10
290.67783
 20
559.094634
 30
0.0
  0
POINT
  5
61
100
AcDbEntity
  8
DEFPOINTS
  6
BYBLOCK
 62
     0
100
AcDbPoint
 10
290.67783
 20
529.813628
 30
0.0
  0
ENDBLK
  5
63
100
AcDbEntity
  8
0
100
AcDbBlockEnd
  0
BLOCK
  5
FD
100
AcDbEntity
  8
0
100
AcDbBlockBegin
  2
*D3
 70
     1
 10
0.0
 20
0.0
 30
0.0
  3
*D3
  1

  0
LINE
  5
F4
100
AcDbEntity
  8
0
  6
BYBLOCK
 62
     2
100
AcDbLine
 10
-78.919646
 20
582.693976
 30
0.0
 11
-78.919646
 21
606.73428
 31
0.0
  0
LINE
  5
F5
100
AcDbEntity
  8
0
  6
BYBLOCK
 62
     2
100
AcDbLine
 10
-60.419646
 20
601.938577
 30
0.0
 11
-60.419646
 21
606.73428
 31
0.0
  0
LINE
  5
F6
100
AcDbEntity
  8
0
  6
BYBLOCK
 62
     2
100
AcDbLine
 10
-78.919646
 20
604.73428
 30
0.0
 11
-60.419646
 21
604.73428
 31
0.0
  0
INSERT
  5
F7
100
AcDbEntity
  8
0
  6
BYBLOCK
 62
     2
100
AcDbBlockReference
  2
_DOTSMALL
 10
-78.919646
 20
604.73428
 30
0.0
 50
180.0
  0
INSERT
  5
F8
100
AcDbEntity
  8
0
  6
BYBLOCK
 62
     2
100
AcDbBlockReference
  2
_DOTSMALL
 10
-60.419646
 20
604.73428
 30
0.0
  0
MTEXT
  5
F9
100
AcDbEntity
  8
0
  6
BYBLOCK
 62
     2
100
AcDbMText
 10
-69.669646
 20
606.48428
 30
0.0
 40
1.5
 41
0.0
 71
     5
 72
     1
  1
\A1;18.5
  0
POINT
  5
FA
100
AcDbEntity
  8
DEFPOINTS
  6
BYBLOCK
 62
     0
100
AcDbPoint
 10
-78.919646
 20
581.693976
 30
0.0
  0
POINT
  5
FB
100
AcDbEntity
  8
DEFPOINTS
  6
BYBLOCK
 62
     0
100
AcDbPoint
 10
-60.419646
 20
600.938577
 30
0.0
  0
POINT
  5
FC
100
AcDbEntity
  8
DEFPOINTS
  6
BYBLOCK
 62
     0
100
AcDbPoint
 10
-60.419646
 20
604.73428
 30
0.0
  0
ENDBLK
  5
FE
100
AcDbEntity
  8
0
100
AcDbBlockEnd
  0
BLOCK
  5
8A
100
AcDbEntity
  8
0
100
AcDbBlockBegin
  2
*D4
 70
     1
 10
0.0
 20
0.0
 30
0.0
  3
*D4
  1

  0
LINE
  5
81
100
AcDbEntity
  8
0
  6
BYBLOCK
 62
     2
100
AcDbLine
 10
-9.318082
 20
546.094634
 30
0.0
 11
-9.318082
 21
537.863209
 31
0.0
  0
LINE
  5
82
100
AcDbEntity
  8
0
  6
BYBLOCK
 62
     2
100
AcDbLine
 10
45.681918
 20
556.094634
 30
0.0
 11
45.681918
 21
537.863209
 31
0.0
  0
LINE
  5
83
100
AcDbEntity
  8
0
  6
BYBLOCK
 62
     2
100
AcDbLine
 10
-9.318082
 20
539.863209
 30
0.0
 11
45.681918
 21
539.863209
 31
0.0
  0
INSERT
  5
84
100
AcDbEntity
  8
0
  6
BYBLOCK
 62
     2
100
AcDbBlockReference
  2
_DOTSMALL
 10
-9.318082
 20
539.863209
 30
0.0
 50
180.0
  0
INSERT
  5
85
100
AcDbEntity
  8
0
  6
BYBLOCK
 62
     2
100
AcDbBlockReference
  2
_DOTSMALL
 10
45.681918
 20
539.863209
 30
0.0
  0
MTEXT
  5
86
100
AcDbEntity
  8
0
  6
BYBLOCK
 62
     2
100
AcDbMText
 10
18.181918
 20
541.613209
 30
0.0
 40
1.5
 41
0.0
 71
     5
 72
     1
  1
\A1;55
  0
POINT
  5
87
100
AcDbEntity
  8
DEFPOINTS
  6
BYBLOCK
 62
     0
100
AcDbPoint
 10
-9.318082
 20
547.094634
 30
0.0
  0
POINT
  5
88
100
AcDbEntity
  8
DEFPOINTS
  6
BYBLOCK
 62
     0
100
AcDbPoint
 10
45.681918
 20
557.094634
 30
0.0
  0
POINT
  5
89
100
AcDbEntity
  8
DEFPOINTS
  6
BYBLOCK
 62
     0
100
AcDbPoint
 10
45.681918
 20
539.863209
 30
0.0
  0
ENDBLK
  5
8B
100
AcDbEntity
  8
0
100
AcDbBlockEnd
  0
BLOCK
  5
159
100
AcDbEntity
  8
0
100
AcDbBlockBegin
  2
*D5
 70
     1
 10
0.0
 20
0.0
 30
0.0
  3
*D5
  1

  0
LINE
  5
150
100
AcDbEntity
  8
0
  6
BYBLOCK
 62
     2
100
AcDbLine
 10
-8.318082
 20
547.094634
 30
0.0
 11
18.100606
 21
547.094634
 31
0.0
  0
LINE
  5
151
100
AcDbEntity
  8
0
  6
BYBLOCK
 62
     2
100
AcDbLine
 10
6.015337
 20
557.094634
 30
0.0
 11
18.100606
 21
557.094634
 31
0.0
  0
LINE
  5
152
100
AcDbEntity
  8
0
  6
BYBLOCK
 62
     2
100
AcDbLine
 10
16.100606
 20
547.094634
 30
0.0
 11
16.100606
 21
557.094634
 31
0.0
  0
INSERT
  5
153
100
AcDbEntity
  8
0
  6
BYBLOCK
 62
     2
100
AcDbBlockReference
  2
_DOTSMALL
 10
16.100606
 20
547.094634
 30
0.0
 50
270.0
  0
INSERT
  5
154
100
AcDbEntity
  8
0
  6
BYBLOCK
 62
     2
100
AcDbBlockReference
  2
_DOTSMALL
 10
16.100606
 20
557.094634
 30
0.0
 50
90.0
  0
MTEXT
  5
155
100
AcDbEntity
  8
0
  6
BYBLOCK
 62
     2
100
AcDbMText
 10
14.350606
 20
552.094634
 30
0.0
 40
1.5
 41
0.0
 71
     5
 72
     1
  1
\A1;10
 11
0.0
 21
1.0
 31
0.0
  0
POINT
  5
156
100
AcDbEntity
  8
DEFPOINTS
  6
BYBLOCK
 62
     0
100
AcDbPoint
 10
-9.318082
 20
547.094634
 30
0.0
  0
POINT
  5
157
100
AcDbEntity
  8
DEFPOINTS
  6
BYBLOCK
 62
     0
100
AcDbPoint
 10
5.015337
 20
557.094634
 30
0.0
  0
POINT
  5
158
100
AcDbEntity
  8
DEFPOINTS
  6
BYBLOCK
 62
     0
100
AcDbPoint
 10
16.100606
 20
557.094634
 30
0.0
  0
ENDBLK
  5
15A
100
AcDbEntity
  8
0
100
AcDbBlockEnd
  0
BLOCK
  5
14B
100
AcDbEntity
  8
0
100
AcDbBlockBegin
  2
*D6
 70
     1
 10
0.0
 20
0.0
 30
0.0
  3
*D6
  1

  0
LINE
  5
141
100
AcDbEntity
  8
0
  6
BYBLOCK
 62
     2
100
AcDbLine
 10
-413.969127
 20
564.150055
 30
0.0
 11
-413.969127
 21
552.598913
 31
0.0
  0
LINE
  5
142
100
AcDbEntity
  8
0
  6
BYBLOCK
 62
     2
100
AcDbLine
 10
-408.869088
 20
564.150055
 30
0.0
 11
-408.869088
 21
552.598913
 31
0.0
  0
LINE
  5
143
100
AcDbEntity
  8
0
  6
BYBLOCK
 62
     2
100
AcDbLine
 10
-413.969127
 20
554.598913
 30
0.0
 11
-408.869088
 21
554.598913
 31
0.0
  0
LINE
  5
144
100
AcDbEntity
  8
0
  6
BYBLOCK
 62
     2
100
AcDbLine
 10
-408.869088
 20
554.598913
 30
0.0
 11
-402.119088
 21
554.598913
 31
0.0
  0
INSERT
  5
145
100
AcDbEntity
  8
0
  6
BYBLOCK
 62
     2
100
AcDbBlockReference
  2
_DOTSMALL
 10
-413.969127
 20
554.598913
 30
0.0
 50
180.0
  0
INSERT
  5
146
100
AcDbEntity
  8
0
  6
BYBLOCK
 62
     2
100
AcDbBlockReference
  2
_DOTSMALL
 10
-408.869088
 20
554.598913
 30
0.0
  0
MTEXT
  5
147
100
AcDbEntity
  8
0
  6
BYBLOCK
 62
     2
100
AcDbMText
 10
-404.994088
 20
556.348913
 30
0.0
 40
1.5
 41
0.0
 71
     5
 72
     1
  1
\A1;5.1
  0
POINT
  5
148
100
AcDbEntity
  8
DEFPOINTS
  6
BYBLOCK
 62
     0
100
AcDbPoint
 10
-413.969127
 20
565.150055
 30
0.0
  0
POINT
  5
149
100
AcDbEntity
  8
DEFPOINTS
  6
BYBLOCK
 62
     0
100
AcDbPoint
 10
-408.869088
 20
565.150055
 30
0.0
  0
POINT
  5
14A
100
AcDbEntity
  8
DEFPOINTS
  6
BYBLOCK
 62
     0
100
AcDbPoint
 10
-408.869088
 20
554.598913
 30
0.0
  0
ENDBLK
  5
14C
100
AcDbEntity
  8
0
100
AcDbBlockEnd
  0
BLOCK
  5
DE
100
AcDbEntity
  8
0
100
AcDbBlockBegin
  2
*D7
 70
     1
 10
0.0
 20
0.0
 30
0.0
  3
*D7
  1

  0
LINE
  5
D5
100
AcDbEntity
  8
0
  6
BYBLOCK
 62
     1
100
AcDbLine
 10
-10.318082
 20
547.094634
 30
0.0
 11
-20.635036
 21
547.094634
 31
0.0
  0
LINE
  5
D6
100
AcDbEntity
  8
0
  6
BYBLOCK
 62
     1
100
AcDbLine
 10
-9.97274
 20
574.094634
 30
0.0
 11
-20.635036
 21
574.094634
 31
0.0
  0
LINE
  5
D7
100
AcDbEntity
  8
0
  6
BYBLOCK
 62
     1
100
AcDbLine
 10
-18.635036
 20
549.094634
 30
0.0
 11
-18.635036
 21
572.094634
 31
0.0
  0
INSERT
  5
D8
100
AcDbEntity
  8
0
  6
BYBLOCK
 62
     1
100
AcDbBlockReference
  2
_OPEN30
 10
-18.635036
 20
547.094634
 30
0.0
 41
2.0
 42
2.0
 43
2.0
 50
270.0
  0
INSERT
  5
D9
100
AcDbEntity
  8
0
  6
BYBLOCK
 62
     1
100
AcDbBlockReference
  2
_OPEN30
 10
-18.635036
 20
574.094634
 30
0.0
 41
2.0
 42
2.0
 43
2.0
 50
90.0
  0
MTEXT
  5
DA
100
AcDbEntity
  8
0
  6
BYBLOCK
 62
     3
100
AcDbMText
 10
-21.135036
 20
560.594634
 30
0.0
 40
3.0
 41
0.0
 71
     5
 72
     1
  1
\A1;27
 11
0.0
 21
1.0
 31
0.0
  0
POINT
  5
DB
100
AcDbEntity
  8
DEFPOINTS
  6
BYBLOCK
 62
     0
100
AcDbPoint
 10
-9.318082
 20
547.094634
 30
0.0
  0
POINT
  5
DC
100
AcDbEntity
  8
DEFPOINTS
  6
BYBLOCK
 62
     0
100
AcDbPoint
 10
-8.97274
 20
574.094634
 30
0.0
  0
POINT
  5
DD
100
AcDbEntity
  8
DEFPOINTS
  6
BYBLOCK
 62
     0
100
AcDbPoint
 10
-18.635036
 20
574.094634
 30
0.0
  0
ENDBLK
  5
DF
100
AcDbEntity
  8
0
100
AcDbBlockEnd
  0
BLOCK
  5
EB
100
AcDbEntity
  8
0
100
AcDbBlockBegin
  2
*D8
 70
     1
 10
0.0
 20
0.0
 30
0.0
  3
*D8
  1

  0
LINE
  5
E2
100
AcDbEntity
  8
0
  6
BYBLOCK
 62
     1
100
AcDbLine
 10
-9.97274
 20
574.094634
 30
0.0
 11
-20.635036
 21
574.094634
 31
0.0
  0
LINE
  5
E3
100
AcDbEntity
  8
0
  6
BYBLOCK
 62
     1
100
AcDbLine
 10
-8.212387
 20
588.094634
 30
0.0
 11
-20.635036
 21
588.094634
 31
0.0
  0
LINE
  5
E4
100
AcDbEntity
  8
0
  6
BYBLOCK
 62
     1
100
AcDbLine
 10
-18.635036
 20
576.094634
 30
0.0
 11
-18.635036
 21
586.094634
 31
0.0
  0
INSERT
  5
E5
100
AcDbEntity
  8
0
  6
BYBLOCK
 62
     1
100
AcDbBlockReference
  2
_OPEN30
 10
-18.635036
 20
574.094634
 30
0.0
 41
2.0
 42
2.0
 43
2.0
 50
270.0
  0
INSERT
  5
E6
100
AcDbEntity
  8
0
  6
BYBLOCK
 62
     1
100
AcDbBlockReference
  2
_OPEN30
 10
-18.635036
 20
588.094634
 30
0.0
 41
2.0
 42
2.0
 43
2.0
 50
90.0
  0
MTEXT
  5
E7
100
AcDbEntity
  8
0
  6
BYBLOCK
 62
     3
100
AcDbMText
 10
-21.135036
 20
581.094634
 30
0.0
 40
3.0
 41
0.0
 71
     5
 72
     1
  1
\A1;14
 11
0.0
 21
1.0
 31
0.0
  0
POINT
  5
E8
100
AcDbEntity
  8
DEFPOINTS
  6
BYBLOCK
 62
     0
100
AcDbPoint
 10
-8.97274
 20
574.094634
 30
0.0
  0
POINT
  5
E9
100
AcDbEntity
  8
DEFPOINTS
  6
BYBLOCK
 62
     0
100
AcDbPoint
 10
-7.212387
 20
588.094634
 30
0.0
  0
POINT
  5
EA
100
AcDbEntity
  8
DEFPOINTS
  6
BYBLOCK
 62
     0
100
AcDbPoint
 10
-18.635036
 20
588.094634
 30
0.0
  0
ENDBLK
  5
EC
100
AcDbEntity
  8
0
100
AcDbBlockEnd
  0
BLOCK
  5
195
100
AcDbEntity
  8
0
100
AcDbBlockBegin
  2
*D9
 70
     1
 10
0.0
 20
0.0
 30
0.0
  3
*D9
  1

  0
LINE
  5
18C
100
AcDbEntity
  8
0
  6
BYBLOCK
 62
     1
100
AcDbLine
 10
179.605361
 20
565.495292
 30
0.0
 11
179.605361
 21
537.67288
 31
0.0
  0
LINE
  5
18D
100
AcDbEntity
  8
0
  6
BYBLOCK
 62
     1
100
AcDbLine
 10
216.605361
 20
565.495292
 30
0.0
 11
216.605361
 21
537.67288
 31
0.0
  0
LINE
  5
18E
100
AcDbEntity
  8
0
  6
BYBLOCK
 62
     1
100
AcDbLine
 10
181.605361
 20
539.67288
 30
0.0
 11
214.605361
 21
539.67288
 31
0.0
  0
INSERT
  5
18F
100
AcDbEntity
  8
0
  6
BYBLOCK
 62
     1
100
AcDbBlockReference
  2
_OPEN30
 10
179.605361
 20
539.67288
 30
0.0
 41
2.0
 42
2.0
 43
2.0
 50
180.0
  0
INSERT
  5
190
100
AcDbEntity
  8
0
  6
BYBLOCK
 62
     1
100
AcDbBlockReference
  2
_OPEN30
 10
216.605361
 20
539.67288
 30
0.0
 41
2.0
 42
2.0
 43
2.0
  0
MTEXT
  5
191
100
AcDbEntity
  8
0
  6
BYBLOCK
 62
     3
100
AcDbMText
 10
198.105361
 20
542.17288
 30
0.0
 40
3.0
 41
0.0
 71
     5
 72
     1
  1
\A1;37
  0
POINT
  5
192
100
AcDbEntity
  8
DEFPOINTS
  6
BYBLOCK
 62
     0
100
AcDbPoint
 10
179.605361
 20
566.495292
 30
0.0
  0
POINT
  5
193
100
AcDbEntity
  8
DEFPOINTS
  6
BYBLOCK
 62
     0
100
AcDbPoint
 10
216.605361
 20
566.495292
 30
0.0
  0
POINT
  5
194
100
AcDbEntity
  8
DEFPOINTS
  6
BYBLOCK
 62
     0
100
AcDbPoint
 10
216.605361
 20
539.67288
 30
0.0
  0
ENDBLK
  5
196
100
AcDbEntity
  8
0
100
AcDbBlockEnd
  0
BLOCK
  5
9D
100
AcDbEntity
  8
0
100
AcDbBlockBegin
  2
*D10
 70
     1
 10
0.0
 20
0.0
 30
0.0
  3
*D10
  1

  0
LINE
  5
8E
100
AcDbEntity
  8
0
  6
BYBLOCK
 62
     1
100
AcDbLine
 10
-468.122533
 20
551.104365
 30
0.0
 11
-472.140919
 21
522.512059
 31
0.0
  0
LINE
  5
8F
100
AcDbEntity
  8
0
  6
BYBLOCK
 62
     1
100
AcDbLine
 10
-467.933361
 20
551.450392
 30
0.0
 11
-467.933361
 21
522.217838
 31
0.0
  0
ARC
  5
90
100
AcDbEntity
  8
0
  6
BYBLOCK
 62
     1
100
AcDbCircle
 10
-467.933361
 20
552.450392
 30
0.0
 40
28.232554
100
AcDbArc
 50
253.875505
 51
262.0
  0
LINE
  5
91
100
AcDbEntity
  8
0
  6
BYBLOCK
 62
     1
100
AcDbLine
 10
-475.774257
 20
525.328493
 30
0.0
 11
-484.035938
 21
527.716931
 31
0.0
  0
ARC
  5
92
100
AcDbEntity
  8
0
  6
BYBLOCK
 62
     1
100
AcDbCircle
 10
-467.933361
 20
552.450392
 30
0.0
 40
28.232554
100
AcDbArc
 50
253.880612
 51
257.940306
  0
ARC
  5
93
100
AcDbEntity
  8
0
  6
BYBLOCK
 62
     1
100
AcDbCircle
 10
-467.933361
 20
552.450392
 30
0.0
 40
28.232554
100
AcDbArc
 50
274.059694
 51
278.119388
  0
ARC
  5
94
100
AcDbEntity
  8
0
  6
BYBLOCK
 62
     1
100
AcDbCircle
 10
-467.933361
 20
552.450392
 30
0.0
 40
28.232554
100
AcDbArc
 50
262.0
 51
270.0
  0
INSERT
  5
95
100
AcDbEntity
  8
0
  6
BYBLOCK
 62
     1
100
AcDbBlockReference
  2
_OPEN30
 10
-471.862573
 20
524.492596
 30
0.0
 41
2.0
 42
2.0
 43
2.0
 50
349.970153
  0
INSERT
  5
96
100
AcDbEntity
  8
0
  6
BYBLOCK
 62
     1
100
AcDbBlockReference
  2
_OPEN30
 10
-467.933361
 20
524.217838
 30
0.0
 41
2.0
 42
2.0
 43
2.0
 50
182.029847
  0
MTEXT
  5
97
100
AcDbEntity
  8
0
  6
BYBLOCK
 62
     3
100
AcDbMText
 10
-479.210784
 20
528.924363
 30
0.0
 40
3.0
 41
0.0
 71
     5
 72
     1
  1
\A1;8°
 11
0.960661
 21
-0.277725
 31
0.0
  0
POINT
  5
98
100
AcDbEntity
  8
DEFPOINTS
  6
BYBLOCK
 62
     0
100
AcDbPoint
 10
-469.246889
 20
524.248411
 30
0.0
  0
POINT
  5
99
100
AcDbEntity
  8
DEFPOINTS
  6
BYBLOCK
 62
     0
100
AcDbPoint
 10
-463.459761
 20
584.281711
 30
0.0
  0
POINT
  5
9A
100
AcDbEntity
  8
DEFPOINTS
  6
BYBLOCK
 62
     0
100
AcDbPoint
 10
-467.933361
 20
600.938577
 30
0.0
  0
POINT
  5
9B
100
AcDbEntity
  8
DEFPOINTS
  6
BYBLOCK
 62
     0
100
AcDbPoint
 10
-467.933361
 20
552.51149
 30
0.0
  0
POINT
  5
9C
100
AcDbEntity
  8
DEFPOINTS
  6
BYBLOCK
 62
     0
100
AcDbPoint
 10
-467.983359
 20
552.094633
 30
0.0
  0
ENDBLK
  5
9E
100
AcDbEntity
  8
0
100
AcDbBlockEnd
  0
BLOCK
  5
111
100
AcDbEntity
  8
0
100
AcDbBlockBegin
  2
*D11
 70
     1
 10
0.0
 20
0.0
 30
0.0
  3
*D11
  1

  0
LINE
  5
106
100
AcDbEntity
  8
0
  6
BYBLOCK
 62
     2
100
AcDbLine
 10
-79.738798
 20
557.893984
 30
0.0
 11
-87.730589
 21
563.489897
 31
0.0
  0
LINE
  5
107
100
AcDbEntity
  8
0
  6
BYBLOCK
 62
     2
100
AcDbLine
 10
-69.919646
 20
550.318332
 30
0.0
 11
-91.883568
 21
550.318332
 31
0.0
  0
ARC
  5
108
100
AcDbEntity
  8
0
  6
BYBLOCK
 62
     2
100
AcDbCircle
 10
-68.919646
 20
550.318332
 30
0.0
 40
20.963922
100
AcDbArc
 50
145.0
 51
180.0
  0
INSERT
  5
109
100
AcDbEntity
  8
0
  6
BYBLOCK
 62
     2
100
AcDbBlockReference
  2
_DOTSMALL
 10
-86.092285
 20
562.342744
 30
0.0
 50
55.0
  0
INSERT
  5
10A
100
AcDbEntity
  8
0
  6
BYBLOCK
 62
     2
100
AcDbBlockReference
  2
_DOTSMALL
 10
-89.883568
 20
550.318332
 30
0.0
 50
270.0
  0
MTEXT
  5
10B
100
AcDbEntity
  8
0
  6
BYBLOCK
 62
     2
100
AcDbMText
 10
-90.582298
 20
557.148541
 30
0.0
 40
1.5
 41
0.0
 71
     5
 72
     1
  1
\A1;35°
 11
0.300706
 21
0.953717
 31
0.0
  0
POINT
  5
10C
100
AcDbEntity
  8
DEFPOINTS
  6
BYBLOCK
 62
     0
100
AcDbPoint
 10
-88.169057
 20
558.621718
 30
0.0
  0
POINT
  5
10D
100
AcDbEntity
  8
DEFPOINTS
  6
BYBLOCK
 62
     0
100
AcDbPoint
 10
-68.919646
 20
550.318332
 30
0.0
  0
POINT
  5
10E
100
AcDbEntity
  8
DEFPOINTS
  6
BYBLOCK
 62
     0
100
AcDbPoint
 10
-68.919646
 20
550.318332
 30
0.0
  0
POINT
  5
10F
100
AcDbEntity
  8
DEFPOINTS
  6
BYBLOCK
 62
     0
100
AcDbPoint
 10
-42.168062
 20
550.318332
 30
0.0
  0
POINT
  5
110
100
AcDbEntity
  8
DEFPOINTS
  6
BYBLOCK
 62
     0
100
AcDbPoint
 10
-78.919646
 20
557.320408
 30
0.0
  0
ENDBLK
  5
112
100
AcDbEntity
  8
0
100
AcDbBlockEnd
  0
BLOCK
  5
7D
100
AcDbEntity
  8
0
100
AcDbBlockBegin
  2
*D12
 70
     1
 10
0.0
 20
0.0
 30
0.0
  3
*D12
  1

  0
LINE
  5
74
100
AcDbEntity
  8
0
  6
BYBLOCK
 62
     2
100
AcDbLine
 10
-78.919646
 20
556.320408
 30
0.0
 11
-78.919646
 21
534.703816
 31
0.0
  0
LINE
  5
75
100
AcDbEntity
  8
0
  6
BYBLOCK
 62
     2
100
AcDbLine
 10
-68.919646
 20
549.318332
 30
0.0
 11
-68.919646
 21
534.703816
 31
0.0
  0
LINE
  5
76
100
AcDbEntity
  8
0
  6
BYBLOCK
 62
     2
100
AcDbLine
 10
-78.919646
 20
536.703816
 30
0.0
 11
-68.919646
 21
536.703816
 31
0.0
  0
INSERT
  5
77
100
AcDbEntity
  8
0
  6
BYBLOCK
 62
     2
100
AcDbBlockReference
  2
_DOTSMALL
 10
-78.919646
 20
536.703816
 30
0.0
 50
180.0
  0
INSERT
  5
78
100
AcDbEntity
  8
0
  6
BYBLOCK
 62
     2
100
AcDbBlockReference
  2
_DOTSMALL
 10
-68.919646
 20
536.703816
 30
0.0
  0
MTEXT
  5
79
100
AcDbEntity
  8
0
  6
BYBLOCK
 62
     2
100
AcDbMText
 10
-73.919646
 20
538.453816
 30
0.0
 40
1.5
 41
0.0
 71
     5
 72
     1
  1
\A1;10
  0
POINT
  5
7A
100
AcDbEntity
  8
DEFPOINTS
  6
BYBLOCK
 62
     0
100
AcDbPoint
 10
-78.919646
 20
557.320408
 30
0.0
  0
POINT
  5
7B
100
AcDbEntity
  8
DEFPOINTS
  6
BYBLOCK
 62
     0
100
AcDbPoint
 10
-68.919646
 20
550.318332
 30
0.0
  0
POINT
  5
7C
100
AcDbEntity
  8
DEFPOINTS
  6
BYBLOCK
 62
     0
100
AcDbPoint
 10
-68.919646
 20
536.703816
 30
0.0
  0
ENDBLK
  5
7E
100
AcDbEntity
  8
0
100
AcDbBlockEnd
  0
BLOCK
  5
70
100
AcDbEntity
  8
0
100
AcDbBlockBegin
  2
*D13
 70
     1
 10
0.0
 20
0.0
 30
0.0
  3
*D13
  1

  0
LINE
  5
67
100
AcDbEntity
  8
0
  6
BYBLOCK
 62
     2
100
AcDbLine
 10
-78.919646
 20
556.320408
 30
0.0
 11
-78.919646
 21
527.416695
 31
0.0
  0
LINE
  5
68
100
AcDbEntity
  8
0
  6
BYBLOCK
 62
     2
100
AcDbLine
 10
-60.439676
 20
546.094642
 30
0.0
 11
-60.439676
 21
527.416695
 31
0.0
  0
LINE
  5
69
100
AcDbEntity
  8
0
  6
BYBLOCK
 62
     2
100
AcDbLine
 10
-78.919646
 20
529.416695
 30
0.0
 11
-60.439676
 21
529.416695
 31
0.0
  0
INSERT
  5
6A
100
AcDbEntity
  8
0
  6
BYBLOCK
 62
     2
100
AcDbBlockReference
  2
_DOTSMALL
 10
-78.919646
 20
529.416695
 30
0.0
 50
180.0
  0
INSERT
  5
6B
100
AcDbEntity
  8
0
  6
BYBLOCK
 62
     2
100
AcDbBlockReference
  2
_DOTSMALL
 10
-60.439676
 20
529.416695
 30
0.0
  0
MTEXT
  5
6C
100
AcDbEntity
  8
0
  6
BYBLOCK
 62
     2
100
AcDbMText
 10
-69.679661
 20
531.166695
 30
0.0
 40
1.5
 41
0.0
 71
     5
 72
     1
  1
\A1;18.48
  0
POINT
  5
6D
100
AcDbEntity
  8
DEFPOINTS
  6
BYBLOCK
 62
     0
100
AcDbPoint
 10
-78.919646
 20
557.320408
 30
0.0
  0
POINT
  5
6E
100
AcDbEntity
  8
DEFPOINTS
  6
BYBLOCK
 62
     0
100
AcDbPoint
 10
-60.439676
 20
547.094642
 30
0.0
  0
POINT
  5
6F
100
AcDbEntity
  8
DEFPOINTS
  6
BYBLOCK
 62
     0
100
AcDbPoint
 10
-60.439676
 20
529.416695
 30
0.0
  0
ENDBLK
  5
71
100
AcDbEntity
  8
0
100
AcDbBlockEnd
  0
BLOCK
  5
1AA
100
AcDbEntity
  8
0
100
AcDbBlockBegin
  2
*D14
 70
     1
 10
0.0
 20
0.0
 30
0.0
  3
*D14
  1

  0
LINE
  5
1A2
100
AcDbEntity
  8
0
  6
BYBLOCK
 62
     1
100
AcDbLine
 10
222.08723
 20
608.222903
 30
0.0
 11
210.754107
 21
592.09489
 31
0.0
  0
LINE
  5
1A3
100
AcDbEntity
  8
0
  6
BYBLOCK
 62
     1
100
AcDbLine
 10
185.456616
 20
556.094377
 30
0.0
 11
184.30673
 21
554.45799
 31
0.0
  0
MTEXT
  5
1A4
100
AcDbEntity
  8
0
  6
BYBLOCK
 62
     3
100
AcDbMText
 10
217.167032
 20
605.569293
 30
0.0
 40
3.0
 41
0.0
 71
     5
 72
     1
  1
\A1;\U+220540
 11
0.574943
 21
0.818193
 31
0.0
  0
LINE
  5
1A5
100
AcDbEntity
  8
0
  6
BYBLOCK
 62
     1
100
AcDbLine
 10
186.606502
 20
557.730764
 30
0.0
 11
209.604221
 21
590.458503
 31
0.0
  0
INSERT
  5
1A6
100
AcDbEntity
  8
0
  6
BYBLOCK
 62
     1
100
AcDbBlockReference
  2
_OPEN30
 10
186.606502
 20
557.730764
 30
0.0
 41
2.0
 42
2.0
 43
2.0
 50
54.904361
  0
INSERT
  5
1A7
100
AcDbEntity
  8
0
  6
BYBLOCK
 62
     1
100
AcDbBlockReference
  2
_OPEN30
 10
209.604221
 20
590.458503
 30
0.0
 41
2.0
 42
2.0
 43
2.0
 50
234.904361
  0
POINT
  5
1A8
100
AcDbEntity
  8
DEFPOINTS
  6
BYBLOCK
 62
     0
100
AcDbPoint
 10
209.604221
 20
590.458503
 30
0.0
  0
POINT
  5
1A9
100
AcDbEntity
  8
DEFPOINTS
  6
BYBLOCK
 62
     0
100
AcDbPoint
 10
186.606502
 20
557.730764
 30
0.0
  0
ENDBLK
  5
1AB
100
AcDbEntity
  8
0
100
AcDbBlockEnd
  0
BLOCK
  5
12B
100
AcDbEntity
  8
0
100
AcDbBlockBegin
  2
*D15
 70
     1
 10
0.0
 20
0.0
 30
0.0
  3
*D15
  1

  0
LINE
  5
120
100
AcDbEntity
  8
0
  6
BYBLOCK
 62
     2
100
AcDbLine
 10
3.179918
 20
594.094634
 30
0.0
 11
5.13198
 21
595.221658
 31
0.0
  0
LINE
  5
121
100
AcDbEntity
  8
0
  6
BYBLOCK
 62
     2
100
AcDbLine
 10
-9.318082
 20
548.894634
 30
0.0
 11
-9.318082
 21
603.564405
 31
0.0
  0
ARC
  5
122
100
AcDbEntity
  8
0
  6
BYBLOCK
 62
     2
100
AcDbCircle
 10
-9.318082
 20
586.87891
 30
0.0
 40
14.685495
100
AcDbArc
 50
30.0
 51
90.0
  0
INSERT
  5
123
100
AcDbEntity
  8
0
  6
BYBLOCK
 62
     2
100
AcDbBlockReference
  2
_DOTSMALL
 10
3.399929
 20
594.221658
 30
0.0
 50
300.0
  0
INSERT
  5
124
100
AcDbEntity
  8
0
  6
BYBLOCK
 62
     2
100
AcDbBlockReference
  2
_DOTSMALL
 10
-9.318082
 20
601.564405
 30
0.0
 50
180.0
  0
MTEXT
  5
125
100
AcDbEntity
  8
0
  6
BYBLOCK
 62
     2
100
AcDbMText
 10
-1.100335
 20
601.112466
 30
0.0
 40
1.5
 41
0.0
 71
     5
 72
     1
  1
\A1;60°
 11
0.866025
 21
-0.5
 31
0.0
  0
POINT
  5
126
100
AcDbEntity
  8
DEFPOINTS
  6
BYBLOCK
 62
     0
100
AcDbPoint
 10
0.121572
 20
598.128652
 30
0.0
  0
POINT
  5
127
100
AcDbEntity
  8
DEFPOINTS
  6
BYBLOCK
 62
     0
100
AcDbPoint
 10
-7.212387
 20
588.094634
 30
0.0
  0
POINT
  5
128
100
AcDbEntity
  8
DEFPOINTS
  6
BYBLOCK
 62
     0
100
AcDbPoint
 10
-9.318082
 20
547.894634
 30
0.0
  0
POINT
  5
129
100
AcDbEntity
  8
DEFPOINTS
  6
BYBLOCK
 62
     0
100
AcDbPoint
 10
-9.318082
 20
547.094634
 30
0.0
  0
POINT
  5
12A
100
AcDbEntity
  8
DEFPOINTS
  6
BYBLOCK
 62
     0
100
AcDbPoint
 10
2.313892
 20
593.594634
 30
0.0
  0
ENDBLK
  5
12C
100
AcDbEntity
  8
0
100
AcDbBlockEnd
  0
BLOCK
  5
D0
100
AcDbEntity
  8
0
100
AcDbBlockBegin
  2
*D16
 70
     1
 10
0.0
 20
0.0
 30
0.0
  3
*D16
  1

  0
LINE
  5
C5
100
AcDbEntity
  8
0
  6
BYBLOCK
 62
     1
100
AcDbLine
 10
-7.160051
 20
589.093263
 30
0.0
 11
-6.793041
 21
596.096238
 31
0.0
  0
LINE
  5
C6
100
AcDbEntity
  8
0
  6
BYBLOCK
 62
     1
100
AcDbLine
 10
-10.361106
 20
547.094634
 30
0.0
 11
-58.429958
 21
547.094634
 31
0.0
  0
ARC
  5
C7
100
AcDbEntity
  8
0
  6
BYBLOCK
 62
     1
100
AcDbCircle
 10
-9.361106
 20
547.094634
 30
0.0
 40
47.068851
100
AcDbArc
 50
89.434735
 51
177.565265
  0
INSERT
  5
C8
100
AcDbEntity
  8
0
  6
BYBLOCK
 62
     1
100
AcDbBlockReference
  2
_OPEN30
 10
-6.897713
 20
594.098979
 30
0.0
 41
2.0
 42
2.0
 43
2.0
 50
358.217368
  0
INSERT
  5
C9
100
AcDbEntity
  8
0
  6
BYBLOCK
 62
     1
100
AcDbBlockReference
  2
_OPEN30
 10
-56.429958
 20
547.094634
 30
0.0
 41
2.0
 42
2.0
 43
2.0
 50
268.782632
  0
MTEXT
  5
CA
100
AcDbEntity
  8
0
  6
BYBLOCK
 62
     3
100
AcDbMText
 10
-43.482052
 20
583.050608
 30
0.0
 40
3.0
 41
0.0
 71
     5
 72
     1
  1
\A1;93°
 11
0.725374
 21
0.688355
 31
0.0
  0
POINT
  5
CB
100
AcDbEntity
  8
DEFPOINTS
  6
BYBLOCK
 62
     0
100
AcDbPoint
 10
-31.458593
 20
588.653963
 30
0.0
  0
POINT
  5
CC
100
AcDbEntity
  8
DEFPOINTS
  6
BYBLOCK
 62
     0
100
AcDbPoint
 10
-9.316986
 20
547.936502
 30
0.0
  0
POINT
  5
CD
100
AcDbEntity
  8
DEFPOINTS
  6
BYBLOCK
 62
     0
100
AcDbPoint
 10
-8.518082
 20
547.094634
 30
0.0
  0
POINT
  5
CE
100
AcDbEntity
  8
DEFPOINTS
  6
BYBLOCK
 62
     0
100
AcDbPoint
 10
-9.318082
 20
547.094634
 30
0.0
  0
POINT
  5
CF
100
AcDbEntity
  8
DEFPOINTS
  6
BYBLOCK
 62
     0
100
AcDbPoint
 10
-7.212387
 20
588.094634
 30
0.0
  0
ENDBLK
  5
D1
100
AcDbEntity
  8
0
100
AcDbBlockEnd
  0
BLOCK
  5
182
100
AcDbEntity
  8
0
100
AcDbBlockBegin
  2
*D17
 70
     1
 10
0.0
 20
0.0
 30
0.0
  3
*D17
  1

  0
LINE
  5
17C
100
AcDbEntity
  8
0
  6
BYBLOCK
 62
     2
100
AcDbLine
 10
-397.76251
 20
587.207062
 30
0.0
 11
-406.258993
 21
578.152594
 31
0.0
  0
MTEXT
  5
17D
100
AcDbEntity
  8
0
  6
BYBLOCK
 62
     2
100
AcDbMText
 10
-401.604695
 20
585.669982
 30
0.0
 40
1.5
 41
0.0
 71
     5
 72
     1
  1
\A1;R0.8
 11
0.684281
 21
0.729219
 31
0.0
  0
LINE
  5
17E
100
AcDbEntity
  8
0
  6
BYBLOCK
 62
     2
100
AcDbLine
 10
-406.806417
 20
577.569219
 30
0.0
 11
-406.258993
 21
578.152594
 31
0.0
  0
INSERT
  5
17F
100
AcDbEntity
  8
0
  6
BYBLOCK
 62
     2
100
AcDbBlockReference
  2
_DOTSMALL
 10
-406.258993
 20
578.152594
 30
0.0
 50
226.82095
  0
POINT
  5
180
100
AcDbEntity
  8
DEFPOINTS
  6
BYBLOCK
 62
     0
100
AcDbPoint
 10
-406.258993
 20
578.152594
 30
0.0
  0
POINT
  5
181
100
AcDbEntity
  8
DEFPOINTS
  6
BYBLOCK
 62
     0
100
AcDbPoint
 10
-406.806417
 20
577.569219
 30
0.0
  0
ENDBLK
  5
183
100
AcDbEntity
  8
0
100
AcDbBlockEnd
  0
BLOCK
  5
138
100
AcDbEntity
  8
0
100
AcDbBlockBegin
  2
*D18
 70
     1
 10
0.0
 20
0.0
 30
0.0
  3
*D18
  1

  0
LINE
  5
131
100
AcDbEntity
  8
0
  6
BYBLOCK
 62
     2
100
AcDbLine
 10
-395.068899
 20
579.760014
 30
0.0
 11
-407.858983
 21
568.395299
 31
0.0
  0
MTEXT
  5
132
100
AcDbEntity
  8
0
  6
BYBLOCK
 62
     2
100
AcDbMText
 10
-400.155839
 20
577.581015
 30
0.0
 40
1.5
 41
0.0
 71
     5
 72
     1
  1
\A1;\U+22059.525
 11
0.747533
 21
0.664225
 31
0.0
  0
LINE
  5
133
100
AcDbEntity
  8
0
  6
BYBLOCK
 62
     2
100
AcDbLine
 10
-414.979231
 20
562.068554
 30
0.0
 11
-407.858983
 21
568.395299
 31
0.0
  0
INSERT
  5
134
100
AcDbEntity
  8
0
  6
BYBLOCK
 62
     2
100
AcDbBlockReference
  2
_DOTSMALL
 10
-414.979231
 20
562.068554
 30
0.0
 50
41.622907
  0
INSERT
  5
135
100
AcDbEntity
  8
0
  6
BYBLOCK
 62
     2
100
AcDbBlockReference
  2
_DOTSMALL
 10
-407.858983
 20
568.395299
 30
0.0
 50
221.622907
  0
POINT
  5
136
100
AcDbEntity
  8
DEFPOINTS
  6
BYBLOCK
 62
     0
100
AcDbPoint
 10
-407.858983
 20
568.395299
 30
0.0
  0
POINT
  5
137
100
AcDbEntity
  8
DEFPOINTS
  6
BYBLOCK
 62
     0
100
AcDbPoint
 10
-414.979231
 20
562.068554
 30
0.0
  0
ENDBLK
  5
139
100
AcDbEntity
  8
0
100
AcDbBlockEnd
  0
BLOCK
  5
4A
100
AcDbEntity
  8
0
100
AcDbBlockBegin
  2
*D19
 70
     1
 10
0.0
 20
0.0
 30
0.0
  3
*D19
  1

  0
LINE
  5
38
100
AcDbEntity
  8
0
  6
BYBLOCK
 62
     1
100
AcDbLine
 10
-775.770452
 20
481.740289
 30
0.0
 11
-785.522532
 21
481.740289
 31
0.0
  0
LINE
  5
39
100
AcDbEntity
  8
0
  6
BYBLOCK
 62
     1
100
AcDbLine
 10
-771.939527
 20
481.696844
 30
0.0
 11
-785.508764
 21
481.106771
 31
0.0
  0
ARC
  5
3A
100
AcDbEntity
  8
0
  6
BYBLOCK
 62
     1
100
AcDbCircle
 10
-770.940471
 20
481.740289
 30
0.0
 40
12.582061
100
AcDbArc
 50
161.707337
 51
180.0
  0
LINE
  5
3B
100
AcDbEntity
  8
0
  6
BYBLOCK
 62
     1
100
AcDbLine
 10
-782.886706
 20
485.689431
 30
0.0
 11
-777.362579
 21
502.400027
 31
0.0
  0
ARC
  5
3C
100
AcDbEntity
  8
0
  6
BYBLOCK
 62
     1
100
AcDbCircle
 10
-770.940471
 20
481.740289
 30
0.0
 40
12.582061
100
AcDbArc
 50
161.765699
 51
170.882849
  0
ARC
  5
3D
100
AcDbEntity
  8
0
  6
BYBLOCK
 62
     1
100
AcDbCircle
 10
-770.940471
 20
481.740289
 30
0.0
 40
12.582061
100
AcDbArc
 50
191.607151
 51
200.724301
  0
ARC
  5
3E
100
AcDbEntity
  8
0
  6
BYBLOCK
 62
     1
100
AcDbCircle
 10
-770.940471
 20
481.740289
 30
0.0
 40
12.582061
100
AcDbArc
 50
180.0
 51
182.49
  0
INSERT
  5
3F
100
AcDbEntity
  8
0
  6
BYBLOCK
 62
     1
100
AcDbBlockReference
  2
_OPEN30
 10
-783.522532
 20
481.740289
 30
0.0
 41
2.0
 42
2.0
 43
2.0
 50
265.441425
  0
INSERT
  5
40
100
AcDbEntity
  8
0
  6
BYBLOCK
 62
     1
100
AcDbBlockReference
  2
_OPEN30
 10
-783.510653
 20
481.193661
 30
0.0
 41
2.0
 42
2.0
 43
2.0
 50
97.048575
  0
MTEXT
  5
41
100
AcDbEntity
  8
0
  6
BYBLOCK
 62
     3
100
AcDbMText
 10
-777.750979
 20
493.260052
 30
0.0
 40
3.0
 41
0.0
 71
     5
 72
     1
  1
\A1;2.49°
 11
-0.313871
 21
-0.949466
 31
0.0
  0
POINT
  5
42
100
AcDbEntity
  8
DEFPOINTS
  6
BYBLOCK
 62
     0
100
AcDbPoint
 10
-783.517252
 20
481.375806
 30
0.0
  0
POINT
  5
46
100
AcDbEntity
  8
DEFPOINTS
  6
BYBLOCK
 62
     0
100
AcDbPoint
 10
-760.852185
 20
482.178989
 30
0.0
  0
POINT
  5
47
100
AcDbEntity
  8
DEFPOINTS
  6
BYBLOCK
 62
     0
100
AcDbPoint
 10
-774.770452
 20
481.740289
 30
0.0
  0
POINT
  5
48
100
AcDbEntity
  8
DEFPOINTS
  6
BYBLOCK
 62
     0
100
AcDbPoint
 10
-563.456566
 20
481.740289
 30
0.0
  0
POINT
  5
49
100
AcDbEntity
  8
DEFPOINTS
  6
BYBLOCK
 62
     0
100
AcDbPoint
 10
-770.940471
 20
481.740289
 30
0.0
  0
ENDBLK
  5
4B
100
AcDbEntity
  8
0
100
AcDbBlockEnd
  0
BLOCK
  5
1BD
100
AcDbEntity
  8
0
100
AcDbBlockBegin
  2
3
 70
     0
 10
0.0
 20
0.0
 30
0.0
  3
3
  1

  0
TEXT
  5
2B
100
AcDbEntity
  8
外形
  6
CONTINUOUS
 62
     2
100
AcDbText
 10
165.382129
 20
-23.368368
 30
0.0
 40
6.0
  1
S40V-SVUCR16
100
AcDbText
  0
DIMENSION
  5
2C
100
AcDbEntity
  8
寸法
  6
CONTINUOUS
100
AcDbDimension
  2
*D19
 10
63.950946
 20
15.66999
 30
0.0
 11
57.140439
 21
27.189754
 31
0.0
 12
834.891418
 22
-466.070298
 32
0.0
 70
     2
  3
STANDARD
100
AcDb2LineAngularDimension
 13
60.120965
 23
15.66999
 33
0.0
 14
271.434852
 24
15.66999
 34
0.0
 15
74.039232
 25
16.10869
 35
0.0
 16
51.374166
 26
15.305508
 36
0.0
1001
ACAD
1000
DSTYLE
1002
{
1070
    40
1040
1.0
1002
}
  0
LINE
  5
4C
100
AcDbEntity
  8
外形
  6
CONTINUOUS
100
AcDbLine
 10
250.87439
 20
128.024335
 30
0.0
 11
119.450946
 21
128.024335
 31
0.0
  0
LINE
  5
4D
100
AcDbEntity
  8
外形
  6
CONTINUOUS
100
AcDbLine
 10
77.524952
 20
91.024335
 30
0.0
 11
250.87439
 21
91.024335
 31
0.0
  0
LINE
  5
4E
100
AcDbEntity
  8
外形
  6
CONTINUOUS
100
AcDbLine
 10
118.950946
 20
5.134337
 30
0.0
 11
361.946858
 21
5.134337
 31
0.0
  0
LINE
  5
4F
100
AcDbEntity
  8
外形
  6
CONTINUOUS
100
AcDbLine
 10
118.950946
 20
26.205644
 30
0.0
 11
361.946858
 21
26.205644
 31
0.0
  0
LINE
  5
50
100
AcDbEntity
  8
外形
  6
CONTINUOUS
100
AcDbLine
 10
119.450946
 20
-2.83001
 30
0.0
 11
361.946858
 21
-2.83001
 31
0.0
  0
LINE
  5
51
100
AcDbEntity
  8
外形
  6
CONTINUOUS
100
AcDbLine
 10
119.450946
 20
34.16999
 30
0.0
 11
361.946858
 21
34.16999
 31
0.0
  0
LINE
  5
52
100
AcDbEntity
  8
外形
  6
CENTER
 62
     1
100
AcDbLine
 10
64.296289
 20
108.024335
 30
0.0
 11
371.434852
 21
108.024335
 31
0.0
  0
LINE
  5
54
100
AcDbEntity
  8
外形
  6
CENTER
 62
     1
100
AcDbLine
 10
60.120965
 20
15.66999
 30
0.0
 11
371.434852
 21
15.66999
 31
0.0
  0
LINE
  5
55
100
AcDbEntity
  8
外形
  6
CONTINUOUS
100
AcDbLine
 10
118.950946
 20
100.424993
 30
0.0
 11
250.87439
 21
100.424993
 31
0.0
  0
LINE
  5
56
100
AcDbEntity
  8
外形
  6
CONTINUOUS
100
AcDbLine
 10
118.950946
 20
115.623677
 30
0.0
 11
250.87439
 21
115.623677
 31
0.0
  0
DIMENSION
  5
57
100
AcDbEntity
  8
寸法
  6
CONTINUOUS
100
AcDbDimension
  2
*D2
 10
363.946858
 20
63.743329
 30
0.0
 11
213.948902
 21
66.243329
 31
0.0
 12
73.269028
 22
-466.070298
 32
0.0
  3
STANDARD
100
AcDbAlignedDimension
 13
63.950946
 23
81.024335
 33
0.0
 14
363.946858
 24
93.024335
 34
0.0
100
AcDbRotatedDimension
1001
ACAD
1000
DSTYLE
1002
{
1070
    40
1040
1.0
1002
}
  0
DIMENSION
  5
64
100
AcDbEntity
  8
参考
  6
CONTINUOUS
100
AcDbDimension
  2
*D13
 10
-13.219384
 20
63.346397
 30
0.0
 11
-22.459369
 21
65.096397
 31
0.0
 12
47.220292
 22
-466.070298
 32
0.0
  3
参考寸法
100
AcDbAlignedDimension
 13
-31.699354
 23
91.25011
 33
0.0
 14
-13.219384
 24
81.024343
 34
0.0
100
AcDbRotatedDimension
1001
ACAD
1000
DSTYLE
1002
{
1070
   140
1040
1.5
1070
    41
1040
1.0
1002
}
  0
DIMENSION
  5
72
100
AcDbEntity
  8
参考
  6
CONTINUOUS
100
AcDbDimension
  2
*D12
 10
-21.699354
 20
70.633518
 30
0.0
 11
-26.699354
 21
72.383518
 31
0.0
 12
47.220292
 22
-466.070298
 32
0.0
  3
参考寸法
100
AcDbAlignedDimension
 13
-31.699354
 23
91.25011
 33
0.0
 14
-21.699354
 24
84.248034
 34
0.0
100
AcDbRotatedDimension
1001
ACAD
1000
DSTYLE
1002
{
1070
   140
1040
1.5
1070
    41
1040
1.0
1002
}
  0
DIMENSION
  5
7F
100
AcDbEntity
  8
参考
  6
CONTINUOUS
100
AcDbDimension
  2
*D4
 10
118.950946
 20
73.79291
 30
0.0
 11
91.450946
 21
75.54291
 31
0.0
 12
73.269028
 22
-466.070298
 32
0.0
  3
参考寸法
100
AcDbAlignedDimension
 13
63.950946
 23
81.024335
 33
0.0
 14
118.950946
 24
91.024335
 34
0.0
100
AcDbRotatedDimension
1001
ACAD
1000
DSTYLE
1002
{
1070
   140
1040
1.5
1070
    41
1040
1.0
1002
}
  0
DIMENSION
  5
8C
100
AcDbEntity
  8
寸法
  6
CONTINUOUS
100
AcDbDimension
  2
*D10
 10
-13.219354
 20
81.024335
 30
0.0
 11
-24.446779
 21
57.854065
 31
0.0
 12
454.764005
 22
-471.070298
 32
0.0
 70
     2
  3
STANDARD
100
AcDb2LineAngularDimension
 13
-13.169356
 23
129.868279
 33
0.0
 14
-13.169356
 24
81.441192
 34
0.0
 15
-8.695755
 25
113.211413
 35
0.0
 16
-14.482884
 26
53.178113
 36
0.0
1001
ACAD
1000
DSTYLE
1002
{
1070
    40
1040
1.0
1002
}
  0
LINE
  5
9F
100
AcDbEntity
  8
外形
  6
CONTINUOUS
100
AcDbLine
 10
119.450946
 20
26.205644
 30
0.0
 11
119.450946
 21
34.66999
 31
0.0
  0
LINE
  5
A0
100
AcDbEntity
  8
外形
  6
CONTINUOUS
100
AcDbLine
 10
118.950946
 20
35.16999
 30
0.0
 11
118.950946
 21
25.222477
 31
0.0
  0
SPLINE
  5
A1
100
AcDbEntity
  8
外形
  6
CONTINUOUS
100
AcDbSpline
210
0.0
220
0.0
230
1.0
 70
     8
 71
     3
 72
     9
 73
     5
 74
     0
 42
0.0000001
 43
0.0000001
 40
0.0
 40
0.0
 40
0.0
 40
0.0
 40
12.81660498967031
 40
30.4649874561106
 40
30.4649874561106
 40
30.4649874561106
 40
30.4649874561106
 10
113.9536361616214
 20
35.16999042276268
 30
0.0
 10
110.4574354158922
 20
32.55663485704241
 30
0.0
 10
102.1469887766671
 20
26.34470552067034
 30
0.0
 10
91.70150786301231
 20
26.03210222283752
 30
0.0
 10
65.62644267887977
 20
18.41730581361639
 30
0.0
  0
ARC
  5
A2
100
AcDbEntity
  8
外形
  6
CONTINUOUS
100
AcDbCircle
 10
95.623333
 20
43.16999
 30
0.0
 40
20.0
100
AcDbArc
 50
277.789877
 51
336.421822
  0
LINE
  5
A3
100
AcDbEntity
  8
外形
  6
CONTINUOUS
100
AcDbLine
 10
73.950946
 20
9.353796
 30
0.0
 11
73.950946
 21
-3.83001
 31
0.0
  0
LINE
  5
A4
100
AcDbEntity
  8
外形
  6
CONTINUOUS
100
AcDbLine
 10
119.450946
 20
-3.33001
 30
0.0
 11
119.450946
 21
5.134337
 31
0.0
  0
LINE
  5
A5
100
AcDbEntity
  8
外形
  6
CONTINUOUS
100
AcDbLine
 10
118.950946
 20
6.117504
 30
0.0
 11
118.950946
 21
-3.83001
 31
0.0
  0
LINE
  5
A6
100
AcDbEntity
  8
外形
  6
CONTINUOUS
100
AcDbLine
 10
64.853636
 20
-3.83001
 30
0.0
 11
64.853636
 21
7.761741
 31
0.0
  0
LINE
  5
A7
100
AcDbEntity
  8
外形
  6
CONTINUOUS
100
AcDbLine
 10
65.053636
 20
-3.83001
 30
0.0
 11
65.053636
 21
7.770438
 31
0.0
  0
ARC
  5
A8
100
AcDbEntity
  8
外形
  6
CONTINUOUS
100
AcDbCircle
 10
73.954238
 20
6.117504
 30
0.0
 40
5.0
100
AcDbArc
 50
269.962277
 51
0.0
  0
LINE
  5
A9
100
AcDbEntity
  8
外形
  6
CONTINUOUS
100
AcDbLine
 10
118.950946
 20
-3.83001
 30
0.0
 11
64.853636
 21
-3.83001
 31
0.0
  0
LINE
  5
AA
100
AcDbEntity
  8
外形
  6
CONTINUOUS
100
AcDbLine
 10
119.450946
 20
-3.33001
 30
0.0
 11
118.950946
 21
-3.83001
 31
0.0
  0
SPLINE
  5
AB
100
AcDbEntity
  8
外形
  6
CONTINUOUS
100
AcDbSpline
210
-0.3508038267814725
220
0.9364489709084391
230
0.0
 70
    24
 71
     3
 72
     8
 73
     4
 74
     2
 42
0.0000001
 43
0.0000001
 44
0.0000000001
 40
0.0
 40
0.0
 40
0.0
 40
0.0
 40
20.6951008427108
 40
20.6951008427108
 40
20.6951008427108
 40
20.6951008427108
 10
98.33414402370621
 20
23.35455437750454
 30
0.0
 10
91.87417539470523
 20
20.93458085375406
 30
0.0
 10
85.41420676570426
 20
18.51460733000358
 30
0.0
 10
78.9542381367033
 20
16.09463380625311
 30
0.0
 11
98.33414402370621
 21
23.35455437750454
 31
0.0
 11
78.9542381367033
 21
16.09463380625311
 31
0.0
  0
LINE
  5
AC
100
AcDbEntity
  8
外形
  6
CONTINUOUS
100
AcDbLine
 10
78.954238
 20
6.117504
 30
0.0
 11
118.950946
 21
6.117504
 31
0.0
  0
LINE
  5
AD
100
AcDbEntity
  8
外形
  6
CONTINUOUS
100
AcDbLine
 10
63.950946
 20
15.66999
 30
0.0
 11
65.626443
 21
18.417306
 31
0.0
  0
LINE
  5
AE
100
AcDbEntity
  8
外形
  6
CONTINUOUS
100
AcDbLine
 10
74.039232
 20
16.10869
 30
0.0
 11
75.257814
 21
18.106802
 31
0.0
  0
LINE
  5
AF
100
AcDbEntity
  8
外形
  6
CONTINUOUS
100
AcDbLine
 10
75.257814
 20
18.106802
 30
0.0
 11
74.88071
 21
13.325905
 31
0.0
  0
LINE
  5
B0
100
AcDbEntity
  8
外形
  6
CONTINUOUS
100
AcDbLine
 10
63.950946
 20
15.66999
 30
0.0
 11
65.626443
 21
18.417306
 31
0.0
  0
ARC
  5
B1
100
AcDbEntity
  8
外形
  6
CONTINUOUS
100
AcDbCircle
 10
74.08506
 20
-1.067944
 30
0.0
 40
17.839926
100
AcDbArc
 50
74.160885
 51
86.577683
  0
LINE
  5
B2
100
AcDbEntity
  8
外形
  6
CONTINUOUS
100
AcDbLine
 10
73.201393
 20
8.124752
 30
0.0
 11
74.419975
 21
10.122864
 31
0.0
  0
LINE
  5
B3
100
AcDbEntity
  8
外形
  6
CONTINUOUS
100
AcDbLine
 10
74.320624
 20
12.407531
 30
0.0
 11
74.419975
 21
10.122864
 31
0.0
  0
LINE
  5
B4
100
AcDbEntity
  8
外形
  6
CONTINUOUS
100
AcDbLine
 10
73.063238
 20
11.30175
 30
0.0
 11
73.201393
 21
8.124752
 31
0.0
  0
LINE
  5
B5
100
AcDbEntity
  8
外形
  6
CONTINUOUS
100
AcDbLine
 10
65.340537
 20
10.96592
 30
0.0
 11
65.478692
 21
7.788922
 31
0.0
  0
LINE
  5
B6
100
AcDbEntity
  8
外形
  6
CONTINUOUS
100
AcDbLine
 10
64.741647
 20
10.939876
 30
0.0
 11
63.950946
 21
15.66999
 31
0.0
  0
LINE
  5
B7
100
AcDbEntity
  8
外形
  6
CONTINUOUS
100
AcDbLine
 10
74.039232
 20
16.10869
 30
0.0
 11
73.662128
 21
11.327793
 31
0.0
  0
LINE
  5
B8
100
AcDbEntity
  8
外形
  6
CONTINUOUS
100
AcDbLine
 10
64.741647
 20
10.939876
 30
0.0
 11
73.662128
 21
11.327793
 31
0.0
  0
LINE
  5
B9
100
AcDbEntity
  8
外形
  6
CONTINUOUS
100
AcDbLine
 10
64.853636
 20
7.761741
 30
0.0
 11
73.201393
 21
8.124752
 31
0.0
  0
LINE
  5
BA
100
AcDbEntity
  8
外形
  6
CONTINUOUS
100
AcDbLine
 10
73.662128
 20
11.327793
 30
0.0
 11
74.88071
 21
13.325905
 31
0.0
  0
LINE
  5
BB
100
AcDbEntity
  8
外形
  6
CONTINUOUS
100
AcDbLine
 10
74.039232
 20
16.10869
 30
0.0
 11
63.950946
 21
15.66999
 31
0.0
  0
LINE
  5
BC
100
AcDbEntity
  8
外形
  6
CONTINUOUS
100
AcDbLine
 10
64.741647
 20
10.939876
 30
0.0
 11
63.950946
 21
15.66999
 31
0.0
  0
LINE
  5
BD
100
AcDbEntity
  8
外形
  6
CONTINUOUS
100
AcDbLine
 10
64.741647
 20
10.939876
 30
0.0
 11
73.662128
 21
11.327793
 31
0.0
  0
LINE
  5
BE
100
AcDbEntity
  8
外形
  6
CONTINUOUS
100
AcDbLine
 10
78.954238
 20
16.094634
 30
0.0
 11
78.954238
 21
6.117504
 31
0.0
  0
LINE
  5
BF
100
AcDbEntity
  8
外形
  6
CONTINUOUS
100
AcDbLine
 10
75.257814
 20
18.106802
 30
0.0
 11
65.169528
 21
17.668102
 31
0.0
  0
LINE
  5
C0
100
AcDbEntity
  8
外形
  6
CONTINUOUS
100
AcDbLine
 10
104.957449
 20
25.222477
 30
0.0
 11
118.950946
 21
25.222477
 31
0.0
  0
LINE
  5
C1
100
AcDbEntity
  8
外形
  6
CONTINUOUS
100
AcDbLine
 10
118.950946
 20
35.16999
 30
0.0
 11
113.953636
 21
35.16999
 31
0.0
  0
LINE
  5
C2
100
AcDbEntity
  8
外形
  6
CONTINUOUS
100
AcDbLine
 10
119.450946
 20
34.66999
 30
0.0
 11
118.950946
 21
35.16999
 31
0.0
  0
DIMENSION
  5
C3
100
AcDbEntity
  8
寸法
  6
CONTINUOUS
100
AcDbDimension
  2
*D16
 10
66.056641
 20
122.024335
 30
0.0
 11
29.786976
 21
116.98031
 31
0.0
 12
73.269028
 22
-466.070298
 32
0.0
 70
     2
  3
STANDARD
100
AcDb2LineAngularDimension
 13
64.750946
 23
81.024335
 33
0.0
 14
63.950946
 24
81.024335
 34
0.0
 15
63.952043
 25
81.866204
 35
0.0
 16
41.810435
 26
122.583665
 36
0.0
1001
ACAD
1000
DSTYLE
1002
{
1070
    40
1040
1.0
1002
}
  0
LINE
  5
D2
100
AcDbEntity
  8
外形
  6
CENTER
 62
     1
100
AcDbLine
 10
62.694059
 20
94.161628
 30
0.0
 11
75.955525
 21
94.161628
 31
0.0
  0
DIMENSION
  5
D3
100
AcDbEntity
  8
寸法
  6
CONTINUOUS
100
AcDbDimension
  2
*D7
 10
54.633992
 20
108.024335
 30
0.0
 11
52.133992
 21
94.524335
 31
0.0
 12
73.269028
 22
-466.070298
 32
0.0
  3
STANDARD
100
AcDbAlignedDimension
 13
63.950946
 23
81.024335
 33
0.0
 14
64.296289
 24
108.024335
 34
0.0
 50
90.0
100
AcDbRotatedDimension
1001
ACAD
1000
DSTYLE
1002
{
1070
    40
1040
1.0
1002
}
  0
DIMENSION
  5
E0
100
AcDbEntity
  8
寸法
  6
CONTINUOUS
100
AcDbDimension
  2
*D8
 10
54.633992
 20
122.024335
 30
0.0
 11
52.133992
 21
115.024335
 31
0.0
 12
73.269028
 22
-466.070298
 32
0.0
  3
STANDARD
100
AcDbAlignedDimension
 13
64.296289
 23
108.024335
 33
0.0
 14
66.056641
 24
122.024335
 34
0.0
 50
90.0
100
AcDbRotatedDimension
1001
ACAD
1000
DSTYLE
1002
{
1070
    40
1040
1.0
1002
}
  0
LEADER
  5
ED
100
AcDbEntity
  8
寸法
  6
CONTINUOUS
 62
     1
100
AcDbLeader
  3
STANDARD
 73
     0
 74
     0
 75
     1
 40
3.0
 41
26.0
 76
     3
 10
0.416971
 20
126.990774
 30
0.0
 10
8.384296
 20
140.231983
 30
0.0
 10
10.384296
 20
140.231983
 30
0.0
 77
   256
340
EE
213
-0.1129475379637483
223
0.5510341987360618
233
0.0
1001
ACAD
1000
DSTYLE
1002
{
1070
   284
1070
    13
1070
   146
1040
0.5
1070
   272
1070
     3
1070
    40
1040
1.0
1070
   287
1070
     0
1002
}
  0
ARC
  5
EF
100
AcDbEntity
  8
外形
  6
CONTINUOUS
100
AcDbCircle
 10
-13.199354
 20
108.024335
 30
0.0
 40
20.0
100
AcDbArc
 50
22.331645
 51
157.668355
  0
CIRCLE
  5
F0
100
AcDbEntity
  8
外形
  6
CENTER
 62
     1
100
AcDbCircle
 10
-13.199354
 20
106.024335
 30
0.0
 40
25.0
  0
LINE
  5
F1
100
AcDbEntity
  8
外形
  6
CENTER
 62
     1
100
AcDbLine
 10
-13.199354
 20
134.868279
 30
0.0
 11
-13.199354
 21
81.024335
 31
0.0
  0
DIMENSION
  5
F2
100
AcDbEntity
  8
参考
  6
CONTINUOUS
100
AcDbDimension
  2
*D3
 10
-13.199354
 20
138.663982
 30
0.0
 11
-22.449354
 21
140.413982
 31
0.0
 12
47.220292
 22
-466.070298
 32
0.0
  3
参考寸法
100
AcDbAlignedDimension
 13
-31.699354
 23
115.623677
 33
0.0
 14
-13.199354
 24
134.868279
 34
0.0
100
AcDbRotatedDimension
1001
ACAD
1000
DSTYLE
1002
{
1070
   140
1040
1.5
1070
    41
1040
1.0
1002
}
  0
LINE
  5
FF
100
AcDbEntity
  8
外形
  6
CENTER
 62
     1
100
AcDbLine
 10
15.869102
 20
108.024335
 30
0.0
 11
-43.749396
 21
108.024335
 31
0.0
  0
LINE
  5
100
100
AcDbEntity
  8
外形
  6
CONTINUOUS
100
AcDbLine
 10
5.300646
 20
115.623677
 30
0.0
 11
5.300646
 21
100.424993
 31
0.0
  0
LINE
  5
101
100
AcDbEntity
  8
外形
  6
CONTINUOUS
100
AcDbLine
 10
-31.699354
 20
115.623677
 30
0.0
 11
-31.699354
 21
91.25011
 31
0.0
  0
LINE
  5
102
100
AcDbEntity
  8
外形
  6
CONTINUOUS
100
AcDbLine
 10
-6.764358
 20
126.954022
 30
0.0
 11
-13.219354
 21
81.024335
 31
0.0
  0
LINE
  5
103
100
AcDbEntity
  8
外形
  6
CONTINUOUS
100
AcDbLine
 10
-31.699354
 20
95.824335
 30
0.0
 11
-19.157381
 21
95.824335
 31
0.0
  0
DIMENSION
  5
104
100
AcDbEntity
  8
参考
  6
CONTINUOUS
100
AcDbDimension
  2
*D11
 10
-31.699354
 20
91.25011
 30
0.0
 11
-43.362007
 21
91.078242
 31
0.0
 12
47.220292
 22
-466.070298
 32
0.0
 70
     2
  3
参考寸法
100
AcDb2LineAngularDimension
 13
-21.699354
 23
84.248034
 33
0.0
 14
5.052229
 24
84.248034
 34
0.0
 15
-21.699354
 25
84.248034
 35
0.0
 16
-40.948765
 26
92.551419
 36
0.0
1001
ACAD
1000
DSTYLE
1002
{
1070
   140
1040
1.5
1070
    41
1040
1.0
1002
}
  0
ARC
  5
113
100
AcDbEntity
  8
外形
  6
CONTINUOUS
100
AcDbCircle
 10
-13.199354
 20
108.024335
 30
0.0
 40
25.25
100
AcDbArc
 50
250.328089
 51
252.420204
  0
LINE
  5
114
100
AcDbEntity
  8
外形
  6
CONTINUOUS
100
AcDbLine
 10
-21.699354
 20
84.248034
 30
0.0
 11
-31.699354
 21
91.25011
 31
0.0
  0
LINE
  5
115
100
AcDbEntity
  8
外形
  6
CONTINUOUS
100
AcDbLine
 10
-19.071397
 20
96.43614
 30
0.0
 11
-21.000742
 21
82.708136
 31
0.0
  0
ARC
  5
116
100
AcDbEntity
  8
外形
  6
CONTINUOUS
100
AcDbCircle
 10
-13.199354
 20
108.024335
 30
0.0
 40
20.0
100
AcDbArc
 50
301.788331
 51
337.668355
  0
LINE
  5
117
100
AcDbEntity
  8
外形
  6
CONTINUOUS
100
AcDbLine
 10
-15.922345
 20
95.99357
 30
0.0
 11
-17.85169
 21
82.265566
 31
0.0
  0
LINE
  5
118
100
AcDbEntity
  8
外形
  6
CONTINUOUS
100
AcDbLine
 10
-17.85169
 20
82.265566
 30
0.0
 11
-21.000742
 21
82.708136
 31
0.0
  0
LINE
  5
119
100
AcDbEntity
  8
外形
  6
CONTINUOUS
100
AcDbLine
 10
-13.219356
 20
81.024336
 30
0.0
 11
-17.85169
 21
82.265566
 31
0.0
  0
LINE
  5
11A
100
AcDbEntity
  8
外形
  6
CONTINUOUS
100
AcDbLine
 10
-2.6637
 20
91.024335
 30
0.0
 11
-11.813946
 21
91.024335
 31
0.0
  0
LINE
  5
11B
100
AcDbEntity
  8
外形
  6
CONTINUOUS
100
AcDbLine
 10
-15.922345
 20
95.99357
 30
0.0
 11
-19.071397
 21
96.43614
 31
0.0
  0
LINE
  5
11C
100
AcDbEntity
  8
外形
  6
CONTINUOUS
100
AcDbLine
 10
-11.127328
 20
95.909873
 30
0.0
 11
-15.922345
 21
95.99357
 31
0.0
  0
LINE
  5
11D
100
AcDbEntity
  8
外形
  6
CONTINUOUS
100
AcDbLine
 10
-7.45718
 20
122.024335
 30
0.0
 11
-27.482211
 21
122.024335
 31
0.0
  0
MTEXT
  5
EE
102
{ACAD_REACTORS
330
ED
102
}
100
AcDbEntity
  8
寸法
  6
CONTINUOUS
 62
     3
100
AcDbMText
 10
11.497244
 20
142.180949
 30
0.0
 40
3.0
 41
0.0
 71
     4
 72
     1
  1
%%c50最小加工径
  0
DIMENSION
  5
11E
100
AcDbEntity
  8
参考
  6
CONTINUOUS
100
AcDbDimension
  2
*D15
 10
75.58292
 20
127.524335
 30
0.0
 11
72.168694
 21
135.042168
 31
0.0
 12
73.269028
 22
-466.070298
 32
0.0
 70
     2
  3
参考寸法
100
AcDb2LineAngularDimension
 13
63.950946
 23
81.824335
 33
0.0
 14
63.950946
 24
81.024335
 34
0.0
 15
66.056641
 25
122.024335
 35
0.0
 16
73.3906
 26
132.058354
 36
0.0
1001
ACAD
1000
DSTYLE
1002
{
1070
   140
1040
1.5
1070
    41
1040
1.0
1002
}
  0
LINE
  5
12D
100
AcDbEntity
  8
外形
  6
CONTINUOUS
100
AcDbLine
 10
119.450946
 20
128.024335
 30
0.0
 11
118.950946
 21
127.524335
 31
0.0
  0
LINE
  5
12E
100
AcDbEntity
  8
外形
  6
CONTINUOUS
100
AcDbLine
 10
119.450946
 20
115.623677
 30
0.0
 11
119.450946
 21
128.024335
 31
0.0
  0
DIMENSION
  5
12F
100
AcDbEntity
  8
参考
  6
CONTINUOUS
100
AcDbDimension
  2
*D18
 10
65.803512
 20
90.998256
 30
0.0
 11
81.789298
 21
105.202534
 31
0.0
 12
480.782743
 22
-471.070298
 32
0.0
 70
   131
  3
参考寸法
100
AcDbDiametricDimension
 15
72.92376
 25
97.325
 35
0.0
 40
0.0
1001
ACAD
1000
DSTYLE
1002
{
1070
   140
1040
1.5
1070
    41
1040
1.0
1002
}
  0
LINE
  5
13A
100
AcDbEntity
  8
外形
  6
CONTINUOUS
100
AcDbLine
 10
113.953636
 20
101.859921
 30
0.0
 11
113.953636
 21
114.188749
 31
0.0
  0
LINE
  5
13B
100
AcDbEntity
  8
外形
  6
CONTINUOUS
100
AcDbLine
 10
74.544347
 20
102.051538
 30
0.0
 11
75.639925
 21
105.076781
 31
0.0
  0
LINE
  5
13C
100
AcDbEntity
  8
外形
  6
CONTINUOUS
100
AcDbLine
 10
74.039232
 20
92.413384
 30
0.0
 11
74.77523
 21
106.457052
 31
0.0
  0
LINE
  5
13D
100
AcDbEntity
  8
外形
  6
CONTINUOUS
100
AcDbLine
 10
64.68804
 20
95.909872
 30
0.0
 11
73.345918
 21
106.99145
 31
0.0
  0
LINE
  5
13E
100
AcDbEntity
  8
外形
  6
CONTINUOUS
100
AcDbLine
 10
63.952043
 20
81.866204
 30
0.0
 11
66.056641
 21
122.024335
 31
0.0
  0
DIMENSION
  5
13F
100
AcDbEntity
  8
参考
  6
CONTINUOUS
100
AcDbDimension
  2
*D6
 10
71.913656
 20
83.528615
 30
0.0
 11
75.788656
 21
85.278615
 31
0.0
 12
480.782743
 22
-471.070298
 32
0.0
  3
参考寸法
100
AcDbAlignedDimension
 13
66.813617
 23
94.079756
 33
0.0
 14
71.913656
 24
94.079756
 34
0.0
 50
360.0
100
AcDbRotatedDimension
1001
ACAD
1000
DSTYLE
1002
{
1070
   140
1040
1.5
1070
    41
1040
1.0
1002
}
  0
LINE
  5
14D
100
AcDbEntity
  8
外形
  6
CONTINUOUS
100
AcDbLine
 10
65.381355
 20
81.331806
 30
0.0
 11
74.039232
 21
92.413384
 31
0.0
  0
DIMENSION
  5
14E
100
AcDbEntity
  8
参考
  6
CONTINUOUS
100
AcDbDimension
  2
*D5
 10
89.369634
 20
91.024335
 30
0.0
 11
87.619634
 21
86.024335
 31
0.0
 12
73.269028
 22
-466.070298
 32
0.0
  3
参考寸法
100
AcDbAlignedDimension
 13
63.950946
 23
81.024335
 33
0.0
 14
78.284365
 24
91.024335
 34
0.0
 50
90.0
100
AcDbRotatedDimension
1001
ACAD
1000
DSTYLE
1002
{
1070
   140
1040
1.5
1070
    41
1040
1.0
1002
}
  0
LINE
  5
15B
100
AcDbEntity
  8
外形
  6
CENTER
 62
     1
100
AcDbLine
 10
69.363636
 20
87.067943
 30
0.0
 11
69.363636
 21
101.524335
 31
0.0
  0
CIRCLE
  5
15C
100
AcDbEntity
  8
外形
  6
CONTINUOUS
100
AcDbCircle
 10
69.363636
 20
94.161628
 30
0.0
 40
4.7625
  0
LINE
  5
15D
100
AcDbEntity
  8
外形
  6
CONTINUOUS
 62
     1
100
AcDbLine
 10
64.750946
 20
81.024335
 30
0.0
 11
63.950946
 21
81.024335
 31
0.0
  0
ARC
  5
15E
100
AcDbEntity
  8
外形
  6
CONTINUOUS
100
AcDbCircle
 10
64.750946
 20
81.824335
 30
0.0
 40
0.8
100
AcDbArc
 50
177.0
 51
322.0
  0
LINE
  5
15F
100
AcDbEntity
  8
外形
  6
CONTINUOUS
 62
     1
100
AcDbLine
 10
63.950946
 20
81.824335
 30
0.0
 11
63.950946
 21
81.024335
 31
0.0
  0
ARC
  5
160
100
AcDbEntity
  8
外形
  6
CONTINUOUS
100
AcDbCircle
 10
73.954238
 20
87.524335
 30
0.0
 40
5.0
100
AcDbArc
 50
44.427004
 51
88.959845
  0
CIRCLE
  5
161
100
AcDbEntity
  8
外形
  6
CONTINUOUS
100
AcDbCircle
 10
69.363636
 20
94.161628
 30
0.0
 40
2.550019
  0
ARC
  5
162
100
AcDbEntity
  8
外形
  6
CONTINUOUS
100
AcDbCircle
 10
70.56544
 20
94.85549
 30
0.0
 40
0.394205
100
AcDbArc
 50
180.283476
 51
239.716524
  0
LINE
  5
163
100
AcDbEntity
  8
外形
  6
CONTINUOUS
100
AcDbLine
 10
70.167772
 20
95.554433
 30
0.0
 11
70.17124
 21
94.85354
 31
0.0
  0
ARC
  5
164
100
AcDbEntity
  8
外形
  6
CONTINUOUS
100
AcDbCircle
 10
70.56544
 20
93.467766
 30
0.0
 40
0.394205
100
AcDbArc
 50
120.283476
 51
179.716524
  0
LINE
  5
165
100
AcDbEntity
  8
外形
  6
CONTINUOUS
100
AcDbLine
 10
70.17124
 20
93.469717
 30
0.0
 11
70.167772
 21
92.768824
 31
0.0
  0
LINE
  5
166
100
AcDbEntity
  8
外形
  6
CONTINUOUS
100
AcDbLine
 10
70.971908
 20
94.161628
 30
0.0
 11
70.366651
 21
93.808178
 31
0.0
  0
LINE
  5
167
100
AcDbEntity
  8
外形
  6
CONTINUOUS
100
AcDbLine
 10
70.366651
 20
94.515078
 30
0.0
 11
70.971908
 21
94.161628
 31
0.0
  0
ARC
  5
168
100
AcDbEntity
  8
外形
  6
CONTINUOUS
100
AcDbCircle
 10
69.363636
 20
95.549352
 30
0.0
 40
0.394205
100
AcDbArc
 50
240.283476
 51
299.716524
  0
ARC
  5
169
100
AcDbEntity
  8
外形
  6
CONTINUOUS
100
AcDbCircle
 10
68.161832
 20
94.85549
 30
0.0
 40
0.394205
100
AcDbArc
 50
300.283476
 51
359.716524
  0
LINE
  5
16A
100
AcDbEntity
  8
外形
  6
CONTINUOUS
100
AcDbLine
 10
68.5595
 20
95.554433
 30
0.0
 11
69.168225
 21
95.206989
 31
0.0
  0
LINE
  5
16B
100
AcDbEntity
  8
外形
  6
CONTINUOUS
100
AcDbLine
 10
68.556032
 20
94.85354
 30
0.0
 11
68.5595
 21
95.554433
 31
0.0
  0
ARC
  5
16C
100
AcDbEntity
  8
外形
  6
CONTINUOUS
100
AcDbCircle
 10
68.161832
 20
93.467766
 30
0.0
 40
0.394205
100
AcDbArc
 50
0.283476
 51
59.716524
  0
ARC
  5
16D
100
AcDbEntity
  8
外形
  6
CONTINUOUS
100
AcDbCircle
 10
69.363636
 20
92.773905
 30
0.0
 40
0.394205
100
AcDbArc
 50
60.283476
 51
119.716524
  0
LINE
  5
16E
100
AcDbEntity
  8
外形
  6
CONTINUOUS
100
AcDbLine
 10
68.5595
 20
92.768824
 30
0.0
 11
68.556032
 21
93.469717
 31
0.0
  0
LINE
  5
16F
100
AcDbEntity
  8
外形
  6
CONTINUOUS
100
AcDbLine
 10
69.168225
 20
93.116267
 30
0.0
 11
68.5595
 21
92.768824
 31
0.0
  0
LINE
  5
170
100
AcDbEntity
  8
外形
  6
CONTINUOUS
100
AcDbLine
 10
68.360621
 20
93.808178
 30
0.0
 11
67.755364
 21
94.161628
 31
0.0
  0
LINE
  5
171
100
AcDbEntity
  8
外形
  6
CONTINUOUS
100
AcDbLine
 10
67.755364
 20
94.161628
 30
0.0
 11
68.360621
 21
94.515078
 31
0.0
  0
LINE
  5
172
100
AcDbEntity
  8
外形
  6
CONTINUOUS
100
AcDbLine
 10
69.559047
 20
95.206989
 30
0.0
 11
70.167772
 21
95.554433
 31
0.0
  0
LINE
  5
173
100
AcDbEntity
  8
外形
  6
CONTINUOUS
100
AcDbLine
 10
70.167772
 20
92.768824
 30
0.0
 11
69.559047
 21
93.116267
 31
0.0
  0
SPLINE
  5
174
100
AcDbEntity
  8
外形
  6
CONTINUOUS
100
AcDbSpline
210
0.0
220
0.0
230
1.0
 70
     8
 71
     3
 72
     9
 73
     5
 74
     0
 42
0.0000001
 43
0.0000001
 40
22.08840203346483
 40
22.08840203346483
 40
22.08840203346483
 40
22.08840203346483
 40
35.29268756219788
 40
42.39497312149132
 40
42.39497312149132
 40
42.39497312149132
 40
42.39497312149132
 10
97.76511002563252
 20
91.02433538118891
 30
0.0
 10
101.9706870217485
 20
92.1380038011061
 30
0.0
 10
107.8710622973878
 20
94.85618673868629
 30
0.0
 10
112.3774968474157
 20
100.0450874348895
 30
0.0
 10
113.953636161622
 20
101.8599213782223
 30
0.0
  0
LINE
  5
175
100
AcDbEntity
  8
外形
  6
CONTINUOUS
100
AcDbLine
 10
118.950946
 20
101.859921
 30
0.0
 11
113.953636
 21
101.859921
 31
0.0
  0
LINE
  5
176
100
AcDbEntity
  8
外形
  6
CONTINUOUS
100
AcDbLine
 10
119.450946
 20
91.024335
 30
0.0
 11
119.450946
 21
100.424993
 31
0.0
  0
LINE
  5
177
100
AcDbEntity
  8
外形
  6
CONTINUOUS
100
AcDbLine
 10
118.950946
 20
91.024335
 30
0.0
 11
118.950946
 21
101.859921
 31
0.0
  0
SPLINE
  5
178
100
AcDbEntity
  8
外形
  6
CONTINUOUS
100
AcDbSpline
210
0.0
220
0.0
230
-1.0
 70
     8
 71
     3
 72
     9
 73
     5
 74
     3
 42
0.0000001
 43
0.0000001
 44
0.0000000001
 40
0.0
 40
0.0
 40
0.0
 40
0.0
 40
35.29268756219787
 40
42.3949731214913
 40
42.3949731214913
 40
42.3949731214913
 40
42.3949731214913
 10
74.59510806577056
 20
126.9540216159363
 30
0.0
 10
87.48516147617644
 20
126.9007203221306
 30
0.0
 10
102.9692037981353
 20
126.8366926984408
 30
0.0
 10
112.3774968474156
 20
116.0035833274881
 30
0.0
 10
113.9536361616219
 20
114.1887493841553
 30
0.0
 11
74.59510806577056
 21
126.9540216159363
 31
0.0
 11
109.0547013401255
 21
119.3310152058022
 31
0.0
 11
113.9536361616219
 21
114.1887493841553
 31
0.0
  0
LINE
  5
179
100
AcDbEntity
  8
外形
  6
CONTINUOUS
100
AcDbLine
 10
118.950946
 20
127.524335
 30
0.0
 11
75.58292
 21
127.524335
 31
0.0
  0
DIMENSION
  5
17A
100
AcDbEntity
  8
参考
  6
CONTINUOUS
100
AcDbDimension
  2
*D17
 10
73.976326
 20
106.498921
 30
0.0
 11
80.454182
 21
113.402193
 31
0.0
 12
480.782743
 22
-471.070298
 32
0.0
 70
   132
  3
参考寸法
100
AcDbRadialDimension
 15
74.523751
 25
107.082296
 35
0.0
 40
0.0
1001
ACAD
1000
DSTYLE
1002
{
1070
   140
1040
1.5
1070
    41
1040
1.0
1002
}
  0
ARC
  5
184
100
AcDbEntity
  8
外形
  6
CONTINUOUS
100
AcDbCircle
 10
73.9945
 20
105.672665
 30
0.0
 40
1.75
100
AcDbArc
 50
340.092375
 51
21.385887
  0
ARC
  5
185
100
AcDbEntity
  8
外形
  6
CONTINUOUS
100
AcDbCircle
 10
73.9945
 20
106.948931
 30
0.0
 40
1.75
100
AcDbArc
 50
294.401967
 51
214.12087
  0
ARC
  5
186
100
AcDbEntity
  8
外形
  6
CONTINUOUS
100
AcDbCircle
 10
73.976326
 20
106.498921
 30
0.0
 40
0.8
100
AcDbArc
 50
357.0
 51
142.0
  0
LINE
  5
187
100
AcDbEntity
  8
外形
  6
CONTINUOUS
100
AcDbLine
 10
66.056641
 20
122.024335
 30
0.0
 11
75.58292
 21
127.524335
 31
0.0
  0
LINE
  5
188
100
AcDbEntity
  8
外形
  6
CONTINUOUS
100
AcDbLine
 10
118.950946
 20
114.188749
 30
0.0
 11
118.950946
 21
127.524335
 31
0.0
  0
LINE
  5
189
100
AcDbEntity
  8
外形
  6
CONTINUOUS
100
AcDbLine
 10
118.950946
 20
114.188749
 30
0.0
 11
113.953636
 21
114.188749
 31
0.0
  0
DIMENSION
  5
18A
100
AcDbEntity
  8
寸法
  6
CONTINUOUS
100
AcDbDimension
  2
*D9
 10
289.87439
 20
73.602581
 30
0.0
 11
271.37439
 21
76.102581
 31
0.0
 12
73.269028
 22
-466.070298
 32
0.0
  3
STANDARD
100
AcDbAlignedDimension
 13
252.87439
 23
100.424993
 33
0.0
 14
289.87439
 24
100.424993
 34
0.0
100
AcDbRotatedDimension
1001
ACAD
1000
DSTYLE
1002
{
1070
    40
1040
1.0
1002
}
  0
LINE
  5
197
100
AcDbEntity
  8
外形
  6
CENTER
 62
     1
100
AcDbLine
 10
246.108901
 20
15.66999
 30
0.0
 11
296.298242
 21
15.66999
 31
0.0
  0
LINE
  5
198
100
AcDbEntity
  8
外形
  6
CONTINUOUS
100
AcDbLine
 10
363.946858
 20
32.16999
 30
0.0
 11
363.946858
 21
-0.83001
 31
0.0
  0
LINE
  5
199
100
AcDbEntity
  8
外形
  6
CONTINUOUS
100
AcDbLine
 10
361.946858
 20
34.16999
 30
0.0
 11
361.946858
 21
26.205644
 31
0.0
  0
LINE
  5
19A
100
AcDbEntity
  8
外形
  6
CONTINUOUS
100
AcDbLine
 10
361.946858
 20
5.134337
 30
0.0
 11
361.946858
 21
-2.83001
 31
0.0
  0
LINE
  5
19B
100
AcDbEntity
  8
外形
  6
CONTINUOUS
100
AcDbLine
 10
361.946858
 20
-2.83001
 30
0.0
 11
363.946858
 21
-0.83001
 31
0.0
  0
ARC
  5
19C
100
AcDbEntity
  8
外形
  6
CONTINUOUS
100
AcDbCircle
 10
344.946858
 20
15.66999
 30
0.0
 40
20.0
100
AcDbArc
 50
328.211669
 51
341.805128
  0
ARC
  5
19D
100
AcDbEntity
  8
外形
  6
CONTINUOUS
100
AcDbCircle
 10
344.946858
 20
15.66999
 30
0.0
 40
20.0
100
AcDbArc
 50
18.194872
 51
31.788331
  0
LINE
  5
19E
100
AcDbEntity
  8
外形
  6
CONTINUOUS
100
AcDbLine
 10
361.946858
 20
34.16999
 30
0.0
 11
363.946858
 21
32.16999
 31
0.0
  0
ARC
  5
19F
100
AcDbEntity
  8
外形
  6
CONTINUOUS
100
AcDbCircle
 10
271.37439
 20
108.024335
 30
0.0
 40
20.0
100
AcDbArc
 50
301.788331
 51
337.668355
  0
DIMENSION
  5
1A0
100
AcDbEntity
  8
寸法
  6
CONTINUOUS
100
AcDbDimension
  2
*D14
 10
259.87553
 20
91.660466
 30
0.0
 11
292.481544
 21
138.061638
 31
0.0
 12
73.269028
 22
-466.070298
 32
0.0
 70
   131
  3
STANDARD
100
AcDbDiametricDimension
 15
282.873249
 25
124.388205
 35
0.0
 40
0.0
1001
ACAD
1000
DSTYLE
1002
{
1070
    40
1040
1.0
1002
}
  0
ARC
  5
1AC
100
AcDbEntity
  8
外形
  6
CONTINUOUS
100
AcDbCircle
 10
271.37439
 20
108.024335
 30
0.0
 40
20.0
100
AcDbArc
 50
22.331645
 51
157.668355
  0
LINE
  5
1AD
100
AcDbEntity
  8
外形
  6
CENTER
 62
     1
100
AcDbLine
 10
271.37439
 20
133.289824
 30
0.0
 11
271.37439
 21
83.100483
 31
0.0
  0
LINE
  5
1AE
100
AcDbEntity
  8
外形
  6
CONTINUOUS
100
AcDbLine
 10
252.87439
 20
115.623677
 30
0.0
 11
252.87439
 21
100.424993
 31
0.0
  0
LINE
  5
1AF
100
AcDbEntity
  8
外形
  6
CONTINUOUS
100
AcDbLine
 10
260.838736
 20
91.024335
 30
0.0
 11
281.910043
 21
91.024335
 31
0.0
  0
ARC
  5
1B0
100
AcDbEntity
  8
外形
  6
CONTINUOUS
100
AcDbCircle
 10
271.37439
 20
108.024335
 30
0.0
 40
20.0
100
AcDbArc
 50
202.331645
 51
238.211669
  0
LINE
  5
1B1
100
AcDbEntity
  8
外形
  6
CONTINUOUS
100
AcDbLine
 10
361.946858
 20
128.024335
 30
0.0
 11
363.946858
 21
126.024335
 31
0.0
  0
LINE
  5
1B2
100
AcDbEntity
  8
外形
  6
CONTINUOUS
100
AcDbLine
 10
361.946858
 20
128.024335
 30
0.0
 11
361.946858
 21
115.623677
 31
0.0
  0
LINE
  5
1B3
100
AcDbEntity
  8
外形
  6
CONTINUOUS
100
AcDbLine
 10
291.87439
 20
91.024335
 30
0.0
 11
361.946858
 21
91.024335
 31
0.0
  0
LINE
  5
1B4
100
AcDbEntity
  8
外形
  6
CONTINUOUS
100
AcDbLine
 10
291.87439
 20
115.623677
 30
0.0
 11
361.946858
 21
115.623677
 31
0.0
  0
LINE
  5
1B5
100
AcDbEntity
  8
外形
  6
CONTINUOUS
100
AcDbLine
 10
291.87439
 20
100.424993
 30
0.0
 11
361.946858
 21
100.424993
 31
0.0
  0
LINE
  5
1B6
100
AcDbEntity
  8
外形
  6
CONTINUOUS
100
AcDbLine
 10
289.87439
 20
115.623677
 30
0.0
 11
289.87439
 21
100.424993
 31
0.0
  0
ARC
  5
1B7
100
AcDbEntity
  8
外形
  6
CONTINUOUS
100
AcDbCircle
 10
343.446858
 20
108.024335
 30
0.0
 40
20.0
100
AcDbArc
 50
337.668355
 51
22.331645
  0
LINE
  5
1B8
100
AcDbEntity
  8
外形
  6
CONTINUOUS
100
AcDbLine
 10
363.946858
 20
93.024335
 30
0.0
 11
363.946858
 21
126.024335
 31
0.0
  0
LINE
  5
1B9
100
AcDbEntity
  8
外形
  6
CONTINUOUS
100
AcDbLine
 10
361.946858
 20
91.024335
 30
0.0
 11
363.946858
 21
93.024335
 31
0.0
  0
LINE
  5
1BA
100
AcDbEntity
  8
外形
  6
CONTINUOUS
100
AcDbLine
 10
361.946858
 20
100.424993
 30
0.0
 11
361.946858
 21
91.024335
 31
0.0
  0
LINE
  5
1BB
100
AcDbEntity
  8
外形
  6
CONTINUOUS
100
AcDbLine
 10
361.946858
 20
128.024335
 30
0.0
 11
291.87439
 21
128.024335
 31
0.0
  0
LINE
  5
1BC
100
AcDbEntity
  8
外形
  6
CENTER
 62
     1
100
AcDbLine
 10
363.953636
 20
128.337198
 30
0.0
 11
363.953636
 21
141.992821
 31
0.0
  0
ENDBLK
  5
1BE
100
AcDbEntity
  8
0
100
AcDbBlockEnd
  0
BLOCK
  5
357
100
AcDbEntity
  8
0
100
AcDbBlockBegin
  2
*D22
 70
     1
 10
0.0
 20
0.0
 30
0.0
  3
*D22
  1

  0
LINE
  5
358
100
AcDbEntity
  8
0
  6
BYBLOCK
 62
     1
100
AcDbLine
 10
185.333713
 20
-37.990547
 30
0.0
 11
185.333713
 21
-56.271553
 31
0.0
  0
LINE
  5
359
100
AcDbEntity
  8
0
  6
BYBLOCK
 62
     1
100
AcDbLine
 10
485.329625
 20
-25.990547
 30
0.0
 11
485.329625
 21
-56.271553
 31
0.0
  0
LINE
  5
35A
100
AcDbEntity
  8
0
  6
BYBLOCK
 62
     1
100
AcDbLine
 10
187.333713
 20
-54.271553
 30
0.0
 11
483.329625
 21
-54.271553
 31
0.0
  0
INSERT
  5
35B
100
AcDbEntity
  8
0
  6
BYBLOCK
 62
     1
100
AcDbBlockReference
  2
_OPEN30
 10
185.333713
 20
-54.271553
 30
0.0
 41
2.0
 42
2.0
 43
2.0
 50
180.0
  0
INSERT
  5
35C
100
AcDbEntity
  8
0
  6
BYBLOCK
 62
     1
100
AcDbBlockReference
  2
_OPEN30
 10
485.329625
 20
-54.271553
 30
0.0
 41
2.0
 42
2.0
 43
2.0
  0
MTEXT
  5
35D
100
AcDbEntity
  8
0
  6
BYBLOCK
 62
     3
100
AcDbMText
 10
335.331669
 20
-51.771553
 30
0.0
 40
3.0
 41
0.0
 71
     5
 72
     1
  1
\A1;300
  0
POINT
  5
35E
100
AcDbEntity
  8
DEFPOINTS
  6
BYBLOCK
 62
     0
100
AcDbPoint
 10
185.333713
 20
-36.990547
 30
0.0
  0
POINT
  5
35F
100
AcDbEntity
  8
DEFPOINTS
  6
BYBLOCK
 62
     0
100
AcDbPoint
 10
485.329625
 20
-24.990547
 30
0.0
  0
POINT
  5
360
100
AcDbEntity
  8
DEFPOINTS
  6
BYBLOCK
 62
     0
100
AcDbPoint
 10
485.329625
 20
-54.271553
 30
0.0
  0
ENDBLK
  5
361
100
AcDbEntity
  8
0
100
AcDbBlockEnd
  0
BLOCK
  5
394
100
AcDbEntity
  8
0
100
AcDbBlockBegin
  2
*D27
 70
     1
 10
0.0
 20
0.0
 30
0.0
  3
*D27
  1

  0
LINE
  5
395
100
AcDbEntity
  8
0
  6
BYBLOCK
 62
     1
100
AcDbLine
 10
187.491743
 20
5.008083
 30
0.0
 11
187.858754
 21
12.011057
 31
0.0
  0
LINE
  5
396
100
AcDbEntity
  8
0
  6
BYBLOCK
 62
     1
100
AcDbLine
 10
184.290688
 20
-36.990547
 30
0.0
 11
136.221837
 21
-36.990547
 31
0.0
  0
ARC
  5
397
100
AcDbEntity
  8
0
  6
BYBLOCK
 62
     1
100
AcDbCircle
 10
185.290688
 20
-36.990547
 30
0.0
 40
47.068851
100
AcDbArc
 50
89.434735
 51
177.565265
  0
INSERT
  5
398
100
AcDbEntity
  8
0
  6
BYBLOCK
 62
     1
100
AcDbBlockReference
  2
_OPEN30
 10
187.754082
 20
10.013798
 30
0.0
 41
2.0
 42
2.0
 43
2.0
 50
358.217368
  0
INSERT
  5
399
100
AcDbEntity
  8
0
  6
BYBLOCK
 62
     1
100
AcDbBlockReference
  2
_OPEN30
 10
138.221837
 20
-36.990547
 30
0.0
 41
2.0
 42
2.0
 43
2.0
 50
268.782632
  0
MTEXT
  5
39A
100
AcDbEntity
  8
0
  6
BYBLOCK
 62
     3
100
AcDbMText
 10
151.169743
 20
-1.034573
 30
0.0
 40
3.0
 41
0.0
 71
     5
 72
     1
  1
\A1;93°
 11
0.725374
 21
0.688355
 31
0.0
  0
POINT
  5
39B
100
AcDbEntity
  8
DEFPOINTS
  6
BYBLOCK
 62
     0
100
AcDbPoint
 10
163.193201
 20
4.568782
 30
0.0
  0
POINT
  5
39C
100
AcDbEntity
  8
DEFPOINTS
  6
BYBLOCK
 62
     0
100
AcDbPoint
 10
185.334809
 20
-36.148678
 30
0.0
  0
POINT
  5
39D
100
AcDbEntity
  8
DEFPOINTS
  6
BYBLOCK
 62
     0
100
AcDbPoint
 10
186.133713
 20
-36.990547
 30
0.0
  0
POINT
  5
39E
100
AcDbEntity
  8
DEFPOINTS
  6
BYBLOCK
 62
     0
100
AcDbPoint
 10
185.333713
 20
-36.990547
 30
0.0
  0
POINT
  5
39F
100
AcDbEntity
  8
DEFPOINTS
  6
BYBLOCK
 62
     0
100
AcDbPoint
 10
187.439407
 20
4.009453
 30
0.0
  0
ENDBLK
  5
3A0
100
AcDbEntity
  8
0
100
AcDbBlockEnd
  0
BLOCK
  5
3A1
100
AcDbEntity
  8
0
100
AcDbBlockBegin
  2
*D28
 70
     1
 10
0.0
 20
0.0
 30
0.0
  3
*D28
  1

  0
LINE
  5
3A2
100
AcDbEntity
  8
0
  6
BYBLOCK
 62
     1
100
AcDbLine
 10
184.333713
 20
-36.990547
 30
0.0
 11
174.016759
 21
-36.990547
 31
0.0
  0
LINE
  5
3A3
100
AcDbEntity
  8
0
  6
BYBLOCK
 62
     1
100
AcDbLine
 10
184.679055
 20
-9.990547
 30
0.0
 11
174.016759
 21
-9.990547
 31
0.0
  0
LINE
  5
3A4
100
AcDbEntity
  8
0
  6
BYBLOCK
 62
     1
100
AcDbLine
 10
176.016759
 20
-34.990547
 30
0.0
 11
176.016759
 21
-11.990547
 31
0.0
  0
INSERT
  5
3A5
100
AcDbEntity
  8
0
  6
BYBLOCK
 62
     1
100
AcDbBlockReference
  2
_OPEN30
 10
176.016759
 20
-36.990547
 30
0.0
 41
2.0
 42
2.0
 43
2.0
 50
270.0
  0
INSERT
  5
3A6
100
AcDbEntity
  8
0
  6
BYBLOCK
 62
     1
100
AcDbBlockReference
  2
_OPEN30
 10
176.016759
 20
-9.990547
 30
0.0
 41
2.0
 42
2.0
 43
2.0
 50
90.0
  0
MTEXT
  5
3A7
100
AcDbEntity
  8
0
  6
BYBLOCK
 62
     3
100
AcDbMText
 10
173.516759
 20
-23.490547
 30
0.0
 40
3.0
 41
0.0
 71
     5
 72
     1
  1
\A1;27
 11
0.0
 21
1.0
 31
0.0
  0
POINT
  5
3A8
100
AcDbEntity
  8
DEFPOINTS
  6
BYBLOCK
 62
     0
100
AcDbPoint
 10
185.333713
 20
-36.990547
 30
0.0
  0
POINT
  5
3A9
100
AcDbEntity
  8
DEFPOINTS
  6
BYBLOCK
 62
     0
100
AcDbPoint
 10
185.679055
 20
-9.990547
 30
0.0
  0
POINT
  5
3AA
100
AcDbEntity
  8
DEFPOINTS
  6
BYBLOCK
 62
     0
100
AcDbPoint
 10
176.016759
 20
-9.990547
 30
0.0
  0
ENDBLK
  5
3AB
100
AcDbEntity
  8
0
100
AcDbBlockEnd
  0
BLOCK
  5
41E
100
AcDbEntity
  8
0
100
AcDbBlockBegin
  2
*D35
 70
     1
 10
0.0
 20
0.0
 30
0.0
  3
*D35
  1

  0
LINE
  5
41F
100
AcDbEntity
  8
0
  6
BYBLOCK
 62
     1
100
AcDbLine
 10
186.333713
 20
-36.990547
 30
0.0
 11
212.752401
 21
-36.990547
 31
0.0
  0
LINE
  5
420
100
AcDbEntity
  8
0
  6
BYBLOCK
 62
     1
100
AcDbLine
 10
200.667132
 20
-26.990547
 30
0.0
 11
212.752401
 21
-26.990547
 31
0.0
  0
LINE
  5
421
100
AcDbEntity
  8
0
  6
BYBLOCK
 62
     1
100
AcDbLine
 10
210.752401
 20
-34.990547
 30
0.0
 11
210.752401
 21
-28.990547
 31
0.0
  0
INSERT
  5
422
100
AcDbEntity
  8
0
  6
BYBLOCK
 62
     1
100
AcDbBlockReference
  2
_OPEN30
 10
210.752401
 20
-36.990547
 30
0.0
 41
2.0
 42
2.0
 43
2.0
 50
270.0
  0
INSERT
  5
423
100
AcDbEntity
  8
0
  6
BYBLOCK
 62
     1
100
AcDbBlockReference
  2
_OPEN30
 10
210.752401
 20
-26.990547
 30
0.0
 41
2.0
 42
2.0
 43
2.0
 50
90.0
  0
MTEXT
  5
424
100
AcDbEntity
  8
0
  6
BYBLOCK
 62
     3
100
AcDbMText
 10
208.252401
 20
-31.990547
 30
0.0
 40
3.0
 41
0.0
 71
     5
 72
     1
  1
\A1;10
 11
0.0
 21
1.0
 31
0.0
  0
POINT
  5
425
100
AcDbEntity
  8
DEFPOINTS
  6
BYBLOCK
 62
     0
100
AcDbPoint
 10
185.333713
 20
-36.990547
 30
0.0
  0
POINT
  5
426
100
AcDbEntity
  8
DEFPOINTS
  6
BYBLOCK
 62
     0
100
AcDbPoint
 10
199.667132
 20
-26.990547
 30
0.0
  0
POINT
  5
427
100
AcDbEntity
  8
DEFPOINTS
  6
BYBLOCK
 62
     0
100
AcDbPoint
 10
210.752401
 20
-26.990547
 30
0.0
  0
ENDBLK
  5
428
100
AcDbEntity
  8
0
100
AcDbBlockEnd
  0
BLOCK
  5
404
100
AcDbEntity
  8
0
100
AcDbBlockBegin
  2
*D37
 70
     1
 10
0.0
 20
0.0
 30
0.0
  3
*D37
  1

  0
LINE
  5
405
100
AcDbEntity
  8
0
  6
BYBLOCK
 62
     1
100
AcDbLine
 10
374.257156
 20
-18.589889
 30
0.0
 11
374.257156
 21
-46.412301
 31
0.0
  0
LINE
  5
406
100
AcDbEntity
  8
0
  6
BYBLOCK
 62
     1
100
AcDbLine
 10
411.257156
 20
-18.589889
 30
0.0
 11
411.257156
 21
-46.412301
 31
0.0
  0
LINE
  5
407
100
AcDbEntity
  8
0
  6
BYBLOCK
 62
     1
100
AcDbLine
 10
376.257156
 20
-44.412301
 30
0.0
 11
409.257156
 21
-44.412301
 31
0.0
  0
INSERT
  5
408
100
AcDbEntity
  8
0
  6
BYBLOCK
 62
     1
100
AcDbBlockReference
  2
_OPEN30
 10
374.257156
 20
-44.412301
 30
0.0
 41
2.0
 42
2.0
 43
2.0
 50
180.0
  0
INSERT
  5
409
100
AcDbEntity
  8
0
  6
BYBLOCK
 62
     1
100
AcDbBlockReference
  2
_OPEN30
 10
411.257156
 20
-44.412301
 30
0.0
 41
2.0
 42
2.0
 43
2.0
  0
MTEXT
  5
40A
100
AcDbEntity
  8
0
  6
BYBLOCK
 62
     3
100
AcDbMText
 10
392.757156
 20
-41.912301
 30
0.0
 40
3.0
 41
0.0
 71
     5
 72
     1
  1
\A1;37
  0
POINT
  5
40B
100
AcDbEntity
  8
DEFPOINTS
  6
BYBLOCK
 62
     0
100
AcDbPoint
 10
374.257156
 20
-17.589889
 30
0.0
  0
POINT
  5
40C
100
AcDbEntity
  8
DEFPOINTS
  6
BYBLOCK
 62
     0
100
AcDbPoint
 10
411.257156
 20
-17.589889
 30
0.0
  0
POINT
  5
40D
100
AcDbEntity
  8
DEFPOINTS
  6
BYBLOCK
 62
     0
100
AcDbPoint
 10
411.257156
 20
-44.412301
 30
0.0
  0
ENDBLK
  5
40E
100
AcDbEntity
  8
0
100
AcDbBlockEnd
  0
BLOCK
  5
40F
100
AcDbEntity
  8
0
100
AcDbBlockBegin
  2
*D38
 70
     1
 10
0.0
 20
0.0
 30
0.0
  3
*D38
  1

  0
LINE
  5
410
100
AcDbEntity
  8
0
  6
BYBLOCK
 62
     1
100
AcDbLine
 10
416.739025
 20
24.137723
 30
0.0
 11
405.405901
 21
8.00971
 31
0.0
  0
LINE
  5
411
100
AcDbEntity
  8
0
  6
BYBLOCK
 62
     1
100
AcDbLine
 10
380.108411
 20
-27.990804
 30
0.0
 11
378.958525
 21
-29.627191
 31
0.0
  0
MTEXT
  5
412
100
AcDbEntity
  8
0
  6
BYBLOCK
 62
     3
100
AcDbMText
 10
411.818826
 20
21.484113
 30
0.0
 40
3.0
 41
0.0
 71
     5
 72
     1
  1
\A1;\U+220540
 11
0.574943
 21
0.818193
 31
0.0
  0
LINE
  5
413
100
AcDbEntity
  8
0
  6
BYBLOCK
 62
     1
100
AcDbLine
 10
381.258297
 20
-26.354417
 30
0.0
 11
404.256016
 21
6.373323
 31
0.0
  0
INSERT
  5
414
100
AcDbEntity
  8
0
  6
BYBLOCK
 62
     1
100
AcDbBlockReference
  2
_OPEN30
 10
381.258297
 20
-26.354417
 30
0.0
 41
2.0
 42
2.0
 43
2.0
 50
54.904361
  0
INSERT
  5
415
100
AcDbEntity
  8
0
  6
BYBLOCK
 62
     1
100
AcDbBlockReference
  2
_OPEN30
 10
404.256016
 20
6.373323
 30
0.0
 41
2.0
 42
2.0
 43
2.0
 50
234.904361
  0
POINT
  5
416
100
AcDbEntity
  8
DEFPOINTS
  6
BYBLOCK
 62
     0
100
AcDbPoint
 10
404.256016
 20
6.373323
 30
0.0
  0
POINT
  5
417
100
AcDbEntity
  8
DEFPOINTS
  6
BYBLOCK
 62
     0
100
AcDbPoint
 10
381.258297
 20
-26.354417
 30
0.0
  0
ENDBLK
  5
418
100
AcDbEntity
  8
0
100
AcDbBlockEnd
  0
BLOCK
  5
448
100
AcDbEntity
  8
0
100
AcDbBlockBegin
  2
*D39
 70
     1
 10
0.0
 20
0.0
 30
0.0
  3
*D39
  1

  0
LINE
  5
449
100
AcDbEntity
  8
0
  6
BYBLOCK
 62
     1
100
AcDbLine
 10
108.032887
 20
-37.982166
 30
0.0
 11
105.734507
 21
-55.440094
 31
0.0
  0
LINE
  5
44A
100
AcDbEntity
  8
0
  6
BYBLOCK
 62
     1
100
AcDbLine
 10
108.183412
 20
-37.990547
 30
0.0
 11
108.183412
 21
-55.600603
 31
0.0
  0
ARC
  5
44B
100
AcDbEntity
  8
0
  6
BYBLOCK
 62
     1
100
AcDbCircle
 10
108.183412
 20
-36.838812
 30
0.0
 40
16.761791
100
AcDbArc
 50
248.794398
 51
262.5
  0
LINE
  5
44C
100
AcDbEntity
  8
0
  6
BYBLOCK
 62
     1
100
AcDbLine
 10
102.120409
 20
-52.465636
 30
0.0
 11
88.508997
 21
-47.184587
 31
0.0
  0
ARC
  5
44D
100
AcDbEntity
  8
0
  6
BYBLOCK
 62
     1
100
AcDbCircle
 10
108.183412
 20
-36.838812
 30
0.0
 40
16.761791
100
AcDbArc
 50
248.818927
 51
255.659463
  0
ARC
  5
44E
100
AcDbEntity
  8
0
  6
BYBLOCK
 62
     1
100
AcDbCircle
 10
108.183412
 20
-36.838812
 30
0.0
 40
16.761791
100
AcDbArc
 50
276.840537
 51
283.681073
  0
ARC
  5
44F
100
AcDbEntity
  8
0
  6
BYBLOCK
 62
     1
100
AcDbCircle
 10
108.183412
 20
-36.838812
 30
0.0
 40
16.761791
100
AcDbArc
 50
262.5
 51
270.0
  0
INSERT
  5
450
100
AcDbEntity
  8
0
  6
BYBLOCK
 62
     1
100
AcDbBlockReference
  2
_OPEN30
 10
105.995559
 20
-53.457204
 30
0.0
 41
2.0
 42
2.0
 43
2.0
 50
349.079732
  0
INSERT
  5
451
100
AcDbEntity
  8
0
  6
BYBLOCK
 62
     1
100
AcDbBlockReference
  2
_OPEN30
 10
108.183412
 20
-53.600603
 30
0.0
 41
2.0
 42
2.0
 43
2.0
 50
183.420268
  0
MTEXT
  5
452
100
AcDbEntity
  8
0
  6
BYBLOCK
 62
     3
100
AcDbMText
 10
96.218992
 20
-47.49439
 30
0.0
 40
3.0
 41
0.0
 71
     5
 72
     1
  1
\A1;7.5°
 11
0.932288
 21
-0.361716
 31
0.0
  0
POINT
  5
453
100
AcDbEntity
  8
DEFPOINTS
  6
BYBLOCK
 62
     0
100
AcDbPoint
 10
107.452273
 20
-53.58465
 30
0.0
  0
POINT
  5
454
100
AcDbEntity
  8
DEFPOINTS
  6
BYBLOCK
 62
     0
100
AcDbPoint
 10
114.217357
 20
8.993546
 30
0.0
  0
POINT
  5
455
100
AcDbEntity
  8
DEFPOINTS
  6
BYBLOCK
 62
     0
100
AcDbPoint
 10
108.183412
 20
16.853396
 30
0.0
  0
POINT
  5
456
100
AcDbEntity
  8
DEFPOINTS
  6
BYBLOCK
 62
     0
100
AcDbPoint
 10
108.183412
 20
-36.990547
 30
0.0
  0
POINT
  5
457
100
AcDbEntity
  8
DEFPOINTS
  6
BYBLOCK
 62
     0
100
AcDbPoint
 10
108.163413
 20
-36.990722
 30
0.0
  0
ENDBLK
  5
458
100
AcDbEntity
  8
0
100
AcDbBlockEnd
  0
BLOCK
  5
46B
100
AcDbEntity
  8
0
100
AcDbBlockBegin
  2
*D40
 70
     1
 10
0.0
 20
0.0
 30
0.0
  3
*D40
  1

  0
LINE
  5
46C
100
AcDbEntity
  8
0
  6
BYBLOCK
 62
     1
100
AcDbLine
 10
180.503732
 20
-102.344892
 30
0.0
 11
166.951767
 21
-102.344892
 31
0.0
  0
LINE
  5
46D
100
AcDbEntity
  8
0
  6
BYBLOCK
 62
     1
100
AcDbLine
 10
184.335083
 20
-102.397228
 30
0.0
 11
166.976959
 21
-103.306929
 31
0.0
  0
ARC
  5
46E
100
AcDbEntity
  8
0
  6
BYBLOCK
 62
     1
100
AcDbCircle
 10
185.333713
 20
-102.344892
 30
0.0
 40
16.381945
100
AcDbArc
 50
165.97503
 51
180.0
  0
LINE
  5
46F
100
AcDbEntity
  8
0
  6
BYBLOCK
 62
     1
100
AcDbLine
 10
169.44011
 20
-98.374814
 30
0.0
 11
171.524275
 21
-90.031178
 31
0.0
  0
ARC
  5
470
100
AcDbEntity
  8
0
  6
BYBLOCK
 62
     1
100
AcDbCircle
 10
185.333713
 20
-102.344892
 30
0.0
 40
16.381945
100
AcDbArc
 50
166.001315
 51
173.000658
  0
ARC
  5
471
100
AcDbEntity
  8
0
  6
BYBLOCK
 62
     1
100
AcDbCircle
 10
185.333713
 20
-102.344892
 30
0.0
 40
16.381945
100
AcDbArc
 50
189.999342
 51
196.998685
  0
ARC
  5
472
100
AcDbEntity
  8
0
  6
BYBLOCK
 62
     1
100
AcDbCircle
 10
185.333713
 20
-102.344892
 30
0.0
 40
16.381945
100
AcDbArc
 50
180.0
 51
183.0
  0
INSERT
  5
473
100
AcDbEntity
  8
0
  6
BYBLOCK
 62
     1
100
AcDbBlockReference
  2
_OPEN30
 10
168.951767
 20
-102.344892
 30
0.0
 41
2.0
 42
2.0
 43
2.0
 50
266.500329
  0
INSERT
  5
474
100
AcDbEntity
  8
0
  6
BYBLOCK
 62
     1
100
AcDbBlockReference
  2
_OPEN30
 10
168.974218
 20
-103.202257
 30
0.0
 41
2.0
 42
2.0
 43
2.0
 50
96.499671
  0
MTEXT
  5
475
100
AcDbEntity
  8
0
  6
BYBLOCK
 62
     3
100
AcDbMText
 10
172.907668
 20
-94.808858
 30
0.0
 40
3.0
 41
0.0
 71
     5
 72
     1
  1
\A1;3°
 11
-0.242345
 21
-0.97019
 31
0.0
  0
POINT
  5
476
100
AcDbEntity
  8
DEFPOINTS
  6
BYBLOCK
 62
     0
100
AcDbPoint
 10
168.961747
 20
-102.916614
 30
0.0
  0
POINT
  5
477
100
AcDbEntity
  8
DEFPOINTS
  6
BYBLOCK
 62
     0
100
AcDbPoint
 10
195.429128
 20
-101.815814
 30
0.0
  0
POINT
  5
478
100
AcDbEntity
  8
DEFPOINTS
  6
BYBLOCK
 62
     0
100
AcDbPoint
 10
181.503732
 20
-102.344892
 30
0.0
  0
POINT
  5
479
100
AcDbEntity
  8
DEFPOINTS
  6
BYBLOCK
 62
     0
100
AcDbPoint
 10
492.817618
 20
-102.344892
 30
0.0
  0
POINT
  5
47A
100
AcDbEntity
  8
DEFPOINTS
  6
BYBLOCK
 62
     0
100
AcDbPoint
 10
185.333713
 20
-102.344892
 30
0.0
  0
ENDBLK
  5
47B
100
AcDbEntity
  8
0
100
AcDbBlockEnd
  0
ENDSEC
  0
SECTION
  2
ENTITIES
  0
TEXT
  5
1C3
100
AcDbEntity
  8
外形
  6
CONTINUOUS
 62
     2
100
AcDbText
 10
286.764896
 20
-141.383251
 30
0.0
 40
6.0
  1
S40V-SVUCR16
100
AcDbText
  0
LINE
  5
1C5
100
AcDbEntity
  8
外形
  6
CONTINUOUS
100
AcDbLine
 10
372.257156
 20
10.009453
 30
0.0
 11
240.833713
 21
10.009453
 31
0.0
  0
LINE
  5
1C6
100
AcDbEntity
  8
外形
  6
CONTINUOUS
100
AcDbLine
 10
198.907719
 20
-26.990547
 30
0.0
 11
372.257156
 21
-26.990547
 31
0.0
  0
LINE
  5
1C7
100
AcDbEntity
  8
外形
  6
CONTINUOUS
100
AcDbLine
 10
240.333713
 20
-112.880546
 30
0.0
 11
483.329625
 21
-112.880546
 31
0.0
  0
LINE
  5
1C8
100
AcDbEntity
  8
外形
  6
CONTINUOUS
100
AcDbLine
 10
240.333713
 20
-91.809238
 30
0.0
 11
483.329625
 21
-91.809238
 31
0.0
  0
LINE
  5
1C9
100
AcDbEntity
  8
外形
  6
CONTINUOUS
100
AcDbLine
 10
240.833713
 20
-120.844892
 30
0.0
 11
483.329625
 21
-120.844892
 31
0.0
  0
LINE
  5
1CA
100
AcDbEntity
  8
外形
  6
CONTINUOUS
100
AcDbLine
 10
240.833713
 20
-83.844892
 30
0.0
 11
483.329625
 21
-83.844892
 31
0.0
  0
LINE
  5
1CB
100
AcDbEntity
  8
外形
  6
CENTER
 62
     1
100
AcDbLine
 10
185.679055
 20
-9.990547
 30
0.0
 11
492.817618
 21
-9.990547
 31
0.0
  0
LINE
  5
1CC
100
AcDbEntity
  8
外形
  6
CENTER
 62
     1
100
AcDbLine
 10
181.503732
 20
-102.344892
 30
0.0
 11
492.817618
 21
-102.344892
 31
0.0
  0
LINE
  5
1CD
100
AcDbEntity
  8
外形
  6
CONTINUOUS
100
AcDbLine
 10
240.333713
 20
-17.589889
 30
0.0
 11
372.257156
 21
-17.589889
 31
0.0
  0
LINE
  5
1CE
100
AcDbEntity
  8
外形
  6
CONTINUOUS
100
AcDbLine
 10
240.333713
 20
-2.391205
 30
0.0
 11
372.257156
 21
-2.391205
 31
0.0
  0
DIMENSION
  5
1CF
100
AcDbEntity
  8
寸法
  6
CONTINUOUS
100
AcDbDimension
  2
*D22
 10
485.329625
 20
-54.271553
 30
0.0
 11
335.331669
 21
-51.771553
 31
0.0
 70
    32
  3
STANDARD
100
AcDbAlignedDimension
 13
185.333713
 23
-36.990547
 33
0.0
 14
485.329625
 24
-24.990547
 34
0.0
100
AcDbRotatedDimension
1001
ACAD
1000
DSTYLE
1002
{
1070
    40
1040
1.0
1002
}
  0
LINE
  5
1D4
100
AcDbEntity
  8
外形
  6
CONTINUOUS
100
AcDbLine
 10
240.833713
 20
-91.809238
 30
0.0
 11
240.833713
 21
-83.344892
 31
0.0
  0
LINE
  5
1D5
100
AcDbEntity
  8
外形
  6
CONTINUOUS
100
AcDbLine
 10
240.333713
 20
-82.844892
 30
0.0
 11
240.333713
 21
-92.792405
 31
0.0
  0
SPLINE
  5
1D6
100
AcDbEntity
  8
外形
  6
CONTINUOUS
100
AcDbSpline
210
0.0
220
0.0
230
1.0
 70
     8
 71
     3
 72
     9
 73
     5
 74
     0
 42
0.0000001
 43
0.0000001
 40
0.0
 40
0.0
 40
0.0
 40
0.0
 40
12.81660498967031
 40
30.4649874561106
 40
30.4649874561106
 40
30.4649874561106
 40
30.4649874561106
 10
235.3364025701141
 20
-82.84489197315963
 30
0.0
 10
231.8402018243849
 20
-85.45824753887989
 30
0.0
 10
223.5297551851598
 20
-91.67017687525197
 30
0.0
 10
213.084274271505
 20
-91.9827801730848
 30
0.0
 10
187.0092090873724
 20
-99.59757658230593
 30
0.0
  0
ARC
  5
1D7
100
AcDbEntity
  8
外形
  6
CONTINUOUS
100
AcDbCircle
 10
217.0061
 20
-74.844892
 30
0.0
 40
20.0
100
AcDbArc
 50
277.789877
 51
336.421822
  0
LINE
  5
1D8
100
AcDbEntity
  8
外形
  6
CONTINUOUS
100
AcDbLine
 10
195.333713
 20
-108.661087
 30
0.0
 11
195.333713
 21
-121.844892
 31
0.0
  0
LINE
  5
1D9
100
AcDbEntity
  8
外形
  6
CONTINUOUS
100
AcDbLine
 10
240.833713
 20
-121.344892
 30
0.0
 11
240.833713
 21
-112.880546
 31
0.0
  0
LINE
  5
1DA
100
AcDbEntity
  8
外形
  6
CONTINUOUS
100
AcDbLine
 10
240.333713
 20
-111.897379
 30
0.0
 11
240.333713
 21
-121.844892
 31
0.0
  0
LINE
  5
1DB
100
AcDbEntity
  8
外形
  6
CONTINUOUS
100
AcDbLine
 10
186.236403
 20
-121.844892
 30
0.0
 11
186.236403
 21
-110.253141
 31
0.0
  0
ARC
  5
1DD
100
AcDbEntity
  8
外形
  6
CONTINUOUS
100
AcDbCircle
 10
195.337005
 20
-111.897379
 30
0.0
 40
5.0
100
AcDbArc
 50
269.962277
 51
0.0
  0
LINE
  5
1DE
100
AcDbEntity
  8
外形
  6
CONTINUOUS
100
AcDbLine
 10
240.333713
 20
-121.844892
 30
0.0
 11
186.236403
 21
-121.844892
 31
0.0
  0
LINE
  5
1DF
100
AcDbEntity
  8
外形
  6
CONTINUOUS
100
AcDbLine
 10
240.833713
 20
-121.344892
 30
0.0
 11
240.333713
 21
-121.844892
 31
0.0
  0
SPLINE
  5
1E0
100
AcDbEntity
  8
外形
  6
CONTINUOUS
100
AcDbSpline
210
-0.3508038267814725
220
0.9364489709084391
230
0.0
 70
    24
 71
     3
 72
     8
 73
     4
 74
     2
 42
0.0000001
 43
0.0000001
 44
0.0000000001
 40
0.0
 40
0.0
 40
0.0
 40
0.0
 40
20.6951008427108
 40
20.6951008427108
 40
20.6951008427108
 40
20.6951008427108
 10
219.7169104321989
 20
-94.66032801841777
 30
0.0
 10
213.2569418031979
 20
-97.08030154216825
 30
0.0
 10
206.796973174197
 20
-99.50027506591872
 30
0.0
 10
200.337004545196
 20
-101.9202485896691
 30
0.0
 11
219.7169104321989
 21
-94.66032801841777
 31
0.0
 11
200.337004545196
 21
-101.9202485896691
 31
0.0
  0
LINE
  5
1E1
100
AcDbEntity
  8
外形
  6
CONTINUOUS
100
AcDbLine
 10
200.337005
 20
-111.897379
 30
0.0
 11
240.333713
 21
-111.897379
 31
0.0
  0
LINE
  5
1E2
100
AcDbEntity
  8
外形
  6
CONTINUOUS
100
AcDbLine
 10
185.333713
 20
-102.344892
 30
0.0
 11
187.009209
 21
-99.597577
 31
0.0
  0
LINE
  5
1E3
100
AcDbEntity
  8
外形
  6
CONTINUOUS
100
AcDbLine
 10
195.429128
 20
-101.815814
 30
0.0
 11
196.640581
 21
-99.90808
 31
0.0
  0
LINE
  5
1E4
100
AcDbEntity
  8
外形
  6
CONTINUOUS
100
AcDbLine
 10
196.640581
 20
-99.90808
 30
0.0
 11
196.263476
 21
-104.688978
 31
0.0
  0
LINE
  5
1E5
100
AcDbEntity
  8
外形
  6
CONTINUOUS
100
AcDbLine
 10
185.333713
 20
-102.344892
 30
0.0
 11
187.009209
 21
-99.597577
 31
0.0
  0
ARC
  5
1E6
100
AcDbEntity
  8
外形
  6
CONTINUOUS
100
AcDbCircle
 10
195.467827
 20
-119.082826
 30
0.0
 40
17.839926
100
AcDbArc
 50
74.160885
 51
86.577683
  0
LINE
  5
1E7
100
AcDbEntity
  8
外形
  6
CONTINUOUS
100
AcDbLine
 10
194.58416
 20
-109.89013
 30
0.0
 11
195.802742
 21
-107.892019
 31
0.0
  0
LINE
  5
1E8
100
AcDbEntity
  8
外形
  6
CONTINUOUS
100
AcDbLine
 10
195.703391
 20
-105.607351
 30
0.0
 11
195.802742
 21
-107.892019
 31
0.0
  0
LINE
  5
1E9
100
AcDbEntity
  8
外形
  6
CONTINUOUS
100
AcDbLine
 10
194.446005
 20
-106.713133
 30
0.0
 11
194.58416
 21
-109.89013
 31
0.0
  0
LINE
  5
1EA
100
AcDbEntity
  8
外形
  6
CONTINUOUS
100
AcDbLine
 10
186.124414
 20
-107.075006
 30
0.0
 11
186.262569
 21
-110.252004
 31
0.0
  0
LINE
  5
1EB
100
AcDbEntity
  8
外形
  6
CONTINUOUS
100
AcDbLine
 10
186.124414
 20
-107.075006
 30
0.0
 11
185.333713
 21
-102.344892
 31
0.0
  0
LINE
  5
1EC
100
AcDbEntity
  8
外形
  6
CONTINUOUS
100
AcDbLine
 10
195.429128
 20
-101.815814
 30
0.0
 11
195.044894
 21
-106.687089
 31
0.0
  0
LINE
  5
1ED
100
AcDbEntity
  8
外形
  6
CONTINUOUS
100
AcDbLine
 10
186.124414
 20
-107.075006
 30
0.0
 11
195.044894
 21
-106.687089
 31
0.0
  0
LINE
  5
1EE
100
AcDbEntity
  8
外形
  6
CONTINUOUS
100
AcDbLine
 10
186.236403
 20
-110.253141
 30
0.0
 11
194.58416
 21
-109.89013
 31
0.0
  0
LINE
  5
1EF
100
AcDbEntity
  8
外形
  6
CONTINUOUS
100
AcDbLine
 10
195.044894
 20
-106.687089
 30
0.0
 11
196.263476
 21
-104.688978
 31
0.0
  0
LINE
  5
1F0
100
AcDbEntity
  8
外形
  6
CONTINUOUS
100
AcDbLine
 10
195.429128
 20
-101.815814
 30
0.0
 11
185.333713
 21
-102.344892
 31
0.0
  0
LINE
  5
1F1
100
AcDbEntity
  8
外形
  6
CONTINUOUS
100
AcDbLine
 10
186.124414
 20
-107.075006
 30
0.0
 11
185.333713
 21
-102.344892
 31
0.0
  0
LINE
  5
1F2
100
AcDbEntity
  8
外形
  6
CONTINUOUS
100
AcDbLine
 10
186.124414
 20
-107.075006
 30
0.0
 11
195.044894
 21
-106.687089
 31
0.0
  0
LINE
  5
1F3
100
AcDbEntity
  8
外形
  6
CONTINUOUS
100
AcDbLine
 10
200.337005
 20
-101.920249
 30
0.0
 11
200.337005
 21
-111.897379
 31
0.0
  0
LINE
  5
1F4
100
AcDbEntity
  8
外形
  6
CONTINUOUS
100
AcDbLine
 10
196.640581
 20
-99.90808
 30
0.0
 11
186.552295
 21
-100.34678
 31
0.0
  0
LINE
  5
1F5
100
AcDbEntity
  8
外形
  6
CONTINUOUS
100
AcDbLine
 10
226.340215
 20
-92.792405
 30
0.0
 11
240.333713
 21
-92.792405
 31
0.0
  0
LINE
  5
1F6
100
AcDbEntity
  8
外形
  6
CONTINUOUS
100
AcDbLine
 10
240.333713
 20
-82.844892
 30
0.0
 11
235.336403
 21
-82.844892
 31
0.0
  0
LINE
  5
1F7
100
AcDbEntity
  8
外形
  6
CONTINUOUS
100
AcDbLine
 10
240.833713
 20
-83.344892
 30
0.0
 11
240.333713
 21
-82.844892
 31
0.0
  0
DIMENSION
  5
1F8
100
AcDbEntity
  8
寸法
  6
CONTINUOUS
100
AcDbDimension
  2
*D27
 10
187.439407
 20
4.009453
 30
0.0
 11
151.169743
 21
-1.034573
 31
0.0
 70
    34
  3
STANDARD
100
AcDb2LineAngularDimension
 13
186.133713
 23
-36.990547
 33
0.0
 14
185.333713
 24
-36.990547
 34
0.0
 15
185.334809
 25
-36.148678
 35
0.0
 16
163.193201
 26
4.568782
 36
0.0
1001
ACAD
1000
DSTYLE
1002
{
1070
    40
1040
1.0
1002
}
  0
LINE
  5
1F9
100
AcDbEntity
  8
外形
  6
CENTER
 62
     1
100
AcDbLine
 10
184.076826
 20
-23.853254
 30
0.0
 11
197.338291
 21
-23.853254
 31
0.0
  0
DIMENSION
  5
1FA
100
AcDbEntity
  8
寸法
  6
CONTINUOUS
100
AcDbDimension
  2
*D28
 10
176.016759
 20
-9.990547
 30
0.0
 11
173.516759
 21
-23.490547
 31
0.0
 70
    32
  3
STANDARD
100
AcDbAlignedDimension
 13
185.333713
 23
-36.990547
 33
0.0
 14
185.679055
 24
-9.990547
 34
0.0
 50
90.0
100
AcDbRotatedDimension
1001
ACAD
1000
DSTYLE
1002
{
1070
    40
1040
1.0
1002
}
  0
LEADER
  5
1FC
100
AcDbEntity
  8
寸法
  6
CONTINUOUS
 62
     1
100
AcDbLeader
  3
STANDARD
 73
     0
 74
     0
 75
     1
 40
3.0
 41
26.0
 76
     3
 10
121.799738
 20
8.975891
 30
0.0
 10
129.767063
 20
22.217101
 30
0.0
 10
131.767063
 20
22.217101
 30
0.0
 77
   256
340
212
213
-0.1129475379637483
223
0.5510341987360618
233
0.0
1001
ACAD
1000
DSTYLE
1002
{
1070
   284
1070
    13
1070
   146
1040
0.5
1070
   272
1070
     3
1070
    40
1040
1.0
1070
   287
1070
     0
1002
}
  0
ARC
  5
1FD
100
AcDbEntity
  8
外形
  6
CONTINUOUS
100
AcDbCircle
 10
108.183412
 20
-9.990547
 30
0.0
 40
20.0
100
AcDbArc
 50
22.331645
 51
157.668355
  0
CIRCLE
  5
1FE
100
AcDbEntity
  8
外形
  6
CENTER
 62
     1
100
AcDbCircle
 10
108.183412
 20
-11.990547
 30
0.0
 40
25.0
  0
LINE
  5
1FF
100
AcDbEntity
  8
外形
  6
CENTER
 62
     1
100
AcDbLine
 10
108.183412
 20
16.853396
 30
0.0
 11
108.183412
 21
-36.990547
 31
0.0
  0
LINE
  5
201
100
AcDbEntity
  8
外形
  6
CENTER
 62
     1
100
AcDbLine
 10
137.251868
 20
-9.990547
 30
0.0
 11
77.63337
 21
-9.990547
 31
0.0
  0
LINE
  5
202
100
AcDbEntity
  8
外形
  6
CONTINUOUS
100
AcDbLine
 10
126.683412
 20
-2.391205
 30
0.0
 11
126.683412
 21
-17.589889
 31
0.0
  0
LINE
  5
203
100
AcDbEntity
  8
外形
  6
CONTINUOUS
100
AcDbLine
 10
89.683412
 20
-2.391205
 30
0.0
 11
89.683412
 21
-26.764773
 31
0.0
  0
LINE
  5
204
100
AcDbEntity
  8
外形
  6
CONTINUOUS
100
AcDbLine
 10
114.217357
 20
8.993546
 30
0.0
 11
108.163413
 21
-36.990722
 31
0.0
  0
LINE
  5
205
100
AcDbEntity
  8
外形
  6
CONTINUOUS
100
AcDbLine
 10
89.683412
 20
-22.190547
 30
0.0
 11
102.103379
 21
-22.190547
 31
0.0
  0
ARC
  5
207
100
AcDbEntity
  8
外形
  6
CONTINUOUS
100
AcDbCircle
 10
108.183412
 20
-9.990547
 30
0.0
 40
25.25
100
AcDbArc
 50
250.328089
 51
252.420204
  0
LINE
  5
208
100
AcDbEntity
  8
外形
  6
CONTINUOUS
100
AcDbLine
 10
99.683412
 20
-33.766848
 30
0.0
 11
89.683412
 21
-26.764773
 31
0.0
  0
LINE
  5
209
100
AcDbEntity
  8
外形
  6
CONTINUOUS
100
AcDbLine
 10
102.177101
 20
-21.630571
 30
0.0
 11
100.367627
 21
-35.374889
 31
0.0
  0
ARC
  5
20A
100
AcDbEntity
  8
外形
  6
CONTINUOUS
100
AcDbCircle
 10
108.183412
 20
-9.990547
 30
0.0
 40
20.0
100
AcDbArc
 50
301.788331
 51
337.668355
  0
LINE
  5
20B
100
AcDbEntity
  8
外形
  6
CONTINUOUS
100
AcDbLine
 10
105.329896
 20
-22.045645
 30
0.0
 11
103.520422
 21
-35.789962
 31
0.0
  0
LINE
  5
20C
100
AcDbEntity
  8
外形
  6
CONTINUOUS
100
AcDbLine
 10
103.520422
 20
-35.789962
 30
0.0
 11
100.367627
 21
-35.374889
 31
0.0
  0
LINE
  5
20D
100
AcDbEntity
  8
外形
  6
CONTINUOUS
100
AcDbLine
 10
108.163412
 20
-36.990721
 30
0.0
 11
103.520422
 21
-35.789962
 31
0.0
  0
LINE
  5
20E
100
AcDbEntity
  8
外形
  6
CONTINUOUS
100
AcDbLine
 10
118.719066
 20
-26.990547
 30
0.0
 11
109.479961
 21
-26.990547
 31
0.0
  0
LINE
  5
20F
100
AcDbEntity
  8
外形
  6
CONTINUOUS
100
AcDbLine
 10
105.329896
 20
-22.045645
 30
0.0
 11
102.177101
 21
-21.630571
 31
0.0
  0
LINE
  5
210
100
AcDbEntity
  8
外形
  6
CONTINUOUS
100
AcDbLine
 10
110.12546
 20
-22.087495
 30
0.0
 11
105.329896
 21
-22.045645
 31
0.0
  0
LINE
  5
211
100
AcDbEntity
  8
外形
  6
CONTINUOUS
100
AcDbLine
 10
113.561188
 20
4.009453
 30
0.0
 11
93.900555
 21
4.009453
 31
0.0
  0
MTEXT
  5
212
102
{ACAD_REACTORS
330
1FC
102
}
100
AcDbEntity
  8
寸法
  6
CONTINUOUS
 62
     3
100
AcDbMText
 10
132.88001
 20
24.166066
 30
0.0
 40
3.0
 41
0.0
 71
     4
 72
     1
  1
%%c50最小加工径
  0
LINE
  5
214
100
AcDbEntity
  8
外形
  6
CONTINUOUS
100
AcDbLine
 10
240.833713
 20
10.009453
 30
0.0
 11
240.333713
 21
9.509453
 31
0.0
  0
LINE
  5
215
100
AcDbEntity
  8
外形
  6
CONTINUOUS
100
AcDbLine
 10
240.833713
 20
-2.391205
 30
0.0
 11
240.833713
 21
10.009453
 31
0.0
  0
LINE
  5
217
100
AcDbEntity
  8
外形
  6
CONTINUOUS
100
AcDbLine
 10
235.336403
 20
-16.154961
 30
0.0
 11
235.336403
 21
-3.826133
 31
0.0
  0
LINE
  5
218
100
AcDbEntity
  8
外形
  6
CONTINUOUS
100
AcDbLine
 10
195.927113
 20
-15.963344
 30
0.0
 11
197.022691
 21
-12.938101
 31
0.0
  0
LINE
  5
219
100
AcDbEntity
  8
外形
  6
CONTINUOUS
100
AcDbLine
 10
195.421999
 20
-25.601498
 30
0.0
 11
196.157996
 21
-11.55783
 31
0.0
  0
LINE
  5
21A
100
AcDbEntity
  8
外形
  6
CONTINUOUS
100
AcDbLine
 10
186.070806
 20
-22.10501
 30
0.0
 11
194.728684
 21
-11.023432
 31
0.0
  0
LINE
  5
21B
100
AcDbEntity
  8
外形
  6
CONTINUOUS
100
AcDbLine
 10
185.334809
 20
-36.148678
 30
0.0
 11
187.439407
 21
4.009453
 31
0.0
  0
LINE
  5
21D
100
AcDbEntity
  8
外形
  6
CONTINUOUS
100
AcDbLine
 10
186.764121
 20
-36.683076
 30
0.0
 11
195.421999
 21
-25.601498
 31
0.0
  0
DIMENSION
  5
21E
100
AcDbEntity
  8
寸法
  6
CONTINUOUS
100
AcDbDimension
  2
*D35
 10
210.752401
 20
-26.990547
 30
0.0
 11
208.252401
 21
-31.990547
 31
0.0
 70
    32
  3
STANDARD
100
AcDbAlignedDimension
 13
185.333713
 23
-36.990547
 33
0.0
 14
199.667132
 24
-26.990547
 34
0.0
 50
90.0
100
AcDbRotatedDimension
1001
ACAD
1000
DSTYLE
1002
{
1070
    40
1040
1.0
1002
}
  0
LINE
  5
21F
100
AcDbEntity
  8
外形
  6
CENTER
 62
     1
100
AcDbLine
 10
190.746403
 20
-30.946939
 30
0.0
 11
190.746403
 21
-16.490547
 31
0.0
  0
LINE
  5
221
100
AcDbEntity
  8
外形
  6
CONTINUOUS
 62
     1
100
AcDbLine
 10
186.133713
 20
-36.990547
 30
0.0
 11
185.333713
 21
-36.990547
 31
0.0
  0
ARC
  5
222
100
AcDbEntity
  8
外形
  6
CONTINUOUS
100
AcDbCircle
 10
186.133713
 20
-36.190547
 30
0.0
 40
0.8
100
AcDbArc
 50
177.0
 51
322.0
  0
LINE
  5
223
100
AcDbEntity
  8
外形
  6
CONTINUOUS
 62
     1
100
AcDbLine
 10
185.333713
 20
-36.190547
 30
0.0
 11
185.333713
 21
-36.990547
 31
0.0
  0
ARC
  5
224
100
AcDbEntity
  8
外形
  6
CONTINUOUS
100
AcDbCircle
 10
195.337005
 20
-30.490547
 30
0.0
 40
5.0
100
AcDbArc
 50
44.427004
 51
88.959845
  0
CIRCLE
  5
225
100
AcDbEntity
  8
外形
  6
CONTINUOUS
100
AcDbCircle
 10
190.746403
 20
-23.853254
 30
0.0
 40
2.550019
  0
ARC
  5
226
100
AcDbEntity
  8
外形
  6
CONTINUOUS
100
AcDbCircle
 10
191.948207
 20
-23.159392
 30
0.0
 40
0.394205
100
AcDbArc
 50
180.283476
 51
239.716524
  0
LINE
  5
227
100
AcDbEntity
  8
外形
  6
CONTINUOUS
100
AcDbLine
 10
191.550539
 20
-22.46045
 30
0.0
 11
191.554006
 21
-23.161343
 31
0.0
  0
ARC
  5
228
100
AcDbEntity
  8
外形
  6
CONTINUOUS
100
AcDbCircle
 10
191.948207
 20
-24.547116
 30
0.0
 40
0.394205
100
AcDbArc
 50
120.283476
 51
179.716524
  0
LINE
  5
229
100
AcDbEntity
  8
外形
  6
CONTINUOUS
100
AcDbLine
 10
191.554006
 20
-24.545166
 30
0.0
 11
191.550539
 21
-25.246059
 31
0.0
  0
LINE
  5
22A
100
AcDbEntity
  8
外形
  6
CONTINUOUS
100
AcDbLine
 10
192.354675
 20
-23.853254
 30
0.0
 11
191.749417
 21
-24.206704
 31
0.0
  0
LINE
  5
22B
100
AcDbEntity
  8
外形
  6
CONTINUOUS
100
AcDbLine
 10
191.749417
 20
-23.499804
 30
0.0
 11
192.354675
 21
-23.853254
 31
0.0
  0
ARC
  5
22C
100
AcDbEntity
  8
外形
  6
CONTINUOUS
100
AcDbCircle
 10
190.746403
 20
-22.465531
 30
0.0
 40
0.394205
100
AcDbArc
 50
240.283476
 51
299.716524
  0
ARC
  5
22D
100
AcDbEntity
  8
外形
  6
CONTINUOUS
100
AcDbCircle
 10
189.544599
 20
-23.159392
 30
0.0
 40
0.394205
100
AcDbArc
 50
300.283476
 51
359.716524
  0
LINE
  5
22E
100
AcDbEntity
  8
外形
  6
CONTINUOUS
100
AcDbLine
 10
189.942266
 20
-22.46045
 30
0.0
 11
190.550992
 21
-22.807893
 31
0.0
  0
LINE
  5
22F
100
AcDbEntity
  8
外形
  6
CONTINUOUS
100
AcDbLine
 10
189.938799
 20
-23.161343
 30
0.0
 11
189.942266
 21
-22.46045
 31
0.0
  0
ARC
  5
230
100
AcDbEntity
  8
外形
  6
CONTINUOUS
100
AcDbCircle
 10
189.544599
 20
-24.547116
 30
0.0
 40
0.394205
100
AcDbArc
 50
0.283476
 51
59.716524
  0
ARC
  5
231
100
AcDbEntity
  8
外形
  6
CONTINUOUS
100
AcDbCircle
 10
190.746403
 20
-25.240978
 30
0.0
 40
0.394205
100
AcDbArc
 50
60.283476
 51
119.716524
  0
LINE
  5
232
100
AcDbEntity
  8
外形
  6
CONTINUOUS
100
AcDbLine
 10
189.942266
 20
-25.246059
 30
0.0
 11
189.938799
 21
-24.545166
 31
0.0
  0
LINE
  5
233
100
AcDbEntity
  8
外形
  6
CONTINUOUS
100
AcDbLine
 10
190.550992
 20
-24.898615
 30
0.0
 11
189.942266
 21
-25.246059
 31
0.0
  0
LINE
  5
234
100
AcDbEntity
  8
外形
  6
CONTINUOUS
100
AcDbLine
 10
189.743388
 20
-24.206704
 30
0.0
 11
189.13813
 21
-23.853254
 31
0.0
  0
LINE
  5
235
100
AcDbEntity
  8
外形
  6
CONTINUOUS
100
AcDbLine
 10
189.13813
 20
-23.853254
 30
0.0
 11
189.743388
 21
-23.499804
 31
0.0
  0
LINE
  5
236
100
AcDbEntity
  8
外形
  6
CONTINUOUS
100
AcDbLine
 10
190.941814
 20
-22.807893
 30
0.0
 11
191.550539
 21
-22.46045
 31
0.0
  0
LINE
  5
237
100
AcDbEntity
  8
外形
  6
CONTINUOUS
100
AcDbLine
 10
191.550539
 20
-25.246059
 30
0.0
 11
190.941814
 21
-24.898615
 31
0.0
  0
SPLINE
  5
238
100
AcDbEntity
  8
外形
  6
CONTINUOUS
100
AcDbSpline
210
0.0
220
0.0
230
1.0
 70
     8
 71
     3
 72
     9
 73
     5
 74
     0
 42
0.0000001
 43
0.0000001
 40
22.08840203346483
 40
22.08840203346483
 40
22.08840203346483
 40
22.08840203346483
 40
35.29268756219788
 40
42.39497312149132
 40
42.39497312149132
 40
42.39497312149132
 40
42.39497312149132
 10
219.1478764341252
 20
-26.99054701473341
 30
0.0
 10
223.3534534302412
 20
-25.87687859481622
 30
0.0
 10
229.2538287058806
 20
-23.15869565723602
 30
0.0
 10
233.7602632559084
 20
-17.96979496103273
 30
0.0
 10
235.3364025701147
 20
-16.15496101769991
 30
0.0
  0
LINE
  5
239
100
AcDbEntity
  8
外形
  6
CONTINUOUS
100
AcDbLine
 10
240.333713
 20
-16.154961
 30
0.0
 11
235.336403
 21
-16.154961
 31
0.0
  0
LINE
  5
23A
100
AcDbEntity
  8
外形
  6
CONTINUOUS
100
AcDbLine
 10
240.833713
 20
-26.990547
 30
0.0
 11
240.833713
 21
-17.589889
 31
0.0
  0
LINE
  5
23B
100
AcDbEntity
  8
外形
  6
CONTINUOUS
100
AcDbLine
 10
240.333713
 20
-26.990547
 30
0.0
 11
240.333713
 21
-16.154961
 31
0.0
  0
SPLINE
  5
23C
100
AcDbEntity
  8
外形
  6
CONTINUOUS
100
AcDbSpline
210
0.0
220
0.0
230
-1.0
 70
     8
 71
     3
 72
     9
 73
     5
 74
     3
 42
0.0000001
 43
0.0000001
 44
0.0000000001
 40
0.0
 40
0.0
 40
0.0
 40
0.0
 40
35.29268756219788
 40
42.39497312149132
 40
42.39497312149132
 40
42.39497312149132
 40
42.39497312149132
 10
195.9778744742632
 20
8.939139220014055
 30
0.0
 10
208.8679278846691
 20
8.885837926208331
 30
0.0
 10
224.3519702066281
 20
8.821810302518521
 30
0.0
 10
233.7602632559083
 20
-2.011299068434216
 30
0.0
 10
235.3364025701146
 20
-3.826133011767012
 30
0.0
 11
195.9778744742632
 21
8.939139220014055
 31
0.0
 11
230.4374677486182
 21
1.316132809879889
 31
0.0
 11
235.3364025701146
 21
-3.826133011767012
 31
0.0
  0
LINE
  5
23D
100
AcDbEntity
  8
外形
  6
CONTINUOUS
100
AcDbLine
 10
240.333713
 20
9.509453
 30
0.0
 11
196.965687
 21
9.509453
 31
0.0
  0
ARC
  5
23F
100
AcDbEntity
  8
外形
  6
CONTINUOUS
100
AcDbCircle
 10
195.377266
 20
-12.342218
 30
0.0
 40
1.75
100
AcDbArc
 50
340.092375
 51
21.385887
  0
ARC
  5
240
100
AcDbEntity
  8
外形
  6
CONTINUOUS
100
AcDbCircle
 10
195.377266
 20
-11.065952
 30
0.0
 40
1.75
100
AcDbArc
 50
338.614113
 51
214.12087
  0
ARC
  5
241
100
AcDbEntity
  8
外形
  6
CONTINUOUS
100
AcDbCircle
 10
195.359093
 20
-11.515961
 30
0.0
 40
0.8
100
AcDbArc
 50
357.0
 51
142.0
  0
LINE
  5
242
100
AcDbEntity
  8
外形
  6
CONTINUOUS
100
AcDbLine
 10
187.439407
 20
4.009453
 30
0.0
 11
196.965687
 21
9.509453
 31
0.0
  0
LINE
  5
243
100
AcDbEntity
  8
外形
  6
CONTINUOUS
100
AcDbLine
 10
240.333713
 20
-3.826133
 30
0.0
 11
240.333713
 21
9.509453
 31
0.0
  0
LINE
  5
244
100
AcDbEntity
  8
外形
  6
CONTINUOUS
100
AcDbLine
 10
240.333713
 20
-3.826133
 30
0.0
 11
235.336403
 21
-3.826133
 31
0.0
  0
DIMENSION
  5
245
100
AcDbEntity
  8
寸法
  6
CONTINUOUS
100
AcDbDimension
  2
*D37
 10
411.257156
 20
-44.412301
 30
0.0
 11
392.757156
 21
-41.912301
 31
0.0
 70
    32
  3
STANDARD
100
AcDbAlignedDimension
 13
374.257156
 23
-17.589889
 33
0.0
 14
411.257156
 24
-17.589889
 34
0.0
100
AcDbRotatedDimension
1001
ACAD
1000
DSTYLE
1002
{
1070
    40
1040
1.0
1002
}
  0
LINE
  5
246
100
AcDbEntity
  8
外形
  6
CENTER
 62
     1
100
AcDbLine
 10
367.491668
 20
-102.344892
 30
0.0
 11
417.681008
 21
-102.344892
 31
0.0
  0
LINE
  5
247
100
AcDbEntity
  8
外形
  6
CONTINUOUS
100
AcDbLine
 10
485.329625
 20
-85.844892
 30
0.0
 11
485.329625
 21
-118.844892
 31
0.0
  0
LINE
  5
248
100
AcDbEntity
  8
外形
  6
CONTINUOUS
100
AcDbLine
 10
483.329625
 20
-83.844892
 30
0.0
 11
483.329625
 21
-91.809238
 31
0.0
  0
LINE
  5
249
100
AcDbEntity
  8
外形
  6
CONTINUOUS
100
AcDbLine
 10
483.329625
 20
-112.880546
 30
0.0
 11
483.329625
 21
-120.844892
 31
0.0
  0
LINE
  5
24A
100
AcDbEntity
  8
外形
  6
CONTINUOUS
100
AcDbLine
 10
483.329625
 20
-120.844892
 30
0.0
 11
485.329625
 21
-118.844892
 31
0.0
  0
ARC
  5
24B
100
AcDbEntity
  8
外形
  6
CONTINUOUS
100
AcDbCircle
 10
466.329625
 20
-102.344892
 30
0.0
 40
20.0
100
AcDbArc
 50
328.211669
 51
341.805128
  0
ARC
  5
24C
100
AcDbEntity
  8
外形
  6
CONTINUOUS
100
AcDbCircle
 10
466.329625
 20
-102.344892
 30
0.0
 40
20.0
100
AcDbArc
 50
18.194872
 51
31.788331
  0
LINE
  5
24D
100
AcDbEntity
  8
外形
  6
CONTINUOUS
100
AcDbLine
 10
483.329625
 20
-83.844892
 30
0.0
 11
485.329625
 21
-85.844892
 31
0.0
  0
ARC
  5
24E
100
AcDbEntity
  8
外形
  6
CONTINUOUS
100
AcDbCircle
 10
392.757156
 20
-9.990547
 30
0.0
 40
20.0
100
AcDbArc
 50
301.788331
 51
337.668355
  0
DIMENSION
  5
24F
100
AcDbEntity
  8
寸法
  6
CONTINUOUS
100
AcDbDimension
  2
*D38
 10
381.258297
 20
-26.354417
 30
0.0
 11
413.86431
 21
20.046755
 31
0.0
 70
   163
  3
STANDARD
100
AcDbDiametricDimension
 15
404.256016
 25
6.373323
 35
0.0
 40
0.0
1001
ACAD
1000
DSTYLE
1002
{
1070
    40
1040
1.0
1002
}
  0
ARC
  5
250
100
AcDbEntity
  8
外形
  6
CONTINUOUS
100
AcDbCircle
 10
392.757156
 20
-9.990547
 30
0.0
 40
20.0
100
AcDbArc
 50
22.331645
 51
157.668355
  0
LINE
  5
251
100
AcDbEntity
  8
外形
  6
CENTER
 62
     1
100
AcDbLine
 10
392.757156
 20
15.274941
 30
0.0
 11
392.757156
 21
-34.914399
 31
0.0
  0
LINE
  5
252
100
AcDbEntity
  8
外形
  6
CONTINUOUS
100
AcDbLine
 10
374.257156
 20
-2.391205
 30
0.0
 11
374.257156
 21
-17.589889
 31
0.0
  0
LINE
  5
253
100
AcDbEntity
  8
外形
  6
CONTINUOUS
100
AcDbLine
 10
382.221502
 20
-26.990547
 30
0.0
 11
403.29281
 21
-26.990547
 31
0.0
  0
ARC
  5
254
100
AcDbEntity
  8
外形
  6
CONTINUOUS
100
AcDbCircle
 10
392.757156
 20
-9.990547
 30
0.0
 40
20.0
100
AcDbArc
 50
202.331645
 51
238.211669
  0
LINE
  5
255
100
AcDbEntity
  8
外形
  6
CONTINUOUS
100
AcDbLine
 10
483.329625
 20
10.009453
 30
0.0
 11
485.329625
 21
8.009453
 31
0.0
  0
LINE
  5
256
100
AcDbEntity
  8
外形
  6
CONTINUOUS
100
AcDbLine
 10
483.329625
 20
10.009453
 30
0.0
 11
483.329625
 21
-2.391205
 31
0.0
  0
LINE
  5
257
100
AcDbEntity
  8
外形
  6
CONTINUOUS
100
AcDbLine
 10
413.257156
 20
-26.990547
 30
0.0
 11
483.329625
 21
-26.990547
 31
0.0
  0
LINE
  5
258
100
AcDbEntity
  8
外形
  6
CONTINUOUS
100
AcDbLine
 10
413.257156
 20
-2.391205
 30
0.0
 11
483.329625
 21
-2.391205
 31
0.0
  0
LINE
  5
259
100
AcDbEntity
  8
外形
  6
CONTINUOUS
100
AcDbLine
 10
413.257156
 20
-17.589889
 30
0.0
 11
483.329625
 21
-17.589889
 31
0.0
  0
LINE
  5
25A
100
AcDbEntity
  8
外形
  6
CONTINUOUS
100
AcDbLine
 10
411.257156
 20
-2.391205
 30
0.0
 11
411.257156
 21
-17.589889
 31
0.0
  0
ARC
  5
25B
100
AcDbEntity
  8
外形
  6
CONTINUOUS
100
AcDbCircle
 10
464.829625
 20
-9.990547
 30
0.0
 40
20.0
100
AcDbArc
 50
337.668355
 51
22.331645
  0
LINE
  5
25C
100
AcDbEntity
  8
外形
  6
CONTINUOUS
100
AcDbLine
 10
485.329625
 20
-24.990547
 30
0.0
 11
485.329625
 21
8.009453
 31
0.0
  0
LINE
  5
25D
100
AcDbEntity
  8
外形
  6
CONTINUOUS
100
AcDbLine
 10
483.329625
 20
-26.990547
 30
0.0
 11
485.329625
 21
-24.990547
 31
0.0
  0
LINE
  5
25E
100
AcDbEntity
  8
外形
  6
CONTINUOUS
100
AcDbLine
 10
483.329625
 20
-17.589889
 30
0.0
 11
483.329625
 21
-26.990547
 31
0.0
  0
LINE
  5
25F
100
AcDbEntity
  8
外形
  6
CONTINUOUS
100
AcDbLine
 10
483.329625
 20
10.009453
 30
0.0
 11
413.257156
 21
10.009453
 31
0.0
  0
DIMENSION
  5
447
100
AcDbEntity
  8
寸法
  6
CONTINUOUS
100
AcDbDimension
  2
*D39
 10
108.163413
 20
-36.990722
 30
0.0
 11
96.218992
 21
-47.49439
 31
0.0
 70
    34
  3
STANDARD
100
AcDb2LineAngularDimension
 13
108.183412
 23
16.853396
 33
0.0
 14
108.183412
 24
-36.990547
 34
0.0
 15
114.217357
 25
8.993546
 35
0.0
 16
107.452273
 26
-53.58465
 36
0.0
1001
ACAD
1000
DSTYLE
1002
{
1070
    40
1040
1.0
1002
}
  0
DIMENSION
  5
46A
100
AcDbEntity
  8
寸法
  6
CONTINUOUS
100
AcDbDimension
  2
*D40
 10
185.333713
 20
-102.344892
 30
0.0
 11
172.907668
 21
-94.808858
 31
0.0
 70
    34
  3
STANDARD
100
AcDb2LineAngularDimension
 13
181.503732
 23
-102.344892
 33
0.0
 14
492.817618
 24
-102.344892
 34
0.0
 15
195.429128
 25
-101.815814
 35
0.0
 16
168.961747
 26
-102.916614
 36
0.0
1001
ACAD
1000
DSTYLE
1002
{
1070
    40
1040
1.0
1002
}
  0
ENDSEC
  0
SECTION
  2
OBJECTS
  0
DICTIONARY
  5
1E
100
AcDbDictionary
  3
ACAD_GROUP
350
1C
  3
ACAD_MLINESTYLE
350
1D
  0
DICTIONARY
  5
44
100
AcDbDictionary
280
     1
  3
ACAD_XREC_ROUNDTRIP
360
45
  0
DICTIONARY
  5
2F
100
AcDbDictionary
280
     1
  3
ACAD_XREC_ROUNDTRIP
360
30
  0
DICTIONARY
  5
3
100
AcDbDictionary
280
     1
  3
ACAD_LAYOUTSELFREF
360
4
  0
DICTIONARY
  5
A
100
AcDbDictionary
280
     1
  3
ACAD_LAYOUTSELFREF
360
B
  0
DICTIONARY
  5
1C
102
{ACAD_REACTORS
330
1E
102
}
100
AcDbDictionary
  0
DICTIONARY
  5
1D
102
{ACAD_REACTORS
330
1E
102
}
100
AcDbDictionary
  3
STANDARD
350
20
  0
XRECORD
  5
45
102
{ACAD_REACTORS
330
44
102
}
100
AcDbXrecord
102
PLOTBIT
280
     0
  0
XRECORD
  5
30
102
{ACAD_REACTORS
330
2F
102
}
100
AcDbXrecord
102
ACADR14ROUNDTRIP
1000
DSTYLE
1002
{
1070
   341
340
0
1070
   343
340
0
1070
   344
340
0
1002
}
  0
XRECORD
  5
4
102
{ACAD_REACTORS
330
3
102
}
100
AcDbXrecord
340
2
  0
XRECORD
  5
B
102
{ACAD_REACTORS
330
A
102
}
100
AcDbXrecord
340
9
  0
MLINESTYLE
  5
20
102
{ACAD_REACTORS
330
1D
102
}
100
AcDbMlineStyle
  2
STANDARD
 70
     0
  3

 62
     0
 51
90.0
 52
90.0
 71
     2
 49
0.5
 62
   256
  6
BYLAYER
 49
-0.5
 62
   256
  6
BYLAYER
  0
ENDSEC
  0
EOF
