  0
SECTION
  2
HEADER
  9
$ACADVER
  1
AC1014
  9
$ACADMAINTVER
 70
     0
  9
$DWGCODEPAGE
  3
ANSI_932
  9
$INSBASE
 10
-587.250952
 20
747.890188
 30
0.0
  9
$EXTMIN
 10
1055.163804
 20
-336.909166
 30
0.0
  9
$EXTMAX
 10
1526.746682
 20
-103.581898
 30
0.0
  9
$LIMMIN
 10
955.835764
 20
-420.39602
  9
$LIMMAX
 10
1592.625267
 20
-42.812974
  9
$ORTHOMODE
 70
     1
  9
$REGENMODE
 70
     1
  9
$FILLMODE
 70
     1
  9
$QTEXTMODE
 70
     0
  9
$MIRRTEXT
 70
     1
  9
$DRAGMODE
 70
     2
  9
$LTSCALE
 40
5.0
  9
$OSMODE
 70
    47
  9
$ATTMODE
 70
     1
  9
$TEXTSIZE
 40
5.0
  9
$TRACEWID
 40
0.05
  9
$TEXTSTYLE
  7
STANDARD
  9
$CLAYER
  8
外形
  9
$CELTYPE
  6
CONTINUOUS
  9
$CECOLOR
 62
   256
  9
$CELTSCALE
 40
1.0
  9
$DELOBJ
 70
     1
  9
$DISPSILH
 70
     0
  9
$DIMSCALE
 40
1.0
  9
$DIMASZ
 40
2.0
  9
$DIMEXO
 40
1.0
  9
$DIMDLI
 40
8.0
  9
$DIMRND
 40
0.0
  9
$DIMDLE
 40
0.0
  9
$DIMEXE
 40
2.0
  9
$DIMTP
 40
0.0
  9
$DIMTM
 40
0.0
  9
$DIMTXT
 40
2.0
  9
$DIMCEN
 40
-1.0
  9
$DIMTSZ
 40
0.0
  9
$DIMTOL
 70
     0
  9
$DIMLIM
 70
     0
  9
$DIMTIH
 70
     0
  9
$DIMTOH
 70
     0
  9
$DIMSE1
 70
     0
  9
$DIMSE2
 70
     0
  9
$DIMTAD
 70
     1
  9
$DIMZIN
 70
     8
  9
$DIMBLK
  1

  9
$DIMASO
 70
     1
  9
$DIMSHO
 70
     1
  9
$DIMPOST
  1

  9
$DIMAPOST
  1

  9
$DIMALT
 70
     0
  9
$DIMALTD
 70
     2
  9
$DIMALTF
 40
25.4
  9
$DIMLFAC
 40
1.0
  9
$DIMTOFL
 70
     1
  9
$DIMTVP
 40
0.0
  9
$DIMTIX
 70
     0
  9
$DIMSOXD
 70
     0
  9
$DIMSAH
 70
     1
  9
$DIMBLK1
  1
_DOTSMALL
  9
$DIMBLK2
  1
_DOTSMALL
  9
$DIMSTYLE
  2
参考寸法
  9
$DIMCLRD
 70
     2
  9
$DIMCLRE
 70
     2
  9
$DIMCLRT
 70
     2
  9
$DIMTFAC
 40
1.0
  9
$DIMGAP
 40
1.0
  9
$DIMJUST
 70
     0
  9
$DIMSD1
 70
     0
  9
$DIMSD2
 70
     0
  9
$DIMTOLJ
 70
     1
  9
$DIMTZIN
 70
     8
  9
$DIMALTZ
 70
     0
  9
$DIMALTTZ
 70
     0
  9
$DIMFIT
 70
     3
  9
$DIMUPT
 70
     0
  9
$DIMUNIT
 70
     2
  9
$DIMDEC
 70
     3
  9
$DIMTDEC
 70
     2
  9
$DIMALTU
 70
     2
  9
$DIMALTTD
 70
     2
  9
$DIMTXSTY
  7
STANDARD
  9
$DIMAUNIT
 70
     0
  9
$LUNITS
 70
     2
  9
$LUPREC
 70
     3
  9
$SKETCHINC
 40
0.1
  9
$FILLETRAD
 40
1.0
  9
$AUNITS
 70
     0
  9
$AUPREC
 70
     3
  9
$MENU
  1
acad
  9
$ELEVATION
 40
0.0
  9
$PELEVATION
 40
0.0
  9
$THICKNESS
 40
0.0
  9
$LIMCHECK
 70
     0
  9
$BLIPMODE
 70
     0
  9
$CHAMFERA
 40
0.0
  9
$CHAMFERB
 40
0.0
  9
$CHAMFERC
 40
0.0
  9
$CHAMFERD
 40
0.0
  9
$SKPOLY
 70
     0
  9
$TDCREATE
 40
2450751.535399305
  9
$TDUPDATE
 40
2452031.400879629
  9
$TDINDWG
 40
1.8869378472
  9
$TDUSRTIMER
 40
1.8869378472
  9
$USRTIMER
 70
     1
  9
$ANGBASE
 50
0.0
  9
$ANGDIR
 70
     0
  9
$PDMODE
 70
    32
  9
$PDSIZE
 40
0.0
  9
$PLINEWID
 40
0.0
  9
$COORDS
 70
     2
  9
$SPLFRAME
 70
     0
  9
$SPLINETYPE
 70
     5
  9
$SPLINESEGS
 70
     8
  9
$ATTDIA
 70
     0
  9
$ATTREQ
 70
     1
  9
$HANDLING
 70
     1
  9
$HANDSEED
  5
2C91
  9
$SURFTAB1
 70
     6
  9
$SURFTAB2
 70
     6
  9
$SURFTYPE
 70
     6
  9
$SURFU
 70
     6
  9
$SURFV
 70
     6
  9
$UCSNAME
  2

  9
$UCSORG
 10
40.53800450572526
 20
146.9196145921314
 30
0.0
  9
$UCSXDIR
 10
1.0
 20
0.0
 30
0.0
  9
$UCSYDIR
 10
0.0
 20
1.0
 30
0.0
  9
$PUCSNAME
  2

  9
$PUCSORG
 10
0.0
 20
0.0
 30
0.0
  9
$PUCSXDIR
 10
1.0
 20
0.0
 30
0.0
  9
$PUCSYDIR
 10
0.0
 20
1.0
 30
0.0
  9
$USERI1
 70
     0
  9
$USERI2
 70
     0
  9
$USERI3
 70
     0
  9
$USERI4
 70
     0
  9
$USERI5
 70
     0
  9
$USERR1
 40
0.0
  9
$USERR2
 40
0.0
  9
$USERR3
 40
0.0
  9
$USERR4
 40
0.0
  9
$USERR5
 40
0.0
  9
$WORLDVIEW
 70
     1
  9
$SHADEDGE
 70
     3
  9
$SHADEDIF
 70
    70
  9
$TILEMODE
 70
     1
  9
$MAXACTVP
 70
    16
  9
$PINSBASE
 10
0.0
 20
0.0
 30
0.0
  9
$PLIMCHECK
 70
     0
  9
$PEXTMIN
 10
1.000000E+20
 20
1.000000E+20
 30
1.000000E+20
  9
$PEXTMAX
 10
-1.000000E+20
 20
-1.000000E+20
 30
-1.000000E+20
  9
$PLIMMIN
 10
0.0
 20
0.0
  9
$PLIMMAX
 10
12.0
 20
9.0
  9
$UNITMODE
 70
     0
  9
$VISRETAIN
 70
     0
  9
$PLINEGEN
 70
     0
  9
$PSLTSCALE
 70
     1
  9
$TREEDEPTH
 70
  3020
  9
$PICKSTYLE
 70
     1
  9
$CMLSTYLE
  2
STANDARD
  9
$CMLJUST
 70
     0
  9
$CMLSCALE
 40
1.0
  9
$PROXYGRAPHICS
 70
     1
  9
$MEASUREMENT
 70
     0
  0
ENDSEC
  0
SECTION
  2
CLASSES
  0
CLASS
  1
LWPOLYLINE
  2
AcDbPolyline
  3
"AutoCAD"
 90
        0
280
     0
281
     1
  0
CLASS
  1
ACDBDICTIONARYWDFLT
  2
AcDbDictionaryWithDefault
  3
AutoCAD 2000
 90
        0
280
     1
281
     0
  0
CLASS
  1
ACDBPLACEHOLDER
  2
AcDbPlaceHolder
  3
AutoCAD 2000
 90
        0
280
     1
281
     0
  0
CLASS
  1
LAYOUT
  2
AcDbLayout
  3
AutoCAD 2000
 90
        0
280
     1
281
     0
  0
CLASS
  1
LONG_TRANSACTION
  2
AcDbLongTransaction
  3
AutoCAD 2000
 90
        0
280
     1
281
     0
  0
CLASS
  1
LWPOLYLINE
  2
AcDbPolyline
  3
"AutoCAD"
 90
        0
280
     0
281
     1
  0
CLASS
  1
HATCH
  2
AcDbHatch
  3
"ACAD_SEDONA"
 90
        0
280
     0
281
     1
  0
CLASS
  1
XRECORD
  2
AcDbXrecord
  3
"<Built In>"
 90
        0
280
     0
281
     0
  0
CLASS
  1
DICTIONARYVAR
  2
AcDbDictionaryVar
  3
"AutoCAD"
 90
        0
280
     0
281
     0
  0
ENDSEC
  0
SECTION
  2
TABLES
  0
TABLE
  2
VPORT
  5
16
100
AcDbSymbolTable
 70
     1
  0
VPORT
  5
2C8C
100
AcDbSymbolTableRecord
100
AcDbViewportTableRecord
  2
*ACTIVE
 70
     0
 10
0.0
 20
0.0
 11
1.0
 21
1.0
 12
1334.01225
 22
-229.973535
 13
0.0
 23
0.0
 14
1.0
 24
1.0
 15
10.0
 25
10.0
 16
0.0
 26
0.0
 36
1.0
 17
0.0
 27
0.0
 37
0.0
 40
372.478523
 41
1.710425
 42
50.0
 43
0.0
 44
0.0
 50
0.0
 51
0.0
 71
     0
 72
   100
 73
     1
 74
     1
 75
     0
 76
     0
 77
     0
 78
     2
  0
ENDTAB
  0
TABLE
  2
LTYPE
  5
11
100
AcDbSymbolTable
 70
     2
  0
LTYPE
  5
12
100
AcDbSymbolTableRecord
100
AcDbLinetypeTableRecord
  2
BYBLOCK
 70
     0
  3

 72
    65
 73
     0
 40
0.0
  0
LTYPE
  5
13
100
AcDbSymbolTableRecord
100
AcDbLinetypeTableRecord
  2
BYLAYER
 70
     0
  3

 72
    65
 73
     0
 40
0.0
  0
LTYPE
  5
7
100
AcDbSymbolTableRecord
100
AcDbLinetypeTableRecord
  2
CONTINUOUS
 70
     0
  3
Solid line
 72
    65
 73
     0
 40
0.0
  0
LTYPE
  5
AA
100
AcDbSymbolTableRecord
100
AcDbLinetypeTableRecord
  2
CENTER
 70
     0
  3
Center ____ _ ____ _ ____ _ ____ _ ____ _ ____
 72
    65
 73
     4
 40
2.0
 49
1.25
 74
     0
 49
-0.25
 74
     0
 49
0.25
 74
     0
 49
-0.25
 74
     0
  0
ENDTAB
  0
TABLE
  2
LAYER
  5
E
100
AcDbSymbolTable
 70
     5
  0
LAYER
  5
6
100
AcDbSymbolTableRecord
100
AcDbLayerTableRecord
  2
0
 70
     0
 62
     7
  6
CONTINUOUS
  0
LAYER
  5
2C
100
AcDbSymbolTableRecord
100
AcDbLayerTableRecord
  2
外形
 70
     0
 62
     4
  6
CONTINUOUS
  0
LAYER
  5
37
102
{ACAD_XDICTIONARY
360
38
102
}
100
AcDbSymbolTableRecord
100
AcDbLayerTableRecord
  2
DEFPOINTS
 70
     0
 62
     7
  6
CONTINUOUS
  0
LAYER
  5
1F
100
AcDbSymbolTableRecord
100
AcDbLayerTableRecord
  2
寸法
 70
     0
 62
     1
  6
CONTINUOUS
  0
LAYER
  5
673
100
AcDbSymbolTableRecord
100
AcDbLayerTableRecord
  2
参考
 70
     0
 62
     2
  6
CONTINUOUS
  0
ENDTAB
  0
TABLE
  2
STYLE
  5
F
100
AcDbSymbolTable
 70
     1
  0
STYLE
  5
10
100
AcDbSymbolTableRecord
100
AcDbTextStyleTableRecord
  2
STANDARD
 70
     0
 40
0.0
 41
1.0
 50
0.0
 71
     0
 42
5.0
  3
MONOTXT
  4
BIGFONT
  0
ENDTAB
  0
TABLE
  2
VIEW
  5
14
100
AcDbSymbolTable
 70
     0
  0
ENDTAB
  0
TABLE
  2
UCS
  5
15
100
AcDbSymbolTable
 70
     0
  0
ENDTAB
  0
TABLE
  2
APPID
  5
18
100
AcDbSymbolTable
 70
     2
  0
APPID
  5
19
100
AcDbSymbolTableRecord
100
AcDbRegAppTableRecord
  2
ACAD
 70
     0
  0
APPID
  5
C59
100
AcDbSymbolTableRecord
100
AcDbRegAppTableRecord
  2
DRAWINGVARIABLESXDATA
 70
     0
  0
ENDTAB
  0
TABLE
  2
DIMSTYLE
  5
1A
100
AcDbSymbolTable
 70
     2
  0
DIMSTYLE
105
21
102
{ACAD_XDICTIONARY
360
22
102
}
102
{ACAD_REACTORS
330
25A9
330
25EF
330
2561
330
2573
330
25C5
330
2819
330
287C
330
2C6B
102
}
100
AcDbSymbolTableRecord
100
AcDbDimStyleTableRecord
  2
STANDARD
 70
     0
  3

  4

  5

  6
_OPEN30
  7
_OPEN30
 40
0.0
 41
2.0
 42
1.0
 43
8.0
 44
2.0
 45
0.0
 46
0.0
 47
0.0
 48
0.0
140
3.0
141
-1.0
142
0.0
143
25.4
144
1.0
145
0.0
146
1.0
147
1.0
 71
     0
 72
     0
 73
     0
 74
     0
 75
     0
 76
     0
 77
     1
 78
     8
170
     0
171
     2
172
     1
173
     1
174
     0
175
     0
176
     1
177
     1
178
     3
270
     2
271
     2
272
     2
273
     2
274
     2
340
10
275
     0
280
     0
281
     0
282
     0
283
     1
284
     8
285
     0
286
     0
287
     3
288
     0
  0
DIMSTYLE
105
674
100
AcDbSymbolTableRecord
100
AcDbDimStyleTableRecord
  2
参考寸法
 70
     0
  3

  4

  5

  6
_DOTSMALL
  7
_DOTSMALL
 40
1.0
 41
2.0
 42
1.0
 43
8.0
 44
2.0
 45
0.0
 46
0.0
 47
0.0
 48
0.0
140
2.0
141
-1.0
142
0.0
143
25.4
144
1.0
145
0.0
146
1.0
147
1.0
 71
     0
 72
     0
 73
     0
 74
     0
 75
     0
 76
     0
 77
     1
 78
     8
170
     0
171
     2
172
     1
173
     1
174
     0
175
     0
176
     2
177
     2
178
     2
270
     2
271
     3
272
     2
273
     2
274
     2
340
10
275
     0
280
     0
281
     0
282
     0
283
     1
284
     8
285
     0
286
     0
287
     3
288
     0
  0
ENDTAB
  0
TABLE
  2
BLOCK_RECORD
  5
1
100
AcDbSymbolTable
 70
    10
  0
BLOCK_RECORD
  5
2
102
{ACAD_XDICTIONARY
360
3
102
}
100
AcDbSymbolTableRecord
100
AcDbBlockTableRecord
  2
*MODEL_SPACE
  0
BLOCK_RECORD
  5
9
102
{ACAD_XDICTIONARY
360
A
102
}
100
AcDbSymbolTableRecord
100
AcDbBlockTableRecord
  2
*PAPER_SPACE
  0
BLOCK_RECORD
  5
24
100
AcDbSymbolTableRecord
100
AcDbBlockTableRecord
  2
_DOTSMALL
  0
BLOCK_RECORD
  5
470
100
AcDbSymbolTableRecord
100
AcDbBlockTableRecord
  2
_OPEN30
  0
BLOCK_RECORD
  5
260B
100
AcDbSymbolTableRecord
100
AcDbBlockTableRecord
  2
*D2
  0
BLOCK_RECORD
  5
2617
100
AcDbSymbolTableRecord
100
AcDbBlockTableRecord
  2
*D3
  0
BLOCK_RECORD
  5
2653
100
AcDbSymbolTableRecord
100
AcDbBlockTableRecord
  2
*D4
  0
BLOCK_RECORD
  5
2672
100
AcDbSymbolTableRecord
100
AcDbBlockTableRecord
  2
*D5
  0
BLOCK_RECORD
  5
26BC
100
AcDbSymbolTableRecord
100
AcDbBlockTableRecord
  2
*D6
  0
BLOCK_RECORD
  5
280B
100
AcDbSymbolTableRecord
100
AcDbBlockTableRecord
  2
*D7
  0
BLOCK_RECORD
  5
2872
100
AcDbSymbolTableRecord
100
AcDbBlockTableRecord
  2
*D8
  0
BLOCK_RECORD
  5
2C5B
100
AcDbSymbolTableRecord
100
AcDbBlockTableRecord
  2
*D9
  0
ENDTAB
  0
ENDSEC
  0
SECTION
  2
BLOCKS
  0
BLOCK
  5
5
100
AcDbEntity
  8
0
100
AcDbBlockBegin
  2
*MODEL_SPACE
 70
     0
 10
0.0
 20
0.0
 30
0.0
  3
*MODEL_SPACE
  1

  0
ENDBLK
  5
8
100
AcDbEntity
  8
0
100
AcDbBlockEnd
  0
BLOCK
  5
C
100
AcDbEntity
 67
     1
  8
0
100
AcDbBlockBegin
  2
*PAPER_SPACE
 70
     0
 10
0.0
 20
0.0
 30
0.0
  3
*PAPER_SPACE
  1

  0
ENDBLK
  5
D
100
AcDbEntity
 67
     1
  8
0
100
AcDbBlockEnd
  0
BLOCK
  5
29
100
AcDbEntity
  8
0
100
AcDbBlockBegin
  2
_DOTSMALL
 70
     0
 10
0.0
 20
0.0
 30
0.0
  3
_DOTSMALL
  1

  0
POLYLINE
  5
25
100
AcDbEntity
  8
0
  6
BYBLOCK
 62
     0
100
AcDb2dPolyline
 66
     1
 10
0.0
 20
0.0
 30
0.0
 70
     1
 40
0.5
 41
0.5
  0
VERTEX
  5
26
100
AcDbEntity
  8
0
  6
BYBLOCK
 62
     0
100
AcDbVertex
100
AcDb2dVertex
 10
-0.0625
 20
0.0
 30
0.0
 42
1.0
  0
VERTEX
  5
27
100
AcDbEntity
  8
0
  6
BYBLOCK
 62
     0
100
AcDbVertex
100
AcDb2dVertex
 10
0.0625
 20
0.0
 30
0.0
 42
1.0
  0
SEQEND
  5
28
100
AcDbEntity
  8
0
  6
BYBLOCK
 62
     0
  0
ENDBLK
  5
2A
100
AcDbEntity
  8
0
100
AcDbBlockEnd
  0
BLOCK
  5
471
100
AcDbEntity
  8
0
100
AcDbBlockBegin
  2
_OPEN30
 70
     0
 10
0.0
 20
0.0
 30
0.0
  3
_OPEN30
  1

  0
LINE
  5
472
100
AcDbEntity
  8
0
  6
BYBLOCK
 62
     0
100
AcDbLine
 10
-1.0
 20
0.267949
 30
0.0
 11
0.0
 21
0.0
 31
0.0
  0
LINE
  5
473
100
AcDbEntity
  8
0
  6
BYBLOCK
 62
     0
100
AcDbLine
 10
0.0
 20
0.0
 30
0.0
 11
-1.0
 21
-0.267949
 31
0.0
  0
LINE
  5
474
100
AcDbEntity
  8
0
  6
BYBLOCK
 62
     0
100
AcDbLine
 10
0.0
 20
0.0
 30
0.0
 11
-1.0
 21
0.0
 31
0.0
  0
ENDBLK
  5
475
100
AcDbEntity
  8
0
100
AcDbBlockEnd
  0
BLOCK
  5
2C0D
100
AcDbEntity
  8
0
100
AcDbBlockBegin
  2
*D2
 70
     1
 10
0.0
 20
0.0
 30
0.0
  3
*D2
  1

  0
LINE
  5
2C0E
100
AcDbEntity
  8
0
  6
BYBLOCK
 62
     1
100
AcDbLine
 10
1170.394261
 20
-199.739021
 30
0.0
 11
1170.394261
 21
-228.909329
 31
0.0
  0
LINE
  5
2C0F
100
AcDbEntity
  8
0
  6
BYBLOCK
 62
     1
100
AcDbLine
 10
1520.394261
 20
-186.239021
 30
0.0
 11
1520.394261
 21
-228.909329
 31
0.0
  0
LINE
  5
2C10
100
AcDbEntity
  8
0
  6
BYBLOCK
 62
     1
100
AcDbLine
 10
1172.394261
 20
-226.909329
 30
0.0
 11
1518.394261
 21
-226.909329
 31
0.0
  0
INSERT
  5
2C11
100
AcDbEntity
  8
0
  6
BYBLOCK
 62
     1
100
AcDbBlockReference
  2
_OPEN30
 10
1170.394261
 20
-226.909329
 30
0.0
 41
2.0
 42
2.0
 43
2.0
 50
180.0
  0
INSERT
  5
2C12
100
AcDbEntity
  8
0
  6
BYBLOCK
 62
     1
100
AcDbBlockReference
  2
_OPEN30
 10
1520.394261
 20
-226.909329
 30
0.0
 41
2.0
 42
2.0
 43
2.0
  0
MTEXT
  5
2C13
100
AcDbEntity
  8
0
  6
BYBLOCK
 62
     3
100
AcDbMText
 10
1345.394261
 20
-224.409329
 30
0.0
 40
3.0
 41
0.0
 71
     5
 72
     1
  1
\A1;350
  0
POINT
  5
2C14
100
AcDbEntity
  8
DEFPOINTS
  6
BYBLOCK
 62
     0
100
AcDbPoint
 10
1170.394261
 20
-198.739021
 30
0.0
  0
POINT
  5
2C15
100
AcDbEntity
  8
DEFPOINTS
  6
BYBLOCK
 62
     0
100
AcDbPoint
 10
1520.394261
 20
-185.239021
 30
0.0
  0
POINT
  5
2C16
100
AcDbEntity
  8
DEFPOINTS
  6
BYBLOCK
 62
     0
100
AcDbPoint
 10
1520.394261
 20
-226.909329
 30
0.0
  0
ENDBLK
  5
2C17
100
AcDbEntity
  8
0
100
AcDbBlockEnd
  0
BLOCK
  5
2895
100
AcDbEntity
  8
0
100
AcDbBlockBegin
  2
*D3
 70
     1
 10
0.0
 20
0.0
 30
0.0
  3
*D3
  1

  0
LINE
  5
2896
100
AcDbEntity
  8
0
  6
BYBLOCK
 62
     1
100
AcDbLine
 10
1308.363592
 20
-173.268382
 30
0.0
 11
1308.363592
 21
-200.505898
 31
0.0
  0
LINE
  5
2897
100
AcDbEntity
  8
0
  6
BYBLOCK
 62
     1
100
AcDbLine
 10
1355.363592
 20
-173.268382
 30
0.0
 11
1355.363592
 21
-200.505898
 31
0.0
  0
LINE
  5
2898
100
AcDbEntity
  8
0
  6
BYBLOCK
 62
     1
100
AcDbLine
 10
1310.363592
 20
-198.505898
 30
0.0
 11
1353.363592
 21
-198.505898
 31
0.0
  0
INSERT
  5
2899
100
AcDbEntity
  8
0
  6
BYBLOCK
 62
     1
100
AcDbBlockReference
  2
_OPEN30
 10
1308.363592
 20
-198.505898
 30
0.0
 41
2.0
 42
2.0
 43
2.0
 50
180.0
  0
INSERT
  5
289A
100
AcDbEntity
  8
0
  6
BYBLOCK
 62
     1
100
AcDbBlockReference
  2
_OPEN30
 10
1355.363592
 20
-198.505898
 30
0.0
 41
2.0
 42
2.0
 43
2.0
  0
MTEXT
  5
289B
100
AcDbEntity
  8
0
  6
BYBLOCK
 62
     3
100
AcDbMText
 10
1331.863592
 20
-196.005898
 30
0.0
 40
3.0
 41
0.0
 71
     5
 72
     1
  1
\A1;47
  0
POINT
  5
289C
100
AcDbEntity
  8
DEFPOINTS
  6
BYBLOCK
 62
     0
100
AcDbPoint
 10
1308.363592
 20
-172.268382
 30
0.0
  0
POINT
  5
289D
100
AcDbEntity
  8
DEFPOINTS
  6
BYBLOCK
 62
     0
100
AcDbPoint
 10
1355.363592
 20
-172.268382
 30
0.0
  0
POINT
  5
289E
100
AcDbEntity
  8
DEFPOINTS
  6
BYBLOCK
 62
     0
100
AcDbPoint
 10
1355.363592
 20
-198.505898
 30
0.0
  0
ENDBLK
  5
289F
100
AcDbEntity
  8
0
100
AcDbBlockEnd
  0
BLOCK
  5
2654
100
AcDbEntity
  8
0
100
AcDbBlockBegin
  2
*D4
 70
     1
 10
0.0
 20
0.0
 30
0.0
  3
*D4
  1

  0
LINE
  5
2655
100
AcDbEntity
  8
0
  6
BYBLOCK
 62
     1
100
AcDbLine
 10
564.401241
 20
-238.359767
 30
0.0
 11
560.879494
 21
-258.332588
 31
0.0
  0
LINE
  5
2656
100
AcDbEntity
  8
0
  6
BYBLOCK
 62
     1
100
AcDbLine
 10
564.574889
 20
-238.37496
 30
0.0
 11
564.574889
 21
-258.655894
 31
0.0
  0
ARC
  5
2657
100
AcDbEntity
  8
0
  6
BYBLOCK
 62
     1
100
AcDbCircle
 10
564.574889
 20
-237.37496
 30
0.0
 40
19.280934
100
AcDbArc
 50
248.092065
 51
260.0
  0
LINE
  5
2658
100
AcDbEntity
  8
0
  6
BYBLOCK
 62
     1
100
AcDbLine
 10
557.380859
 20
-255.263513
 30
0.0
 11
546.618557
 21
-250.935364
 31
0.0
  0
ARC
  5
2659
100
AcDbEntity
  8
0
  6
BYBLOCK
 62
     1
100
AcDbCircle
 10
564.574889
 20
-237.37496
 30
0.0
 40
19.280934
100
AcDbArc
 50
248.108149
 51
254.054075
  0
ARC
  5
265A
100
AcDbEntity
  8
0
  6
BYBLOCK
 62
     1
100
AcDbCircle
 10
564.574889
 20
-237.37496
 30
0.0
 40
19.280934
100
AcDbArc
 50
275.945925
 51
281.891851
  0
ARC
  5
265B
100
AcDbEntity
  8
0
  6
BYBLOCK
 62
     1
100
AcDbCircle
 10
564.574889
 20
-237.37496
 30
0.0
 40
19.280934
100
AcDbArc
 50
260.0
 51
270.0
  0
INSERT
  5
265C
100
AcDbEntity
  8
0
  6
BYBLOCK
 62
     1
100
AcDbBlockReference
  2
_OPEN30
 10
561.22679
 20
-256.362973
 30
0.0
 41
2.0
 42
2.0
 43
2.0
 50
347.027037
  0
INSERT
  5
265D
100
AcDbEntity
  8
0
  6
BYBLOCK
 62
     1
100
AcDbBlockReference
  2
_OPEN30
 10
564.574889
 20
-256.655894
 30
0.0
 41
2.0
 42
2.0
 43
2.0
 50
182.972963
  0
MTEXT
  5
265E
100
AcDbEntity
  8
0
  6
BYBLOCK
 62
     3
100
AcDbMText
 10
552.932499
 20
-250.779977
 30
0.0
 40
3.0
 41
0.0
 71
     5
 72
     1
  1
\A1;10°
 11
0.927785
 21
-0.373116
 31
0.0
  0
POINT
  5
265F
100
AcDbEntity
  8
DEFPOINTS
  6
BYBLOCK
 62
     0
100
AcDbPoint
 10
563.453802
 20
-256.623273
 30
0.0
  0
POINT
  5
2660
100
AcDbEntity
  8
DEFPOINTS
  6
BYBLOCK
 62
     0
100
AcDbPoint
 10
571.035123
 20
-200.737153
 30
0.0
  0
POINT
  5
2661
100
AcDbEntity
  8
DEFPOINTS
  6
BYBLOCK
 62
     0
100
AcDbPoint
 10
564.574889
 20
-193.37496
 30
0.0
  0
POINT
  5
2662
100
AcDbEntity
  8
DEFPOINTS
  6
BYBLOCK
 62
     0
100
AcDbPoint
 10
564.574889
 20
-237.37496
 30
0.0
  0
POINT
  5
2663
100
AcDbEntity
  8
DEFPOINTS
  6
BYBLOCK
 62
     0
100
AcDbPoint
 10
564.574889
 20
-237.37496
 30
0.0
  0
ENDBLK
  5
2664
100
AcDbEntity
  8
0
100
AcDbBlockEnd
  0
BLOCK
  5
2A42
100
AcDbEntity
  8
0
100
AcDbBlockBegin
  2
*D5
 70
     1
 10
0.0
 20
0.0
 30
0.0
  3
*D5
  1

  0
LINE
  5
2A43
100
AcDbEntity
  8
0
  6
BYBLOCK
 62
     1
100
AcDbLine
 10
1113.764383
 20
-288.969136
 30
0.0
 11
1113.764383
 21
-326.827164
 31
0.0
  0
LINE
  5
2A44
100
AcDbEntity
  8
0
  6
BYBLOCK
 62
     1
100
AcDbLine
 10
1144.764383
 20
-314.817597
 30
0.0
 11
1144.764383
 21
-326.827164
 31
0.0
  0
LINE
  5
2A45
100
AcDbEntity
  8
0
  6
BYBLOCK
 62
     1
100
AcDbLine
 10
1115.764383
 20
-324.827164
 30
0.0
 11
1142.764383
 21
-324.827164
 31
0.0
  0
INSERT
  5
2A46
100
AcDbEntity
  8
0
  6
BYBLOCK
 62
     1
100
AcDbBlockReference
  2
_OPEN30
 10
1113.764383
 20
-324.827164
 30
0.0
 41
2.0
 42
2.0
 43
2.0
 50
180.0
  0
INSERT
  5
2A47
100
AcDbEntity
  8
0
  6
BYBLOCK
 62
     1
100
AcDbBlockReference
  2
_OPEN30
 10
1144.764383
 20
-324.827164
 30
0.0
 41
2.0
 42
2.0
 43
2.0
  0
MTEXT
  5
2A48
100
AcDbEntity
  8
0
  6
BYBLOCK
 62
     3
100
AcDbMText
 10
1129.264383
 20
-322.327164
 30
0.0
 40
3.0
 41
0.0
 71
     5
 72
     1
  1
\A1;31
  0
POINT
  5
2A49
100
AcDbEntity
  8
DEFPOINTS
  6
BYBLOCK
 62
     0
100
AcDbPoint
 10
1113.764383
 20
-287.969136
 30
0.0
  0
POINT
  5
2A4A
100
AcDbEntity
  8
DEFPOINTS
  6
BYBLOCK
 62
     0
100
AcDbPoint
 10
1144.764383
 20
-313.817597
 30
0.0
  0
POINT
  5
2A4B
100
AcDbEntity
  8
DEFPOINTS
  6
BYBLOCK
 62
     0
100
AcDbPoint
 10
1144.764383
 20
-324.827164
 30
0.0
  0
ENDBLK
  5
2A4C
100
AcDbEntity
  8
0
100
AcDbBlockEnd
  0
BLOCK
  5
27CF
100
AcDbEntity
  8
0
100
AcDbBlockBegin
  2
*D6
 70
     1
 10
0.0
 20
0.0
 30
0.0
  3
*D6
  1

  0
LINE
  5
27D0
100
AcDbEntity
  8
0
  6
BYBLOCK
 62
     1
100
AcDbLine
 10
1112.764383
 20
-245.37496
 30
0.0
 11
1097.480005
 21
-245.37496
 31
0.0
  0
LINE
  5
27D1
100
AcDbEntity
  8
0
  6
BYBLOCK
 62
     1
100
AcDbLine
 10
1105.42479
 20
-210.37496
 30
0.0
 11
1097.480005
 21
-210.37496
 31
0.0
  0
LINE
  5
27D2
100
AcDbEntity
  8
0
  6
BYBLOCK
 62
     1
100
AcDbLine
 10
1099.480005
 20
-243.37496
 30
0.0
 11
1099.480005
 21
-212.37496
 31
0.0
  0
INSERT
  5
27D3
100
AcDbEntity
  8
0
  6
BYBLOCK
 62
     1
100
AcDbBlockReference
  2
_OPEN30
 10
1099.480005
 20
-245.37496
 30
0.0
 41
2.0
 42
2.0
 43
2.0
 50
270.0
  0
INSERT
  5
27D4
100
AcDbEntity
  8
0
  6
BYBLOCK
 62
     1
100
AcDbBlockReference
  2
_OPEN30
 10
1099.480005
 20
-210.37496
 30
0.0
 41
2.0
 42
2.0
 43
2.0
 50
90.0
  0
MTEXT
  5
27D5
100
AcDbEntity
  8
0
  6
BYBLOCK
 62
     3
100
AcDbMText
 10
1096.980005
 20
-227.87496
 30
0.0
 40
3.0
 41
0.0
 71
     5
 72
     1
  1
\A1;35
 11
0.0
 21
1.0
 31
0.0
  0
POINT
  5
27D6
100
AcDbEntity
  8
DEFPOINTS
  6
BYBLOCK
 62
     0
100
AcDbPoint
 10
1113.764383
 20
-245.37496
 30
0.0
  0
POINT
  5
27D7
100
AcDbEntity
  8
DEFPOINTS
  6
BYBLOCK
 62
     0
100
AcDbPoint
 10
1106.42479
 20
-210.37496
 30
0.0
  0
POINT
  5
27D8
100
AcDbEntity
  8
DEFPOINTS
  6
BYBLOCK
 62
     0
100
AcDbPoint
 10
1099.480005
 20
-210.37496
 30
0.0
  0
ENDBLK
  5
27D9
100
AcDbEntity
  8
0
100
AcDbBlockEnd
  0
BLOCK
  5
2C7D
100
AcDbEntity
  8
0
100
AcDbBlockBegin
  2
*D7
 70
     1
 10
0.0
 20
0.0
 30
0.0
  3
*D7
  1

  0
LINE
  5
2C7E
100
AcDbEntity
  8
0
  6
BYBLOCK
 62
     1
100
AcDbLine
 10
1165.587787
 20
-180.801013
 30
0.0
 11
1158.767479
 21
-155.347279
 31
0.0
  0
LINE
  5
2C7F
100
AcDbEntity
  8
0
  6
BYBLOCK
 62
     1
100
AcDbLine
 10
1169.394261
 20
-198.739021
 30
0.0
 11
1125.471824
 21
-198.739021
 31
0.0
  0
ARC
  5
2C80
100
AcDbEntity
  8
0
  6
BYBLOCK
 62
     1
100
AcDbCircle
 10
1170.394261
 20
-198.739021
 30
0.0
 40
42.922437
100
AcDbArc
 50
107.669977
 51
177.330023
  0
INSERT
  5
2C81
100
AcDbEntity
  8
0
  6
BYBLOCK
 62
     1
100
AcDbBlockReference
  2
_OPEN30
 10
1159.285117
 20
-157.279131
 30
0.0
 41
2.0
 42
2.0
 43
2.0
 50
16.334989
  0
INSERT
  5
2C82
100
AcDbEntity
  8
0
  6
BYBLOCK
 62
     1
100
AcDbBlockReference
  2
_OPEN30
 10
1127.471824
 20
-198.739021
 30
0.0
 41
2.0
 42
2.0
 43
2.0
 50
268.665011
  0
MTEXT
  5
2C83
100
AcDbEntity
  8
0
  6
BYBLOCK
 62
     3
100
AcDbMText
 10
1132.676555
 20
-173.42949
 30
0.0
 40
3.0
 41
0.0
 71
     5
 72
     1
  1
\A1;75°
 11
0.557203
 21
0.830376
 31
0.0
  0
POINT
  5
2C84
100
AcDbEntity
  8
DEFPOINTS
  6
BYBLOCK
 62
     0
100
AcDbPoint
 10
1142.804251
 20
-165.858527
 30
0.0
  0
POINT
  5
2C85
100
AcDbEntity
  8
DEFPOINTS
  6
BYBLOCK
 62
     0
100
AcDbPoint
 10
1165.846606
 20
-181.766939
 30
0.0
  0
POINT
  5
2C86
100
AcDbEntity
  8
DEFPOINTS
  6
BYBLOCK
 62
     0
100
AcDbPoint
 10
1171.315054
 20
-198.739021
 30
0.0
  0
POINT
  5
2C87
100
AcDbEntity
  8
DEFPOINTS
  6
BYBLOCK
 62
     0
100
AcDbPoint
 10
1170.394261
 20
-198.739021
 30
0.0
  0
POINT
  5
2C88
100
AcDbEntity
  8
DEFPOINTS
  6
BYBLOCK
 62
     0
100
AcDbPoint
 10
1170.155943
 20
-197.849604
 30
0.0
  0
ENDBLK
  5
2C89
100
AcDbEntity
  8
0
100
AcDbBlockEnd
  0
BLOCK
  5
287D
100
AcDbEntity
  8
0
100
AcDbBlockBegin
  2
*D8
 70
     1
 10
0.0
 20
0.0
 30
0.0
  3
*D8
  1

  0
LINE
  5
287E
100
AcDbEntity
  8
0
  6
BYBLOCK
 62
     1
100
AcDbLine
 10
1309.012046
 20
-132.135116
 30
0.0
 11
1316.04329
 21
-141.859394
 31
0.0
  0
LINE
  5
287F
100
AcDbEntity
  8
0
  6
BYBLOCK
 62
     1
100
AcDbLine
 10
1347.683893
 20
-185.618648
 30
0.0
 11
1348.855767
 21
-187.239361
 31
0.0
  0
MTEXT
  5
2880
100
AcDbEntity
  8
0
  6
BYBLOCK
 62
     3
100
AcDbMText
 10
1313.967622
 20
-134.722056
 30
0.0
 40
3.0
 41
0.0
 71
     5
 72
     1
  1
\A1;\U+220550
 11
0.585937
 21
-0.810357
 31
0.0
  0
LINE
  5
2881
100
AcDbEntity
  8
0
  6
BYBLOCK
 62
     1
100
AcDbLine
 10
1346.512018
 20
-183.997935
 30
0.0
 11
1317.215165
 21
-143.480108
 31
0.0
  0
INSERT
  5
2882
100
AcDbEntity
  8
0
  6
BYBLOCK
 62
     1
100
AcDbBlockReference
  2
_OPEN30
 10
1346.512018
 20
-183.997935
 30
0.0
 41
2.0
 42
2.0
 43
2.0
 50
125.869218
  0
INSERT
  5
2883
100
AcDbEntity
  8
0
  6
BYBLOCK
 62
     1
100
AcDbBlockReference
  2
_OPEN30
 10
1317.215165
 20
-143.480108
 30
0.0
 41
2.0
 42
2.0
 43
2.0
 50
305.869218
  0
POINT
  5
2884
100
AcDbEntity
  8
DEFPOINTS
  6
BYBLOCK
 62
     0
100
AcDbPoint
 10
1317.215165
 20
-143.480108
 30
0.0
  0
POINT
  5
2885
100
AcDbEntity
  8
DEFPOINTS
  6
BYBLOCK
 62
     0
100
AcDbPoint
 10
1346.512018
 20
-183.997935
 30
0.0
  0
ENDBLK
  5
2886
100
AcDbEntity
  8
0
100
AcDbBlockEnd
  0
BLOCK
  5
2C6C
100
AcDbEntity
  8
0
100
AcDbBlockBegin
  2
*D9
 70
     1
 10
0.0
 20
0.0
 30
0.0
  3
*D9
  1

  0
LINE
  5
2C6D
100
AcDbEntity
  8
0
  6
BYBLOCK
 62
     1
100
AcDbLine
 10
1162.054668
 20
-287.969136
 30
0.0
 11
1138.741565
 21
-287.969136
 31
0.0
  0
LINE
  5
2C6E
100
AcDbEntity
  8
0
  6
BYBLOCK
 62
     1
100
AcDbLine
 10
1169.399739
 20
-288.073665
 30
0.0
 11
1138.914962
 21
-291.277744
 31
0.0
  0
ARC
  5
2C6F
100
AcDbEntity
  8
0
  6
BYBLOCK
 62
     1
100
AcDbCircle
 10
1170.394261
 20
-287.969136
 30
0.0
 40
29.652696
100
AcDbArc
 50
172.265215
 51
180.0
  0
LINE
  5
2C70
100
AcDbEntity
  8
0
  6
BYBLOCK
 62
     1
100
AcDbLine
 10
1141.011355
 20
-283.978245
 30
0.0
 11
1142.16881
 21
-275.45649
 31
0.0
  0
ARC
  5
2C71
100
AcDbEntity
  8
0
  6
BYBLOCK
 62
     1
100
AcDbCircle
 10
1170.394261
 20
-287.969136
 30
0.0
 40
29.652696
100
AcDbArc
 50
172.269621
 51
176.134811
  0
ARC
  5
2C72
100
AcDbEntity
  8
0
  6
BYBLOCK
 62
     1
100
AcDbCircle
 10
1170.394261
 20
-287.969136
 30
0.0
 40
29.652696
100
AcDbArc
 50
189.865189
 51
193.730379
  0
ARC
  5
2C73
100
AcDbEntity
  8
0
  6
BYBLOCK
 62
     1
100
AcDbCircle
 10
1170.394261
 20
-287.969136
 30
0.0
 40
29.652696
100
AcDbArc
 50
180.0
 51
186.0
  0
INSERT
  5
2C74
100
AcDbEntity
  8
0
  6
BYBLOCK
 62
     1
100
AcDbBlockReference
  2
_OPEN30
 10
1140.741565
 20
-287.969136
 30
0.0
 41
2.0
 42
2.0
 43
2.0
 50
268.067405
  0
INSERT
  5
2C75
100
AcDbEntity
  8
0
  6
BYBLOCK
 62
     1
100
AcDbBlockReference
  2
_OPEN30
 10
1140.904005
 20
-291.068687
 30
0.0
 41
2.0
 42
2.0
 43
2.0
 50
97.932595
  0
MTEXT
  5
2C76
100
AcDbEntity
  8
0
  6
BYBLOCK
 62
     3
100
AcDbMText
 10
1144.067337
 20
-280.053837
 30
0.0
 40
3.0
 41
0.0
 71
     5
 72
     1
  1
\A1;6°
 11
-0.134588
 21
-0.990902
 31
0.0
  0
POINT
  5
2C77
100
AcDbEntity
  8
DEFPOINTS
  6
BYBLOCK
 62
     0
100
AcDbPoint
 10
1140.813797
 20
-290.037604
 30
0.0
  0
POINT
  5
2C78
100
AcDbEntity
  8
DEFPOINTS
  6
BYBLOCK
 62
     0
100
AcDbPoint
 10
1526.746682
 20
-287.969136
 30
0.0
  0
POINT
  5
2C79
100
AcDbEntity
  8
DEFPOINTS
  6
BYBLOCK
 62
     0
100
AcDbPoint
 10
1170.394261
 20
-287.969136
 30
0.0
  0
POINT
  5
2C7A
100
AcDbEntity
  8
DEFPOINTS
  6
BYBLOCK
 62
     0
100
AcDbPoint
 10
1189.440745
 20
-285.96727
 30
0.0
  0
POINT
  5
2C7B
100
AcDbEntity
  8
DEFPOINTS
  6
BYBLOCK
 62
     0
100
AcDbPoint
 10
1163.054668
 20
-287.969136
 30
0.0
  0
ENDBLK
  5
2C7C
100
AcDbEntity
  8
0
100
AcDbBlockEnd
  0
ENDSEC
  0
SECTION
  2
ENTITIES
  0
LINE
  5
2560
100
AcDbEntity
  8
外形
  6
CENTER
 62
     1
100
AcDbLine
 10
1133.748971
 20
-163.739021
 30
0.0
 11
1055.163804
 21
-163.739021
 31
0.0
  0
DIMENSION
  5
2561
100
AcDbEntity
  8
寸法
  6
CONTINUOUS
100
AcDbDimension
  2
*D4
 10
1094.545365
 20
-198.739021
 30
0.0
 11
1082.902974
 21
-212.144039
 31
0.0
 12
529.970476
 22
38.635938
 32
0.0
 70
    34
  3
STANDARD
100
AcDb2LineAngularDimension
 13
1094.545365
 23
-154.739021
 33
0.0
 14
1094.545365
 24
-198.739021
 34
0.0
 15
1101.005599
 25
-162.101215
 35
0.0
 16
1093.424278
 26
-217.987335
 36
0.0
1001
ACAD
1000
DSTYLE
1002
{
1070
    40
1040
1.0
1002
}
  0
LINE
  5
2566
100
AcDbEntity
  8
外形
  6
CONTINUOUS
100
AcDbLine
 10
1245.394261
 20
-296.498497
 30
0.0
 11
1518.339803
 21
-296.498497
 31
0.0
  0
LINE
  5
2567
100
AcDbEntity
  8
外形
  6
CONTINUOUS
100
AcDbLine
 10
1245.394261
 20
-279.439775
 30
0.0
 11
1518.394261
 21
-279.439775
 31
0.0
  0
LINE
  5
256A
100
AcDbEntity
  8
外形
  6
CENTER
 62
     1
100
AcDbLine
 10
1526.746682
 20
-287.969136
 30
0.0
 11
1163.054668
 21
-287.969136
 31
0.0
  0
TEXT
  5
256C
100
AcDbEntity
  8
外形
  6
CONTINUOUS
 62
     2
100
AcDbText
 10
1332.241764
 20
-336.909166
 30
0.0
 40
6.0
  1
S50UPSKNR19
100
AcDbText
  0
LINE
  5
256D
100
AcDbEntity
  8
外形
  6
CONTINUOUS
100
AcDbLine
 10
1189.181362
 20
-281.333706
 30
0.0
 11
1192.415724
 21
-283.266741
 31
0.0
  0
LINE
  5
256E
100
AcDbEntity
  8
外形
  6
CONTINUOUS
100
AcDbLine
 10
1187.415724
 20
-282.550163
 30
0.0
 11
1192.415724
 21
-283.266741
 31
0.0
  0
LINE
  5
256F
100
AcDbEntity
  8
外形
  6
CONTINUOUS
100
AcDbLine
 10
1170.394261
 20
-287.969136
 30
0.0
 11
1189.440745
 21
-285.96727
 31
0.0
  0
SPLINE
  5
2570
100
AcDbEntity
  8
外形
  6
CONTINUOUS
100
AcDbSpline
210
0.0
220
0.0
230
1.0
 70
     8
 71
     3
 72
    16
 73
    12
 74
     0
 42
0.0000001
 43
0.0000001
 40
0.0
 40
0.0
 40
0.0
 40
0.0
 40
1.668861210214553
 40
3.328349479907231
 40
21.71981518853873
 40
37.89101040428235
 40
43.00960332875997
 40
51.20813085048762
 40
57.4713255604696
 40
63.47576738281176
 40
67.69361461914087
 40
67.69361461914087
 40
67.69361461914087
 40
67.69361461914087
 10
1228.596261354977
 20
-263.2191360572282
 30
0.0
 10
1228.287981782863
 20
-263.7011936164403
 30
0.0
 10
1227.673154050497
 20
-264.6626013216878
 30
0.0
 10
1224.69341324481
 20
-267.294038279292
 30
0.0
 10
1213.652186210545
 20
-271.6177393485299
 30
0.0
 10
1200.872088872652
 20
-275.2145361714047
 30
0.0
 10
1191.567058950452
 20
-278.548321367384
 30
0.0
 10
1184.936521577583
 20
-278.5215110544716
 30
0.0
 10
1178.214956158116
 20
-279.3645372968635
 30
0.0
 10
1172.613099745925
 20
-279.7075412089347
 30
0.0
 10
1169.572696080161
 20
-281.2398592675902
 30
0.0
 10
1168.344261354976
 20
-281.9515457056017
 30
0.0
  0
ELLIPSE
  5
2571
100
AcDbEntity
  8
外形
  6
CONTINUOUS
100
AcDbEllipse
 10
1192.415724
 20
-282.550163
 30
0.0
 11
-5.0
 21
0.0
 31
0.0
210
0.0
220
0.0
230
1.0
 40
0.31903
 41
0.0
 42
6.283185307179586
  0
LINE
  5
2572
100
AcDbEntity
  8
外形
  6
CONTINUOUS
100
AcDbLine
 10
1200.440745
 20
-315.469136
 30
0.0
 11
1171.580436
 21
-315.469136
 31
0.0
  0
DIMENSION
  5
2573
100
AcDbEntity
  8
寸法
  6
CONTINUOUS
100
AcDbDimension
  2
*D5
 10
1201.394261
 20
-324.827164
 30
0.0
 11
1185.894261
 21
-322.327164
 31
0.0
 12
56.629879
 22
0.0
 32
0.0
 70
    32
  3
STANDARD
100
AcDbAlignedDimension
 13
1170.394261
 23
-287.969136
 33
0.0
 14
1201.394261
 24
-313.817597
 34
0.0
100
AcDbRotatedDimension
1001
ACAD
1000
DSTYLE
1002
{
1070
    40
1040
1.0
1002
}
  0
LINE
  5
2574
100
AcDbEntity
  8
外形
  6
CONTINUOUS
100
AcDbLine
 10
1168.521406
 20
-296.828147
 30
0.0
 11
1171.580436
 21
-299.015661
 31
0.0
  0
LINE
  5
2575
100
AcDbEntity
  8
外形
  6
CONTINUOUS
100
AcDbLine
 10
1168.521406
 20
-309.232646
 30
0.0
 11
1168.521406
 21
-296.828147
 31
0.0
  0
LINE
  5
2576
100
AcDbEntity
  8
外形
  6
CONTINUOUS
100
AcDbLine
 10
1171.580436
 20
-299.015661
 30
0.0
 11
1171.08288
 21
-294.281737
 31
0.0
  0
LINE
  5
2578
100
AcDbEntity
  8
外形
  6
CONTINUOUS
100
AcDbLine
 10
1190.003861
 20
-297.079281
 30
0.0
 11
1189.506305
 21
-292.345357
 31
0.0
  0
LINE
  5
257A
100
AcDbEntity
  8
外形
  6
CONTINUOUS
100
AcDbLine
 10
1171.580436
 20
-315.469136
 30
0.0
 11
1171.580436
 21
-299.015661
 31
0.0
  0
LINE
  5
257B
100
AcDbEntity
  8
外形
  6
CONTINUOUS
100
AcDbLine
 10
1171.580436
 20
-315.469136
 30
0.0
 11
1168.521406
 21
-309.232646
 31
0.0
  0
LINE
  5
257D
100
AcDbEntity
  8
外形
  6
CONTINUOUS
100
AcDbLine
 10
1185.808383
 20
-283.840016
 30
0.0
 11
1188.867413
 21
-286.02753
 31
0.0
  0
LINE
  5
257E
100
AcDbEntity
  8
外形
  6
CONTINUOUS
100
AcDbLine
 10
1189.531168
 20
-292.342744
 30
0.0
 11
1188.867413
 21
-286.02753
 31
0.0
  0
LINE
  5
257F
100
AcDbEntity
  8
外形
  6
CONTINUOUS
100
AcDbLine
 10
1167.335232
 20
-285.781622
 30
0.0
 11
1170.394261
 21
-287.969136
 31
0.0
  0
LINE
  5
2580
100
AcDbEntity
  8
外形
  6
CONTINUOUS
100
AcDbLine
 10
1168.344261
 20
-285.675569
 30
0.0
 11
1168.344261
 21
-281.951546
 31
0.0
  0
LINE
  5
2581
100
AcDbEntity
  8
外形
  6
CONTINUOUS
100
AcDbLine
 10
1167.998987
 20
-292.096836
 30
0.0
 11
1167.335232
 21
-285.781622
 31
0.0
  0
LINE
  5
2582
100
AcDbEntity
  8
外形
  6
CONTINUOUS
100
AcDbLine
 10
1167.335232
 20
-285.781622
 30
0.0
 11
1185.808383
 21
-283.840016
 31
0.0
  0
LINE
  5
2584
100
AcDbEntity
  8
外形
  6
CONTINUOUS
100
AcDbLine
 10
1167.998987
 20
-292.096836
 30
0.0
 11
1171.058017
 21
-294.28435
 31
0.0
  0
LINE
  5
2585
100
AcDbEntity
  8
外形
  6
CONTINUOUS
100
AcDbLine
 10
1171.058017
 20
-294.28435
 30
0.0
 11
1170.394261
 21
-287.969136
 31
0.0
  0
LINE
  5
2586
100
AcDbEntity
  8
外形
  6
CONTINUOUS
100
AcDbLine
 10
1168.521406
 20
-296.828147
 30
0.0
 11
1168.026168
 21
-292.116273
 31
0.0
  0
LINE
  5
258B
100
AcDbEntity
  8
外形
  6
CONTINUOUS
100
AcDbLine
 10
1201.394261
 20
-284.427329
 30
0.0
 11
1201.394261
 21
-313.817597
 31
0.0
  0
LINE
  5
258C
100
AcDbEntity
  8
外形
  6
CONTINUOUS
100
AcDbLine
 10
1201.105586
 20
-189.801781
 30
0.0
 11
1200.440745
 21
-190.953321
 31
0.0
  0
LINE
  5
258D
100
AcDbEntity
  8
外形
  6
CONTINUOUS
100
AcDbLine
 10
1204.394261
 20
-189.301781
 30
0.0
 11
1204.394261
 21
-188.489021
 31
0.0
  0
LINE
  5
258E
100
AcDbEntity
  8
外形
  6
CONTINUOUS
100
AcDbLine
 10
1200.440745
 20
-315.469136
 30
0.0
 11
1201.394261
 21
-313.817597
 31
0.0
  0
SPLINE
  5
258F
100
AcDbEntity
  8
外形
  6
CONTINUOUS
100
AcDbSpline
210
0.0
220
0.0
230
-1.0
 70
     8
 71
     3
 72
     8
 73
     4
 74
     0
 42
0.0000001
 43
0.0000001
 40
0.0
 40
0.0
 40
0.0
 40
0.0
 40
16.22043497270625
 40
16.22043497270625
 40
16.22043497270625
 40
16.22043497270625
 10
1189.440744721345
 20
-285.9672699884319
 30
0.0
 10
1194.792050634059
 20
-285.1945233747372
 30
0.0
 10
1200.143356546773
 20
-284.4217767610425
 30
0.0
 10
1213.929427775894
 20
-283.2137335710767
 30
0.0
  0
LINE
  5
2591
100
AcDbEntity
  8
外形
  6
CONTINUOUS
100
AcDbLine
 10
1192.415724
 20
-283.266741
 30
0.0
 11
1195.019506
 21
-281.188377
 31
0.0
  0
LINE
  5
2592
100
AcDbEntity
  8
外形
  6
CONTINUOUS
100
AcDbLine
 10
1192.415724
 20
-283.266741
 30
0.0
 11
1192.415724
 21
-284.14531
 31
0.0
  0
LINE
  5
2593
100
AcDbEntity
  8
外形
  6
CONTINUOUS
100
AcDbLine
 10
1192.415724
 20
-283.266741
 30
0.0
 11
1197.415724
 21
-282.550163
 31
0.0
  0
LINE
  5
2595
100
AcDbEntity
  8
外形
  6
CONTINUOUS
100
AcDbLine
 10
1245.638338
 20
-296.498497
 30
0.0
 11
1245.638338
 21
-312.475059
 31
0.0
  0
LINE
  5
2597
100
AcDbEntity
  8
外形
  6
CONTINUOUS
100
AcDbLine
 10
1245.394261
 20
-312.719136
 30
0.0
 11
1245.638338
 21
-312.475059
 31
0.0
  0
LINE
  5
2598
100
AcDbEntity
  8
外形
  6
CONTINUOUS
100
AcDbLine
 10
1245.394261
 20
-263.219136
 30
0.0
 11
1245.638338
 21
-263.463213
 31
0.0
  0
LINE
  5
2599
100
AcDbEntity
  8
外形
  6
CONTINUOUS
100
AcDbLine
 10
1245.638338
 20
-263.463213
 30
0.0
 11
1245.638338
 21
-279.439775
 31
0.0
  0
LINE
  5
259A
100
AcDbEntity
  8
外形
  6
CONTINUOUS
100
AcDbLine
 10
1245.394261
 20
-263.219136
 30
0.0
 11
1245.394261
 21
-276.054478
 31
0.0
  0
LINE
  5
259C
100
AcDbEntity
  8
外形
  6
CONTINUOUS
100
AcDbLine
 10
1520.394261
 20
-266.469136
 30
0.0
 11
1520.394261
 21
-309.469136
 31
0.0
  0
LINE
  5
259D
100
AcDbEntity
  8
外形
  6
CONTINUOUS
100
AcDbLine
 10
1518.394261
 20
-296.498497
 30
0.0
 11
1518.394261
 21
-311.469136
 31
0.0
  0
LINE
  5
259E
100
AcDbEntity
  8
外形
  6
CONTINUOUS
100
AcDbLine
 10
1520.394261
 20
-309.469136
 30
0.0
 11
1518.394261
 21
-311.469136
 31
0.0
  0
LINE
  5
259F
100
AcDbEntity
  8
外形
  6
CONTINUOUS
100
AcDbLine
 10
1518.394261
 20
-264.469136
 30
0.0
 11
1518.394261
 21
-279.439775
 31
0.0
  0
LINE
  5
25A0
100
AcDbEntity
  8
外形
  6
CONTINUOUS
100
AcDbLine
 10
1518.394261
 20
-264.469136
 30
0.0
 11
1520.394261
 21
-266.469136
 31
0.0
  0
LINE
  5
25A4
100
AcDbEntity
  8
外形
  6
CONTINUOUS
100
AcDbLine
 10
1245.394261
 20
-172.268382
 30
0.0
 11
1393.699195
 21
-172.268382
 31
0.0
  0
LINE
  5
25A5
100
AcDbEntity
  8
外形
  6
CONTINUOUS
100
AcDbLine
 10
1245.394261
 20
-155.20966
 30
0.0
 11
1393.699195
 21
-155.20966
 31
0.0
  0
LINE
  5
25A6
100
AcDbEntity
  8
外形
  6
CONTINUOUS
100
AcDbLine
 10
1245.638338
 20
-138.739021
 30
0.0
 11
1393.699195
 21
-138.739021
 31
0.0
  0
LINE
  5
25A8
102
{ACAD_REACTORS
330
2BCA
102
}
100
AcDbEntity
  8
外形
  6
CENTER
 62
     1
100
AcDbLine
 10
1526.746682
 20
-163.739021
 30
0.0
 11
1163.054668
 21
-163.739021
 31
0.0
  0
DIMENSION
  5
25A9
100
AcDbEntity
  8
寸法
  6
CONTINUOUS
100
AcDbDimension
  2
*D2
 10
1520.394261
 20
-226.909329
 30
0.0
 11
1345.394261
 21
-224.409329
 31
0.0
 70
    32
  3
STANDARD
100
AcDbAlignedDimension
 13
1170.394261
 23
-198.739021
 33
0.0
 14
1520.394261
 24
-185.239021
 34
0.0
100
AcDbRotatedDimension
1001
ACAD
1000
DSTYLE
1002
{
1070
    40
1040
1.0
1002
}
  0
LINE
  5
25AA
100
AcDbEntity
  8
外形
  6
CONTINUOUS
100
AcDbLine
 10
1177.79361
 20
-145.405865
 30
0.0
 11
1219.261785
 21
-145.405865
 31
0.0
  0
LINE
  5
25AC
100
AcDbEntity
  8
外形
  6
CONTINUOUS
100
AcDbLine
 10
1188.907909
 20
-138.989021
 30
0.0
 11
1166.824261
 21
-151.739021
 31
0.0
  0
CIRCLE
  5
25AE
100
AcDbEntity
  8
外形
  6
CONTINUOUS
100
AcDbCircle
 10
1192.415724
 20
-175.878444
 30
0.0
 40
5.0
  0
LINE
  5
25B4
100
AcDbEntity
  8
外形
  6
CENTER
 62
     1
100
AcDbLine
 10
1094.545365
 20
-124.767165
 30
0.0
 11
1094.545365
 21
-199.135427
 31
0.0
  0
LINE
  5
25B5
100
AcDbEntity
  8
外形
  6
CONTINUOUS
100
AcDbLine
 10
1104.741683
 20
-140.912828
 30
0.0
 11
1094.545365
 21
-198.739021
 31
0.0
  0
LINE
  5
25BA
100
AcDbEntity
  8
外形
  6
CONTINUOUS
100
AcDbLine
 10
1083.608492
 20
-196.78517
 30
0.0
 11
1088.296177
 21
-197.611735
 31
0.0
  0
LINE
  5
25BB
100
AcDbEntity
  8
外形
  6
CONTINUOUS
100
AcDbLine
 10
1088.291836
 20
-197.636355
 30
0.0
 11
1094.545365
 21
-198.739021
 31
0.0
  0
LINE
  5
25BC
100
AcDbEntity
  8
外形
  6
CONTINUOUS
100
AcDbLine
 10
1091.488854
 20
-179.505162
 30
0.0
 11
1097.742383
 21
-180.607828
 31
0.0
  0
LINE
  5
25BD
100
AcDbEntity
  8
外形
  6
CONTINUOUS
100
AcDbLine
 10
1086.796828
 20
-178.703217
 30
0.0
 11
1091.484513
 21
-179.529782
 31
0.0
  0
DIMENSION
  5
25C5
100
AcDbEntity
  8
寸法
  6
CONTINUOUS
100
AcDbDimension
  2
*D6
 10
1156.109883
 20
-163.739021
 30
0.0
 11
1153.609883
 21
-181.239021
 31
0.0
 12
56.629879
 22
46.635938
 32
0.0
 70
    32
  3
STANDARD
100
AcDbAlignedDimension
 13
1170.394261
 23
-198.739021
 33
0.0
 14
1163.054668
 24
-163.739021
 34
0.0
 50
90.0
100
AcDbRotatedDimension
1001
ACAD
1000
DSTYLE
1002
{
1070
    40
1040
1.0
1002
}
  0
LINE
  5
25C6
100
AcDbEntity
  8
参考
  6
CENTER
 62
     1
100
AcDbLine
 10
1177.201718
 20
-152.548999
 30
0.0
 11
1177.201718
 21
-200.198426
 31
0.0
  0
LEADER
  5
25D5
100
AcDbEntity
  8
寸法
  6
CONTINUOUS
 62
     1
100
AcDbLeader
  3
STANDARD
 73
     0
 74
     0
 75
     1
 40
3.0
 41
26.0
 76
     3
 10
1106.059658
 20
-130.687228
 30
0.0
 10
1114.10889
 20
-107.581898
 30
0.0
 10
1116.10889
 20
-107.581898
 30
0.0
 77
   256
340
25D6
1001
ACAD
1000
DSTYLE
1002
{
1070
    40
1040
1.0
1002
}
  0
MTEXT
  5
25D6
102
{ACAD_REACTORS
330
25D5
102
}
100
AcDbEntity
  8
寸法
  6
CONTINUOUS
 62
     3
100
AcDbMText
 10
1117.10889
 20
-105.081898
 30
0.0
 40
3.0
 41
0.0
 71
     4
 72
     1
  1
%%C70最小加工径
  0
ARC
  5
25D7
100
AcDbEntity
  8
外形
  6
CONTINUOUS
100
AcDbCircle
 10
1219.261785
 20
-155.405865
 30
0.0
 40
10.0
100
AcDbArc
 50
3.939851
 51
90.0
  0
LINE
  5
25D8
100
AcDbEntity
  8
外形
  6
CONTINUOUS
100
AcDbLine
 10
1245.394261
 20
-138.989021
 30
0.0
 11
1245.394261
 21
-151.824363
 31
0.0
  0
LINE
  5
25DA
100
AcDbEntity
  8
外形
  6
CONTINUOUS
100
AcDbLine
 10
1245.394261
 20
-149.936678
 30
0.0
 11
1245.394261
 21
-138.989021
 31
0.0
  0
LINE
  5
25DB
100
AcDbEntity
  8
外形
  6
CONTINUOUS
100
AcDbLine
 10
1245.638338
 20
-155.20966
 30
0.0
 11
1245.638338
 21
-138.744945
 31
0.0
  0
ARC
  5
25DF
100
AcDbEntity
  8
外形
  6
CONTINUOUS
100
AcDbCircle
 10
1205.518889
 20
-166.928686
 30
0.0
 40
25.097082
100
AcDbArc
 50
300.786856
 51
351.439426
  0
LWPOLYLINE
  5
25E3
100
AcDbEntity
  8
外形
  6
CONTINUOUS
100
AcDbPolyline
 90
        6
 70
     1
 43
0.0
 10
1190.486638
 20
-176.861362
 10
1192.302413
 20
-178.04054
 10
1194.231499
 20
-177.057622
 10
1194.34481
 20
-174.895526
 10
1192.529035
 20
-173.716348
 10
1190.599949
 20
-174.699266
  0
LINE
  5
25E4
100
AcDbEntity
  8
外形
  6
CONTINUOUS
100
AcDbLine
 10
1230.336366
 20
-170.664511
 30
0.0
 11
1229.238152
 21
-154.718773
 31
0.0
  0
LINE
  5
25E5
100
AcDbEntity
  8
外形
  6
CONTINUOUS
100
AcDbLine
 10
1245.394261
 20
-171.505134
 30
0.0
 11
1245.394261
 21
-188.489021
 31
0.0
  0
LINE
  5
25E6
100
AcDbEntity
  8
外形
  6
CONTINUOUS
100
AcDbLine
 10
1245.638338
 20
-172.268382
 30
0.0
 11
1245.638338
 21
-188.244945
 31
0.0
  0
LINE
  5
25E7
100
AcDbEntity
  8
外形
  6
CONTINUOUS
100
AcDbLine
 10
1245.394261
 20
-188.489021
 30
0.0
 11
1245.638338
 21
-188.244945
 31
0.0
  0
LINE
  5
25E9
100
AcDbEntity
  8
外形
  6
CONTINUOUS
100
AcDbLine
 10
1245.638338
 20
-138.744945
 30
0.0
 11
1245.394261
 21
-138.989021
 31
0.0
  0
LINE
  5
25EC
102
{ACAD_REACTORS
330
2BCA
102
}
100
AcDbEntity
  8
外形
  6
CENTER
 62
     1
100
AcDbLine
 10
1419.349195
 20
-134.237736
 30
0.0
 11
1419.349195
 21
-191.345501
 31
0.0
  0
DIMENSION
  5
25EF
100
AcDbEntity
  8
寸法
  6
CONTINUOUS
100
AcDbDimension
  2
*D3
 10
1442.849195
 20
-198.505898
 30
0.0
 11
1388.49347
 21
-196.005898
 31
0.0
 12
87.485603
 22
0.0
 32
0.0
 70
    32
  3
STANDARD
100
AcDbAlignedDimension
 13
1395.849195
 23
-172.268382
 33
0.0
 14
1442.849195
 24
-172.268382
 34
0.0
100
AcDbRotatedDimension
1001
ACAD
1000
DSTYLE
1002
{
1070
    40
1040
1.0
1002
}
  0
LINE
  5
25F3
100
AcDbEntity
  8
外形
  6
CONTINUOUS
100
AcDbLine
 10
1520.394261
 20
-140.739021
 30
0.0
 11
1520.394261
 21
-185.239021
 31
0.0
  0
LINE
  5
25F4
100
AcDbEntity
  8
外形
  6
CONTINUOUS
100
AcDbLine
 10
1518.394261
 20
-138.739021
 30
0.0
 11
1518.394261
 21
-155.20966
 31
0.0
  0
LINE
  5
25F5
100
AcDbEntity
  8
外形
  6
CONTINUOUS
100
AcDbLine
 10
1518.394261
 20
-172.268382
 30
0.0
 11
1518.394261
 21
-187.239021
 31
0.0
  0
LINE
  5
25F6
100
AcDbEntity
  8
外形
  6
CONTINUOUS
100
AcDbLine
 10
1520.394261
 20
-185.239021
 30
0.0
 11
1518.394261
 21
-187.239021
 31
0.0
  0
LINE
  5
25F8
100
AcDbEntity
  8
外形
  6
CONTINUOUS
100
AcDbLine
 10
1518.394261
 20
-138.739021
 30
0.0
 11
1520.394261
 21
-140.739021
 31
0.0
  0
LINE
  5
2735
100
AcDbEntity
  8
外形
  6
CONTINUOUS
100
AcDbLine
 10
1165.846606
 20
-181.766939
 30
0.0
 11
1170.155943
 21
-197.849604
 31
0.0
  0
LINE
  5
2736
100
AcDbEntity
  8
外形
  6
CONTINUOUS
100
AcDbLine
 10
1184.247493
 20
-176.836436
 30
0.0
 11
1188.55683
 21
-192.919101
 31
0.0
  0
LINE
  5
2737
100
AcDbEntity
  8
外形
  6
CONTINUOUS
100
AcDbLine
 10
1171.625637
 20
-198.698132
 30
0.0
 11
1188.867413
 21
-194.078212
 31
0.0
  0
LINE
  5
2738
100
AcDbEntity
  8
外形
  6
CONTINUOUS
100
AcDbLine
 10
1166.695134
 20
-180.297245
 30
0.0
 11
1182.777799
 21
-175.987908
 31
0.0
  0
CIRCLE
  5
273D
100
AcDbEntity
  8
外形
  6
CONTINUOUS
100
AcDbCircle
 10
1177.201718
 20
-187.34302
 30
0.0
 40
3.75
  0
CIRCLE
  5
274D
100
AcDbEntity
  8
外形
  6
CONTINUOUS
100
AcDbCircle
 10
1177.201718
 20
-187.34302
 30
0.0
 40
3.97
  0
ARC
  5
274E
100
AcDbEntity
  8
外形
  6
CONTINUOUS
100
AcDbCircle
 10
1171.315054
 20
-197.539021
 30
0.0
 40
1.2
100
AcDbArc
 50
195.0
 51
285.0
  0
ARC
  5
274F
100
AcDbEntity
  8
外形
  6
CONTINUOUS
100
AcDbCircle
 10
1167.005717
 20
-181.456356
 30
0.0
 40
1.2
100
AcDbArc
 50
105.0
 51
195.0
  0
ARC
  5
2750
100
AcDbEntity
  8
外形
  6
CONTINUOUS
100
AcDbCircle
 10
1183.088382
 20
-177.147019
 30
0.0
 40
1.2
100
AcDbArc
 50
15.0
 51
105.0
  0
ARC
  5
2751
100
AcDbEntity
  8
外形
  6
CONTINUOUS
100
AcDbCircle
 10
1187.397719
 20
-193.229684
 30
0.0
 40
1.2
100
AcDbArc
 50
285.0
 51
15.0
  0
LINE
  5
2754
100
AcDbEntity
  8
外形
  6
CONTINUOUS
 62
     1
100
AcDbLine
 10
1170.155943
 20
-197.849604
 30
0.0
 11
1170.394261
 21
-198.739021
 31
0.0
  0
LINE
  5
2755
100
AcDbEntity
  8
外形
  6
CONTINUOUS
 62
     1
100
AcDbLine
 10
1171.315054
 20
-198.739021
 30
0.0
 11
1170.394261
 21
-198.739021
 31
0.0
  0
LINE
  5
27DA
100
AcDbEntity
  8
外形
  6
CONTINUOUS
100
AcDbLine
 10
1166.824261
 20
-151.739021
 30
0.0
 11
1166.824261
 21
-180.262646
 31
0.0
  0
DIMENSION
  5
2819
100
AcDbEntity
  8
寸法
  6
CONTINUOUS
100
AcDbDimension
  2
*D7
 10
1170.155943
 20
-197.849604
 30
0.0
 11
1134.752495
 21
-174.822498
 31
0.0
 70
   162
  3
STANDARD
100
AcDb2LineAngularDimension
 13
1171.315054
 23
-198.739021
 33
0.0
 14
1170.394261
 24
-198.739021
 34
0.0
 15
1165.846606
 25
-181.766939
 35
0.0
 16
1142.804251
 26
-165.858527
 36
0.0
1001
ACAD
1000
DSTYLE
1002
{
1070
    40
1040
1.0
1002
}
  0
ARC
  5
284C
100
AcDbEntity
  8
外形
  6
CONTINUOUS
100
AcDbCircle
 10
1180.901718
 20
-176.54302
 30
0.0
 40
3.5
100
AcDbArc
 50
349.377842
 51
194.171121
  0
LINE
  5
2865
100
AcDbEntity
  8
外形
  6
CONTINUOUS
100
AcDbLine
 10
1245.394261
 20
-138.989021
 30
0.0
 11
1245.394261
 21
-155.972909
 31
0.0
  0
ARC
  5
2866
102
{ACAD_REACTORS
330
2BCA
102
}
100
AcDbEntity
  8
外形
  6
CONTINUOUS
100
AcDbCircle
 10
1419.349195
 20
-163.739021
 30
0.0
 40
25.0
100
AcDbArc
 50
289.948444
 51
340.051556
  0
DIMENSION
  5
287C
100
AcDbEntity
  8
寸法
  6
CONTINUOUS
100
AcDbDimension
  2
*D8
 10
1433.997622
 20
-183.997935
 30
0.0
 11
1399.427334
 21
-136.186899
 31
0.0
 12
87.485603
 22
0.0
 32
0.0
 70
   163
  3
STANDARD
100
AcDbDiametricDimension
 15
1404.700768
 25
-143.480108
 35
0.0
 40
0.0
1001
ACAD
1000
DSTYLE
1002
{
1070
    40
1040
1.0
1002
}
  0
LINE
  5
2888
102
{ACAD_REACTORS
330
2BCA
102
}
100
AcDbEntity
  8
外形
  6
CONTINUOUS
100
AcDbLine
 10
1395.849195
 20
-155.20966
 30
0.0
 11
1395.849195
 21
-172.268382
 31
0.0
  0
LINE
  5
2889
102
{ACAD_REACTORS
330
2BCA
102
}
100
AcDbEntity
  8
外形
  6
CONTINUOUS
100
AcDbLine
 10
1442.849195
 20
-155.20966
 30
0.0
 11
1442.849195
 21
-172.268382
 31
0.0
  0
LINE
  5
28F5
100
AcDbEntity
  8
外形
  6
CONTINUOUS
100
AcDbLine
 10
1518.394261
 20
-187.239021
 30
0.0
 11
1442.849195
 21
-187.239021
 31
0.0
  0
ARC
  5
2917
100
AcDbEntity
  8
外形
  6
CONTINUOUS
100
AcDbCircle
 10
1494.894261
 20
-163.739021
 30
0.0
 40
25.0
100
AcDbArc
 50
340.051556
 51
19.948444
  0
ARC
  5
2924
102
{ACAD_REACTORS
330
2BCA
102
}
100
AcDbEntity
  8
外形
  6
CONTINUOUS
100
AcDbCircle
 10
1419.349195
 20
-163.739021
 30
0.0
 40
25.0
100
AcDbArc
 50
199.948444
 51
250.051556
  0
ARC
  5
2925
102
{ACAD_REACTORS
330
2BCA
102
}
100
AcDbEntity
  8
外形
  6
CONTINUOUS
100
AcDbCircle
 10
1419.349195
 20
-163.739021
 30
0.0
 40
25.0
100
AcDbArc
 50
19.948444
 51
160.051556
  0
LINE
  5
2927
100
AcDbEntity
  8
外形
  6
CONTINUOUS
100
AcDbLine
 10
1245.394261
 20
-138.989021
 30
0.0
 11
1188.907909
 21
-138.989021
 31
0.0
  0
LINE
  5
2928
100
AcDbEntity
  8
外形
  6
CONTINUOUS
100
AcDbLine
 10
1245.394261
 20
-188.489021
 30
0.0
 11
1204.394261
 21
-188.489021
 31
0.0
  0
LINE
  5
2929
100
AcDbEntity
  8
外形
  6
CONTINUOUS
100
AcDbLine
 10
1245.394261
 20
-155.972909
 30
0.0
 11
1229.324527
 21
-155.972909
 31
0.0
  0
LINE
  5
292A
100
AcDbEntity
  8
外形
  6
CONTINUOUS
100
AcDbLine
 10
1245.394261
 20
-171.505134
 30
0.0
 11
1230.394261
 21
-171.505134
 31
0.0
  0
LINE
  5
292B
100
AcDbEntity
  8
外形
  6
CONTINUOUS
100
AcDbLine
 10
1245.394261
 20
-263.219136
 30
0.0
 11
1245.394261
 21
-280.203024
 31
0.0
  0
LINE
  5
292C
100
AcDbEntity
  8
外形
  6
CONTINUOUS
100
AcDbLine
 10
1518.394261
 20
-264.469136
 30
0.0
 11
1245.638338
 21
-264.469136
 31
0.0
  0
LINE
  5
292D
100
AcDbEntity
  8
外形
  6
CONTINUOUS
100
AcDbLine
 10
1518.394261
 20
-311.469136
 30
0.0
 11
1245.638338
 21
-311.469136
 31
0.0
  0
ARC
  5
2930
100
AcDbEntity
  8
外形
  6
CONTINUOUS
100
AcDbCircle
 10
1494.894261
 20
-287.969136
 30
0.0
 40
25.0
100
AcDbArc
 50
340.051556
 51
19.948444
  0
LINE
  5
297B
100
AcDbEntity
  8
外形
  6
CONTINUOUS
100
AcDbLine
 10
1245.394261
 20
-263.219136
 30
0.0
 11
1228.596261
 21
-263.219136
 31
0.0
  0
LINE
  5
297C
100
AcDbEntity
  8
外形
  6
CONTINUOUS
100
AcDbLine
 10
1245.394261
 20
-312.719136
 30
0.0
 11
1201.394261
 21
-312.719136
 31
0.0
  0
LINE
  5
297D
100
AcDbEntity
  8
外形
  6
CONTINUOUS
100
AcDbLine
 10
1245.394261
 20
-280.203024
 30
0.0
 11
1223.379144
 21
-280.203024
 31
0.0
  0
LINE
  5
297F
100
AcDbEntity
  8
外形
  6
CONTINUOUS
100
AcDbLine
 10
1245.394261
 20
-295.735248
 30
0.0
 11
1201.394261
 21
-295.735248
 31
0.0
  0
LINE
  5
2980
100
AcDbEntity
  8
外形
  6
CONTINUOUS
100
AcDbLine
 10
1245.394261
 20
-295.735248
 30
0.0
 11
1245.394261
 21
-312.719136
 31
0.0
  0
ARC
  5
2981
100
AcDbEntity
  8
外形
  6
CONTINUOUS
100
AcDbCircle
 10
1213.738894
 20
-266.280437
 30
0.0
 40
16.934368
100
AcDbArc
 50
270.644666
 51
10.414873
  0
LINE
  5
29AB
100
AcDbEntity
  8
外形
  6
CONTINUOUS
100
AcDbLine
 10
1171.058017
 20
-294.28435
 30
0.0
 11
1189.531168
 21
-292.342744
 31
0.0
  0
LINE
  5
29D3
100
AcDbEntity
  8
外形
  6
CONTINUOUS
100
AcDbLine
 10
1171.580436
 20
-299.015661
 30
0.0
 11
1190.003861
 21
-297.079281
 31
0.0
  0
LINE
  5
2A1E
100
AcDbEntity
  8
外形
  6
CONTINUOUS
100
AcDbLine
 10
1204.394261
 20
-188.489021
 30
0.0
 11
1204.394261
 21
-189.301781
 31
0.0
  0
LINE
  5
2A20
100
AcDbEntity
  8
外形
  6
CONTINUOUS
100
AcDbLine
 10
1188.867413
 20
-194.078212
 30
0.0
 11
1200.440745
 21
-190.953321
 31
0.0
  0
LINE
  5
2A63
100
AcDbEntity
  8
外形
  6
CONTINUOUS
100
AcDbLine
 10
1201.971612
 20
-189.301781
 30
0.0
 11
1204.394261
 21
-189.301781
 31
0.0
  0
LINE
  5
2A64
100
AcDbEntity
  8
外形
  6
CONTINUOUS
100
AcDbLine
 10
1200.440745
 20
-315.469136
 30
0.0
 11
1200.440745
 21
-284.532935
 31
0.0
  0
LINE
  5
2AC2
100
AcDbEntity
  8
外形
  6
CONTINUOUS
100
AcDbLine
 10
1091.488854
 20
-179.505162
 30
0.0
 11
1088.291836
 21
-197.636355
 31
0.0
  0
LINE
  5
2AC3
100
AcDbEntity
  8
外形
  6
CONTINUOUS
100
AcDbLine
 10
1086.796828
 20
-178.703217
 30
0.0
 11
1083.608492
 21
-196.78517
 31
0.0
  0
CIRCLE
  5
2AEB
100
AcDbEntity
  8
外形
  6
CENTER
 62
     1
100
AcDbCircle
 10
1094.545365
 20
-163.739021
 30
0.0
 40
35.0
  0
LINE
  5
2AF7
100
AcDbEntity
  8
外形
  6
CONTINUOUS
100
AcDbLine
 10
1067.045365
 20
-163.739021
 30
0.0
 11
1067.045365
 21
-184.155008
 31
0.0
  0
ARC
  5
2AF8
100
AcDbEntity
  8
外形
  6
CONTINUOUS
100
AcDbCircle
 10
1094.545365
 20
-163.739021
 30
0.0
 40
34.25
100
AcDbArc
 50
216.590175
 51
251.551008
  0
ARC
  5
2AF9
100
AcDbEntity
  8
外形
  6
CONTINUOUS
100
AcDbCircle
 10
1094.545365
 20
-166.239021
 30
0.0
 40
27.5
100
AcDbArc
 50
90.0
 51
180.0
  0
ARC
  5
2AFA
100
AcDbEntity
  8
外形
  6
CONTINUOUS
100
AcDbCircle
 10
1094.545365
 20
-163.739021
 30
0.0
 40
25.0
100
AcDbArc
 50
19.948444
 51
90.0
  0
LINE
  5
2AFD
100
AcDbEntity
  8
外形
  6
CONTINUOUS
100
AcDbLine
 10
1118.045365
 20
-155.20966
 30
0.0
 11
1118.045365
 21
-172.268382
 31
0.0
  0
ARC
  5
2B09
100
AcDbEntity
  8
外形
  6
CONTINUOUS
100
AcDbCircle
 10
1094.545365
 20
-163.739021
 30
0.0
 40
25.0
100
AcDbArc
 50
274.070017
 51
340.051556
  0
LINE
  5
2B29
100
AcDbEntity
  8
外形
  6
CONTINUOUS
100
AcDbLine
 10
1444.999195
 20
-155.20966
 30
0.0
 11
1518.394261
 21
-155.20966
 31
0.0
  0
LINE
  5
2B2A
100
AcDbEntity
  8
外形
  6
CONTINUOUS
100
AcDbLine
 10
1444.999195
 20
-138.739021
 30
0.0
 11
1518.394261
 21
-138.739021
 31
0.0
  0
LINE
  5
2B2B
100
AcDbEntity
  8
外形
  6
CONTINUOUS
100
AcDbLine
 10
1444.999195
 20
-172.268382
 30
0.0
 11
1518.44872
 21
-172.268382
 31
0.0
  0
LINE
  5
2B2D
100
AcDbEntity
  8
外形
  6
CONTINUOUS
100
AcDbLine
 10
1393.699195
 20
-187.239021
 30
0.0
 11
1245.638338
 21
-187.239021
 31
0.0
  0
LINE
  5
2B2E
102
{ACAD_REACTORS
330
2BCA
102
}
100
AcDbEntity
  8
外形
  6
CONTINUOUS
100
AcDbLine
 10
1427.878556
 20
-187.239021
 30
0.0
 11
1410.819834
 21
-187.239021
 31
0.0
  0
HATCH
  5
2BCA
100
AcDbEntity
  8
外形
  6
CONTINUOUS
100
AcDbHatch
 10
0.0
 20
0.0
 30
0.0
210
0.0
220
0.0
230
1.0
  2
ANSI31
 70
     0
 71
     1
 91
        4
 92
        7
 72
     1
 73
     1
 93
        4
 10
1419.349194600961
 20
-163.7390213257358
 42
0.0
 10
1442.84919460096
 20
-163.7390213257358
 42
0.0
 10
1442.84919460096
 20
-155.2096602711196
 42
0.3155461274596677
 10
1419.34919460096
 20
-138.7390213257358
 42
0.0
 97
        4
330
25EC
330
25A8
330
2889
330
2925
 92
        7
 72
     1
 73
     1
 93
        4
 10
1419.34919460096
 20
-138.7390213257358
 42
0.3155461274596608
 10
1395.849194600961
 20
-155.2096602711191
 42
0.0
 10
1395.849194600961
 20
-163.7390213257358
 42
0.0
 10
1419.34919460096
 20
-163.7390213257357
 42
0.0
 97
        4
330
2925
330
2888
330
25A8
330
25EC
 92
        7
 72
     1
 73
     1
 93
        5
 10
1419.349194600961
 20
-187.2390213257359
 42
0.0
 10
1419.349194600961
 20
-163.7390213257358
 42
0.0
 10
1395.849194600961
 20
-163.7390213257358
 42
0.0
 10
1395.849194600961
 20
-172.2683823803526
 42
0.2221667369606004
 10
1410.819833546344
 20
-187.2390213257358
 42
0.0
 97
        5
330
25A8
330
2888
330
2924
330
2B2E
330
25EC
 92
        7
 72
     1
 73
     1
 93
        5
 10
1419.34919460096
 20
-187.2390213257358
 42
0.0
 10
1427.878555655576
 20
-187.2390213257358
 42
0.2221667369606156
 10
1442.849194600961
 20
-172.2683823803512
 42
0.0
 10
1442.849194600961
 20
-163.7390213257358
 42
0.0
 10
1419.349194600961
 20
-163.7390213257358
 42
0.0
 97
        5
330
2889
330
25A8
330
25EC
330
2B2E
330
2866
 75
     0
 76
     1
 52
0.0
 41
15.0
 77
     0
 78
     1
 53
45.0
 43
71.393729
 44
146.919615
 45
-1.325825214724776
 46
1.325825214724776
 79
     0
 47
0.284514
 98
        4
 10
1423.589296
 20
-153.358741
 10
1414.760253
 20
-150.22909
 10
1412.481794
 20
-180.672042
 10
1425.298149
 20
-180.956555
  0
ARC
  5
2C43
100
AcDbEntity
  8
外形
  6
CONTINUOUS
100
AcDbCircle
 10
1201.971612
 20
-190.301781
 30
0.0
 40
1.0
100
AcDbArc
 50
90.0
 51
150.0
  0
LINE
  5
2C49
100
AcDbEntity
  8
外形
  6
CONTINUOUS
100
AcDbLine
 10
1102.832733
 20
-151.739021
 30
0.0
 11
1071.178722
 21
-151.739021
 31
0.0
  0
DIMENSION
  5
2C6B
100
AcDbEntity
  8
寸法
  6
CONTINUOUS
100
AcDbDimension
  2
*D9
 10
1163.054668
 20
-287.969136
 30
0.0
 11
1144.067337
 21
-280.053837
 31
0.0
 70
    34
  3
STANDARD
100
AcDb2LineAngularDimension
 13
1170.394261
 23
-287.969136
 33
0.0
 14
1189.440745
 24
-285.96727
 34
0.0
 15
1526.746682
 25
-287.969136
 35
0.0
 16
1140.813797
 26
-290.037604
 36
0.0
1001
ACAD
1000
DSTYLE
1002
{
1070
    40
1040
1.0
1002
}
  0
ENDSEC
  0
SECTION
  2
OBJECTS
  0
DICTIONARY
  5
1E
100
AcDbDictionary
  3
ACAD_GROUP
350
1C
  3
ACAD_MLINESTYLE
350
1D
  3
ACDBVARIABLEDICTIONARY
350
147A
  3
DRAWINGVARIABLESDICT
350
C58
  0
DICTIONARY
  5
38
100
AcDbDictionary
280
     1
  3
ACAD_XREC_ROUNDTRIP
360
39
  0
DICTIONARY
  5
22
100
AcDbDictionary
280
     1
  3
ACAD_XREC_ROUNDTRIP
360
23
  0
DICTIONARY
  5
3
100
AcDbDictionary
280
     1
  3
ACAD_LAYOUTSELFREF
360
4
  0
DICTIONARY
  5
A
100
AcDbDictionary
280
     1
  3
ACAD_LAYOUTSELFREF
360
B
  0
DICTIONARY
  5
1C
102
{ACAD_REACTORS
330
1E
102
}
100
AcDbDictionary
  0
DICTIONARY
  5
1D
102
{ACAD_REACTORS
330
1E
102
}
100
AcDbDictionary
  3
STANDARD
350
20
  0
DICTIONARY
  5
147A
102
{ACAD_REACTORS
330
1E
102
}
100
AcDbDictionary
  3
SORTENTS
350
147B
  0
DICTIONARY
  5
C58
102
{ACAD_REACTORS
330
1E
102
}
100
AcDbDictionary
1001
DRAWINGVARIABLESXDATA
1000
POLARMODE
1000
0
  0
XRECORD
  5
39
102
{ACAD_REACTORS
330
38
102
}
100
AcDbXrecord
102
PLOTBIT
280
     0
  0
XRECORD
  5
23
102
{ACAD_REACTORS
330
22
102
}
100
AcDbXrecord
102
ACADR14ROUNDTRIP
1000
DSTYLE
1002
{
1070
   341
340
0
1070
   343
340
0
1070
   344
340
0
1002
}
  0
XRECORD
  5
4
102
{ACAD_REACTORS
330
3
102
}
100
AcDbXrecord
340
2
  0
XRECORD
  5
B
102
{ACAD_REACTORS
330
A
102
}
100
AcDbXrecord
340
9
  0
MLINESTYLE
  5
20
102
{ACAD_REACTORS
330
1D
102
}
100
AcDbMlineStyle
  2
STANDARD
 70
     0
  3

 62
     0
 51
90.0
 52
90.0
 71
     2
 49
0.5
 62
   256
  6
BYLAYER
 49
-0.5
 62
   256
  6
BYLAYER
  0
DICTIONARYVAR
  5
147B
102
{ACAD_REACTORS
330
147A
102
}
100
DictionaryVariables
280
     0
  1
96
  0
ENDSEC
  0
EOF
