  0
SECTION
  2
HEADER
  9
$ACADVER
  1
AC1014
  9
$ACADMAINTVER
 70
     0
  9
$DWGCODEPAGE
  3
ANSI_932
  9
$INSBASE
 10
-587.250952
 20
747.890188
 30
0.0
  9
$EXTMIN
 10
9.804967
 20
150.213866
 30
0.0
  9
$EXTMAX
 10
178.146652
 20
242.836593
 30
0.0
  9
$LIMMIN
 10
-587.250952
 20
327.890188
  9
$LIMMAX
 10
600.749048
 20
957.890188
  9
$ORTHOMODE
 70
     1
  9
$REGENMODE
 70
     1
  9
$FILLMODE
 70
     1
  9
$QTEXTMODE
 70
     0
  9
$MIRRTEXT
 70
     1
  9
$DRAGMODE
 70
     2
  9
$LTSCALE
 40
5.0
  9
$OSMODE
 70
    37
  9
$ATTMODE
 70
     1
  9
$TEXTSIZE
 40
5.0
  9
$TRACEWID
 40
0.05
  9
$TEXTSTYLE
  7
STANDARD
  9
$CLAYER
  8
外形
  9
$CELTYPE
  6
CONTINUOUS
  9
$CECOLOR
 62
   256
  9
$CELTSCALE
 40
1.0
  9
$DELOBJ
 70
     1
  9
$DISPSILH
 70
     0
  9
$DIMSCALE
 40
1.0
  9
$DIMASZ
 40
2.0
  9
$DIMEXO
 40
1.0
  9
$DIMDLI
 40
8.0
  9
$DIMRND
 40
0.0
  9
$DIMDLE
 40
0.0
  9
$DIMEXE
 40
2.0
  9
$DIMTP
 40
0.0
  9
$DIMTM
 40
0.0
  9
$DIMTXT
 40
3.0
  9
$DIMCEN
 40
-1.0
  9
$DIMTSZ
 40
0.0
  9
$DIMTOL
 70
     0
  9
$DIMLIM
 70
     0
  9
$DIMTIH
 70
     0
  9
$DIMTOH
 70
     0
  9
$DIMSE1
 70
     0
  9
$DIMSE2
 70
     0
  9
$DIMTAD
 70
     1
  9
$DIMZIN
 70
     8
  9
$DIMBLK
  1

  9
$DIMASO
 70
     1
  9
$DIMSHO
 70
     1
  9
$DIMPOST
  1

  9
$DIMAPOST
  1

  9
$DIMALT
 70
     0
  9
$DIMALTD
 70
     2
  9
$DIMALTF
 40
25.4
  9
$DIMLFAC
 40
1.0
  9
$DIMTOFL
 70
     1
  9
$DIMTVP
 40
0.0
  9
$DIMTIX
 70
     0
  9
$DIMSOXD
 70
     0
  9
$DIMSAH
 70
     1
  9
$DIMBLK1
  1
_OPEN30
  9
$DIMBLK2
  1
_OPEN30
  9
$DIMSTYLE
  2
STANDARD
  9
$DIMCLRD
 70
     1
  9
$DIMCLRE
 70
     1
  9
$DIMCLRT
 70
     3
  9
$DIMTFAC
 40
0.5
  9
$DIMGAP
 40
1.0
  9
$DIMJUST
 70
     0
  9
$DIMSD1
 70
     0
  9
$DIMSD2
 70
     0
  9
$DIMTOLJ
 70
     1
  9
$DIMTZIN
 70
    13
  9
$DIMALTZ
 70
     0
  9
$DIMALTTZ
 70
     0
  9
$DIMFIT
 70
     0
  9
$DIMUPT
 70
     0
  9
$DIMUNIT
 70
     2
  9
$DIMDEC
 70
     2
  9
$DIMTDEC
 70
     3
  9
$DIMALTU
 70
     2
  9
$DIMALTTD
 70
     2
  9
$DIMTXSTY
  7
STANDARD
  9
$DIMAUNIT
 70
     0
  9
$LUNITS
 70
     2
  9
$LUPREC
 70
     0
  9
$SKETCHINC
 40
0.1
  9
$FILLETRAD
 40
0.0
  9
$AUNITS
 70
     0
  9
$AUPREC
 70
     0
  9
$MENU
  1
acad
  9
$ELEVATION
 40
0.0
  9
$PELEVATION
 40
0.0
  9
$THICKNESS
 40
0.0
  9
$LIMCHECK
 70
     0
  9
$BLIPMODE
 70
     0
  9
$CHAMFERA
 40
0.0
  9
$CHAMFERB
 40
0.0
  9
$CHAMFERC
 40
0.0
  9
$CHAMFERD
 40
0.0
  9
$SKPOLY
 70
     0
  9
$TDCREATE
 40
2450751.535399305
  9
$TDUPDATE
 40
2452004.700891203
  9
$TDINDWG
 40
1.6540211806
  9
$TDUSRTIMER
 40
1.6540211806
  9
$USRTIMER
 70
     1
  9
$ANGBASE
 50
0.0
  9
$ANGDIR
 70
     0
  9
$PDMODE
 70
    32
  9
$PDSIZE
 40
0.0
  9
$PLINEWID
 40
0.0
  9
$COORDS
 70
     2
  9
$SPLFRAME
 70
     0
  9
$SPLINETYPE
 70
     5
  9
$SPLINESEGS
 70
     8
  9
$ATTDIA
 70
     0
  9
$ATTREQ
 70
     1
  9
$HANDLING
 70
     1
  9
$HANDSEED
  5
198B
  9
$SURFTAB1
 70
     6
  9
$SURFTAB2
 70
     6
  9
$SURFTYPE
 70
     6
  9
$SURFU
 70
     6
  9
$SURFV
 70
     6
  9
$UCSNAME
  2

  9
$UCSORG
 10
40.53800450572526
 20
146.9196145921314
 30
0.0
  9
$UCSXDIR
 10
1.0
 20
0.0
 30
0.0
  9
$UCSYDIR
 10
0.0
 20
1.0
 30
0.0
  9
$PUCSNAME
  2

  9
$PUCSORG
 10
0.0
 20
0.0
 30
0.0
  9
$PUCSXDIR
 10
1.0
 20
0.0
 30
0.0
  9
$PUCSYDIR
 10
0.0
 20
1.0
 30
0.0
  9
$USERI1
 70
     0
  9
$USERI2
 70
     0
  9
$USERI3
 70
     0
  9
$USERI4
 70
     0
  9
$USERI5
 70
     0
  9
$USERR1
 40
0.0
  9
$USERR2
 40
0.0
  9
$USERR3
 40
0.0
  9
$USERR4
 40
0.0
  9
$USERR5
 40
0.0
  9
$WORLDVIEW
 70
     1
  9
$SHADEDGE
 70
     3
  9
$SHADEDIF
 70
    70
  9
$TILEMODE
 70
     1
  9
$MAXACTVP
 70
    16
  9
$PINSBASE
 10
0.0
 20
0.0
 30
0.0
  9
$PLIMCHECK
 70
     0
  9
$PEXTMIN
 10
1.000000E+20
 20
1.000000E+20
 30
1.000000E+20
  9
$PEXTMAX
 10
-1.000000E+20
 20
-1.000000E+20
 30
-1.000000E+20
  9
$PLIMMIN
 10
0.0
 20
0.0
  9
$PLIMMAX
 10
12.0
 20
9.0
  9
$UNITMODE
 70
     0
  9
$VISRETAIN
 70
     0
  9
$PLINEGEN
 70
     0
  9
$PSLTSCALE
 70
     1
  9
$TREEDEPTH
 70
  3020
  9
$PICKSTYLE
 70
     0
  9
$CMLSTYLE
  2
STANDARD
  9
$CMLJUST
 70
     0
  9
$CMLSCALE
 40
1.0
  9
$PROXYGRAPHICS
 70
     1
  9
$MEASUREMENT
 70
     0
  0
ENDSEC
  0
SECTION
  2
CLASSES
  0
CLASS
  1
LWPOLYLINE
  2
AcDbPolyline
  3
"AutoCAD"
 90
        0
280
     0
281
     1
  0
CLASS
  1
ACDBDICTIONARYWDFLT
  2
AcDbDictionaryWithDefault
  3
AutoCAD 2000
 90
        0
280
     1
281
     0
  0
CLASS
  1
ACDBPLACEHOLDER
  2
AcDbPlaceHolder
  3
AutoCAD 2000
 90
        0
280
     1
281
     0
  0
CLASS
  1
LAYOUT
  2
AcDbLayout
  3
AutoCAD 2000
 90
        0
280
     1
281
     0
  0
CLASS
  1
LONG_TRANSACTION
  2
AcDbLongTransaction
  3
AutoCAD 2000
 90
        0
280
     1
281
     0
  0
CLASS
  1
LWPOLYLINE
  2
AcDbPolyline
  3
"AutoCAD"
 90
        0
280
     0
281
     1
  0
CLASS
  1
HATCH
  2
AcDbHatch
  3
"ACAD_SEDONA"
 90
        0
280
     0
281
     1
  0
CLASS
  1
XRECORD
  2
AcDbXrecord
  3
"<Built In>"
 90
        0
280
     0
281
     0
  0
CLASS
  1
DICTIONARYVAR
  2
AcDbDictionaryVar
  3
"AutoCAD"
 90
        0
280
     0
281
     0
  0
ENDSEC
  0
SECTION
  2
TABLES
  0
TABLE
  2
VPORT
  5
16
100
AcDbSymbolTable
 70
     1
  0
VPORT
  5
1986
100
AcDbSymbolTableRecord
100
AcDbViewportTableRecord
  2
*ACTIVE
 70
     0
 10
0.0
 20
0.0
 11
1.0
 21
1.0
 12
96.586526
 22
194.386176
 13
0.0
 23
0.0
 14
1.0
 24
1.0
 15
10.0
 25
10.0
 16
0.0
 26
0.0
 36
1.0
 17
0.0
 27
0.0
 37
0.0
 40
111.776078
 41
1.710425
 42
50.0
 43
0.0
 44
0.0
 50
0.0
 51
0.0
 71
     0
 72
   100
 73
     1
 74
     1
 75
     0
 76
     0
 77
     0
 78
     2
  0
ENDTAB
  0
TABLE
  2
LTYPE
  5
11
100
AcDbSymbolTable
 70
     2
  0
LTYPE
  5
12
100
AcDbSymbolTableRecord
100
AcDbLinetypeTableRecord
  2
BYBLOCK
 70
     0
  3

 72
    65
 73
     0
 40
0.0
  0
LTYPE
  5
13
100
AcDbSymbolTableRecord
100
AcDbLinetypeTableRecord
  2
BYLAYER
 70
     0
  3

 72
    65
 73
     0
 40
0.0
  0
LTYPE
  5
7
100
AcDbSymbolTableRecord
100
AcDbLinetypeTableRecord
  2
CONTINUOUS
 70
     0
  3
Solid line
 72
    65
 73
     0
 40
0.0
  0
LTYPE
  5
AA
100
AcDbSymbolTableRecord
100
AcDbLinetypeTableRecord
  2
CENTER
 70
     0
  3
Center ____ _ ____ _ ____ _ ____ _ ____ _ ____
 72
    65
 73
     4
 40
2.0
 49
1.25
 74
     0
 49
-0.25
 74
     0
 49
0.25
 74
     0
 49
-0.25
 74
     0
  0
ENDTAB
  0
TABLE
  2
LAYER
  5
E
100
AcDbSymbolTable
 70
     5
  0
LAYER
  5
6
100
AcDbSymbolTableRecord
100
AcDbLayerTableRecord
  2
0
 70
     0
 62
     7
  6
CONTINUOUS
  0
LAYER
  5
2C
100
AcDbSymbolTableRecord
100
AcDbLayerTableRecord
  2
外形
 70
     0
 62
     3
  6
CONTINUOUS
  0
LAYER
  5
37
102
{ACAD_XDICTIONARY
360
38
102
}
100
AcDbSymbolTableRecord
100
AcDbLayerTableRecord
  2
DEFPOINTS
 70
     0
 62
     7
  6
CONTINUOUS
  0
LAYER
  5
1F
100
AcDbSymbolTableRecord
100
AcDbLayerTableRecord
  2
寸法
 70
     0
 62
     1
  6
CONTINUOUS
  0
LAYER
  5
673
100
AcDbSymbolTableRecord
100
AcDbLayerTableRecord
  2
参考
 70
     0
 62
     2
  6
CONTINUOUS
  0
ENDTAB
  0
TABLE
  2
STYLE
  5
F
100
AcDbSymbolTable
 70
     1
  0
STYLE
  5
10
100
AcDbSymbolTableRecord
100
AcDbTextStyleTableRecord
  2
STANDARD
 70
     0
 40
0.0
 41
1.0
 50
0.0
 71
     0
 42
5.0
  3
MONOTXT
  4
BIGFONT
  0
ENDTAB
  0
TABLE
  2
VIEW
  5
14
100
AcDbSymbolTable
 70
     0
  0
ENDTAB
  0
TABLE
  2
UCS
  5
15
100
AcDbSymbolTable
 70
     0
  0
ENDTAB
  0
TABLE
  2
APPID
  5
18
100
AcDbSymbolTable
 70
     2
  0
APPID
  5
19
100
AcDbSymbolTableRecord
100
AcDbRegAppTableRecord
  2
ACAD
 70
     0
  0
APPID
  5
C59
100
AcDbSymbolTableRecord
100
AcDbRegAppTableRecord
  2
DRAWINGVARIABLESXDATA
 70
     0
  0
ENDTAB
  0
TABLE
  2
DIMSTYLE
  5
1A
100
AcDbSymbolTable
 70
     2
  0
DIMSTYLE
105
21
102
{ACAD_XDICTIONARY
360
22
102
}
102
{ACAD_REACTORS
330
1805
330
1811
330
181E
330
182D
330
1853
330
1932
330
1950
330
1975
102
}
100
AcDbSymbolTableRecord
100
AcDbDimStyleTableRecord
  2
STANDARD
 70
     0
  3

  4

  5

  6
_OPEN30
  7
_OPEN30
 40
0.0
 41
2.0
 42
1.0
 43
8.0
 44
2.0
 45
0.0
 46
0.0
 47
0.0
 48
0.0
140
3.0
141
-1.0
142
0.0
143
25.4
144
1.0
145
0.0
146
1.0
147
1.0
 71
     0
 72
     0
 73
     0
 74
     0
 75
     0
 76
     0
 77
     1
 78
     8
170
     0
171
     2
172
     1
173
     1
174
     0
175
     0
176
     1
177
     1
178
     3
270
     2
271
     2
272
     2
273
     2
274
     2
340
10
275
     0
280
     0
281
     0
282
     0
283
     1
284
     8
285
     0
286
     0
287
     3
288
     0
  0
DIMSTYLE
105
674
100
AcDbSymbolTableRecord
100
AcDbDimStyleTableRecord
  2
参考寸法
 70
     0
  3

  4

  5

  6
_DOTSMALL
  7
_DOTSMALL
 40
1.0
 41
2.0
 42
1.0
 43
8.0
 44
2.0
 45
0.0
 46
0.0
 47
0.0
 48
0.0
140
3.0
141
-1.0
142
0.0
143
25.4
144
1.0
145
0.0
146
1.0
147
1.0
 71
     0
 72
     0
 73
     0
 74
     0
 75
     0
 76
     0
 77
     1
 78
     8
170
     0
171
     2
172
     1
173
     1
174
     0
175
     0
176
     2
177
     2
178
     2
270
     2
271
     3
272
     2
273
     2
274
     2
340
10
275
     0
280
     0
281
     0
282
     0
283
     1
284
     8
285
     0
286
     0
287
     3
288
     0
  0
ENDTAB
  0
TABLE
  2
BLOCK_RECORD
  5
1
100
AcDbSymbolTable
 70
    15
  0
BLOCK_RECORD
  5
2
102
{ACAD_XDICTIONARY
360
3
102
}
100
AcDbSymbolTableRecord
100
AcDbBlockTableRecord
  2
*MODEL_SPACE
  0
BLOCK_RECORD
  5
9
102
{ACAD_XDICTIONARY
360
A
102
}
100
AcDbSymbolTableRecord
100
AcDbBlockTableRecord
  2
*PAPER_SPACE
  0
BLOCK_RECORD
  5
24
100
AcDbSymbolTableRecord
100
AcDbBlockTableRecord
  2
_DOTSMALL
  0
BLOCK_RECORD
  5
470
100
AcDbSymbolTableRecord
100
AcDbBlockTableRecord
  2
_OPEN30
  0
BLOCK_RECORD
  5
17F9
100
AcDbSymbolTableRecord
100
AcDbBlockTableRecord
  2
*D2
  0
BLOCK_RECORD
  5
1806
100
AcDbSymbolTableRecord
100
AcDbBlockTableRecord
  2
*D3
  0
BLOCK_RECORD
  5
1812
100
AcDbSymbolTableRecord
100
AcDbBlockTableRecord
  2
*D4
  0
BLOCK_RECORD
  5
181F
100
AcDbSymbolTableRecord
100
AcDbBlockTableRecord
  2
*D5
  0
BLOCK_RECORD
  5
1841
100
AcDbSymbolTableRecord
100
AcDbBlockTableRecord
  2
*D7
  0
BLOCK_RECORD
  5
1920
100
AcDbSymbolTableRecord
100
AcDbBlockTableRecord
  2
*D12
  0
BLOCK_RECORD
  5
1944
100
AcDbSymbolTableRecord
100
AcDbBlockTableRecord
  2
*D13
  0
BLOCK_RECORD
  5
1968
100
AcDbSymbolTableRecord
100
AcDbBlockTableRecord
  2
*D14
  0
ENDTAB
  0
ENDSEC
  0
SECTION
  2
BLOCKS
  0
BLOCK
  5
5
100
AcDbEntity
  8
0
100
AcDbBlockBegin
  2
*MODEL_SPACE
 70
     0
 10
0.0
 20
0.0
 30
0.0
  3
*MODEL_SPACE
  1

  0
ENDBLK
  5
8
100
AcDbEntity
  8
0
100
AcDbBlockEnd
  0
BLOCK
  5
C
100
AcDbEntity
 67
     1
  8
0
100
AcDbBlockBegin
  2
*PAPER_SPACE
 70
     0
 10
0.0
 20
0.0
 30
0.0
  3
*PAPER_SPACE
  1

  0
ENDBLK
  5
D
100
AcDbEntity
 67
     1
  8
0
100
AcDbBlockEnd
  0
BLOCK
  5
29
100
AcDbEntity
  8
0
100
AcDbBlockBegin
  2
_DOTSMALL
 70
     0
 10
0.0
 20
0.0
 30
0.0
  3
_DOTSMALL
  1

  0
POLYLINE
  5
25
100
AcDbEntity
  8
0
  6
BYBLOCK
 62
     0
100
AcDb2dPolyline
 66
     1
 10
0.0
 20
0.0
 30
0.0
 70
     1
 40
0.5
 41
0.5
  0
VERTEX
  5
26
100
AcDbEntity
  8
0
  6
BYBLOCK
 62
     0
100
AcDbVertex
100
AcDb2dVertex
 10
-0.0625
 20
0.0
 30
0.0
 42
1.0
  0
VERTEX
  5
27
100
AcDbEntity
  8
0
  6
BYBLOCK
 62
     0
100
AcDbVertex
100
AcDb2dVertex
 10
0.0625
 20
0.0
 30
0.0
 42
1.0
  0
SEQEND
  5
28
100
AcDbEntity
  8
0
  6
BYBLOCK
 62
     0
  0
ENDBLK
  5
2A
100
AcDbEntity
  8
0
100
AcDbBlockEnd
  0
BLOCK
  5
471
100
AcDbEntity
  8
0
100
AcDbBlockBegin
  2
_OPEN30
 70
     0
 10
0.0
 20
0.0
 30
0.0
  3
_OPEN30
  1

  0
LINE
  5
472
100
AcDbEntity
  8
0
  6
BYBLOCK
 62
     0
100
AcDbLine
 10
-1.0
 20
0.267949
 30
0.0
 11
0.0
 21
0.0
 31
0.0
  0
LINE
  5
473
100
AcDbEntity
  8
0
  6
BYBLOCK
 62
     0
100
AcDbLine
 10
0.0
 20
0.0
 30
0.0
 11
-1.0
 21
-0.267949
 31
0.0
  0
LINE
  5
474
100
AcDbEntity
  8
0
  6
BYBLOCK
 62
     0
100
AcDbLine
 10
0.0
 20
0.0
 30
0.0
 11
-1.0
 21
0.0
 31
0.0
  0
ENDBLK
  5
475
100
AcDbEntity
  8
0
100
AcDbBlockEnd
  0
BLOCK
  5
1860
100
AcDbEntity
  8
0
100
AcDbBlockBegin
  2
*D2
 70
     1
 10
0.0
 20
0.0
 30
0.0
  3
*D2
  1

  0
LINE
  5
1861
100
AcDbEntity
  8
0
  6
BYBLOCK
 62
     1
100
AcDbLine
 10
159.312253
 20
315.471284
 30
0.0
 11
159.312253
 21
300.076344
 31
0.0
  0
LINE
  5
1862
100
AcDbEntity
  8
0
  6
BYBLOCK
 62
     1
100
AcDbLine
 10
168.312253
 20
315.471284
 30
0.0
 11
168.312253
 21
300.076344
 31
0.0
  0
LINE
  5
1863
100
AcDbEntity
  8
0
  6
BYBLOCK
 62
     1
100
AcDbLine
 10
161.312253
 20
302.076344
 30
0.0
 11
166.312253
 21
302.076344
 31
0.0
  0
INSERT
  5
1864
100
AcDbEntity
  8
0
  6
BYBLOCK
 62
     1
100
AcDbBlockReference
  2
_OPEN30
 10
159.312253
 20
302.076344
 30
0.0
 41
2.0
 42
2.0
 43
2.0
 50
180.0
  0
INSERT
  5
1865
100
AcDbEntity
  8
0
  6
BYBLOCK
 62
     1
100
AcDbBlockReference
  2
_OPEN30
 10
168.312253
 20
302.076344
 30
0.0
 41
2.0
 42
2.0
 43
2.0
  0
MTEXT
  5
1866
100
AcDbEntity
  8
0
  6
BYBLOCK
 62
     3
100
AcDbMText
 10
163.812253
 20
304.576344
 30
0.0
 40
3.0
 41
0.0
 71
     5
 72
     1
  1
\A1;9
  0
POINT
  5
1867
100
AcDbEntity
  8
DEFPOINTS
  6
BYBLOCK
 62
     0
100
AcDbPoint
 10
159.312253
 20
316.471284
 30
0.0
  0
POINT
  5
1868
100
AcDbEntity
  8
DEFPOINTS
  6
BYBLOCK
 62
     0
100
AcDbPoint
 10
168.312253
 20
316.471284
 30
0.0
  0
POINT
  5
1869
100
AcDbEntity
  8
DEFPOINTS
  6
BYBLOCK
 62
     0
100
AcDbPoint
 10
168.312253
 20
302.076344
 30
0.0
  0
ENDBLK
  5
186A
100
AcDbEntity
  8
0
100
AcDbBlockEnd
  0
BLOCK
  5
186B
100
AcDbEntity
  8
0
100
AcDbBlockBegin
  2
*D3
 70
     1
 10
0.0
 20
0.0
 30
0.0
  3
*D3
  1

  0
LINE
  5
186C
100
AcDbEntity
  8
0
  6
BYBLOCK
 62
     1
100
AcDbLine
 10
176.199521
 20
333.057523
 30
0.0
 11
168.375984
 21
323.958498
 31
0.0
  0
LINE
  5
186D
100
AcDbEntity
  8
0
  6
BYBLOCK
 62
     1
100
AcDbLine
 10
159.248523
 20
313.342969
 30
0.0
 11
157.9446
 21
311.826465
 31
0.0
  0
MTEXT
  5
186E
100
AcDbEntity
  8
0
  6
BYBLOCK
 62
     3
100
AcDbMText
 10
171.044084
 20
330.896167
 30
0.0
 40
3.0
 41
0.0
 71
     5
 72
     1
  1
\A1;\U+220510
 11
0.651961
 21
0.758252
 31
0.0
  0
LINE
  5
186F
100
AcDbEntity
  8
0
  6
BYBLOCK
 62
     1
100
AcDbLine
 10
160.552446
 20
314.859473
 30
0.0
 11
167.072061
 21
322.441994
 31
0.0
  0
INSERT
  5
1870
100
AcDbEntity
  8
0
  6
BYBLOCK
 62
     1
100
AcDbBlockReference
  2
_OPEN30
 10
160.552446
 20
314.859473
 30
0.0
 41
2.0
 42
2.0
 43
2.0
 50
49.310347
  0
INSERT
  5
1871
100
AcDbEntity
  8
0
  6
BYBLOCK
 62
     1
100
AcDbBlockReference
  2
_OPEN30
 10
167.072061
 20
322.441994
 30
0.0
 41
2.0
 42
2.0
 43
2.0
 50
229.310347
  0
POINT
  5
1872
100
AcDbEntity
  8
DEFPOINTS
  6
BYBLOCK
 62
     0
100
AcDbPoint
 10
167.072061
 20
322.441994
 30
0.0
  0
POINT
  5
1873
100
AcDbEntity
  8
DEFPOINTS
  6
BYBLOCK
 62
     0
100
AcDbPoint
 10
160.552446
 20
314.859473
 30
0.0
  0
ENDBLK
  5
1874
100
AcDbEntity
  8
0
100
AcDbBlockEnd
  0
BLOCK
  5
1855
100
AcDbEntity
  8
0
100
AcDbBlockBegin
  2
*D4
 70
     1
 10
0.0
 20
0.0
 30
0.0
  3
*D4
  1

  0
LINE
  5
1856
100
AcDbEntity
  8
0
  6
BYBLOCK
 62
     1
100
AcDbLine
 10
91.267274
 20
311.650734
 30
0.0
 11
91.267274
 21
290.15846
 31
0.0
  0
LINE
  5
1857
100
AcDbEntity
  8
0
  6
BYBLOCK
 62
     1
100
AcDbLine
 10
216.267274
 20
313.650734
 30
0.0
 11
216.267274
 21
290.15846
 31
0.0
  0
LINE
  5
1858
100
AcDbEntity
  8
0
  6
BYBLOCK
 62
     1
100
AcDbLine
 10
93.267274
 20
292.15846
 30
0.0
 11
214.267274
 21
292.15846
 31
0.0
  0
INSERT
  5
1859
100
AcDbEntity
  8
0
  6
BYBLOCK
 62
     1
100
AcDbBlockReference
  2
_OPEN30
 10
91.267274
 20
292.15846
 30
0.0
 41
2.0
 42
2.0
 43
2.0
 50
180.0
  0
INSERT
  5
185A
100
AcDbEntity
  8
0
  6
BYBLOCK
 62
     1
100
AcDbBlockReference
  2
_OPEN30
 10
216.267274
 20
292.15846
 30
0.0
 41
2.0
 42
2.0
 43
2.0
  0
MTEXT
  5
185B
100
AcDbEntity
  8
0
  6
BYBLOCK
 62
     3
100
AcDbMText
 10
153.767274
 20
294.65846
 30
0.0
 40
3.0
 41
0.0
 71
     5
 72
     1
  1
\A1;125
  0
POINT
  5
185C
100
AcDbEntity
  8
DEFPOINTS
  6
BYBLOCK
 62
     0
100
AcDbPoint
 10
91.267274
 20
312.650734
 30
0.0
  0
POINT
  5
185D
100
AcDbEntity
  8
DEFPOINTS
  6
BYBLOCK
 62
     0
100
AcDbPoint
 10
216.267274
 20
314.650734
 30
0.0
  0
POINT
  5
185E
100
AcDbEntity
  8
DEFPOINTS
  6
BYBLOCK
 62
     0
100
AcDbPoint
 10
216.267274
 20
292.15846
 30
0.0
  0
ENDBLK
  5
185F
100
AcDbEntity
  8
0
100
AcDbBlockEnd
  0
BLOCK
  5
18A4
100
AcDbEntity
  8
0
100
AcDbBlockBegin
  2
*D5
 70
     1
 10
0.0
 20
0.0
 30
0.0
  3
*D5
  1

  0
LINE
  5
18A5
100
AcDbEntity
  8
0
  6
BYBLOCK
 62
     1
100
AcDbLine
 10
85.119149
 20
318.650734
 30
0.0
 11
82.91546
 21
318.650734
 31
0.0
  0
LINE
  5
18A6
100
AcDbEntity
  8
0
  6
BYBLOCK
 62
     1
100
AcDbLine
 10
90.267274
 20
312.650734
 30
0.0
 11
82.91546
 21
312.650734
 31
0.0
  0
LINE
  5
18A7
100
AcDbEntity
  8
0
  6
BYBLOCK
 62
     1
100
AcDbLine
 10
84.91546
 20
316.650734
 30
0.0
 11
84.91546
 21
314.650734
 31
0.0
  0
LINE
  5
18A8
100
AcDbEntity
  8
0
  6
BYBLOCK
 62
     1
100
AcDbLine
 10
84.91546
 20
312.650734
 30
0.0
 11
84.91546
 21
305.457997
 31
0.0
  0
INSERT
  5
18A9
100
AcDbEntity
  8
0
  6
BYBLOCK
 62
     1
100
AcDbBlockReference
  2
_OPEN30
 10
84.91546
 20
318.650734
 30
0.0
 41
2.0
 42
2.0
 43
2.0
 50
90.0
  0
INSERT
  5
18AA
100
AcDbEntity
  8
0
  6
BYBLOCK
 62
     1
100
AcDbBlockReference
  2
_OPEN30
 10
84.91546
 20
312.650734
 30
0.0
 41
2.0
 42
2.0
 43
2.0
 50
270.0
  0
MTEXT
  5
18AB
100
AcDbEntity
  8
0
  6
BYBLOCK
 62
     3
100
AcDbMText
 10
82.41546
 20
307.457997
 30
0.0
 40
3.0
 41
0.0
 71
     5
 72
     1
  1
\A1;6
 11
0.0
 21
1.0
 31
0.0
  0
POINT
  5
18AC
100
AcDbEntity
  8
DEFPOINTS
  6
BYBLOCK
 62
     0
100
AcDbPoint
 10
86.119149
 20
318.650734
 30
0.0
  0
POINT
  5
18AD
100
AcDbEntity
  8
DEFPOINTS
  6
BYBLOCK
 62
     0
100
AcDbPoint
 10
91.267274
 20
312.650734
 30
0.0
  0
POINT
  5
18AE
100
AcDbEntity
  8
DEFPOINTS
  6
BYBLOCK
 62
     0
100
AcDbPoint
 10
84.91546
 20
312.650734
 30
0.0
  0
ENDBLK
  5
18AF
100
AcDbEntity
  8
0
100
AcDbBlockEnd
  0
BLOCK
  5
1893
100
AcDbEntity
  8
0
100
AcDbBlockBegin
  2
*D7
 70
     1
 10
0.0
 20
0.0
 30
0.0
  3
*D7
  1

  0
LINE
  5
1894
100
AcDbEntity
  8
0
  6
BYBLOCK
 62
     1
100
AcDbLine
 10
67.54602
 20
311.654539
 30
0.0
 11
66.361885
 21
298.11981
 31
0.0
  0
LINE
  5
1895
100
AcDbEntity
  8
0
  6
BYBLOCK
 62
     1
100
AcDbLine
 10
67.633176
 20
309.798892
 30
0.0
 11
67.633176
 21
298.064304
 31
0.0
  0
ARC
  5
1896
100
AcDbEntity
  8
0
  6
BYBLOCK
 62
     1
100
AcDbCircle
 10
67.633176
 20
312.650734
 30
0.0
 40
12.58643
100
AcDbArc
 50
246.713741
 51
265.0
  0
LINE
  5
1897
100
AcDbEntity
  8
0
  6
BYBLOCK
 62
     1
100
AcDbLine
 10
62.657443
 20
301.089579
 30
0.0
 11
54.757989
 21
304.489376
 31
0.0
  0
ARC
  5
1898
100
AcDbEntity
  8
0
  6
BYBLOCK
 62
     1
100
AcDbCircle
 10
67.633176
 20
312.650734
 30
0.0
 40
12.58643
100
AcDbArc
 50
246.772041
 51
255.886021
  0
ARC
  5
1899
100
AcDbEntity
  8
0
  6
BYBLOCK
 62
     1
100
AcDbCircle
 10
67.633176
 20
312.650734
 30
0.0
 40
12.58643
100
AcDbArc
 50
279.113979
 51
288.227959
  0
ARC
  5
189A
100
AcDbEntity
  8
0
  6
BYBLOCK
 62
     1
100
AcDbCircle
 10
67.633176
 20
312.650734
 30
0.0
 40
12.58643
100
AcDbArc
 50
265.0
 51
270.0
  0
INSERT
  5
189B
100
AcDbEntity
  8
0
  6
BYBLOCK
 62
     1
100
AcDbBlockReference
  2
_OPEN30
 10
66.536197
 20
300.112199
 30
0.0
 41
2.0
 42
2.0
 43
2.0
 50
350.44301
  0
INSERT
  5
189C
100
AcDbEntity
  8
0
  6
BYBLOCK
 62
     1
100
AcDbBlockReference
  2
_OPEN30
 10
67.633176
 20
300.064304
 30
0.0
 41
2.0
 42
2.0
 43
2.0
 50
184.55699
  0
MTEXT
  5
189D
100
AcDbEntity
  8
0
  6
BYBLOCK
 62
     3
100
AcDbMText
 10
59.696029
 20
305.085831
 30
0.0
 40
3.0
 41
0.0
 71
     5
 72
     1
  1
\A1;5°
 11
0.918541
 21
-0.395325
 31
0.0
  0
POINT
  5
189E
100
AcDbEntity
  8
DEFPOINTS
  6
BYBLOCK
 62
     0
100
AcDbPoint
 10
67.267103
 20
300.069629
 30
0.0
  0
POINT
  5
189F
100
AcDbEntity
  8
DEFPOINTS
  6
BYBLOCK
 62
     0
100
AcDbPoint
 10
67.633176
 20
312.650734
 30
0.0
  0
POINT
  5
18A0
100
AcDbEntity
  8
DEFPOINTS
  6
BYBLOCK
 62
     0
100
AcDbPoint
 10
67.633176
 20
326.502576
 30
0.0
  0
POINT
  5
18A1
100
AcDbEntity
  8
DEFPOINTS
  6
BYBLOCK
 62
     0
100
AcDbPoint
 10
67.633176
 20
310.798892
 30
0.0
  0
POINT
  5
18A2
100
AcDbEntity
  8
DEFPOINTS
  6
BYBLOCK
 62
     0
100
AcDbPoint
 10
68.565594
 20
323.308319
 30
0.0
  0
ENDBLK
  5
18A3
100
AcDbEntity
  8
0
100
AcDbBlockEnd
  0
BLOCK
  5
1933
100
AcDbEntity
  8
0
100
AcDbBlockBegin
  2
*D12
 70
     1
 10
0.0
 20
0.0
 30
0.0
  3
*D12
  1

  0
LINE
  5
1934
100
AcDbEntity
  8
0
  6
BYBLOCK
 62
     1
100
AcDbLine
 10
45.318058
 20
176.439594
 30
0.0
 11
33.536193
 21
177.470373
 31
0.0
  0
LINE
  5
1935
100
AcDbEntity
  8
0
  6
BYBLOCK
 62
     1
100
AcDbLine
 10
40.9609
 20
176.352438
 30
0.0
 11
33.487383
 21
176.352438
 31
0.0
  0
ARC
  5
1936
100
AcDbEntity
  8
0
  6
BYBLOCK
 62
     1
100
AcDbCircle
 10
46.314252
 20
176.352438
 30
0.0
 40
10.826869
100
AcDbArc
 50
153.70973
 51
175.0
  0
LINE
  5
1937
100
AcDbEntity
  8
0
  6
BYBLOCK
 62
     1
100
AcDbLine
 10
36.607296
 20
181.147863
 30
0.0
 11
40.416399
 21
188.858294
 31
0.0
  0
ARC
  5
1938
100
AcDbEntity
  8
0
  6
BYBLOCK
 62
     1
100
AcDbCircle
 10
46.314252
 20
176.352438
 30
0.0
 40
10.826869
100
AcDbArc
 50
153.801792
 51
164.400896
  0
ARC
  5
1939
100
AcDbEntity
  8
0
  6
BYBLOCK
 62
     1
100
AcDbCircle
 10
46.314252
 20
176.352438
 30
0.0
 40
10.826869
100
AcDbArc
 50
190.599104
 51
201.198208
  0
ARC
  5
193A
100
AcDbEntity
  8
0
  6
BYBLOCK
 62
     1
100
AcDbCircle
 10
46.314252
 20
176.352438
 30
0.0
 40
10.826869
100
AcDbArc
 50
175.0
 51
180.0
  0
INSERT
  5
193B
100
AcDbEntity
  8
0
  6
BYBLOCK
 62
     1
100
AcDbBlockReference
  2
_OPEN30
 10
35.528582
 20
177.296062
 30
0.0
 41
2.0
 42
2.0
 43
2.0
 50
259.700448
  0
INSERT
  5
193C
100
AcDbEntity
  8
0
  6
BYBLOCK
 62
     1
100
AcDbBlockReference
  2
_OPEN30
 10
35.487383
 20
176.352438
 30
0.0
 41
2.0
 42
2.0
 43
2.0
 50
95.299552
  0
MTEXT
  5
193D
100
AcDbEntity
  8
0
  6
BYBLOCK
 62
     3
100
AcDbMText
 10
36.270443
 20
186.110376
 30
0.0
 40
3.0
 41
0.0
 71
     5
 72
     1
  1
\A1;5°
 11
0.442919
 21
0.896562
 31
0.0
  0
POINT
  5
193E
100
AcDbEntity
  8
DEFPOINTS
  6
BYBLOCK
 62
     0
100
AcDbPoint
 10
35.491963
 20
176.667334
 30
0.0
  0
POINT
  5
193F
100
AcDbEntity
  8
DEFPOINTS
  6
BYBLOCK
 62
     0
100
AcDbPoint
 10
46.314252
 20
176.352438
 30
0.0
  0
POINT
  5
1940
100
AcDbEntity
  8
DEFPOINTS
  6
BYBLOCK
 62
     0
100
AcDbPoint
 10
41.9609
 20
176.352438
 30
0.0
  0
POINT
  5
1941
100
AcDbEntity
  8
DEFPOINTS
  6
BYBLOCK
 62
     0
100
AcDbPoint
 10
178.146652
 20
176.352438
 30
0.0
  0
POINT
  5
1942
100
AcDbEntity
  8
DEFPOINTS
  6
BYBLOCK
 62
     0
100
AcDbPoint
 10
54.21457
 20
175.66125
 30
0.0
  0
ENDBLK
  5
1943
100
AcDbEntity
  8
0
100
AcDbBlockEnd
  0
BLOCK
  5
1951
100
AcDbEntity
  8
0
100
AcDbBlockBegin
  2
*D13
 70
     1
 10
0.0
 20
0.0
 30
0.0
  3
*D13
  1

  0
LINE
  5
1952
100
AcDbEntity
  8
0
  6
BYBLOCK
 62
     1
100
AcDbLine
 10
46.314252
 20
175.352438
 30
0.0
 11
46.314252
 21
157.514163
 31
0.0
  0
LINE
  5
1953
100
AcDbEntity
  8
0
  6
BYBLOCK
 62
     1
100
AcDbLine
 10
65.314252
 20
170.352438
 30
0.0
 11
65.314252
 21
157.514163
 31
0.0
  0
LINE
  5
1954
100
AcDbEntity
  8
0
  6
BYBLOCK
 62
     1
100
AcDbLine
 10
48.314252
 20
159.514163
 30
0.0
 11
63.314252
 21
159.514163
 31
0.0
  0
INSERT
  5
1955
100
AcDbEntity
  8
0
  6
BYBLOCK
 62
     1
100
AcDbBlockReference
  2
_OPEN30
 10
46.314252
 20
159.514163
 30
0.0
 41
2.0
 42
2.0
 43
2.0
 50
180.0
  0
INSERT
  5
1956
100
AcDbEntity
  8
0
  6
BYBLOCK
 62
     1
100
AcDbBlockReference
  2
_OPEN30
 10
65.314252
 20
159.514163
 30
0.0
 41
2.0
 42
2.0
 43
2.0
  0
MTEXT
  5
1957
100
AcDbEntity
  8
0
  6
BYBLOCK
 62
     3
100
AcDbMText
 10
55.814252
 20
162.014163
 30
0.0
 40
3.0
 41
0.0
 71
     5
 72
     1
  1
\A1;19
  0
POINT
  5
1958
100
AcDbEntity
  8
DEFPOINTS
  6
BYBLOCK
 62
     0
100
AcDbPoint
 10
46.314252
 20
176.352438
 30
0.0
  0
POINT
  5
1959
100
AcDbEntity
  8
DEFPOINTS
  6
BYBLOCK
 62
     0
100
AcDbPoint
 10
65.314252
 20
171.352438
 30
0.0
  0
POINT
  5
195A
100
AcDbEntity
  8
DEFPOINTS
  6
BYBLOCK
 62
     0
100
AcDbPoint
 10
65.314252
 20
159.514163
 30
0.0
  0
ENDBLK
  5
195B
100
AcDbEntity
  8
0
100
AcDbBlockEnd
  0
BLOCK
  5
1969
100
AcDbEntity
  8
0
100
AcDbBlockBegin
  2
*D14
 70
     1
 10
0.0
 20
0.0
 30
0.0
  3
*D14
  1

  0
LINE
  5
196A
100
AcDbEntity
  8
0
  6
BYBLOCK
 62
     1
100
AcDbLine
 10
44.891857
 20
212.13257
 30
0.0
 11
34.117829
 21
212.13257
 31
0.0
  0
ARC
  5
196B
100
AcDbEntity
  8
0
  6
BYBLOCK
 62
     1
100
AcDbCircle
 10
46.277862
 20
212.13257
 30
0.0
 40
10.160034
100
AcDbArc
 50
96.29695
 51
168.70305
  0
INSERT
  5
196C
100
AcDbEntity
  8
0
  6
BYBLOCK
 62
     1
100
AcDbBlockReference
  2
_OPEN30
 10
47.163367
 20
222.253942
 30
0.0
 41
2.0
 42
2.0
 43
2.0
 50
0.648475
  0
INSERT
  5
196D
100
AcDbEntity
  8
0
  6
BYBLOCK
 62
     1
100
AcDbBlockReference
  2
_OPEN30
 10
36.117829
 20
212.13257
 30
0.0
 41
2.0
 42
2.0
 43
2.0
 50
264.351525
  0
MTEXT
  5
196E
100
AcDbEntity
  8
0
  6
BYBLOCK
 62
     3
100
AcDbMText
 10
37.724867
 20
221.466526
 30
0.0
 40
3.0
 41
0.0
 71
     5
 72
     1
  1
\A1;95°
 11
0.737277
 21
0.67559
 31
0.0
  0
POINT
  5
196F
100
AcDbEntity
  8
DEFPOINTS
  6
BYBLOCK
 62
     0
100
AcDbPoint
 10
41.718047
 20
221.211908
 30
0.0
  0
POINT
  5
1970
100
AcDbEntity
  8
DEFPOINTS
  6
BYBLOCK
 62
     0
100
AcDbPoint
 10
46.749115
 20
212.13257
 30
0.0
  0
POINT
  5
1971
100
AcDbEntity
  8
DEFPOINTS
  6
BYBLOCK
 62
     0
100
AcDbPoint
 10
46.315774
 20
212.56591
 30
0.0
  0
POINT
  5
1972
100
AcDbEntity
  8
DEFPOINTS
  6
BYBLOCK
 62
     0
100
AcDbPoint
 10
47.218232
 20
222.881048
 30
0.0
  0
POINT
  5
1973
100
AcDbEntity
  8
DEFPOINTS
  6
BYBLOCK
 62
     0
100
AcDbPoint
 10
45.891857
 20
212.13257
 30
0.0
  0
ENDBLK
  5
1974
100
AcDbEntity
  8
0
100
AcDbBlockEnd
  0
ENDSEC
  0
SECTION
  2
ENTITIES
  0
TEXT
  5
1453
100
AcDbEntity
  8
外形
  6
CONTINUOUS
 62
     2
100
AcDbText
 10
81.945496
 20
150.213866
 30
0.0
 40
6.0
  1
WBPC010RS
100
AcDbText
  0
LINE
  5
160F
100
AcDbEntity
  8
外形
  6
CENTER
 62
     1
100
AcDbLine
 10
56.709001
 20
216.458272
 30
0.0
 11
44.573953
 21
216.458272
 31
0.0
  0
LINE
  5
1610
100
AcDbEntity
  8
外形
  6
CENTER
 62
     1
100
AcDbLine
 10
50.641477
 20
210.390748
 30
0.0
 11
50.641477
 21
222.525797
 31
0.0
  0
LINE
  5
1612
100
AcDbEntity
  8
外形
  6
CONTINUOUS
100
AcDbLine
 10
46.749115
 20
212.13257
 30
0.0
 11
53.971672
 21
212.764462
 31
0.0
  0
LINE
  5
1613
100
AcDbEntity
  8
外形
  6
CONTINUOUS
100
AcDbLine
 10
46.315774
 20
212.56591
 30
0.0
 11
47.218232
 21
222.881048
 31
0.0
  0
ARC
  5
1615
100
AcDbEntity
  8
外形
  6
CONTINUOUS
100
AcDbCircle
 10
46.714252
 20
212.531048
 30
0.0
 40
0.4
100
AcDbArc
 50
175.0
 51
275.0
  0
LINE
  5
1616
100
AcDbEntity
  8
外形
  6
CONTINUOUS
100
AcDbLine
 10
46.976919
 20
220.12283
 30
0.0
 11
54.533839
 21
220.783975
 31
0.0
  0
LINE
  5
1618
100
AcDbEntity
  8
外形
  6
CONTINUOUS
100
AcDbLine
 10
54.315869
 20
212.906121
 30
0.0
 11
54.967179
 21
220.350635
 31
0.0
  0
ARC
  5
1619
100
AcDbEntity
  8
外形
  6
CONTINUOUS
100
AcDbCircle
 10
47.346144
 20
219.753605
 30
0.0
 40
0.4
100
AcDbArc
 50
95.0
 51
175.0
  0
ARC
  5
161A
100
AcDbEntity
  8
外形
  6
CONTINUOUS
100
AcDbCircle
 10
54.568701
 20
220.385497
 30
0.0
 40
0.4
100
AcDbArc
 50
355.0
 51
95.0
  0
ARC
  5
161B
100
AcDbEntity
  8
外形
  6
CONTINUOUS
100
AcDbCircle
 10
53.936809
 20
213.16294
 30
0.0
 40
0.4
100
AcDbArc
 50
275.0
 51
355.0
  0
LINE
  5
1620
100
AcDbEntity
  8
外形
  6
CENTER
 62
     1
100
AcDbLine
 10
177.931865
 20
218.131048
 30
0.0
 11
41.166127
 21
218.131048
 31
0.0
  0
LINE
  5
1623
100
AcDbEntity
  8
外形
  6
CENTER
 62
     1
100
AcDbLine
 10
50.69648
 20
207.90222
 30
0.0
 11
50.69648
 21
224.581173
 31
0.0
  0
ARC
  5
1627
100
AcDbEntity
  8
外形
  6
CONTINUOUS
100
AcDbCircle
 10
54.241477
 20
220.058272
 30
0.0
 40
1.5
100
AcDbArc
 50
315.0
 51
135.0
  0
LINE
  5
162E
100
AcDbEntity
  8
外形
  6
CONTINUOUS
100
AcDbLine
 10
170.314252
 20
223.131048
 30
0.0
 11
126.342759
 21
223.131048
 31
0.0
  0
LINE
  5
162F
100
AcDbEntity
  8
外形
  6
CONTINUOUS
100
AcDbLine
 10
170.314252
 20
213.131048
 30
0.0
 11
126.342759
 21
213.131048
 31
0.0
  0
LINE
  5
1630
102
{ACAD_REACTORS
330
1666
102
}
100
AcDbEntity
  8
外形
  6
CONTINUOUS
100
AcDbLine
 10
62.314252
 20
213.131048
 30
0.0
 11
62.314252
 21
216.610357
 31
0.0
  0
LINE
  5
1631
100
AcDbEntity
  8
外形
  6
CONTINUOUS
100
AcDbLine
 10
171.314252
 20
214.131048
 30
0.0
 11
171.314252
 21
222.131048
 31
0.0
  0
LINE
  5
1634
100
AcDbEntity
  8
外形
  6
CENTER
 62
     1
100
AcDbLine
 10
22.680154
 20
225.98289
 30
0.0
 11
22.680154
 21
210.279206
 31
0.0
  0
LINE
  5
1637
100
AcDbEntity
  8
外形
  6
CONTINUOUS
100
AcDbLine
 10
53.180817
 20
221.118933
 30
0.0
 11
52.684021
 21
220.622137
 31
0.0
  0
LINE
  5
1638
100
AcDbEntity
  8
外形
  6
CONTINUOUS
100
AcDbLine
 10
55.302137
 20
218.997612
 30
0.0
 11
54.805341
 21
218.500816
 31
0.0
  0
ARC
  5
163A
100
AcDbEntity
  8
外形
  6
CONTINUOUS
100
AcDbCircle
 10
22.680154
 20
218.131048
 30
0.0
 40
4.75
100
AcDbArc
 50
271.320588
 51
341.328282
  0
ARC
  5
163C
100
AcDbEntity
  8
外形
  6
CONTINUOUS
100
AcDbCircle
 10
22.680154
 20
217.131048
 30
0.0
 40
5.75
100
AcDbArc
 50
90.0
 51
175.011458
  0
LINE
  5
163E
100
AcDbEntity
  8
外形
  6
CENTER
 62
     1
100
AcDbLine
 10
28.899483
 20
218.131048
 30
0.0
 11
15.35789
 21
218.131048
 31
0.0
  0
LINE
  5
1641
100
AcDbEntity
  8
外形
  6
CONTINUOUS
100
AcDbLine
 10
22.680154
 20
212.131048
 30
0.0
 11
23.612572
 21
222.788633
 31
0.0
  0
LINE
  5
1643
100
AcDbEntity
  8
外形
  6
CONTINUOUS
100
AcDbLine
 10
22.680154
 20
212.131048
 30
0.0
 11
20.331013
 21
212.587675
 31
0.0
  0
LINE
  5
1644
100
AcDbEntity
  8
外形
  6
CENTER
 62
     1
100
AcDbLine
 10
41.9609
 20
176.352438
 30
0.0
 11
178.146652
 21
176.352438
 31
0.0
  0
LINE
  5
1645
102
{ACAD_REACTORS
330
1666
102
}
100
AcDbEntity
  8
外形
  6
CONTINUOUS
100
AcDbLine
 10
60.564252
 20
223.131048
 30
0.0
 11
62.314252
 21
223.131048
 31
0.0
  0
LINE
  5
1646
102
{ACAD_REACTORS
330
1666
102
}
100
AcDbEntity
  8
外形
  6
CONTINUOUS
100
AcDbLine
 10
60.564252
 20
213.131048
 30
0.0
 11
62.314252
 21
213.131048
 31
0.0
  0
LINE
  5
1647
102
{ACAD_REACTORS
330
1666
102
}
100
AcDbEntity
  8
外形
  6
CONTINUOUS
100
AcDbLine
 10
60.314252
 20
213.381048
 30
0.0
 11
60.314252
 21
214.698329
 31
0.0
  0
LINE
  5
1648
102
{ACAD_REACTORS
330
1666
102
}
100
AcDbEntity
  8
外形
  6
CONTINUOUS
100
AcDbLine
 10
60.314252
 20
222.881048
 30
0.0
 11
47.218232
 21
222.881048
 31
0.0
  0
LINE
  5
1649
102
{ACAD_REACTORS
330
1666
102
}
100
AcDbEntity
  8
外形
  6
CONTINUOUS
100
AcDbLine
 10
60.314252
 20
213.381048
 30
0.0
 11
56.314252
 21
213.381048
 31
0.0
  0
LINE
  5
164A
102
{ACAD_REACTORS
330
1666
102
}
100
AcDbEntity
  8
外形
  6
CONTINUOUS
100
AcDbLine
 10
60.314252
 20
222.881048
 30
0.0
 11
60.564252
 21
223.131048
 31
0.0
  0
LINE
  5
164B
102
{ACAD_REACTORS
330
1666
102
}
100
AcDbEntity
  8
外形
  6
CONTINUOUS
100
AcDbLine
 10
60.314252
 20
213.381048
 30
0.0
 11
60.564252
 21
213.131048
 31
0.0
  0
LINE
  5
164C
102
{ACAD_REACTORS
330
1666
102
}
100
AcDbEntity
  8
外形
  6
CONTINUOUS
100
AcDbLine
 10
56.314252
 20
213.381048
 30
0.0
 11
56.314252
 21
213.606455
 31
0.0
  0
LINE
  5
164D
102
{ACAD_REACTORS
330
1666
102
}
100
AcDbEntity
  8
外形
  6
CONTINUOUS
100
AcDbLine
 10
56.314252
 20
213.381048
 30
0.0
 11
55.701649
 21
213.027361
 31
0.0
  0
LINE
  5
1654
102
{ACAD_REACTORS
330
1666
102
}
100
AcDbEntity
  8
外形
  6
CONTINUOUS
100
AcDbLine
 10
54.237609
 20
212.899275
 30
0.0
 11
55.701649
 21
213.027361
 31
0.0
  0
ARC
  5
165A
100
AcDbEntity
  8
外形
  6
CONTINUOUS
100
AcDbCircle
 10
22.680154
 20
218.131048
 30
0.0
 40
5.75
100
AcDbArc
 50
184.988542
 51
246.157493
  0
LINE
  5
1668
102
{ACAD_REACTORS
330
1679
102
}
100
AcDbEntity
  8
外形
  6
CONTINUOUS
100
AcDbLine
 10
48.314252
 20
170.602438
 30
0.0
 11
55.701649
 21
171.248751
 31
0.0
  0
LINE
  5
166A
102
{ACAD_REACTORS
330
1679
102
}
100
AcDbEntity
  8
外形
  6
CONTINUOUS
100
AcDbLine
 10
48.314252
 20
170.602438
 30
0.0
 11
48.314252
 21
173.788369
 31
0.0
  0
LINE
  5
166C
102
{ACAD_REACTORS
330
1679
102
}
100
AcDbEntity
  8
外形
  6
CONTINUOUS
100
AcDbLine
 10
47.431939
 20
170.602438
 30
0.0
 11
48.314252
 21
170.602438
 31
0.0
  0
LINE
  5
166E
102
{ACAD_REACTORS
330
1679
102
}
100
AcDbEntity
  8
外形
  6
CONTINUOUS
100
AcDbLine
 10
60.314252
 20
171.602438
 30
0.0
 11
60.314252
 21
179.332882
 31
0.0
  0
LINE
  5
166F
102
{ACAD_REACTORS
330
1679
102
}
100
AcDbEntity
  8
外形
  6
CONTINUOUS
100
AcDbLine
 10
60.314252
 20
171.602438
 30
0.0
 11
60.564252
 21
171.352438
 31
0.0
  0
LINE
  5
1672
102
{ACAD_REACTORS
330
1679
102
}
100
AcDbEntity
  8
外形
  6
CONTINUOUS
100
AcDbLine
 10
60.564252
 20
171.352438
 30
0.0
 11
65.314252
 21
171.352438
 31
0.0
  0
LINE
  5
1673
102
{ACAD_REACTORS
330
1679
102
}
100
AcDbEntity
  8
外形
  6
CONTINUOUS
100
AcDbLine
 10
62.314252
 20
171.352438
 30
0.0
 11
62.314252
 21
180.852438
 31
0.0
  0
LINE
  5
1674
102
{ACAD_REACTORS
330
1679
102
}
100
AcDbEntity
  8
外形
  6
CONTINUOUS
100
AcDbLine
 10
56.314252
 20
171.602438
 30
0.0
 11
56.314252
 21
177.308728
 31
0.0
  0
LINE
  5
1675
102
{ACAD_REACTORS
330
1679
102
}
100
AcDbEntity
  8
外形
  6
CONTINUOUS
100
AcDbLine
 10
56.314252
 20
171.602438
 30
0.0
 11
55.701649
 21
171.248751
 31
0.0
  0
LINE
  5
1678
102
{ACAD_REACTORS
330
1679
102
}
100
AcDbEntity
  8
外形
  6
CONTINUOUS
100
AcDbLine
 10
60.314252
 20
171.602438
 30
0.0
 11
56.314252
 21
171.602438
 31
0.0
  0
LINE
  5
167A
100
AcDbEntity
  8
外形
  6
CONTINUOUS
100
AcDbLine
 10
20.331013
 20
212.587675
 30
0.0
 11
20.972361
 21
219.918326
 31
0.0
  0
LINE
  5
167B
100
AcDbEntity
  8
外形
  6
CONTINUOUS
100
AcDbLine
 10
27.180154
 20
219.651739
 30
0.0
 11
27.180154
 21
216.610357
 31
0.0
  0
ARC
  5
167C
100
AcDbEntity
  8
外形
  6
CONTINUOUS
100
AcDbCircle
 10
22.680154
 20
218.131048
 30
0.0
 40
4.75
100
AcDbArc
 50
18.671718
 51
90.0
  0
LINE
  5
167D
100
AcDbEntity
  8
外形
  6
CONTINUOUS
100
AcDbLine
 10
60.314252
 20
219.651739
 30
0.0
 11
111.375703
 21
219.651739
 31
0.0
  0
LINE
  5
167E
100
AcDbEntity
  8
外形
  6
CONTINUOUS
100
AcDbLine
 10
62.080632
 20
216.610357
 30
0.0
 11
111.375703
 21
216.610357
 31
0.0
  0
LINE
  5
167F
100
AcDbEntity
  8
外形
  6
CONTINUOUS
100
AcDbLine
 10
60.564252
 20
223.131048
 30
0.0
 11
60.564252
 21
219.651739
 31
0.0
  0
LINE
  5
1680
100
AcDbEntity
  8
外形
  6
CONTINUOUS
100
AcDbLine
 10
60.564252
 20
214.878134
 30
0.0
 11
60.564252
 21
213.131048
 31
0.0
  0
ELLIPSE
  5
1684
100
AcDbEntity
  8
外形
  6
CONTINUOUS
100
AcDbEllipse
 10
62.314252
 20
218.131048
 30
0.0
 11
0.0
 21
1.520690632574542
 31
0.0
210
0.0
220
0.0
230
1.0
 40
0.164399
 41
0.0
 42
3.141592653589793
  0
LINE
  5
1685
100
AcDbEntity
  8
外形
  6
CONTINUOUS
100
AcDbLine
 10
62.314252
 20
219.651739
 30
0.0
 11
62.314252
 21
223.131048
 31
0.0
  0
LINE
  5
16AF
100
AcDbEntity
  8
外形
  6
CONTINUOUS
100
AcDbLine
 10
23.379345
 20
220.12283
 30
0.0
 11
20.972361
 21
219.918326
 31
0.0
  0
SPLINE
  5
173D
100
AcDbEntity
  8
外形
  6
CONTINUOUS
100
AcDbSpline
210
0.0
220
0.0
230
-1.0
 70
     8
 71
     3
 72
    13
 73
     9
 74
     0
 42
0.0000001
 43
0.0000001
 40
0.0
 40
0.0
 40
0.0
 40
0.0
 40
2.906798519058413
 40
4.71072967486981
 40
6.061905010369327
 40
7.683171902468972
 40
9.553743966205512
 40
11.422252559368
 40
11.422252559368
 40
11.422252559368
 40
11.422252559368
 10
49.46783965851645
 20
222.7464047785952
 30
0.0
 10
50.43500485217967
 20
222.6999350291108
 30
0.0
 10
52.00238344702168
 20
222.6246266008022
 30
0.0
 10
54.01650026379448
 20
222.3606399207564
 30
0.0
 10
55.52530584746434
 20
221.8440718718749
 30
0.0
 10
57.06277411296102
 20
221.3357113049082
 30
0.0
 10
58.61862158335497
 20
220.4547336916164
 30
0.0
 10
59.79015794385607
 20
219.9818480193081
 30
0.0
 10
60.31425227342849
 20
219.6582007574384
 30
0.0
  0
LINE
  5
173E
100
AcDbEntity
  8
外形
  6
CONTINUOUS
100
AcDbLine
 10
54.797195
 20
213.515691
 30
0.0
 11
54.369199
 21
213.515691
 31
0.0
  0
LINE
  5
173F
100
AcDbEntity
  8
外形
  6
CONTINUOUS
100
AcDbLine
 10
60.314252
 20
219.658201
 30
0.0
 11
60.314252
 21
222.881048
 31
0.0
  0
LINE
  5
1740
100
AcDbEntity
  8
外形
  6
CONTINUOUS
100
AcDbLine
 10
56.314252
 20
221.573996
 30
0.0
 11
56.314252
 21
222.881048
 31
0.0
  0
LINE
  5
1754
100
AcDbEntity
  8
外形
  6
CONTINUOUS
100
AcDbLine
 10
60.314252
 20
219.651739
 30
0.0
 11
62.080632
 21
216.610357
 31
0.0
  0
SPLINE
  5
1755
100
AcDbEntity
  8
外形
  6
CONTINUOUS
100
AcDbSpline
210
0.0
220
0.0
230
1.0
 70
     8
 71
     3
 72
    13
 73
     9
 74
     0
 42
0.0000001
 43
0.0000001
 40
15.10114280934383
 40
15.10114280934385
 40
15.10114280934385
 40
15.10114280934385
 40
16.2035250787233
 40
17.30182229129907
 40
18.34200038529396
 40
19.26305054346147
 40
20.74484231894692
 40
23.43407814000322
 40
23.43407814000322
 40
23.43407814000322
 40
23.43407814000322
 10
62.08063200022727
 20
216.6103573660483
 30
0.0
 10
61.9488487569904
 20
216.2935534316473
 30
0.0
 10
61.30216562887676
 20
215.8071337966851
 30
0.0
 10
60.7227627852006
 20
214.8913942276125
 30
0.0
 10
59.79502796870908
 20
214.406270736947
 30
0.0
 10
58.78511116279368
 20
213.8570756787328
 30
0.0
 10
57.07033511338929
 20
213.6402769130148
 30
0.0
 10
55.68826985383011
 20
213.5645290389617
 30
0.0
 10
54.79719461708853
 20
213.5156912186506
 30
0.0
  0
LINE
  5
1757
100
AcDbEntity
  8
外形
  6
CONTINUOUS
100
AcDbLine
 10
47.431939
 20
170.602438
 30
0.0
 11
46.314252
 21
176.352438
 31
0.0
  0
LINE
  5
1758
100
AcDbEntity
  8
外形
  6
CONTINUOUS
100
AcDbLine
 10
46.314252
 20
176.352438
 30
0.0
 11
54.21457
 21
175.66125
 31
0.0
  0
ARC
  5
1765
100
AcDbEntity
  8
外形
  6
CONTINUOUS
100
AcDbCircle
 10
50.641477
 20
217.78895
 30
0.0
 40
0.378
100
AcDbArc
 50
240.283476
 51
299.716524
  0
ARC
  5
1766
100
AcDbEntity
  8
外形
  6
CONTINUOUS
100
AcDbCircle
 10
49.489076
 20
217.123611
 30
0.0
 40
0.378
100
AcDbArc
 50
300.283476
 51
359.716524
  0
ARC
  5
1767
100
AcDbEntity
  8
外形
  6
CONTINUOUS
100
AcDbCircle
 10
49.489076
 20
215.792934
 30
0.0
 40
0.378
100
AcDbArc
 50
0.283476
 51
59.716524
  0
ARC
  5
1768
100
AcDbEntity
  8
外形
  6
CONTINUOUS
100
AcDbCircle
 10
50.641477
 20
215.127595
 30
0.0
 40
0.378
100
AcDbArc
 50
60.283476
 51
119.716524
  0
ARC
  5
1769
100
AcDbEntity
  8
外形
  6
CONTINUOUS
100
AcDbCircle
 10
51.793877
 20
215.792934
 30
0.0
 40
0.378
100
AcDbArc
 50
120.283476
 51
179.716524
  0
ARC
  5
176A
100
AcDbEntity
  8
外形
  6
CONTINUOUS
100
AcDbCircle
 10
51.793877
 20
217.123611
 30
0.0
 40
0.378
100
AcDbArc
 50
180.283476
 51
239.716524
  0
LINE
  5
176B
100
AcDbEntity
  8
外形
  6
CONTINUOUS
100
AcDbLine
 10
51.412556
 20
215.122723
 30
0.0
 11
50.828855
 21
215.455884
 31
0.0
  0
LINE
  5
176C
100
AcDbEntity
  8
外形
  6
CONTINUOUS
100
AcDbLine
 10
51.415882
 20
215.794804
 30
0.0
 11
51.412556
 21
215.122723
 31
0.0
  0
LINE
  5
176D
100
AcDbEntity
  8
外形
  6
CONTINUOUS
100
AcDbLine
 10
49.870397
 20
215.122723
 30
0.0
 11
49.867072
 21
215.794804
 31
0.0
  0
LINE
  5
176E
100
AcDbEntity
  8
外形
  6
CONTINUOUS
100
AcDbLine
 10
50.454099
 20
215.455884
 30
0.0
 11
49.870397
 21
215.122723
 31
0.0
  0
LINE
  5
176F
100
AcDbEntity
  8
外形
  6
CONTINUOUS
100
AcDbLine
 10
49.099317
 20
216.458272
 30
0.0
 11
49.679694
 21
216.797193
 31
0.0
  0
LINE
  5
1770
100
AcDbEntity
  8
外形
  6
CONTINUOUS
100
AcDbLine
 10
49.679694
 20
216.119352
 30
0.0
 11
49.099317
 21
216.458272
 31
0.0
  0
LINE
  5
1771
100
AcDbEntity
  8
外形
  6
CONTINUOUS
100
AcDbLine
 10
49.870397
 20
217.793822
 30
0.0
 11
50.454099
 21
217.460661
 31
0.0
  0
LINE
  5
1772
100
AcDbEntity
  8
外形
  6
CONTINUOUS
100
AcDbLine
 10
49.867072
 20
217.121741
 30
0.0
 11
49.870397
 21
217.793822
 31
0.0
  0
LINE
  5
1773
100
AcDbEntity
  8
外形
  6
CONTINUOUS
100
AcDbLine
 10
51.412556
 20
217.793822
 30
0.0
 11
51.415882
 21
217.121741
 31
0.0
  0
LINE
  5
1774
100
AcDbEntity
  8
外形
  6
CONTINUOUS
100
AcDbLine
 10
50.828855
 20
217.460661
 30
0.0
 11
51.412556
 21
217.793822
 31
0.0
  0
LINE
  5
1775
100
AcDbEntity
  8
外形
  6
CONTINUOUS
100
AcDbLine
 10
52.183636
 20
216.458272
 30
0.0
 11
51.60326
 21
216.119352
 31
0.0
  0
LINE
  5
1776
100
AcDbEntity
  8
外形
  6
CONTINUOUS
100
AcDbLine
 10
51.60326
 20
216.797193
 30
0.0
 11
52.183636
 21
216.458272
 31
0.0
  0
CIRCLE
  5
1777
100
AcDbEntity
  8
外形
  6
CONTINUOUS
100
AcDbCircle
 10
50.641477
 20
216.458272
 30
0.0
 40
2.5515
  0
LINE
  5
1778
100
AcDbEntity
  8
外形
  6
CONTINUOUS
100
AcDbLine
 10
53.757943
 20
173.312108
 30
0.0
 11
46.786679
 21
173.922015
 31
0.0
  0
LINE
  5
1779
100
AcDbEntity
  8
外形
  6
CONTINUOUS
100
AcDbLine
 10
49.46784
 20
222.746405
 30
0.0
 11
47.206452
 21
222.746405
 31
0.0
  0
LINE
  5
177A
100
AcDbEntity
  8
外形
  6
CONTINUOUS
100
AcDbLine
 10
53.757943
 20
173.312108
 30
0.0
 11
54.359287
 21
176.405755
 31
0.0
  0
LINE
  5
178B
100
AcDbEntity
  8
外形
  6
CONTINUOUS
100
AcDbLine
 10
46.314252
 20
176.352438
 30
0.0
 11
47.755721
 21
177.873354
 31
0.0
  0
LINE
  5
178C
100
AcDbEntity
  8
外形
  6
CONTINUOUS
100
AcDbLine
 10
46.976919
 20
177.051628
 30
0.0
 11
54.359287
 21
176.405755
 31
0.0
  0
LINE
  5
178D
100
AcDbEntity
  8
外形
  6
CONTINUOUS
100
AcDbLine
 10
60.314252
 20
180.852438
 30
0.0
 11
170.814252
 21
180.852438
 31
0.0
  0
LINE
  5
178E
100
AcDbEntity
  8
外形
  6
CONTINUOUS
100
AcDbLine
 10
65.314252
 20
171.852438
 30
0.0
 11
170.814252
 21
171.852438
 31
0.0
  0
LINE
  5
1790
100
AcDbEntity
  8
外形
  6
CONTINUOUS
100
AcDbLine
 10
65.314252
 20
171.352438
 30
0.0
 11
65.314252
 21
171.852438
 31
0.0
  0
LINE
  5
17CC
100
AcDbEntity
  8
外形
  6
CONTINUOUS
100
AcDbLine
 10
47.755721
 20
177.873354
 30
0.0
 11
49.46784
 21
177.873354
 31
0.0
  0
SPLINE
  5
17CF
100
AcDbEntity
  8
外形
  6
CONTINUOUS
100
AcDbSpline
210
0.0
220
0.0
230
1.0
 70
     8
 71
     3
 72
    15
 73
    11
 74
     9
 42
0.0000001
 43
0.0000001
 44
0.0000000001
 40
0.0
 40
0.0
 40
0.0
 40
0.0
 40
2.840972052129103
 40
4.619782270509343
 40
5.219786623414226
 40
6.154155290446989
 40
6.680433666352391
 40
7.103471768380264
 40
7.910875851224783
 40
9.011722227909936
 40
9.011722227909936
 40
9.011722227909936
 40
9.011722227909936
 10
54.35928677306893
 20
176.4057546153036
 30
0.0
 10
55.20863399231938
 20
176.8279193202586
 30
0.0
 10
56.58978071006308
 20
177.5144128807018
 30
0.0
 10
58.31707753970118
 20
177.9008930651739
 30
0.0
 10
59.24818667779076
 20
178.5076222018936
 30
0.0
 10
59.76837323158497
 20
178.9571764933543
 30
0.0
 10
60.28847004925296
 20
179.3096139305449
 30
0.0
 10
60.75711524224207
 20
179.6620907957776
 30
0.0
 10
61.30156816542897
 20
180.2197314825743
 30
0.0
 10
61.79561969435172
 20
180.6209688378237
 30
0.0
 10
62.08063198547645
 20
180.8524377660827
 30
0.0
 11
54.35928677306893
 21
176.4057546153036
 31
0.0
 11
56.96314707647488
 21
177.5419912637731
 31
0.0
 11
58.6408102177647
 21
178.1332713812906
 31
0.0
 11
59.1475109008989
 21
178.4546117634653
 31
0.0
 11
59.88553738241257
 21
179.0276403129435
 31
0.0
 11
60.31425227342849
 21
179.3328819732175
 31
0.0
 11
60.64974357794091
 21
179.5905771814848
 31
0.0
 11
61.24170114834725
 21
180.1396560354144
 31
0.0
 11
62.08063198547645
 21
180.8524377660827
 31
0.0
  0
SPLINE
  5
17D0
100
AcDbEntity
  8
外形
  6
CONTINUOUS
100
AcDbSpline
210
0.0
220
0.0
230
-1.0
 70
     8
 71
     3
 72
    13
 73
     9
 74
     7
 42
0.0000001
 43
0.0000001
 44
0.0000000001
 40
0.0
 40
0.0
 40
0.0
 40
0.0
 40
1.683876983806745
 40
3.441949545858814
 40
5.06014765561923
 40
6.468454323662317
 40
8.339894848138552
 40
11.29821792220933
 40
11.29821792220933
 40
11.29821792220933
 40
11.29821792220933
 10
60.31425227342849
 20
180.8524377660827
 30
0.0
 10
59.75079455110347
 20
180.8170435342301
 30
0.0
 10
58.59905183467129
 20
180.7446955174671
 30
0.0
 10
57.00982859714979
 20
180.1408545214871
 30
0.0
 10
55.49277150976507
 20
179.6508721054991
 30
0.0
 10
54.02316258450477
 20
178.9296324531687
 30
0.0
 10
52.02689694595447
 20
178.3185615604498
 30
0.0
 10
50.43990359919063
 20
178.0424671199061
 30
0.0
 10
49.46783965851645
 20
177.8733539661425
 30
0.0
 11
60.31425227342849
 21
180.8524377660827
 31
0.0
 11
58.6408102177647
 21
180.6652656983753
 31
0.0
 11
56.96314707647488
 21
180.1396560354144
 31
0.0
 11
55.44095210387789
 21
179.5905771814848
 31
0.0
 11
54.15004941455868
 21
179.0276403129435
 31
0.0
 11
52.36849730526332
 21
178.4546117634653
 31
0.0
 11
49.46783965851645
 21
177.8733539661425
 31
0.0
  0
LINE
  5
17D1
100
AcDbEntity
  8
外形
  6
CONTINUOUS
100
AcDbLine
 10
55.701649
 20
171.248751
 30
0.0
 11
55.701649
 21
177.05028
 31
0.0
  0
LINE
  5
17DF
100
AcDbEntity
  8
外形
  6
CONTINUOUS
100
AcDbLine
 10
170.314252
 20
213.131048
 30
0.0
 11
170.314252
 21
216.610357
 31
0.0
  0
LINE
  5
17E0
100
AcDbEntity
  8
外形
  6
CONTINUOUS
100
AcDbLine
 10
171.314252
 20
222.131048
 30
0.0
 11
170.314252
 21
223.131048
 31
0.0
  0
LINE
  5
17E1
100
AcDbEntity
  8
外形
  6
CONTINUOUS
100
AcDbLine
 10
170.314252
 20
213.131048
 30
0.0
 11
171.314252
 21
214.131048
 31
0.0
  0
ELLIPSE
  5
17E3
100
AcDbEntity
  8
外形
  6
CONTINUOUS
100
AcDbEllipse
 10
170.314252
 20
218.131048
 30
0.0
 11
0.0
 21
1.520690632574542
 31
0.0
210
0.0
220
0.0
230
1.0
 40
0.328798
 41
3.141592653589793
 42
6.283185307179586
  0
LINE
  5
17E4
100
AcDbEntity
  8
外形
  6
CONTINUOUS
100
AcDbLine
 10
170.314252
 20
219.651739
 30
0.0
 11
170.314252
 21
223.131048
 31
0.0
  0
LINE
  5
17E6
100
AcDbEntity
  8
外形
  6
CONTINUOUS
100
AcDbLine
 10
171.314252
 20
180.352438
 30
0.0
 11
170.814252
 21
180.852438
 31
0.0
  0
LINE
  5
17E7
100
AcDbEntity
  8
外形
  6
CONTINUOUS
100
AcDbLine
 10
170.814252
 20
171.852438
 30
0.0
 11
171.314252
 21
172.352438
 31
0.0
  0
LINE
  5
17E8
100
AcDbEntity
  8
外形
  6
CONTINUOUS
100
AcDbLine
 10
170.314252
 20
171.852438
 30
0.0
 11
170.314252
 21
180.852438
 31
0.0
  0
LINE
  5
17EA
100
AcDbEntity
  8
外形
  6
CONTINUOUS
100
AcDbLine
 10
171.314252
 20
172.352438
 30
0.0
 11
171.314252
 21
180.352438
 31
0.0
  0
LINE
  5
17ED
100
AcDbEntity
  8
外形
  6
CENTER
 62
     1
100
AcDbLine
 10
118.859231
 20
225.614576
 30
0.0
 11
118.859231
 21
210.64752
 31
0.0
  0
ARC
  5
17EE
100
AcDbEntity
  8
外形
  6
CONTINUOUS
100
AcDbCircle
 10
118.859231
 20
218.131048
 30
0.0
 40
5.0
100
AcDbArc
 50
205.841933
 51
334.158067
  0
LINE
  5
17EF
100
AcDbEntity
  8
外形
  6
CONTINUOUS
100
AcDbLine
 10
114.359231
 20
220.310497
 30
0.0
 11
114.359231
 21
215.951599
 31
0.0
  0
LINE
  5
17F0
100
AcDbEntity
  8
外形
  6
CONTINUOUS
100
AcDbLine
 10
123.359231
 20
215.951599
 30
0.0
 11
123.359231
 21
220.310497
 31
0.0
  0
ARC
  5
17F1
100
AcDbEntity
  8
外形
  6
CONTINUOUS
100
AcDbCircle
 10
118.859231
 20
218.131048
 30
0.0
 40
5.0
100
AcDbArc
 50
25.841933
 51
154.158067
  0
LINE
  5
17F5
100
AcDbEntity
  8
外形
  6
CONTINUOUS
100
AcDbLine
 10
111.375703
 20
223.131048
 30
0.0
 11
62.314252
 21
223.131048
 31
0.0
  0
LINE
  5
17F6
100
AcDbEntity
  8
外形
  6
CONTINUOUS
100
AcDbLine
 10
126.342759
 20
219.651739
 30
0.0
 11
170.314252
 21
219.651739
 31
0.0
  0
LINE
  5
17F7
100
AcDbEntity
  8
外形
  6
CONTINUOUS
100
AcDbLine
 10
126.342759
 20
216.610357
 30
0.0
 11
170.314252
 21
216.610357
 31
0.0
  0
LINE
  5
17F8
100
AcDbEntity
  8
外形
  6
CONTINUOUS
100
AcDbLine
 10
111.375703
 20
213.131048
 30
0.0
 11
62.314252
 21
213.131048
 31
0.0
  0
DIMENSION
  5
1805
100
AcDbEntity
  8
寸法
  6
CONTINUOUS
100
AcDbDimension
  2
*D2
 10
123.359231
 20
201.556659
 30
0.0
 11
118.859231
 21
204.056659
 31
0.0
 12
-44.953022
 22
-100.519686
 32
0.0
 70
    32
  3
STANDARD
100
AcDbAlignedDimension
 13
114.359231
 23
215.951599
 33
0.0
 14
123.359231
 24
215.951599
 34
0.0
100
AcDbRotatedDimension
1001
ACAD
1000
DSTYLE
1002
{
1070
    40
1040
1.0
1002
}
  0
DIMENSION
  5
1811
100
AcDbEntity
  8
寸法
  6
CONTINUOUS
100
AcDbDimension
  2
*D3
 10
115.599424
 20
214.339788
 30
0.0
 11
126.091062
 21
230.376481
 31
0.0
 12
-44.953022
 22
-100.519686
 32
0.0
 70
    35
  3
STANDARD
100
AcDbDiametricDimension
 15
122.119039
 25
221.922308
 35
0.0
 40
0.0
1001
ACAD
1000
DSTYLE
1002
{
1070
    40
1040
1.0
1002
}
  0
DIMENSION
  5
181E
100
AcDbEntity
  8
寸法
  6
CONTINUOUS
100
AcDbDimension
  2
*D4
 10
171.314252
 20
191.638774
 30
0.0
 11
108.814252
 21
194.138774
 31
0.0
 12
-44.953022
 22
-100.519686
 32
0.0
 70
    32
  3
STANDARD
100
AcDbAlignedDimension
 13
46.314252
 23
212.131048
 33
0.0
 14
171.314252
 24
214.131048
 34
0.0
100
AcDbRotatedDimension
1001
ACAD
1000
DSTYLE
1002
{
1070
    40
1040
1.0
1002
}
  0
DIMENSION
  5
182D
100
AcDbEntity
  8
寸法
  6
CONTINUOUS
100
AcDbDimension
  2
*D5
 10
39.962438
 20
212.131048
 30
0.0
 11
39.962438
 21
206.938312
 31
0.0
 12
-44.953022
 22
-100.519686
 32
0.0
 70
   160
  3
STANDARD
100
AcDbAlignedDimension
 13
41.166127
 23
218.131048
 33
0.0
 14
46.314252
 24
212.131048
 34
0.0
 50
90.0
100
AcDbRotatedDimension
1001
ACAD
1000
DSTYLE
1002
{
1070
    40
1040
1.0
1002
}
  0
DIMENSION
  5
1853
100
AcDbEntity
  8
寸法
  6
CONTINUOUS
100
AcDbDimension
  2
*D7
 10
23.612572
 20
222.788633
 30
0.0
 11
14.743007
 21
204.566145
 31
0.0
 12
-44.953022
 22
-100.519686
 32
0.0
 70
    34
  3
STANDARD
100
AcDb2LineAngularDimension
 13
22.680154
 23
225.98289
 33
0.0
 14
22.680154
 24
210.279206
 34
0.0
 15
22.680154
 25
212.131048
 35
0.0
 16
22.314081
 26
199.549943
 36
0.0
1001
ACAD
1000
DSTYLE
1002
{
1070
    40
1040
1.0
1002
}
  0
LINE
  5
1854
100
AcDbEntity
  8
寸法
  6
CONTINUOUS
100
AcDbLine
 10
45.314252
 20
212.131048
 30
0.0
 11
30.357378
 21
212.131048
 31
0.0
  0
MTEXT
  5
18B0
100
AcDbEntity
  8
寸法
  6
CONTINUOUS
 62
     3
100
AcDbMText
 10
33.072797
 20
241.336593
 30
0.0
 40
3.0
 41
0.0
 71
     4
 72
     1
  1
%%c12最小加工径
  0
LEADER
  5
18B1
100
AcDbEntity
  8
寸法
  6
CONTINUOUS
 62
     1
100
AcDbLeader
  3
STANDARD
 76
     3
 10
31.873962
 20
212.131048
 30
0.0
 10
31.873962
 20
239.142874
 30
0.0
 10
60.538397
 20
239.142874
 30
0.0
 77
   256
1001
ACAD
1000
DSTYLE
1002
{
1070
    40
1040
1.0
1002
}
  0
DIMENSION
  5
1932
100
AcDbEntity
  8
寸法
  6
CONTINUOUS
100
AcDbDimension
  2
*D12
 10
54.21457
 20
175.66125
 30
0.0
 11
36.270443
 21
186.110376
 31
0.0
 70
    34
  3
STANDARD
100
AcDb2LineAngularDimension
 13
41.9609
 23
176.352438
 33
0.0
 14
178.146652
 24
176.352438
 34
0.0
 15
46.314252
 25
176.352438
 35
0.0
 16
35.491963
 26
176.667334
 36
0.0
1001
ACAD
1000
DSTYLE
1002
{
1070
    40
1040
1.0
1002
}
  0
DIMENSION
  5
1950
100
AcDbEntity
  8
寸法
  6
CONTINUOUS
100
AcDbDimension
  2
*D13
 10
65.314252
 20
159.514163
 30
0.0
 11
55.814252
 21
162.014163
 31
0.0
 70
    32
  3
STANDARD
100
AcDbAlignedDimension
 13
46.314252
 23
176.352438
 33
0.0
 14
65.314252
 24
171.352438
 34
0.0
100
AcDbRotatedDimension
1001
ACAD
1000
DSTYLE
1002
{
1070
    40
1040
1.0
1002
}
  0
LINE
  5
1967
100
AcDbEntity
  8
寸法
  6
CONTINUOUS
100
AcDbLine
 10
46.749115
 20
212.13257
 30
0.0
 11
45.891857
 21
212.13257
 31
0.0
  0
DIMENSION
  5
1975
100
AcDbEntity
  8
寸法
  6
CONTINUOUS
100
AcDbDimension
  2
*D14
 10
45.891857
 20
212.13257
 30
0.0
 11
37.724867
 21
221.466526
 31
0.0
 70
    34
  3
STANDARD
100
AcDb2LineAngularDimension
 13
46.315774
 23
212.56591
 33
0.0
 14
47.218232
 24
222.881048
 34
0.0
 15
46.749115
 25
212.13257
 35
0.0
 16
41.718047
 26
221.211908
 36
0.0
1001
ACAD
1000
DSTYLE
1002
{
1070
   284
1070
    13
1070
   146
1040
0.5
1070
   272
1070
     3
1070
    40
1040
1.0
1070
   287
1070
     0
1002
}
  0
ENDSEC
  0
SECTION
  2
OBJECTS
  0
DICTIONARY
  5
1E
100
AcDbDictionary
  3
ACAD_GROUP
350
1C
  3
ACAD_MLINESTYLE
350
1D
  3
ACDBVARIABLEDICTIONARY
350
147A
  3
DRAWINGVARIABLESDICT
350
C58
  0
DICTIONARY
  5
38
100
AcDbDictionary
280
     1
  3
ACAD_XREC_ROUNDTRIP
360
39
  0
DICTIONARY
  5
22
100
AcDbDictionary
280
     1
  3
ACAD_XREC_ROUNDTRIP
360
23
  0
DICTIONARY
  5
3
100
AcDbDictionary
280
     1
  3
ACAD_LAYOUTSELFREF
360
4
  0
DICTIONARY
  5
A
100
AcDbDictionary
280
     1
  3
ACAD_LAYOUTSELFREF
360
B
  0
DICTIONARY
  5
1C
102
{ACAD_REACTORS
330
1E
102
}
100
AcDbDictionary
  3
*A1
350
1666
  3
*A2
350
1679
  3
*A3
350
16C2
  0
DICTIONARY
  5
1D
102
{ACAD_REACTORS
330
1E
102
}
100
AcDbDictionary
  3
STANDARD
350
20
  0
DICTIONARY
  5
147A
102
{ACAD_REACTORS
330
1E
102
}
100
AcDbDictionary
  3
SORTENTS
350
147B
  0
DICTIONARY
  5
C58
102
{ACAD_REACTORS
330
1E
102
}
100
AcDbDictionary
1001
DRAWINGVARIABLESXDATA
1000
POLARMODE
1000
0
  0
XRECORD
  5
39
102
{ACAD_REACTORS
330
38
102
}
100
AcDbXrecord
102
PLOTBIT
280
     0
  0
XRECORD
  5
23
102
{ACAD_REACTORS
330
22
102
}
100
AcDbXrecord
102
ACADR14ROUNDTRIP
1000
DSTYLE
1002
{
1070
   341
340
0
1070
   343
340
0
1070
   344
340
0
1002
}
  0
XRECORD
  5
4
102
{ACAD_REACTORS
330
3
102
}
100
AcDbXrecord
340
2
  0
XRECORD
  5
B
102
{ACAD_REACTORS
330
A
102
}
100
AcDbXrecord
340
9
  0
GROUP
  5
1666
102
{ACAD_REACTORS
330
1C
102
}
100
AcDbGroup
300

 70
     1
 71
     1
340
1654
340
1647
340
164B
340
164A
340
1645
340
1646
340
1630
340
164C
340
164D
340
1648
340
1649
  0
GROUP
  5
1679
102
{ACAD_REACTORS
330
1C
102
}
100
AcDbGroup
300

 70
     1
 71
     1
340
1668
340
166A
340
166C
340
166E
340
166F
340
1672
340
1673
340
1674
340
1675
340
1678
  0
GROUP
  5
16C2
102
{ACAD_REACTORS
330
1C
102
}
100
AcDbGroup
300

 70
     1
 71
     1
  0
MLINESTYLE
  5
20
102
{ACAD_REACTORS
330
1D
102
}
100
AcDbMlineStyle
  2
STANDARD
 70
     0
  3

 62
     0
 51
90.0
 52
90.0
 71
     2
 49
0.5
 62
   256
  6
BYLAYER
 49
-0.5
 62
   256
  6
BYLAYER
  0
DICTIONARYVAR
  5
147B
102
{ACAD_REACTORS
330
147A
102
}
100
DictionaryVariables
280
     0
  1
96
  0
ENDSEC
  0
EOF
