  0
SECTION
  2
HEADER
  9
$ACADVER
  1
AC1014
  9
$ACADMAINTVER
 70
     0
  9
$DWGCODEPAGE
  3
ANSI_932
  9
$INSBASE
 10
-587.250952
 20
747.890188
 30
0.0
  9
$EXTMIN
 10
-33.709976
 20
150.213866
 30
0.0
  9
$EXTMAX
 10
223.86416
 20
261.293276
 30
0.0
  9
$LIMMIN
 10
-587.250952
 20
327.890188
  9
$LIMMAX
 10
600.749048
 20
957.890188
  9
$ORTHOMODE
 70
     1
  9
$REGENMODE
 70
     1
  9
$FILLMODE
 70
     1
  9
$QTEXTMODE
 70
     0
  9
$MIRRTEXT
 70
     1
  9
$DRAGMODE
 70
     2
  9
$LTSCALE
 40
5.0
  9
$OSMODE
 70
    37
  9
$ATTMODE
 70
     1
  9
$TEXTSIZE
 40
5.0
  9
$TRACEWID
 40
0.05
  9
$TEXTSTYLE
  7
STANDARD
  9
$CLAYER
  8
外形
  9
$CELTYPE
  6
CONTINUOUS
  9
$CECOLOR
 62
   256
  9
$CELTSCALE
 40
1.0
  9
$DELOBJ
 70
     1
  9
$DISPSILH
 70
     0
  9
$DIMSCALE
 40
1.0
  9
$DIMASZ
 40
2.0
  9
$DIMEXO
 40
1.0
  9
$DIMDLI
 40
8.0
  9
$DIMRND
 40
0.0
  9
$DIMDLE
 40
0.0
  9
$DIMEXE
 40
2.0
  9
$DIMTP
 40
0.0
  9
$DIMTM
 40
0.0
  9
$DIMTXT
 40
3.0
  9
$DIMCEN
 40
-1.0
  9
$DIMTSZ
 40
0.0
  9
$DIMTOL
 70
     0
  9
$DIMLIM
 70
     0
  9
$DIMTIH
 70
     0
  9
$DIMTOH
 70
     0
  9
$DIMSE1
 70
     0
  9
$DIMSE2
 70
     0
  9
$DIMTAD
 70
     1
  9
$DIMZIN
 70
     8
  9
$DIMBLK
  1

  9
$DIMASO
 70
     1
  9
$DIMSHO
 70
     1
  9
$DIMPOST
  1

  9
$DIMAPOST
  1

  9
$DIMALT
 70
     0
  9
$DIMALTD
 70
     2
  9
$DIMALTF
 40
25.4
  9
$DIMLFAC
 40
1.0
  9
$DIMTOFL
 70
     1
  9
$DIMTVP
 40
0.0
  9
$DIMTIX
 70
     0
  9
$DIMSOXD
 70
     0
  9
$DIMSAH
 70
     1
  9
$DIMBLK1
  1
_OPEN30
  9
$DIMBLK2
  1
_OPEN30
  9
$DIMSTYLE
  2
STANDARD
  9
$DIMCLRD
 70
     1
  9
$DIMCLRE
 70
     1
  9
$DIMCLRT
 70
     3
  9
$DIMTFAC
 40
0.5
  9
$DIMGAP
 40
1.0
  9
$DIMJUST
 70
     0
  9
$DIMSD1
 70
     0
  9
$DIMSD2
 70
     0
  9
$DIMTOLJ
 70
     1
  9
$DIMTZIN
 70
    13
  9
$DIMALTZ
 70
     0
  9
$DIMALTTZ
 70
     0
  9
$DIMFIT
 70
     0
  9
$DIMUPT
 70
     0
  9
$DIMUNIT
 70
     2
  9
$DIMDEC
 70
     2
  9
$DIMTDEC
 70
     3
  9
$DIMALTU
 70
     2
  9
$DIMALTTD
 70
     2
  9
$DIMTXSTY
  7
STANDARD
  9
$DIMAUNIT
 70
     0
  9
$LUNITS
 70
     2
  9
$LUPREC
 70
     0
  9
$SKETCHINC
 40
0.1
  9
$FILLETRAD
 40
0.0
  9
$AUNITS
 70
     0
  9
$AUPREC
 70
     0
  9
$MENU
  1
acad
  9
$ELEVATION
 40
0.0
  9
$PELEVATION
 40
0.0
  9
$THICKNESS
 40
0.0
  9
$LIMCHECK
 70
     0
  9
$BLIPMODE
 70
     0
  9
$CHAMFERA
 40
0.0
  9
$CHAMFERB
 40
0.0
  9
$CHAMFERC
 40
0.0
  9
$CHAMFERD
 40
0.0
  9
$SKPOLY
 70
     0
  9
$TDCREATE
 40
2450751.535399305
  9
$TDUPDATE
 40
2452004.720405092
  9
$TDINDWG
 40
1.8013815972
  9
$TDUSRTIMER
 40
1.8013815972
  9
$USRTIMER
 70
     1
  9
$ANGBASE
 50
0.0
  9
$ANGDIR
 70
     0
  9
$PDMODE
 70
    32
  9
$PDSIZE
 40
0.0
  9
$PLINEWID
 40
0.0
  9
$COORDS
 70
     2
  9
$SPLFRAME
 70
     0
  9
$SPLINETYPE
 70
     5
  9
$SPLINESEGS
 70
     8
  9
$ATTDIA
 70
     0
  9
$ATTREQ
 70
     1
  9
$HANDLING
 70
     1
  9
$HANDSEED
  5
254E
  9
$SURFTAB1
 70
     6
  9
$SURFTAB2
 70
     6
  9
$SURFTYPE
 70
     6
  9
$SURFU
 70
     6
  9
$SURFV
 70
     6
  9
$UCSNAME
  2

  9
$UCSORG
 10
40.53800450572526
 20
146.9196145921314
 30
0.0
  9
$UCSXDIR
 10
1.0
 20
0.0
 30
0.0
  9
$UCSYDIR
 10
0.0
 20
1.0
 30
0.0
  9
$PUCSNAME
  2

  9
$PUCSORG
 10
0.0
 20
0.0
 30
0.0
  9
$PUCSXDIR
 10
1.0
 20
0.0
 30
0.0
  9
$PUCSYDIR
 10
0.0
 20
1.0
 30
0.0
  9
$USERI1
 70
     0
  9
$USERI2
 70
     0
  9
$USERI3
 70
     0
  9
$USERI4
 70
     0
  9
$USERI5
 70
     0
  9
$USERR1
 40
0.0
  9
$USERR2
 40
0.0
  9
$USERR3
 40
0.0
  9
$USERR4
 40
0.0
  9
$USERR5
 40
0.0
  9
$WORLDVIEW
 70
     1
  9
$SHADEDGE
 70
     3
  9
$SHADEDIF
 70
    70
  9
$TILEMODE
 70
     1
  9
$MAXACTVP
 70
    16
  9
$PINSBASE
 10
0.0
 20
0.0
 30
0.0
  9
$PLIMCHECK
 70
     0
  9
$PEXTMIN
 10
1.000000E+20
 20
1.000000E+20
 30
1.000000E+20
  9
$PEXTMAX
 10
-1.000000E+20
 20
-1.000000E+20
 30
-1.000000E+20
  9
$PLIMMIN
 10
0.0
 20
0.0
  9
$PLIMMAX
 10
12.0
 20
9.0
  9
$UNITMODE
 70
     0
  9
$VISRETAIN
 70
     0
  9
$PLINEGEN
 70
     0
  9
$PSLTSCALE
 70
     1
  9
$TREEDEPTH
 70
  3020
  9
$PICKSTYLE
 70
     0
  9
$CMLSTYLE
  2
STANDARD
  9
$CMLJUST
 70
     0
  9
$CMLSCALE
 40
1.0
  9
$PROXYGRAPHICS
 70
     1
  9
$MEASUREMENT
 70
     0
  0
ENDSEC
  0
SECTION
  2
CLASSES
  0
CLASS
  1
LWPOLYLINE
  2
AcDbPolyline
  3
"AutoCAD"
 90
        0
280
     0
281
     1
  0
CLASS
  1
ACDBDICTIONARYWDFLT
  2
AcDbDictionaryWithDefault
  3
AutoCAD 2000
 90
        0
280
     1
281
     0
  0
CLASS
  1
ACDBPLACEHOLDER
  2
AcDbPlaceHolder
  3
AutoCAD 2000
 90
        0
280
     1
281
     0
  0
CLASS
  1
LAYOUT
  2
AcDbLayout
  3
AutoCAD 2000
 90
        0
280
     1
281
     0
  0
CLASS
  1
LONG_TRANSACTION
  2
AcDbLongTransaction
  3
AutoCAD 2000
 90
        0
280
     1
281
     0
  0
CLASS
  1
LWPOLYLINE
  2
AcDbPolyline
  3
"AutoCAD"
 90
        0
280
     0
281
     1
  0
CLASS
  1
HATCH
  2
AcDbHatch
  3
"ACAD_SEDONA"
 90
        0
280
     0
281
     1
  0
CLASS
  1
XRECORD
  2
AcDbXrecord
  3
"<Built In>"
 90
        0
280
     0
281
     0
  0
CLASS
  1
DICTIONARYVAR
  2
AcDbDictionaryVar
  3
"AutoCAD"
 90
        0
280
     0
281
     0
  0
ENDSEC
  0
SECTION
  2
TABLES
  0
TABLE
  2
VPORT
  5
16
100
AcDbSymbolTable
 70
     1
  0
VPORT
  5
2549
100
AcDbSymbolTableRecord
100
AcDbViewportTableRecord
  2
*ACTIVE
 70
     0
 10
0.0
 20
0.0
 11
1.0
 21
1.0
 12
94.442393
 22
204.754122
 13
0.0
 23
0.0
 14
1.0
 24
1.0
 15
10.0
 25
10.0
 16
0.0
 26
0.0
 36
1.0
 17
0.0
 27
0.0
 37
0.0
 40
171.044876
 41
1.710425
 42
50.0
 43
0.0
 44
0.0
 50
0.0
 51
0.0
 71
     0
 72
   100
 73
     1
 74
     1
 75
     0
 76
     0
 77
     0
 78
     2
  0
ENDTAB
  0
TABLE
  2
LTYPE
  5
11
100
AcDbSymbolTable
 70
     2
  0
LTYPE
  5
12
100
AcDbSymbolTableRecord
100
AcDbLinetypeTableRecord
  2
BYBLOCK
 70
     0
  3

 72
    65
 73
     0
 40
0.0
  0
LTYPE
  5
13
100
AcDbSymbolTableRecord
100
AcDbLinetypeTableRecord
  2
BYLAYER
 70
     0
  3

 72
    65
 73
     0
 40
0.0
  0
LTYPE
  5
7
100
AcDbSymbolTableRecord
100
AcDbLinetypeTableRecord
  2
CONTINUOUS
 70
     0
  3
Solid line
 72
    65
 73
     0
 40
0.0
  0
LTYPE
  5
AA
100
AcDbSymbolTableRecord
100
AcDbLinetypeTableRecord
  2
CENTER
 70
     0
  3
Center ____ _ ____ _ ____ _ ____ _ ____ _ ____
 72
    65
 73
     4
 40
2.0
 49
1.25
 74
     0
 49
-0.25
 74
     0
 49
0.25
 74
     0
 49
-0.25
 74
     0
  0
ENDTAB
  0
TABLE
  2
LAYER
  5
E
100
AcDbSymbolTable
 70
     5
  0
LAYER
  5
6
100
AcDbSymbolTableRecord
100
AcDbLayerTableRecord
  2
0
 70
     0
 62
     7
  6
CONTINUOUS
  0
LAYER
  5
2C
100
AcDbSymbolTableRecord
100
AcDbLayerTableRecord
  2
外形
 70
     0
 62
     3
  6
CONTINUOUS
  0
LAYER
  5
37
102
{ACAD_XDICTIONARY
360
38
102
}
100
AcDbSymbolTableRecord
100
AcDbLayerTableRecord
  2
DEFPOINTS
 70
     0
 62
     7
  6
CONTINUOUS
  0
LAYER
  5
1F
100
AcDbSymbolTableRecord
100
AcDbLayerTableRecord
  2
寸法
 70
     0
 62
     1
  6
CONTINUOUS
  0
LAYER
  5
673
100
AcDbSymbolTableRecord
100
AcDbLayerTableRecord
  2
参考
 70
     0
 62
     2
  6
CONTINUOUS
  0
ENDTAB
  0
TABLE
  2
STYLE
  5
F
100
AcDbSymbolTable
 70
     1
  0
STYLE
  5
10
100
AcDbSymbolTableRecord
100
AcDbTextStyleTableRecord
  2
STANDARD
 70
     0
 40
0.0
 41
1.0
 50
0.0
 71
     0
 42
5.0
  3
MONOTXT
  4
BIGFONT
  0
ENDTAB
  0
TABLE
  2
VIEW
  5
14
100
AcDbSymbolTable
 70
     0
  0
ENDTAB
  0
TABLE
  2
UCS
  5
15
100
AcDbSymbolTable
 70
     0
  0
ENDTAB
  0
TABLE
  2
APPID
  5
18
100
AcDbSymbolTable
 70
     2
  0
APPID
  5
19
100
AcDbSymbolTableRecord
100
AcDbRegAppTableRecord
  2
ACAD
 70
     0
  0
APPID
  5
C59
100
AcDbSymbolTableRecord
100
AcDbRegAppTableRecord
  2
DRAWINGVARIABLESXDATA
 70
     0
  0
ENDTAB
  0
TABLE
  2
DIMSTYLE
  5
1A
100
AcDbSymbolTable
 70
     2
  0
DIMSTYLE
105
21
102
{ACAD_XDICTIONARY
360
22
102
}
102
{ACAD_REACTORS
330
23E4
330
2403
330
240D
330
2424
330
2474
330
2506
330
2513
330
2547
102
}
100
AcDbSymbolTableRecord
100
AcDbDimStyleTableRecord
  2
STANDARD
 70
     0
  3

  4

  5

  6
_OPEN30
  7
_OPEN30
 40
0.0
 41
2.0
 42
1.0
 43
8.0
 44
2.0
 45
0.0
 46
0.0
 47
0.0
 48
0.0
140
3.0
141
-1.0
142
0.0
143
25.4
144
1.0
145
0.0
146
1.0
147
1.0
 71
     0
 72
     0
 73
     0
 74
     0
 75
     0
 76
     0
 77
     1
 78
     8
170
     0
171
     2
172
     1
173
     1
174
     0
175
     0
176
     1
177
     1
178
     3
270
     2
271
     2
272
     2
273
     2
274
     2
340
10
275
     0
280
     0
281
     0
282
     0
283
     1
284
     8
285
     0
286
     0
287
     3
288
     0
  0
DIMSTYLE
105
674
100
AcDbSymbolTableRecord
100
AcDbDimStyleTableRecord
  2
参考寸法
 70
     0
  3

  4

  5

  6
_DOTSMALL
  7
_DOTSMALL
 40
1.0
 41
2.0
 42
1.0
 43
8.0
 44
2.0
 45
0.0
 46
0.0
 47
0.0
 48
0.0
140
3.0
141
-1.0
142
0.0
143
25.4
144
1.0
145
0.0
146
1.0
147
1.0
 71
     0
 72
     0
 73
     0
 74
     0
 75
     0
 76
     0
 77
     1
 78
     8
170
     0
171
     2
172
     1
173
     1
174
     0
175
     0
176
     2
177
     2
178
     2
270
     2
271
     3
272
     2
273
     2
274
     2
340
10
275
     0
280
     0
281
     0
282
     0
283
     1
284
     8
285
     0
286
     0
287
     3
288
     0
  0
ENDTAB
  0
TABLE
  2
BLOCK_RECORD
  5
1
100
AcDbSymbolTable
 70
    15
  0
BLOCK_RECORD
  5
2
102
{ACAD_XDICTIONARY
360
3
102
}
100
AcDbSymbolTableRecord
100
AcDbBlockTableRecord
  2
*MODEL_SPACE
  0
BLOCK_RECORD
  5
9
102
{ACAD_XDICTIONARY
360
A
102
}
100
AcDbSymbolTableRecord
100
AcDbBlockTableRecord
  2
*PAPER_SPACE
  0
BLOCK_RECORD
  5
24
100
AcDbSymbolTableRecord
100
AcDbBlockTableRecord
  2
_DOTSMALL
  0
BLOCK_RECORD
  5
470
100
AcDbSymbolTableRecord
100
AcDbBlockTableRecord
  2
_OPEN30
  0
BLOCK_RECORD
  5
23D8
100
AcDbSymbolTableRecord
100
AcDbBlockTableRecord
  2
*D3
  0
BLOCK_RECORD
  5
23F7
100
AcDbSymbolTableRecord
100
AcDbBlockTableRecord
  2
*D4
  0
BLOCK_RECORD
  5
2404
100
AcDbSymbolTableRecord
100
AcDbBlockTableRecord
  2
*D5
  0
BLOCK_RECORD
  5
2418
100
AcDbSymbolTableRecord
100
AcDbBlockTableRecord
  2
*D6
  0
BLOCK_RECORD
  5
2462
100
AcDbSymbolTableRecord
100
AcDbBlockTableRecord
  2
*D9
  0
BLOCK_RECORD
  5
24F4
100
AcDbSymbolTableRecord
100
AcDbBlockTableRecord
  2
*D12
  0
BLOCK_RECORD
  5
2507
100
AcDbSymbolTableRecord
100
AcDbBlockTableRecord
  2
*D13
  0
BLOCK_RECORD
  5
253A
100
AcDbSymbolTableRecord
100
AcDbBlockTableRecord
  2
*D14
  0
ENDTAB
  0
ENDSEC
  0
SECTION
  2
BLOCKS
  0
BLOCK
  5
5
100
AcDbEntity
  8
0
100
AcDbBlockBegin
  2
*MODEL_SPACE
 70
     0
 10
0.0
 20
0.0
 30
0.0
  3
*MODEL_SPACE
  1

  0
ENDBLK
  5
8
100
AcDbEntity
  8
0
100
AcDbBlockEnd
  0
BLOCK
  5
C
100
AcDbEntity
 67
     1
  8
0
100
AcDbBlockBegin
  2
*PAPER_SPACE
 70
     0
 10
0.0
 20
0.0
 30
0.0
  3
*PAPER_SPACE
  1

  0
ENDBLK
  5
D
100
AcDbEntity
 67
     1
  8
0
100
AcDbBlockEnd
  0
BLOCK
  5
29
100
AcDbEntity
  8
0
100
AcDbBlockBegin
  2
_DOTSMALL
 70
     0
 10
0.0
 20
0.0
 30
0.0
  3
_DOTSMALL
  1

  0
POLYLINE
  5
25
100
AcDbEntity
  8
0
  6
BYBLOCK
 62
     0
100
AcDb2dPolyline
 66
     1
 10
0.0
 20
0.0
 30
0.0
 70
     1
 40
0.5
 41
0.5
  0
VERTEX
  5
26
100
AcDbEntity
  8
0
  6
BYBLOCK
 62
     0
100
AcDbVertex
100
AcDb2dVertex
 10
-0.0625
 20
0.0
 30
0.0
 42
1.0
  0
VERTEX
  5
27
100
AcDbEntity
  8
0
  6
BYBLOCK
 62
     0
100
AcDbVertex
100
AcDb2dVertex
 10
0.0625
 20
0.0
 30
0.0
 42
1.0
  0
SEQEND
  5
28
100
AcDbEntity
  8
0
  6
BYBLOCK
 62
     0
  0
ENDBLK
  5
2A
100
AcDbEntity
  8
0
100
AcDbBlockEnd
  0
BLOCK
  5
471
100
AcDbEntity
  8
0
100
AcDbBlockBegin
  2
_OPEN30
 70
     0
 10
0.0
 20
0.0
 30
0.0
  3
_OPEN30
  1

  0
LINE
  5
472
100
AcDbEntity
  8
0
  6
BYBLOCK
 62
     0
100
AcDbLine
 10
-1.0
 20
0.267949
 30
0.0
 11
0.0
 21
0.0
 31
0.0
  0
LINE
  5
473
100
AcDbEntity
  8
0
  6
BYBLOCK
 62
     0
100
AcDbLine
 10
0.0
 20
0.0
 30
0.0
 11
-1.0
 21
-0.267949
 31
0.0
  0
LINE
  5
474
100
AcDbEntity
  8
0
  6
BYBLOCK
 62
     0
100
AcDbLine
 10
0.0
 20
0.0
 30
0.0
 11
-1.0
 21
0.0
 31
0.0
  0
ENDBLK
  5
475
100
AcDbEntity
  8
0
100
AcDbBlockEnd
  0
BLOCK
  5
2475
100
AcDbEntity
  8
0
100
AcDbBlockBegin
  2
*D3
 70
     1
 10
0.0
 20
0.0
 30
0.0
  3
*D3
  1

  0
LINE
  5
2476
100
AcDbEntity
  8
0
  6
BYBLOCK
 62
     1
100
AcDbLine
 10
32.915853
 20
324.891707
 30
0.0
 11
30.58592
 21
324.891707
 31
0.0
  0
LINE
  5
2477
100
AcDbEntity
  8
0
  6
BYBLOCK
 62
     1
100
AcDbLine
 10
38.13778
 20
315.891707
 30
0.0
 11
30.58592
 21
315.891707
 31
0.0
  0
LINE
  5
2478
100
AcDbEntity
  8
0
  6
BYBLOCK
 62
     1
100
AcDbLine
 10
32.58592
 20
322.891707
 30
0.0
 11
32.58592
 21
317.891707
 31
0.0
  0
INSERT
  5
2479
100
AcDbEntity
  8
0
  6
BYBLOCK
 62
     1
100
AcDbBlockReference
  2
_OPEN30
 10
32.58592
 20
324.891707
 30
0.0
 41
2.0
 42
2.0
 43
2.0
 50
90.0
  0
INSERT
  5
247A
100
AcDbEntity
  8
0
  6
BYBLOCK
 62
     1
100
AcDbBlockReference
  2
_OPEN30
 10
32.58592
 20
315.891707
 30
0.0
 41
2.0
 42
2.0
 43
2.0
 50
270.0
  0
MTEXT
  5
247B
100
AcDbEntity
  8
0
  6
BYBLOCK
 62
     3
100
AcDbMText
 10
30.08592
 20
320.391707
 30
0.0
 40
3.0
 41
0.0
 71
     5
 72
     1
  1
\A1;9
 11
0.0
 21
1.0
 31
0.0
  0
POINT
  5
247C
100
AcDbEntity
  8
DEFPOINTS
  6
BYBLOCK
 62
     0
100
AcDbPoint
 10
33.915853
 20
324.891707
 30
0.0
  0
POINT
  5
247D
100
AcDbEntity
  8
DEFPOINTS
  6
BYBLOCK
 62
     0
100
AcDbPoint
 10
39.13778
 20
315.891707
 30
0.0
  0
POINT
  5
247E
100
AcDbEntity
  8
DEFPOINTS
  6
BYBLOCK
 62
     0
100
AcDbPoint
 10
32.58592
 20
315.891707
 30
0.0
  0
ENDBLK
  5
247F
100
AcDbEntity
  8
0
100
AcDbBlockEnd
  0
BLOCK
  5
249A
100
AcDbEntity
  8
0
100
AcDbBlockBegin
  2
*D4
 70
     1
 10
0.0
 20
0.0
 30
0.0
  3
*D4
  1

  0
LINE
  5
249B
100
AcDbEntity
  8
0
  6
BYBLOCK
 62
     1
100
AcDbLine
 10
144.219751
 20
321.107825
 30
0.0
 11
144.219751
 21
301.717942
 31
0.0
  0
LINE
  5
249C
100
AcDbEntity
  8
0
  6
BYBLOCK
 62
     1
100
AcDbLine
 10
159.219751
 20
321.107825
 30
0.0
 11
159.219751
 21
301.717942
 31
0.0
  0
LINE
  5
249D
100
AcDbEntity
  8
0
  6
BYBLOCK
 62
     1
100
AcDbLine
 10
146.219751
 20
303.717942
 30
0.0
 11
157.219751
 21
303.717942
 31
0.0
  0
INSERT
  5
249E
100
AcDbEntity
  8
0
  6
BYBLOCK
 62
     1
100
AcDbBlockReference
  2
_OPEN30
 10
144.219751
 20
303.717942
 30
0.0
 41
2.0
 42
2.0
 43
2.0
 50
180.0
  0
INSERT
  5
249F
100
AcDbEntity
  8
0
  6
BYBLOCK
 62
     1
100
AcDbBlockReference
  2
_OPEN30
 10
159.219751
 20
303.717942
 30
0.0
 41
2.0
 42
2.0
 43
2.0
  0
MTEXT
  5
24A0
100
AcDbEntity
  8
0
  6
BYBLOCK
 62
     3
100
AcDbMText
 10
151.719751
 20
306.217942
 30
0.0
 40
3.0
 41
0.0
 71
     5
 72
     1
  1
\A1;15
  0
POINT
  5
24A1
100
AcDbEntity
  8
DEFPOINTS
  6
BYBLOCK
 62
     0
100
AcDbPoint
 10
144.219751
 20
322.107825
 30
0.0
  0
POINT
  5
24A2
100
AcDbEntity
  8
DEFPOINTS
  6
BYBLOCK
 62
     0
100
AcDbPoint
 10
159.219751
 20
322.107825
 30
0.0
  0
POINT
  5
24A3
100
AcDbEntity
  8
DEFPOINTS
  6
BYBLOCK
 62
     0
100
AcDbPoint
 10
159.219751
 20
303.717942
 30
0.0
  0
ENDBLK
  5
24A4
100
AcDbEntity
  8
0
100
AcDbBlockEnd
  0
BLOCK
  5
24A5
100
AcDbEntity
  8
0
100
AcDbBlockBegin
  2
*D5
 70
     1
 10
0.0
 20
0.0
 30
0.0
  3
*D5
  1

  0
LINE
  5
24A6
100
AcDbEntity
  8
0
  6
BYBLOCK
 62
     1
100
AcDbLine
 10
164.02144
 20
343.130908
 30
0.0
 11
157.311428
 21
333.182253
 31
0.0
  0
LINE
  5
24A7
100
AcDbEntity
  8
0
  6
BYBLOCK
 62
     1
100
AcDbLine
 10
146.128074
 20
316.601162
 30
0.0
 11
145.009738
 21
314.943052
 31
0.0
  0
MTEXT
  5
24A8
100
AcDbEntity
  8
0
  6
BYBLOCK
 62
     3
100
AcDbMText
 10
159.152965
 20
340.383554
 30
0.0
 40
3.0
 41
0.0
 71
     5
 72
     1
  1
\A1;\U+220516
 11
0.559168
 21
0.829055
 31
0.0
  0
LINE
  5
24A9
100
AcDbEntity
  8
0
  6
BYBLOCK
 62
     1
100
AcDbLine
 10
147.246409
 20
318.259271
 30
0.0
 11
156.193092
 21
331.524144
 31
0.0
  0
INSERT
  5
24AA
100
AcDbEntity
  8
0
  6
BYBLOCK
 62
     1
100
AcDbBlockReference
  2
_OPEN30
 10
147.246409
 20
318.259271
 30
0.0
 41
2.0
 42
2.0
 43
2.0
 50
56.001742
  0
INSERT
  5
24AB
100
AcDbEntity
  8
0
  6
BYBLOCK
 62
     1
100
AcDbBlockReference
  2
_OPEN30
 10
156.193092
 20
331.524144
 30
0.0
 41
2.0
 42
2.0
 43
2.0
 50
236.001742
  0
POINT
  5
24AC
100
AcDbEntity
  8
DEFPOINTS
  6
BYBLOCK
 62
     0
100
AcDbPoint
 10
156.193092
 20
331.524144
 30
0.0
  0
POINT
  5
24AD
100
AcDbEntity
  8
DEFPOINTS
  6
BYBLOCK
 62
     0
100
AcDbPoint
 10
147.246409
 20
318.259271
 30
0.0
  0
ENDBLK
  5
24AE
100
AcDbEntity
  8
0
100
AcDbBlockEnd
  0
BLOCK
  5
248F
100
AcDbEntity
  8
0
100
AcDbBlockBegin
  2
*D6
 70
     1
 10
0.0
 20
0.0
 30
0.0
  3
*D6
  1

  0
LINE
  5
2490
100
AcDbEntity
  8
0
  6
BYBLOCK
 62
     1
100
AcDbLine
 10
39.13778
 20
314.891707
 30
0.0
 11
39.13778
 21
290.988512
 31
0.0
  0
LINE
  5
2491
100
AcDbEntity
  8
0
  6
BYBLOCK
 62
     1
100
AcDbLine
 10
239.13778
 20
316.891707
 30
0.0
 11
239.13778
 21
290.988512
 31
0.0
  0
LINE
  5
2492
100
AcDbEntity
  8
0
  6
BYBLOCK
 62
     1
100
AcDbLine
 10
41.13778
 20
292.988512
 30
0.0
 11
237.13778
 21
292.988512
 31
0.0
  0
INSERT
  5
2493
100
AcDbEntity
  8
0
  6
BYBLOCK
 62
     1
100
AcDbBlockReference
  2
_OPEN30
 10
39.13778
 20
292.988512
 30
0.0
 41
2.0
 42
2.0
 43
2.0
 50
180.0
  0
INSERT
  5
2494
100
AcDbEntity
  8
0
  6
BYBLOCK
 62
     1
100
AcDbBlockReference
  2
_OPEN30
 10
239.13778
 20
292.988512
 30
0.0
 41
2.0
 42
2.0
 43
2.0
  0
MTEXT
  5
2495
100
AcDbEntity
  8
0
  6
BYBLOCK
 62
     3
100
AcDbMText
 10
139.13778
 20
295.488512
 30
0.0
 40
3.0
 41
0.0
 71
     5
 72
     1
  1
\A1;200
  0
POINT
  5
2496
100
AcDbEntity
  8
DEFPOINTS
  6
BYBLOCK
 62
     0
100
AcDbPoint
 10
39.13778
 20
315.891707
 30
0.0
  0
POINT
  5
2497
100
AcDbEntity
  8
DEFPOINTS
  6
BYBLOCK
 62
     0
100
AcDbPoint
 10
239.13778
 20
317.891707
 30
0.0
  0
POINT
  5
2498
100
AcDbEntity
  8
DEFPOINTS
  6
BYBLOCK
 62
     0
100
AcDbPoint
 10
239.13778
 20
292.988512
 30
0.0
  0
ENDBLK
  5
2499
100
AcDbEntity
  8
0
100
AcDbBlockEnd
  0
BLOCK
  5
24AF
100
AcDbEntity
  8
0
100
AcDbBlockBegin
  2
*D9
 70
     1
 10
0.0
 20
0.0
 30
0.0
  3
*D9
  1

  0
LINE
  5
24B0
100
AcDbEntity
  8
0
  6
BYBLOCK
 62
     1
100
AcDbLine
 10
1.072639
 20
314.872273
 30
0.0
 11
-0.045822
 21
298.877536
 31
0.0
  0
LINE
  5
24B1
100
AcDbEntity
  8
0
  6
BYBLOCK
 62
     1
100
AcDbLine
 10
1.143924
 20
311.916823
 30
0.0
 11
1.143924
 21
298.835989
 31
0.0
  0
ARC
  5
24B2
100
AcDbEntity
  8
0
  6
BYBLOCK
 62
     1
100
AcDbCircle
 10
1.143924
 20
315.891707
 30
0.0
 40
15.055718
100
AcDbArc
 50
250.73254
 51
266.0
  0
LINE
  5
24B3
100
AcDbEntity
  8
0
  6
BYBLOCK
 62
     1
100
AcDbLine
 10
-3.824136
 20
301.679282
 30
0.0
 11
-11.942437
 21
304.517096
 31
0.0
  0
ARC
  5
24B4
100
AcDbEntity
  8
0
  6
BYBLOCK
 62
     1
100
AcDbCircle
 10
1.143924
 20
315.891707
 30
0.0
 40
15.055718
100
AcDbArc
 50
250.766455
 51
258.383227
  0
ARC
  5
24B5
100
AcDbEntity
  8
0
  6
BYBLOCK
 62
     1
100
AcDbCircle
 10
1.143924
 20
315.891707
 30
0.0
 40
15.055718
100
AcDbArc
 50
277.616773
 51
285.233545
  0
ARC
  5
24B6
100
AcDbEntity
  8
0
  6
BYBLOCK
 62
     1
100
AcDbCircle
 10
1.143924
 20
315.891707
 30
0.0
 40
15.055718
100
AcDbArc
 50
266.0
 51
270.0
  0
INSERT
  5
24B7
100
AcDbEntity
  8
0
  6
BYBLOCK
 62
     1
100
AcDbBlockReference
  2
_OPEN30
 10
0.093691
 20
300.872664
 30
0.0
 41
2.0
 42
2.0
 43
2.0
 50
352.191614
  0
INSERT
  5
24B8
100
AcDbEntity
  8
0
  6
BYBLOCK
 62
     1
100
AcDbBlockReference
  2
_OPEN30
 10
1.143924
 20
300.835989
 30
0.0
 41
2.0
 42
2.0
 43
2.0
 50
183.808386
  0
MTEXT
  5
24B9
100
AcDbEntity
  8
0
  6
BYBLOCK
 62
     3
100
AcDbMText
 10
-7.058341
 20
305.45816
 30
0.0
 40
3.0
 41
0.0
 71
     5
 72
     1
  1
\A1;4°
 11
0.943989
 21
-0.329978
 31
0.0
  0
POINT
  5
24BA
100
AcDbEntity
  8
DEFPOINTS
  6
BYBLOCK
 62
     0
100
AcDbPoint
 10
0.793594
 20
300.840065
 30
0.0
  0
POINT
  5
24BB
100
AcDbEntity
  8
DEFPOINTS
  6
BYBLOCK
 62
     0
100
AcDbPoint
 10
1.143924
 20
335.615362
 30
0.0
  0
POINT
  5
24BC
100
AcDbEntity
  8
DEFPOINTS
  6
BYBLOCK
 62
     0
100
AcDbPoint
 10
1.142395
 20
315.869837
 30
0.0
  0
POINT
  5
24BD
100
AcDbEntity
  8
DEFPOINTS
  6
BYBLOCK
 62
     0
100
AcDbPoint
 10
2.309039
 20
332.553627
 30
0.0
  0
POINT
  5
24BE
100
AcDbEntity
  8
DEFPOINTS
  6
BYBLOCK
 62
     0
100
AcDbPoint
 10
1.143924
 20
312.916823
 30
0.0
  0
ENDBLK
  5
24BF
100
AcDbEntity
  8
0
100
AcDbBlockEnd
  0
BLOCK
  5
2514
100
AcDbEntity
  8
0
100
AcDbBlockBegin
  2
*D12
 70
     1
 10
0.0
 20
0.0
 30
0.0
  3
*D12
  1

  0
LINE
  5
2515
100
AcDbEntity
  8
0
  6
BYBLOCK
 62
     1
100
AcDbLine
 10
16.374046
 20
178.530879
 30
0.0
 11
1.426536
 21
179.838617
 31
0.0
  0
LINE
  5
2516
100
AcDbEntity
  8
0
  6
BYBLOCK
 62
     1
100
AcDbLine
 10
11.148315
 20
178.443723
 30
0.0
 11
1.365634
 21
178.443723
 31
0.0
  0
ARC
  5
2517
100
AcDbEntity
  8
0
  6
BYBLOCK
 62
     1
100
AcDbCircle
 10
17.370241
 20
178.443723
 30
0.0
 40
14.004607
100
AcDbArc
 50
158.57902
 51
175.0
  0
LINE
  5
2518
100
AcDbEntity
  8
0
  6
BYBLOCK
 62
     1
100
AcDbLine
 10
4.333042
 20
183.558454
 30
0.0
 11
7.473914
 21
191.564384
 31
0.0
  0
ARC
  5
2519
100
AcDbEntity
  8
0
  6
BYBLOCK
 62
     1
100
AcDbCircle
 10
17.370241
 20
178.443723
 30
0.0
 40
14.004607
100
AcDbArc
 50
158.621224
 51
166.810612
  0
ARC
  5
251A
100
AcDbEntity
  8
0
  6
BYBLOCK
 62
     1
100
AcDbCircle
 10
17.370241
 20
178.443723
 30
0.0
 40
14.004607
100
AcDbArc
 50
188.189388
 51
196.378776
  0
ARC
  5
251B
100
AcDbEntity
  8
0
  6
BYBLOCK
 62
     1
100
AcDbCircle
 10
17.370241
 20
178.443723
 30
0.0
 40
14.004607
100
AcDbArc
 50
175.0
 51
180.0
  0
INSERT
  5
251C
100
AcDbEntity
  8
0
  6
BYBLOCK
 62
     1
100
AcDbBlockReference
  2
_OPEN30
 10
3.418926
 20
179.664305
 30
0.0
 41
2.0
 42
2.0
 43
2.0
 50
260.905306
  0
INSERT
  5
251D
100
AcDbEntity
  8
0
  6
BYBLOCK
 62
     1
100
AcDbBlockReference
  2
_OPEN30
 10
3.365634
 20
178.443723
 30
0.0
 41
2.0
 42
2.0
 43
2.0
 50
94.094694
  0
MTEXT
  5
251E
100
AcDbEntity
  8
0
  6
BYBLOCK
 62
     3
100
AcDbMText
 10
3.576173
 20
188.474463
 30
0.0
 40
3.0
 41
0.0
 71
     5
 72
     1
  1
\A1;5°
 11
0.365218
 21
0.930922
 31
0.0
  0
POINT
  5
251F
100
AcDbEntity
  8
DEFPOINTS
  6
BYBLOCK
 62
     0
100
AcDbPoint
 10
3.371559
 20
178.851043
 30
0.0
  0
POINT
  5
2520
100
AcDbEntity
  8
DEFPOINTS
  6
BYBLOCK
 62
     0
100
AcDbPoint
 10
12.148315
 20
178.443723
 30
0.0
  0
POINT
  5
2521
100
AcDbEntity
  8
DEFPOINTS
  6
BYBLOCK
 62
     0
100
AcDbPoint
 10
27.019588
 20
177.599515
 30
0.0
  0
POINT
  5
2522
100
AcDbEntity
  8
DEFPOINTS
  6
BYBLOCK
 62
     0
100
AcDbPoint
 10
17.370241
 20
178.443723
 30
0.0
  0
POINT
  5
2523
100
AcDbEntity
  8
DEFPOINTS
  6
BYBLOCK
 62
     0
100
AcDbPoint
 10
223.86416
 20
178.443723
 30
0.0
  0
ENDBLK
  5
2524
100
AcDbEntity
  8
0
100
AcDbBlockEnd
  0
BLOCK
  5
2525
100
AcDbEntity
  8
0
100
AcDbBlockBegin
  2
*D13
 70
     1
 10
0.0
 20
0.0
 30
0.0
  3
*D13
  1

  0
LINE
  5
2526
100
AcDbEntity
  8
0
  6
BYBLOCK
 62
     1
100
AcDbLine
 10
17.370241
 20
177.443723
 30
0.0
 11
17.370241
 21
153.742364
 31
0.0
  0
LINE
  5
2527
100
AcDbEntity
  8
0
  6
BYBLOCK
 62
     1
100
AcDbLine
 10
47.370241
 20
169.443723
 30
0.0
 11
47.370241
 21
153.742364
 31
0.0
  0
LINE
  5
2528
100
AcDbEntity
  8
0
  6
BYBLOCK
 62
     1
100
AcDbLine
 10
19.370241
 20
155.742364
 30
0.0
 11
45.370241
 21
155.742364
 31
0.0
  0
INSERT
  5
2529
100
AcDbEntity
  8
0
  6
BYBLOCK
 62
     1
100
AcDbBlockReference
  2
_OPEN30
 10
17.370241
 20
155.742364
 30
0.0
 41
2.0
 42
2.0
 43
2.0
 50
180.0
  0
INSERT
  5
252A
100
AcDbEntity
  8
0
  6
BYBLOCK
 62
     1
100
AcDbBlockReference
  2
_OPEN30
 10
47.370241
 20
155.742364
 30
0.0
 41
2.0
 42
2.0
 43
2.0
  0
MTEXT
  5
252B
100
AcDbEntity
  8
0
  6
BYBLOCK
 62
     3
100
AcDbMText
 10
32.370241
 20
158.242364
 30
0.0
 40
3.0
 41
0.0
 71
     5
 72
     1
  1
\A1;30
  0
POINT
  5
252C
100
AcDbEntity
  8
DEFPOINTS
  6
BYBLOCK
 62
     0
100
AcDbPoint
 10
17.370241
 20
178.443723
 30
0.0
  0
POINT
  5
252D
100
AcDbEntity
  8
DEFPOINTS
  6
BYBLOCK
 62
     0
100
AcDbPoint
 10
47.370241
 20
170.443723
 30
0.0
  0
POINT
  5
252E
100
AcDbEntity
  8
DEFPOINTS
  6
BYBLOCK
 62
     0
100
AcDbPoint
 10
47.370241
 20
155.742364
 30
0.0
  0
ENDBLK
  5
252F
100
AcDbEntity
  8
0
100
AcDbBlockEnd
  0
BLOCK
  5
253B
100
AcDbEntity
  8
0
100
AcDbBlockBegin
  2
*D14
 70
     1
 10
0.0
 20
0.0
 30
0.0
  3
*D14
  1

  0
LINE
  5
253C
100
AcDbEntity
  8
0
  6
BYBLOCK
 62
     1
100
AcDbLine
 10
18.558226
 20
238.316602
 30
0.0
 11
19.091912
 21
244.416658
 31
0.0
  0
ARC
  5
253D
100
AcDbEntity
  8
0
  6
BYBLOCK
 62
     1
100
AcDbCircle
 10
17.333718
 20
224.320408
 30
0.0
 40
18.173015
100
AcDbArc
 50
91.308775
 51
173.691225
  0
INSERT
  5
253E
100
AcDbEntity
  8
0
  6
BYBLOCK
 62
     1
100
AcDbBlockReference
  2
_OPEN30
 10
18.9176
 20
242.424268
 30
0.0
 41
2.0
 42
2.0
 43
2.0
 50
358.154388
  0
INSERT
  5
253F
100
AcDbEntity
  8
0
  6
BYBLOCK
 62
     1
100
AcDbBlockReference
  2
_OPEN30
 10
-0.839297
 20
224.320408
 30
0.0
 41
2.0
 42
2.0
 43
2.0
 50
266.845612
  0
MTEXT
  5
2540
100
AcDbEntity
  8
0
  6
BYBLOCK
 62
     3
100
AcDbMText
 10
3.367231
 20
239.562153
 30
0.0
 40
3.0
 41
0.0
 71
     5
 72
     1
  1
\A1;95°
 11
0.737277
 21
0.67559
 31
0.0
  0
POINT
  5
2541
100
AcDbEntity
  8
DEFPOINTS
  6
BYBLOCK
 62
     0
100
AcDbPoint
 10
9.177684
 20
240.560407
 30
0.0
  0
POINT
  5
2542
100
AcDbEntity
  8
DEFPOINTS
  6
BYBLOCK
 62
     0
100
AcDbPoint
 10
17.370241
 20
224.320408
 30
0.0
  0
POINT
  5
2543
100
AcDbEntity
  8
DEFPOINTS
  6
BYBLOCK
 62
     0
100
AcDbPoint
 10
17.371763
 20
224.75527
 30
0.0
  0
POINT
  5
2544
100
AcDbEntity
  8
DEFPOINTS
  6
BYBLOCK
 62
     0
100
AcDbPoint
 10
18.47107
 20
237.320408
 30
0.0
  0
POINT
  5
2545
100
AcDbEntity
  8
DEFPOINTS
  6
BYBLOCK
 62
     0
100
AcDbPoint
 10
-11.551043
 20
224.320408
 30
0.0
  0
ENDBLK
  5
2546
100
AcDbEntity
  8
0
100
AcDbBlockEnd
  0
ENDSEC
  0
SECTION
  2
ENTITIES
  0
TEXT
  5
1453
100
AcDbEntity
  8
外形
  6
CONTINUOUS
 62
     2
100
AcDbText
 10
81.945496
 20
150.213866
 30
0.0
 40
6.0
  1
WBPC316RS18
100
AcDbText
  0
LINE
  5
1A59
100
AcDbEntity
  8
外形
  6
CENTER
 62
     1
100
AcDbLine
 10
28.770179
 20
229.519432
 30
0.0
 11
16.006958
 21
229.519432
 31
0.0
  0
LINE
  5
21C5
100
AcDbEntity
  8
外形
  6
CENTER
 62
     1
100
AcDbLine
 10
22.569265
 20
223.419472
 30
0.0
 11
22.569265
 21
235.297253
 31
0.0
  0
ARC
  5
21CA
100
AcDbEntity
  8
外形
  6
CONTINUOUS
100
AcDbCircle
 10
17.770241
 20
224.720408
 30
0.0
 40
0.4
100
AcDbArc
 50
175.0
 51
275.0
  0
LINE
  5
21CC
100
AcDbEntity
  8
外形
  6
CONTINUOUS
100
AcDbLine
 10
26.994603
 20
225.45771
 30
0.0
 11
27.766768
 21
234.283594
 31
0.0
  0
LINE
  5
21CD
100
AcDbEntity
  8
外形
  6
CONTINUOUS
100
AcDbLine
 10
18.173181
 20
233.915516
 30
0.0
 11
27.333427
 21
234.716934
 31
0.0
  0
ARC
  5
21CE
100
AcDbEntity
  8
外形
  6
CONTINUOUS
100
AcDbCircle
 10
18.542406
 20
233.546291
 30
0.0
 40
0.4
100
AcDbArc
 50
95.0
 51
175.0
  0
ARC
  5
21CF
100
AcDbEntity
  8
外形
  6
CONTINUOUS
100
AcDbCircle
 10
27.36829
 20
234.318456
 30
0.0
 40
0.4
100
AcDbArc
 50
355.0
 51
95.0
  0
ARC
  5
21D0
100
AcDbEntity
  8
外形
  6
CONTINUOUS
100
AcDbCircle
 10
26.596125
 20
225.492572
 30
0.0
 40
0.4
100
AcDbArc
 50
275.0
 51
355.0
  0
ARC
  5
21D5
100
AcDbEntity
  8
外形
  6
CONTINUOUS
100
AcDbCircle
 10
26.669265
 20
233.619432
 30
0.0
 40
1.75
100
AcDbArc
 50
315.0
 51
135.0
  0
LINE
  5
21D7
100
AcDbEntity
  8
外形
  6
CONTINUOUS
100
AcDbLine
 10
25.431829
 20
234.856869
 30
0.0
 11
25.096158
 21
234.521198
 31
0.0
  0
LINE
  5
21D8
100
AcDbEntity
  8
外形
  6
CONTINUOUS
100
AcDbLine
 10
27.906702
 20
232.381995
 30
0.0
 11
27.571032
 21
232.046325
 31
0.0
  0
LINE
  5
21DA
100
AcDbEntity
  8
外形
  6
CONTINUOUS
100
AcDbLine
 10
17.371763
 20
224.75527
 30
0.0
 11
18.47107
 21
237.320408
 31
0.0
  0
LINE
  5
21DB
100
AcDbEntity
  8
外形
  6
CONTINUOUS
100
AcDbLine
 10
17.805103
 20
224.32193
 30
0.0
 11
26.630987
 21
225.094095
 31
0.0
  0
LINE
  5
21E0
100
AcDbEntity
  8
外形
  6
CENTER
 62
     1
100
AcDbLine
 10
12.148315
 20
233.320408
 30
0.0
 11
223.86416
 21
233.320408
 31
0.0
  0
LINE
  5
21E9
100
AcDbEntity
  8
外形
  6
CONTINUOUS
100
AcDbLine
 10
20.370241
 20
170.193723
 30
0.0
 11
18.973879
 21
170.193723
 31
0.0
  0
LINE
  5
21EA
100
AcDbEntity
  8
外形
  6
CENTER
 62
     1
100
AcDbLine
 10
12.148315
 20
178.443723
 30
0.0
 11
223.86416
 21
178.443723
 31
0.0
  0
LINE
  5
21EB
100
AcDbEntity
  8
外形
  6
CONTINUOUS
100
AcDbLine
 10
41.370241
 20
170.443723
 30
0.0
 11
41.370241
 21
185.943723
 31
0.0
  0
LINE
  5
21EC
100
AcDbEntity
  8
外形
  6
CONTINUOUS
100
AcDbLine
 10
20.370241
 20
170.193723
 30
0.0
 11
26.085267
 21
170.693723
 31
0.0
  0
LINE
  5
21EF
100
AcDbEntity
  8
外形
  6
CONTINUOUS
100
AcDbLine
 10
26.085267
 20
170.693723
 30
0.0
 11
39.370241
 21
170.693723
 31
0.0
  0
LINE
  5
21F1
100
AcDbEntity
  8
外形
  6
CONTINUOUS
100
AcDbLine
 10
39.370241
 20
170.693723
 30
0.0
 11
39.370241
 21
184.231093
 31
0.0
  0
LINE
  5
21F3
100
AcDbEntity
  8
外形
  6
CONTINUOUS
100
AcDbLine
 10
39.620241
 20
170.443723
 30
0.0
 11
47.370241
 21
170.443723
 31
0.0
  0
LINE
  5
21F6
100
AcDbEntity
  8
外形
  6
CONTINUOUS
100
AcDbLine
 10
39.620241
 20
170.443723
 30
0.0
 11
39.370241
 21
170.693723
 31
0.0
  0
LINE
  5
21F7
100
AcDbEntity
  8
外形
  6
CONTINUOUS
100
AcDbLine
 10
39.620241
 20
170.443723
 30
0.0
 11
39.620241
 21
184.456069
 31
0.0
  0
LINE
  5
21FA
100
AcDbEntity
  8
外形
  6
CONTINUOUS
100
AcDbLine
 10
24.966261
 20
241.070408
 30
0.0
 11
39.370241
 21
241.070408
 31
0.0
  0
LINE
  5
21FB
100
AcDbEntity
  8
外形
  6
CONTINUOUS
100
AcDbLine
 10
39.620241
 20
225.320408
 30
0.0
 11
39.620241
 21
228.912992
 31
0.0
  0
LINE
  5
21FC
100
AcDbEntity
  8
外形
  6
CONTINUOUS
100
AcDbLine
 10
41.370241
 20
225.320408
 30
0.0
 11
41.370241
 21
230.536525
 31
0.0
  0
LINE
  5
21FD
100
AcDbEntity
  8
外形
  6
CONTINUOUS
100
AcDbLine
 10
39.370241
 20
225.570408
 30
0.0
 11
39.370241
 21
228.630198
 31
0.0
  0
LINE
  5
21FE
100
AcDbEntity
  8
外形
  6
CONTINUOUS
100
AcDbLine
 10
39.620241
 20
241.320408
 30
0.0
 11
117.271208
 21
241.320408
 31
0.0
  0
LINE
  5
21FF
100
AcDbEntity
  8
外形
  6
CONTINUOUS
100
AcDbLine
 10
39.620241
 20
241.320408
 30
0.0
 11
39.370241
 21
241.070408
 31
0.0
  0
LINE
  5
2203
100
AcDbEntity
  8
外形
  6
CONTINUOUS
100
AcDbLine
 10
39.620241
 20
225.320408
 30
0.0
 11
117.271208
 21
225.320408
 31
0.0
  0
LINE
  5
2204
100
AcDbEntity
  8
外形
  6
CONTINUOUS
100
AcDbLine
 10
39.620241
 20
225.320408
 30
0.0
 11
39.370241
 21
225.570408
 31
0.0
  0
LINE
  5
2206
100
AcDbEntity
  8
外形
  6
CONTINUOUS
100
AcDbLine
 10
18.47107
 20
237.320408
 30
0.0
 11
24.966261
 21
241.070408
 31
0.0
  0
LINE
  5
2207
100
AcDbEntity
  8
外形
  6
CONTINUOUS
100
AcDbLine
 10
27.004462
 20
225.570408
 30
0.0
 11
39.370241
 21
225.570408
 31
0.0
  0
LINE
  5
220A
100
AcDbEntity
  8
外形
  6
CONTINUOUS
100
AcDbLine
 10
217.370241
 20
226.320408
 30
0.0
 11
217.370241
 21
240.320408
 31
0.0
  0
LINE
  5
220B
100
AcDbEntity
  8
外形
  6
CONTINUOUS
100
AcDbLine
 10
216.370241
 20
225.320408
 30
0.0
 11
216.370241
 21
230.536525
 31
0.0
  0
LINE
  5
220C
100
AcDbEntity
  8
外形
  6
CONTINUOUS
100
AcDbLine
 10
216.370241
 20
241.320408
 30
0.0
 11
217.370241
 21
240.320408
 31
0.0
  0
LINE
  5
220D
100
AcDbEntity
  8
外形
  6
CONTINUOUS
100
AcDbLine
 10
216.370241
 20
225.320408
 30
0.0
 11
217.370241
 21
226.320408
 31
0.0
  0
LINE
  5
220E
100
AcDbEntity
  8
外形
  6
CENTER
 62
     1
100
AcDbLine
 10
129.952212
 20
220.772565
 30
0.0
 11
129.952212
 21
246.246942
 31
0.0
  0
ARC
  5
220F
100
AcDbEntity
  8
外形
  6
CONTINUOUS
100
AcDbCircle
 10
129.952212
 20
233.320408
 30
0.0
 40
8.0
100
AcDbArc
 50
20.364135
 51
159.635865
  0
LINE
  5
2210
100
AcDbEntity
  8
外形
  6
CONTINUOUS
100
AcDbLine
 10
122.452212
 20
230.536525
 30
0.0
 11
122.452212
 21
236.10429
 31
0.0
  0
LINE
  5
2211
100
AcDbEntity
  8
外形
  6
CONTINUOUS
100
AcDbLine
 10
137.452212
 20
236.10429
 30
0.0
 11
137.452212
 21
230.536525
 31
0.0
  0
ARC
  5
2214
100
AcDbEntity
  8
外形
  6
CONTINUOUS
100
AcDbCircle
 10
129.952212
 20
233.320408
 30
0.0
 40
8.0
100
AcDbArc
 50
200.364135
 51
339.635865
  0
LINE
  5
2215
100
AcDbEntity
  8
外形
  6
CONTINUOUS
100
AcDbLine
 10
117.271208
 20
236.10429
 30
0.0
 11
37.762966
 21
236.10429
 31
0.0
  0
LINE
  5
2216
100
AcDbEntity
  8
外形
  6
CONTINUOUS
100
AcDbLine
 10
117.271208
 20
230.536525
 30
0.0
 11
40.977516
 21
230.536525
 31
0.0
  0
LINE
  5
2217
100
AcDbEntity
  8
外形
  6
CONTINUOUS
100
AcDbLine
 10
142.210515
 20
236.10429
 30
0.0
 11
216.370241
 21
236.10429
 31
0.0
  0
LINE
  5
2218
100
AcDbEntity
  8
外形
  6
CONTINUOUS
100
AcDbLine
 10
142.210515
 20
230.536525
 30
0.0
 11
216.370241
 21
230.536525
 31
0.0
  0
LINE
  5
2219
100
AcDbEntity
  8
外形
  6
CONTINUOUS
100
AcDbLine
 10
142.210515
 20
241.320408
 30
0.0
 11
216.370241
 21
241.320408
 31
0.0
  0
LINE
  5
221A
100
AcDbEntity
  8
外形
  6
CONTINUOUS
100
AcDbLine
 10
142.210515
 20
225.320408
 30
0.0
 11
216.370241
 21
225.320408
 31
0.0
  0
ELLIPSE
  5
221F
100
AcDbEntity
  8
外形
  6
CONTINUOUS
100
AcDbEllipse
 10
216.370241
 20
233.320408
 30
0.0
 11
0.0
 21
2.783882181416629
 31
0.0
210
0.0
220
0.0
230
1.0
 40
0.179605
 41
3.141592653589793
 42
6.283185307179586
  0
LINE
  5
2220
100
AcDbEntity
  8
外形
  6
CONTINUOUS
100
AcDbLine
 10
216.370241
 20
236.10429
 30
0.0
 11
216.370241
 21
241.320408
 31
0.0
  0
ARC
  5
2224
100
AcDbEntity
  8
外形
  6
CONTINUOUS
100
AcDbCircle
 10
22.569265
 20
230.850109
 30
0.0
 40
0.378
100
AcDbArc
 50
240.283476
 51
299.716524
  0
ARC
  5
2225
100
AcDbEntity
  8
外形
  6
CONTINUOUS
100
AcDbCircle
 10
21.416865
 20
230.184771
 30
0.0
 40
0.378
100
AcDbArc
 50
300.283476
 51
359.716524
  0
ARC
  5
2226
100
AcDbEntity
  8
外形
  6
CONTINUOUS
100
AcDbCircle
 10
21.416865
 20
228.854093
 30
0.0
 40
0.378
100
AcDbArc
 50
0.283476
 51
59.716524
  0
ARC
  5
2227
100
AcDbEntity
  8
外形
  6
CONTINUOUS
100
AcDbCircle
 10
22.569265
 20
228.188755
 30
0.0
 40
0.378
100
AcDbArc
 50
60.283476
 51
119.716524
  0
ARC
  5
2228
100
AcDbEntity
  8
外形
  6
CONTINUOUS
100
AcDbCircle
 10
23.721666
 20
228.854093
 30
0.0
 40
0.378
100
AcDbArc
 50
120.283476
 51
179.716524
  0
ARC
  5
2229
100
AcDbEntity
  8
外形
  6
CONTINUOUS
100
AcDbCircle
 10
23.721666
 20
230.184771
 30
0.0
 40
0.378
100
AcDbArc
 50
180.283476
 51
239.716524
  0
LINE
  5
222A
100
AcDbEntity
  8
外形
  6
CONTINUOUS
100
AcDbLine
 10
23.340345
 20
228.183883
 30
0.0
 11
22.756643
 21
228.517043
 31
0.0
  0
LINE
  5
222B
100
AcDbEntity
  8
外形
  6
CONTINUOUS
100
AcDbLine
 10
23.34367
 20
228.855963
 30
0.0
 11
23.340345
 21
228.183883
 31
0.0
  0
LINE
  5
222C
100
AcDbEntity
  8
外形
  6
CONTINUOUS
100
AcDbLine
 10
21.798186
 20
228.183883
 30
0.0
 11
21.79486
 21
228.855963
 31
0.0
  0
LINE
  5
222D
100
AcDbEntity
  8
外形
  6
CONTINUOUS
100
AcDbLine
 10
22.381887
 20
228.517043
 30
0.0
 11
21.798186
 21
228.183883
 31
0.0
  0
LINE
  5
222E
100
AcDbEntity
  8
外形
  6
CONTINUOUS
100
AcDbLine
 10
21.027106
 20
229.519432
 30
0.0
 11
21.607482
 21
229.858352
 31
0.0
  0
LINE
  5
222F
100
AcDbEntity
  8
外形
  6
CONTINUOUS
100
AcDbLine
 10
21.607482
 20
229.180512
 30
0.0
 11
21.027106
 21
229.519432
 31
0.0
  0
LINE
  5
2230
100
AcDbEntity
  8
外形
  6
CONTINUOUS
100
AcDbLine
 10
21.798186
 20
230.854981
 30
0.0
 11
22.381887
 21
230.521821
 31
0.0
  0
LINE
  5
2231
100
AcDbEntity
  8
外形
  6
CONTINUOUS
100
AcDbLine
 10
21.79486
 20
230.1829
 30
0.0
 11
21.798186
 21
230.854981
 31
0.0
  0
LINE
  5
2232
100
AcDbEntity
  8
外形
  6
CONTINUOUS
100
AcDbLine
 10
23.340345
 20
230.854981
 30
0.0
 11
23.34367
 21
230.1829
 31
0.0
  0
LINE
  5
2233
100
AcDbEntity
  8
外形
  6
CONTINUOUS
100
AcDbLine
 10
22.756643
 20
230.521821
 30
0.0
 11
23.340345
 21
230.854981
 31
0.0
  0
LINE
  5
2234
100
AcDbEntity
  8
外形
  6
CONTINUOUS
100
AcDbLine
 10
24.111425
 20
229.519432
 30
0.0
 11
23.531048
 21
229.180512
 31
0.0
  0
LINE
  5
2235
100
AcDbEntity
  8
外形
  6
CONTINUOUS
100
AcDbLine
 10
23.531048
 20
229.858352
 30
0.0
 11
24.111425
 21
229.519432
 31
0.0
  0
CIRCLE
  5
2236
100
AcDbEntity
  8
外形
  6
CONTINUOUS
100
AcDbCircle
 10
22.569265
 20
229.519432
 30
0.0
 40
2.5515
  0
LINE
  5
223C
100
AcDbEntity
  8
外形
  6
CENTER
 62
     1
100
AcDbLine
 10
-20.623614
 20
244.044062
 30
0.0
 11
-20.623614
 21
221.345523
 31
0.0
  0
LINE
  5
223D
100
AcDbEntity
  8
外形
  6
CENTER
 62
     1
100
AcDbLine
 10
-8.667883
 20
233.320408
 30
0.0
 11
-32.729094
 21
233.320408
 31
0.0
  0
ARC
  5
223E
100
AcDbEntity
  8
外形
  6
CONTINUOUS
100
AcDbCircle
 10
-20.623614
 20
233.320408
 30
0.0
 40
8.25
100
AcDbArc
 50
181.736502
 51
247.979541
  0
ARC
  5
223F
100
AcDbEntity
  8
外形
  6
CONTINUOUS
100
AcDbCircle
 10
-20.623614
 20
233.320408
 30
0.0
 40
7.75
100
AcDbArc
 50
270.64648
 51
90.0
  0
ARC
  5
2241
100
AcDbEntity
  8
外形
  6
CONTINUOUS
100
AcDbCircle
 10
-20.623614
 20
232.820408
 30
0.0
 40
8.25
100
AcDbArc
 50
90.0
 51
178.263498
  0
LINE
  5
2249
100
AcDbEntity
  8
外形
  6
CONTINUOUS
100
AcDbLine
 10
-20.625144
 20
224.298537
 30
0.0
 11
-19.4585
 21
240.982327
 31
0.0
  0
LINE
  5
224B
100
AcDbEntity
  8
外形
  6
CONTINUOUS
100
AcDbLine
 10
-20.625144
 20
224.298537
 30
0.0
 11
-23.754279
 21
225.136987
 31
0.0
  0
LINE
  5
224C
100
AcDbEntity
  8
外形
  6
CONTINUOUS
100
AcDbLine
 10
-23.754279
 20
225.136987
 30
0.0
 11
-23.171195
 21
233.475475
 31
0.0
  0
LINE
  5
224E
100
AcDbEntity
  8
外形
  6
CONTINUOUS
100
AcDbLine
 10
-23.171195
 20
233.475475
 30
0.0
 11
-19.955823
 21
233.870273
 31
0.0
  0
LINE
  5
224F
100
AcDbEntity
  8
外形
  6
CONTINUOUS
100
AcDbLine
 10
-19.714566
 20
237.320408
 30
0.0
 11
-27.169531
 21
237.84171
 31
0.0
  0
LINE
  5
2341
100
AcDbEntity
  8
外形
  6
CONTINUOUS
100
AcDbLine
 10
37.762966
 20
185.943723
 30
0.0
 11
216.870241
 21
185.943723
 31
0.0
  0
LINE
  5
236E
100
AcDbEntity
  8
外形
  6
CONTINUOUS
100
AcDbLine
 10
31.58213
 20
225.743288
 30
0.0
 11
27.019588
 21
225.743288
 31
0.0
  0
LINE
  5
237D
100
AcDbEntity
  8
外形
  6
CONTINUOUS
100
AcDbLine
 10
37.762966
 20
236.10429
 30
0.0
 11
40.977516
 21
230.536525
 31
0.0
  0
SPLINE
  5
237E
100
AcDbEntity
  8
外形
  6
CONTINUOUS
100
AcDbSpline
210
0.0
220
0.0
230
-1.0
 70
     8
 71
     3
 72
    13
 73
     9
 74
     0
 42
0.0000001
 43
0.0000001
 40
0.0
 40
0.0
 40
0.0
 40
0.0
 40
2.744361141496167
 40
5.797539406950859
 40
8.46281262736984
 40
10.91059730212969
 40
13.19014028701636
 40
14.23511231672988
 40
14.23511231672988
 40
14.23511231672988
 40
14.23511231672988
 10
37.76296598883735
 20
236.1042898162021
 30
0.0
 10
36.94566440074376
 20
236.5146187996061
 30
0.0
 10
35.21909201466455
 20
237.3814502144401
 30
0.0
 10
32.69929962673887
 20
238.6593441417429
 30
0.0
 10
30.11838743273942
 20
239.545504693962
 30
0.0
 10
27.73645877023901
 20
240.1768245962788
 30
0.0
 10
25.84939114924452
 20
240.5681345897883
 30
0.0
 10
24.75040709397639
 20
240.7073081026053
 30
0.0
 10
24.40424934280115
 20
240.7459301285794
 30
0.0
  0
SPLINE
  5
237F
100
AcDbEntity
  8
外形
  6
CONTINUOUS
100
AcDbSpline
210
0.0
220
0.0
230
1.0
 70
     8
 71
     3
 72
    13
 73
     9
 74
     0
 42
0.0000001
 43
0.0000001
 40
0.0
 40
0.0
 40
0.0
 40
0.0
 40
1.605373902287911
 40
3.412178810291432
 40
5.144421084006423
 40
6.897445689281408
 40
8.67859575088736
 40
10.9732654900408
 40
10.9732654900408
 40
10.9732654900408
 40
10.97326549005525
 10
40.97751624250259
 20
230.5365254533704
 30
0.0
 10
40.63555329723093
 20
230.1264526041213
 30
0.0
 10
39.90872030580265
 20
229.2548538538927
 30
0.0
 10
38.79731962306866
 20
227.9224112304901
 30
0.0
 10
37.22545039933276
 20
227.0626470862635
 30
0.0
 10
35.58634902789182
 20
226.4382850822335
 30
0.0
 10
33.69915269236111
 20
225.9504952129304
 30
0.0
 10
32.34530551547607
 20
225.7981527600692
 30
0.0
 10
31.58212966230334
 20
225.7432881123928
 30
0.0
  0
SPLINE
  5
2390
100
AcDbEntity
  8
外形
  6
CONTINUOUS
100
AcDbSpline
210
0.0
220
0.0
230
-1.0
 70
     8
 71
     3
 72
    12
 73
     8
 74
     0
 42
0.0000001
 43
0.0000001
 40
0.0
 40
0.0
 40
0.0
 40
0.0
 40
2.52611807233319
 40
5.428352679235223
 40
8.109750532114251
 40
10.65955559236314
 40
10.91354802844928
 40
10.91354802844928
 40
10.91354802844928
 40
10.91354802844928
 10
37.7629659888374
 20
185.9437234122115
 30
0.0
 10
36.94200409107608
 20
185.7542034250871
 30
0.0
 10
35.17784636382204
 20
185.3469456087788
 30
0.0
 10
32.61857622736033
 20
184.465472458265
 30
0.0
 10
30.07926627583997
 20
183.5169058156821
 30
0.0
 10
28.37838231158168
 20
182.846648170521
 30
0.0
 10
27.52080585899602
 20
182.4729728820807
 30
0.0
 10
27.44318819150186
 20
182.4389469187878
 30
0.0
  0
LINE
  5
239A
100
AcDbEntity
  8
外形
  6
CONTINUOUS
100
AcDbLine
 10
18.173181
 20
179.07966
 30
0.0
 11
17.370241
 21
178.443723
 31
0.0
  0
LINE
  5
239B
100
AcDbEntity
  8
外形
  6
CONTINUOUS
100
AcDbLine
 10
27.019588
 20
177.599515
 30
0.0
 11
17.370241
 21
178.443723
 31
0.0
  0
LINE
  5
239D
100
AcDbEntity
  8
外形
  6
CONTINUOUS
100
AcDbLine
 10
26.293589
 20
173.864576
 30
0.0
 11
27.183685
 21
178.443723
 31
0.0
  0
LINE
  5
239F
100
AcDbEntity
  8
外形
  6
CONTINUOUS
100
AcDbLine
 10
26.293589
 20
173.864576
 30
0.0
 11
18.12136
 21
174.579553
 31
0.0
  0
LINE
  5
23A0
100
AcDbEntity
  8
外形
  6
CONTINUOUS
100
AcDbLine
 10
17.370241
 20
178.443723
 30
0.0
 11
18.973879
 21
170.193723
 31
0.0
  0
LINE
  5
23A1
100
AcDbEntity
  8
外形
  6
CONTINUOUS
100
AcDbLine
 10
27.183685
 20
178.443723
 30
0.0
 11
18.173181
 21
179.07966
 31
0.0
  0
SPLINE
  5
23A9
100
AcDbEntity
  8
外形
  6
CONTINUOUS
100
AcDbSpline
210
0.0
220
0.0
230
1.0
 70
     8
 71
     3
 72
    12
 73
     8
 74
     0
 42
0.0000001
 43
0.0000001
 40
0.0
 40
0.0
 40
0.0
 40
0.0
 40
1.556476490552232
 40
3.208944592910507
 40
5.034907224877228
 40
6.973678550595448
 40
8.855306028733476
 40
8.855306028733476
 40
8.855306028733476
 40
8.855306028733476
 10
40.97751624250259
 20
185.9437234122115
 30
0.0
 10
40.64522037591137
 20
185.5442148972489
 30
0.0
 10
39.96013516529821
 20
184.7205592258061
 30
0.0
 10
38.6765525079898
 20
183.6282396962077
 30
0.0
 10
37.19701171910935
 20
182.5928122683734
 30
0.0
 10
35.60110162623713
 20
181.5916054557836
 30
0.0
 10
34.51839767735345
 20
180.9277543886673
 30
0.0
 10
33.97007771424654
 20
180.618825243404
 30
0.0
  0
LINE
  5
23AA
100
AcDbEntity
  8
外形
  6
CONTINUOUS
100
AcDbLine
 10
47.370241
 20
170.943723
 30
0.0
 11
216.870241
 21
170.943723
 31
0.0
  0
LINE
  5
23AD
100
AcDbEntity
  8
外形
  6
CONTINUOUS
100
AcDbLine
 10
47.370241
 20
170.943723
 30
0.0
 11
47.370241
 21
170.443723
 31
0.0
  0
LINE
  5
23AE
100
AcDbEntity
  8
外形
  6
CONTINUOUS
100
AcDbLine
 10
216.870241
 20
185.943723
 30
0.0
 11
217.370241
 21
185.443723
 31
0.0
  0
LINE
  5
23AF
100
AcDbEntity
  8
外形
  6
CONTINUOUS
100
AcDbLine
 10
216.370241
 20
170.943723
 30
0.0
 11
216.370241
 21
185.943723
 31
0.0
  0
LINE
  5
23B0
100
AcDbEntity
  8
外形
  6
CONTINUOUS
100
AcDbLine
 10
217.370241
 20
171.443723
 30
0.0
 11
217.370241
 21
185.443723
 31
0.0
  0
LINE
  5
23B1
100
AcDbEntity
  8
外形
  6
CONTINUOUS
100
AcDbLine
 10
216.870241
 20
170.943723
 30
0.0
 11
217.370241
 21
171.443723
 31
0.0
  0
LINE
  5
23B2
100
AcDbEntity
  8
外形
  6
CONTINUOUS
100
AcDbLine
 10
39.620241
 20
236.10429
 30
0.0
 11
39.620241
 21
241.320408
 31
0.0
  0
LINE
  5
23B3
100
AcDbEntity
  8
外形
  6
CONTINUOUS
100
AcDbLine
 10
39.370241
 20
236.10429
 30
0.0
 11
39.370241
 21
241.070408
 31
0.0
  0
ELLIPSE
  5
23B5
100
AcDbEntity
  8
外形
  6
CONTINUOUS
100
AcDbEllipse
 10
41.370241
 20
233.320408
 30
0.0
 11
0.0
 21
2.783882181416629
 31
0.0
210
0.0
220
0.0
230
1.0
 40
0.179605
 41
0.0
 42
3.141592653589793
  0
LINE
  5
23B6
100
AcDbEntity
  8
外形
  6
CONTINUOUS
100
AcDbLine
 10
41.370241
 20
236.10429
 30
0.0
 11
41.370241
 21
241.320408
 31
0.0
  0
DIMENSION
  5
23E4
100
AcDbEntity
  8
寸法
  6
CONTINUOUS
100
AcDbDimension
  2
*D3
 10
10.818381
 20
224.320408
 30
0.0
 11
8.318381
 21
228.820408
 31
0.0
 12
-21.767539
 22
-91.5713
 32
0.0
 70
    32
  3
STANDARD
100
AcDbAlignedDimension
 13
12.148315
 23
233.320408
 33
0.0
 14
17.370241
 24
224.320408
 34
0.0
 50
90.0
100
AcDbRotatedDimension
1001
ACAD
1000
DSTYLE
1002
{
1070
    40
1040
1.0
1002
}
  0
MTEXT
  5
23E6
100
AcDbEntity
  8
寸法
  6
CONTINUOUS
 62
     3
100
AcDbMText
 10
-6.149826
 20
259.793276
 30
0.0
 40
3.0
 41
0.0
 71
     4
 72
     1
  1
%%c18.0最小加工径
  0
LINE
  5
23E7
100
AcDbEntity
  8
寸法
  6
CONTINUOUS
100
AcDbLine
 10
17.370241
 20
224.320408
 30
0.0
 11
-11.551043
 21
224.320408
 31
0.0
  0
DIMENSION
  5
2403
100
AcDbEntity
  8
寸法
  6
CONTINUOUS
100
AcDbDimension
  2
*D4
 10
137.452212
 20
212.146642
 30
0.0
 11
129.952212
 21
214.646642
 31
0.0
 12
-21.767539
 22
-91.5713
 32
0.0
 70
    32
  3
STANDARD
100
AcDbAlignedDimension
 13
122.452212
 23
230.536525
 33
0.0
 14
137.452212
 24
230.536525
 34
0.0
100
AcDbRotatedDimension
1001
ACAD
1000
DSTYLE
1002
{
1070
    40
1040
1.0
1002
}
  0
DIMENSION
  5
240D
100
AcDbEntity
  8
寸法
  6
CONTINUOUS
100
AcDbDimension
  2
*D5
 10
125.47887
 20
226.687971
 30
0.0
 11
139.458063
 21
247.414335
 31
0.0
 12
-21.767539
 22
-91.5713
 32
0.0
 70
   163
  3
STANDARD
100
AcDbDiametricDimension
 15
134.425553
 25
239.952844
 35
0.0
 40
0.0
1001
ACAD
1000
DSTYLE
1002
{
1070
    40
1040
1.0
1002
}
  0
DIMENSION
  5
2424
100
AcDbEntity
  8
寸法
  6
CONTINUOUS
100
AcDbDimension
  2
*D6
 10
217.370241
 20
201.417212
 30
0.0
 11
117.370241
 21
203.917212
 31
0.0
 12
-21.767539
 22
-91.5713
 32
0.0
 70
    32
  3
STANDARD
100
AcDbAlignedDimension
 13
17.370241
 23
224.320408
 33
0.0
 14
217.370241
 24
226.320408
 34
0.0
100
AcDbRotatedDimension
1001
ACAD
1000
DSTYLE
1002
{
1070
    40
1040
1.0
1002
}
  0
DIMENSION
  5
2474
100
AcDbEntity
  8
寸法
  6
CONTINUOUS
100
AcDbDimension
  2
*D9
 10
-20.623614
 20
221.345523
 30
0.0
 11
-28.82588
 21
213.886861
 31
0.0
 12
-21.767539
 22
-91.5713
 32
0.0
 70
    34
  3
STANDARD
100
AcDb2LineAngularDimension
 13
-20.625144
 23
224.298537
 33
0.0
 14
-19.4585
 24
240.982327
 34
0.0
 15
-20.623614
 25
244.044062
 35
0.0
 16
-20.973945
 26
209.268766
 36
0.0
1001
ACAD
1000
DSTYLE
1002
{
1070
    40
1040
1.0
1002
}
  0
LEADER
  5
24EA
100
AcDbEntity
  8
外形
  6
CONTINUOUS
 62
     1
100
AcDbLeader
  3
STANDARD
 76
     3
 10
-7.34866
 20
224.320408
 30
0.0
 10
-7.34866
 20
257.185382
 30
0.0
 10
26.88055
 20
257.185382
 30
0.0
 77
   256
1001
ACAD
1000
DSTYLE
1002
{
1070
   284
1070
    13
1070
   146
1040
0.5
1070
   272
1070
     3
1070
    40
1040
1.0
1070
   287
1070
     0
1002
}
  0
SPLINE
  5
24F1
100
AcDbEntity
  8
外形
  6
CONTINUOUS
100
AcDbSpline
210
0.0
220
0.0
230
1.0
 70
     8
 71
     3
 72
     9
 73
     5
 74
     3
 42
0.0000001
 43
0.0000001
 44
0.0000000001
 40
0.0
 40
0.0
 40
0.0
 40
0.0
 40
5.733423291536148
 40
9.937246088086203
 40
9.937246088086203
 40
9.937246088086203
 40
9.937246088086203
 10
18.17318095049825
 20
179.0796601283866
 30
0.0
 10
20.07904019867289
 20
179.4058499146277
 30
0.0
 10
23.38230098988722
 20
179.971206423728
 30
0.0
 10
26.23597745434795
 20
181.7053429858933
 30
0.0
 10
27.44318819150186
 20
182.4389469187878
 30
0.0
 11
18.17318095049825
 21
179.0796601283866
 31
0.0
 11
23.7410982316469
 21
180.4473003552794
 31
0.0
 11
27.44318819150186
 21
182.4389469187878
 31
0.0
  0
SPLINE
  5
24F2
100
AcDbEntity
  8
外形
  6
CONTINUOUS
100
AcDbSpline
210
0.0
220
0.0
230
1.0
 70
     8
 71
     3
 72
     9
 73
     5
 74
     3
 42
0.0000001
 43
0.0000001
 44
0.0000000001
 40
0.0
 40
0.0
 40
0.0
 40
0.0
 40
3.761102006726981
 40
7.212542201767666
 40
7.212542201767666
 40
7.212542201767666
 40
7.212542201767666
 10
27.18368507401519
 20
178.4437234122115
 30
0.0
 10
28.45237044786328
 20
178.5502118857573
 30
0.0
 10
30.8852868599357
 20
178.7544213456649
 30
0.0
 10
32.97167292026931
 20
180.0154035278568
 30
0.0
 10
33.97007771424655
 20
180.618825243404
 30
0.0
 11
27.18368507401519
 21
178.4437234122115
 31
0.0
 11
30.89550998521804
 21
179.050554635518
 31
0.0
 11
33.97007771424655
 21
180.618825243404
 31
0.0
  0
LINE
  5
24F3
100
AcDbEntity
  8
外形
  6
CONTINUOUS
100
AcDbLine
 10
20.370241
 20
174.382801
 30
0.0
 11
20.370241
 21
170.193723
 31
0.0
  0
DIMENSION
  5
2506
100
AcDbEntity
  8
寸法
  6
CONTINUOUS
100
AcDbDimension
  2
*D12
 10
223.86416
 20
178.443723
 30
0.0
 11
3.576173
 21
188.474463
 31
0.0
 70
    34
  3
STANDARD
100
AcDb2LineAngularDimension
 13
27.019588
 23
177.599515
 33
0.0
 14
17.370241
 24
178.443723
 34
0.0
 15
12.148315
 25
178.443723
 35
0.0
 16
3.371559
 26
178.851043
 36
0.0
1001
ACAD
1000
DSTYLE
1002
{
1070
    40
1040
1.0
1002
}
  0
DIMENSION
  5
2513
100
AcDbEntity
  8
寸法
  6
CONTINUOUS
100
AcDbDimension
  2
*D13
 10
47.370241
 20
155.742364
 30
0.0
 11
32.370241
 21
158.242364
 31
0.0
 70
    32
  3
STANDARD
100
AcDbAlignedDimension
 13
17.370241
 23
178.443723
 33
0.0
 14
47.370241
 24
170.443723
 34
0.0
100
AcDbRotatedDimension
1001
ACAD
1000
DSTYLE
1002
{
1070
    40
1040
1.0
1002
}
  0
DIMENSION
  5
2547
100
AcDbEntity
  8
寸法
  6
CONTINUOUS
100
AcDbDimension
  2
*D14
 10
-11.551043
 20
224.320408
 30
0.0
 11
3.367231
 21
239.562153
 31
0.0
 70
    34
  3
STANDARD
100
AcDb2LineAngularDimension
 13
17.371763
 23
224.75527
 33
0.0
 14
18.47107
 24
237.320408
 34
0.0
 15
17.370241
 25
224.320408
 35
0.0
 16
9.177684
 26
240.560407
 36
0.0
1001
ACAD
1000
DSTYLE
1002
{
1070
   284
1070
    13
1070
   146
1040
0.5
1070
   272
1070
     3
1070
    40
1040
1.0
1070
   287
1070
     0
1002
}
  0
ENDSEC
  0
SECTION
  2
OBJECTS
  0
DICTIONARY
  5
1E
100
AcDbDictionary
  3
ACAD_GROUP
350
1C
  3
ACAD_MLINESTYLE
350
1D
  3
ACDBVARIABLEDICTIONARY
350
147A
  3
DRAWINGVARIABLESDICT
350
C58
  0
DICTIONARY
  5
38
100
AcDbDictionary
280
     1
  3
ACAD_XREC_ROUNDTRIP
360
39
  0
DICTIONARY
  5
22
100
AcDbDictionary
280
     1
  3
ACAD_XREC_ROUNDTRIP
360
23
  0
DICTIONARY
  5
3
100
AcDbDictionary
280
     1
  3
ACAD_LAYOUTSELFREF
360
4
  0
DICTIONARY
  5
A
100
AcDbDictionary
280
     1
  3
ACAD_LAYOUTSELFREF
360
B
  0
DICTIONARY
  5
1C
102
{ACAD_REACTORS
330
1E
102
}
100
AcDbDictionary
  3
*A1
350
1666
  3
*A2
350
1679
  3
*A3
350
16C2
  3
*A4
350
1A57
  3
*A5
350
1A58
  0
DICTIONARY
  5
1D
102
{ACAD_REACTORS
330
1E
102
}
100
AcDbDictionary
  3
STANDARD
350
20
  0
DICTIONARY
  5
147A
102
{ACAD_REACTORS
330
1E
102
}
100
AcDbDictionary
  3
SORTENTS
350
147B
  0
DICTIONARY
  5
C58
102
{ACAD_REACTORS
330
1E
102
}
100
AcDbDictionary
1001
DRAWINGVARIABLESXDATA
1000
POLARMODE
1000
0
  0
XRECORD
  5
39
102
{ACAD_REACTORS
330
38
102
}
100
AcDbXrecord
102
PLOTBIT
280
     0
  0
XRECORD
  5
23
102
{ACAD_REACTORS
330
22
102
}
100
AcDbXrecord
102
ACADR14ROUNDTRIP
1000
DSTYLE
1002
{
1070
   341
340
0
1070
   343
340
0
1070
   344
340
0
1002
}
  0
XRECORD
  5
4
102
{ACAD_REACTORS
330
3
102
}
100
AcDbXrecord
340
2
  0
XRECORD
  5
B
102
{ACAD_REACTORS
330
A
102
}
100
AcDbXrecord
340
9
  0
GROUP
  5
1666
102
{ACAD_REACTORS
330
1C
102
}
100
AcDbGroup
300

 70
     1
 71
     1
  0
GROUP
  5
1679
102
{ACAD_REACTORS
330
1C
102
}
100
AcDbGroup
300

 70
     1
 71
     1
  0
GROUP
  5
16C2
102
{ACAD_REACTORS
330
1C
102
}
100
AcDbGroup
300

 70
     1
 71
     1
  0
GROUP
  5
1A57
102
{ACAD_REACTORS
330
1C
102
}
100
AcDbGroup
300

 70
     1
 71
     1
  0
GROUP
  5
1A58
102
{ACAD_REACTORS
330
1C
102
}
100
AcDbGroup
300

 70
     1
 71
     1
  0
MLINESTYLE
  5
20
102
{ACAD_REACTORS
330
1D
102
}
100
AcDbMlineStyle
  2
STANDARD
 70
     0
  3

 62
     0
 51
90.0
 52
90.0
 71
     2
 49
0.5
 62
   256
  6
BYLAYER
 49
-0.5
 62
   256
  6
BYLAYER
  0
DICTIONARYVAR
  5
147B
102
{ACAD_REACTORS
330
147A
102
}
100
DictionaryVariables
280
     0
  1
96
  0
ENDSEC
  0
EOF
