  0
SECTION
  2
HEADER
  9
$ACADVER
  1
AC1014
  9
$ACADMAINTVER
 70
     0
  9
$DWGCODEPAGE
  3
ANSI_932
  9
$INSBASE
 10
768.430705
 20
234.056904
 30
0.0
  9
$EXTMIN
 10
719.26899
 20
193.566794
 30
0.0
  9
$EXTMAX
 10
992.508205
 20
312.076312
 30
0.0
  9
$LIMMIN
 10
-587.250952
 20
327.890188
  9
$LIMMAX
 10
600.749048
 20
957.890188
  9
$ORTHOMODE
 70
     1
  9
$REGENMODE
 70
     1
  9
$FILLMODE
 70
     1
  9
$QTEXTMODE
 70
     0
  9
$MIRRTEXT
 70
     1
  9
$DRAGMODE
 70
     2
  9
$LTSCALE
 40
5.0
  9
$OSMODE
 70
   303
  9
$ATTMODE
 70
     1
  9
$TEXTSIZE
 40
5.0
  9
$TRACEWID
 40
0.05
  9
$TEXTSTYLE
  7
STANDARD
  9
$CLAYER
  8
外形
  9
$CELTYPE
  6
CONTINUOUS
  9
$CECOLOR
 62
   256
  9
$CELTSCALE
 40
1.0
  9
$DELOBJ
 70
     1
  9
$DISPSILH
 70
     0
  9
$DIMSCALE
 40
1.0
  9
$DIMASZ
 40
2.0
  9
$DIMEXO
 40
1.0
  9
$DIMDLI
 40
8.0
  9
$DIMRND
 40
0.0
  9
$DIMDLE
 40
0.0
  9
$DIMEXE
 40
2.0
  9
$DIMTP
 40
0.0
  9
$DIMTM
 40
0.0
  9
$DIMTXT
 40
2.0
  9
$DIMCEN
 40
-1.0
  9
$DIMTSZ
 40
0.0
  9
$DIMTOL
 70
     0
  9
$DIMLIM
 70
     0
  9
$DIMTIH
 70
     0
  9
$DIMTOH
 70
     0
  9
$DIMSE1
 70
     0
  9
$DIMSE2
 70
     0
  9
$DIMTAD
 70
     1
  9
$DIMZIN
 70
     8
  9
$DIMBLK
  1

  9
$DIMASO
 70
     1
  9
$DIMSHO
 70
     1
  9
$DIMPOST
  1

  9
$DIMAPOST
  1

  9
$DIMALT
 70
     0
  9
$DIMALTD
 70
     2
  9
$DIMALTF
 40
25.4
  9
$DIMLFAC
 40
1.0
  9
$DIMTOFL
 70
     1
  9
$DIMTVP
 40
0.0
  9
$DIMTIX
 70
     0
  9
$DIMSOXD
 70
     0
  9
$DIMSAH
 70
     1
  9
$DIMBLK1
  1
_DOTSMALL
  9
$DIMBLK2
  1
_DOTSMALL
  9
$DIMSTYLE
  2
参考寸法
  9
$DIMCLRD
 70
     2
  9
$DIMCLRE
 70
     2
  9
$DIMCLRT
 70
     2
  9
$DIMTFAC
 40
1.0
  9
$DIMGAP
 40
1.0
  9
$DIMJUST
 70
     0
  9
$DIMSD1
 70
     0
  9
$DIMSD2
 70
     0
  9
$DIMTOLJ
 70
     1
  9
$DIMTZIN
 70
     8
  9
$DIMALTZ
 70
     0
  9
$DIMALTTZ
 70
     0
  9
$DIMFIT
 70
     3
  9
$DIMUPT
 70
     0
  9
$DIMUNIT
 70
     2
  9
$DIMDEC
 70
     3
  9
$DIMTDEC
 70
     2
  9
$DIMALTU
 70
     2
  9
$DIMALTTD
 70
     2
  9
$DIMTXSTY
  7
STANDARD
  9
$DIMAUNIT
 70
     0
  9
$LUNITS
 70
     2
  9
$LUPREC
 70
     3
  9
$SKETCHINC
 40
0.1
  9
$FILLETRAD
 40
3.0
  9
$AUNITS
 70
     0
  9
$AUPREC
 70
     3
  9
$MENU
  1
acad
  9
$ELEVATION
 40
0.0
  9
$PELEVATION
 40
0.0
  9
$THICKNESS
 40
0.0
  9
$LIMCHECK
 70
     0
  9
$BLIPMODE
 70
     0
  9
$CHAMFERA
 40
0.0
  9
$CHAMFERB
 40
0.0
  9
$CHAMFERC
 40
0.0
  9
$CHAMFERD
 40
0.0
  9
$SKPOLY
 70
     0
  9
$TDCREATE
 40
2450751.535399305
  9
$TDUPDATE
 40
2452013.572916666
  9
$TDINDWG
 40
4.2216013889
  9
$TDUSRTIMER
 40
4.2216013889
  9
$USRTIMER
 70
     1
  9
$ANGBASE
 50
0.0
  9
$ANGDIR
 70
     0
  9
$PDMODE
 70
    32
  9
$PDSIZE
 40
0.0
  9
$PLINEWID
 40
0.0
  9
$COORDS
 70
     2
  9
$SPLFRAME
 70
     0
  9
$SPLINETYPE
 70
     5
  9
$SPLINESEGS
 70
     8
  9
$ATTDIA
 70
     0
  9
$ATTREQ
 70
     1
  9
$HANDLING
 70
     1
  9
$HANDSEED
  5
442
  9
$SURFTAB1
 70
     6
  9
$SURFTAB2
 70
     6
  9
$SURFTYPE
 70
     6
  9
$SURFU
 70
     6
  9
$SURFV
 70
     6
  9
$UCSNAME
  2

  9
$UCSORG
 10
0.0
 20
0.0
 30
0.0
  9
$UCSXDIR
 10
1.0
 20
0.0
 30
0.0
  9
$UCSYDIR
 10
0.0
 20
1.0
 30
0.0
  9
$PUCSNAME
  2

  9
$PUCSORG
 10
0.0
 20
0.0
 30
0.0
  9
$PUCSXDIR
 10
1.0
 20
0.0
 30
0.0
  9
$PUCSYDIR
 10
0.0
 20
1.0
 30
0.0
  9
$USERI1
 70
     0
  9
$USERI2
 70
     0
  9
$USERI3
 70
     0
  9
$USERI4
 70
     0
  9
$USERI5
 70
     0
  9
$USERR1
 40
0.0
  9
$USERR2
 40
0.0
  9
$USERR3
 40
0.0
  9
$USERR4
 40
0.0
  9
$USERR5
 40
0.0
  9
$WORLDVIEW
 70
     1
  9
$SHADEDGE
 70
     3
  9
$SHADEDIF
 70
    70
  9
$TILEMODE
 70
     1
  9
$MAXACTVP
 70
    16
  9
$PINSBASE
 10
0.0
 20
0.0
 30
0.0
  9
$PLIMCHECK
 70
     0
  9
$PEXTMIN
 10
1.000000E+20
 20
1.000000E+20
 30
1.000000E+20
  9
$PEXTMAX
 10
-1.000000E+20
 20
-1.000000E+20
 30
-1.000000E+20
  9
$PLIMMIN
 10
0.0
 20
0.0
  9
$PLIMMAX
 10
12.0
 20
9.0
  9
$UNITMODE
 70
     0
  9
$VISRETAIN
 70
     0
  9
$PLINEGEN
 70
     0
  9
$PSLTSCALE
 70
     1
  9
$TREEDEPTH
 70
  3020
  9
$PICKSTYLE
 70
     1
  9
$CMLSTYLE
  2
STANDARD
  9
$CMLJUST
 70
     0
  9
$CMLSCALE
 40
1.0
  9
$PROXYGRAPHICS
 70
     1
  9
$MEASUREMENT
 70
     0
  0
ENDSEC
  0
SECTION
  2
CLASSES
  0
CLASS
  1
LWPOLYLINE
  2
AcDbPolyline
  3
"AutoCAD"
 90
        0
280
     0
281
     1
  0
CLASS
  1
ACDBDICTIONARYWDFLT
  2
AcDbDictionaryWithDefault
  3
AutoCAD 2000
 90
        0
280
     1
281
     0
  0
CLASS
  1
ACDBPLACEHOLDER
  2
AcDbPlaceHolder
  3
AutoCAD 2000
 90
        0
280
     1
281
     0
  0
CLASS
  1
LAYOUT
  2
AcDbLayout
  3
AutoCAD 2000
 90
        0
280
     1
281
     0
  0
CLASS
  1
LONG_TRANSACTION
  2
AcDbLongTransaction
  3
AutoCAD 2000
 90
        0
280
     1
281
     0
  0
CLASS
  1
LWPOLYLINE
  2
AcDbPolyline
  3
"AutoCAD"
 90
        0
280
     0
281
     1
  0
CLASS
  1
HATCH
  2
AcDbHatch
  3
"ACAD_SEDONA"
 90
        0
280
     0
281
     1
  0
CLASS
  1
XRECORD
  2
AcDbXrecord
  3
"<Built In>"
 90
        0
280
     0
281
     0
  0
CLASS
  1
DICTIONARYVAR
  2
AcDbDictionaryVar
  3
"AutoCAD"
 90
        0
280
     0
281
     0
  0
ENDSEC
  0
SECTION
  2
TABLES
  0
TABLE
  2
VPORT
  5
16
100
AcDbSymbolTable
 70
     1
  0
VPORT
  5
43D
100
AcDbSymbolTableRecord
100
AcDbViewportTableRecord
  2
*ACTIVE
 70
     0
 10
0.0
 20
0.0
 11
1.0
 21
1.0
 12
868.832682
 22
254.079305
 13
0.0
 23
0.0
 14
1.0
 24
1.0
 15
10.0
 25
10.0
 16
0.0
 26
0.0
 36
1.0
 17
0.0
 27
0.0
 37
0.0
 40
195.39082
 41
1.710425
 42
50.0
 43
0.0
 44
0.0
 50
0.0
 51
0.0
 71
     0
 72
   100
 73
     1
 74
     1
 75
     0
 76
     0
 77
     0
 78
     2
  0
ENDTAB
  0
TABLE
  2
LTYPE
  5
11
100
AcDbSymbolTable
 70
     3
  0
LTYPE
  5
12
100
AcDbSymbolTableRecord
100
AcDbLinetypeTableRecord
  2
BYBLOCK
 70
     0
  3

 72
    65
 73
     0
 40
0.0
  0
LTYPE
  5
13
100
AcDbSymbolTableRecord
100
AcDbLinetypeTableRecord
  2
BYLAYER
 70
     0
  3

 72
    65
 73
     0
 40
0.0
  0
LTYPE
  5
7
100
AcDbSymbolTableRecord
100
AcDbLinetypeTableRecord
  2
CONTINUOUS
 70
     0
  3
Solid line
 72
    65
 73
     0
 40
0.0
  0
LTYPE
  5
61
100
AcDbSymbolTableRecord
100
AcDbLinetypeTableRecord
  2
CENTER
 70
     0
  3
Center ____ _ ____ _ ____ _ ____ _ ____ _ ____
 72
    65
 73
     4
 40
2.0
 49
1.25
 74
     0
 49
-0.25
 74
     0
 49
0.25
 74
     0
 49
-0.25
 74
     0
  0
LTYPE
  5
A1
100
AcDbSymbolTableRecord
100
AcDbLinetypeTableRecord
  2
HIDDEN
 70
     0
  3
Hidden __ __ __ __ __ __ __ __ __ __ __ __ __ _
 72
    65
 73
     2
 40
0.375
 49
0.25
 74
     0
 49
-0.125
 74
     0
  0
ENDTAB
  0
TABLE
  2
LAYER
  5
E
100
AcDbSymbolTable
 70
     5
  0
LAYER
  5
6
100
AcDbSymbolTableRecord
100
AcDbLayerTableRecord
  2
0
 70
     0
 62
     7
  6
CONTINUOUS
  0
LAYER
  5
1F
100
AcDbSymbolTableRecord
100
AcDbLayerTableRecord
  2
外形
 70
     0
 62
     4
  6
CONTINUOUS
  0
LAYER
  5
3F
102
{ACAD_XDICTIONARY
360
40
102
}
100
AcDbSymbolTableRecord
100
AcDbLayerTableRecord
  2
DEFPOINTS
 70
     0
 62
     7
  6
CONTINUOUS
  0
LAYER
  5
2D
100
AcDbSymbolTableRecord
100
AcDbLayerTableRecord
  2
寸法
 70
     0
 62
     1
  6
CONTINUOUS
  0
LAYER
  5
78
100
AcDbSymbolTableRecord
100
AcDbLayerTableRecord
  2
参考
 70
     0
 62
     2
  6
CONTINUOUS
  0
ENDTAB
  0
TABLE
  2
STYLE
  5
F
100
AcDbSymbolTable
 70
     1
  0
STYLE
  5
10
100
AcDbSymbolTableRecord
100
AcDbTextStyleTableRecord
  2
STANDARD
 70
     0
 40
0.0
 41
1.0
 50
0.0
 71
     0
 42
5.0
  3
MONOTXT
  4
BIGFONT
  0
ENDTAB
  0
TABLE
  2
VIEW
  5
14
100
AcDbSymbolTable
 70
     0
  0
ENDTAB
  0
TABLE
  2
UCS
  5
15
100
AcDbSymbolTable
 70
     0
  0
ENDTAB
  0
TABLE
  2
APPID
  5
18
100
AcDbSymbolTable
 70
     1
  0
APPID
  5
19
100
AcDbSymbolTableRecord
100
AcDbRegAppTableRecord
  2
ACAD
 70
     0
  0
ENDTAB
  0
TABLE
  2
DIMSTYLE
  5
1A
100
AcDbSymbolTable
 70
     2
  0
DIMSTYLE
105
2E
102
{ACAD_XDICTIONARY
360
2F
102
}
102
{ACAD_REACTORS
330
65
330
53
330
CC
330
127
330
10E
330
17F
330
47
330
2C
330
1D4
102
}
100
AcDbSymbolTableRecord
100
AcDbDimStyleTableRecord
  2
STANDARD
 70
     0
  3

  4

  5

  6
_OPEN30
  7
_OPEN30
 40
0.0
 41
2.0
 42
1.0
 43
8.0
 44
2.0
 45
0.0
 46
0.0
 47
0.0
 48
0.0
140
3.0
141
-1.0
142
0.0
143
25.4
144
1.0
145
0.0
146
1.0
147
1.0
 71
     0
 72
     0
 73
     0
 74
     0
 75
     0
 76
     0
 77
     1
 78
     8
170
     0
171
     2
172
     1
173
     1
174
     0
175
     0
176
     1
177
     1
178
     3
270
     2
271
     2
272
     2
273
     2
274
     2
340
10
275
     0
280
     0
281
     0
282
     0
283
     1
284
     8
285
     0
286
     0
287
     3
288
     0
  0
DIMSTYLE
105
21
102
{ACAD_REACTORS
330
77
330
85
330
164
330
140
330
135
330
154
330
11D
330
EE
330
DF
330
B5
330
171
102
}
100
AcDbSymbolTableRecord
100
AcDbDimStyleTableRecord
  2
参考寸法
 70
     0
  3

  4

  5

  6
_DOTSMALL
  7
_DOTSMALL
 40
1.0
 41
2.0
 42
1.0
 43
8.0
 44
2.0
 45
0.0
 46
0.0
 47
0.0
 48
0.0
140
2.0
141
-1.0
142
0.0
143
25.4
144
1.0
145
0.0
146
1.0
147
1.0
 71
     0
 72
     0
 73
     0
 74
     0
 75
     0
 76
     0
 77
     1
 78
     8
170
     0
171
     2
172
     1
173
     1
174
     0
175
     0
176
     2
177
     2
178
     2
270
     2
271
     3
272
     2
273
     2
274
     2
340
10
275
     0
280
     0
281
     0
282
     0
283
     1
284
     8
285
     0
286
     0
287
     3
288
     0
  0
ENDTAB
  0
TABLE
  2
BLOCK_RECORD
  5
1
100
AcDbSymbolTable
 70
    41
  0
BLOCK_RECORD
  5
2
102
{ACAD_XDICTIONARY
360
3
102
}
100
AcDbSymbolTableRecord
100
AcDbBlockTableRecord
  2
*MODEL_SPACE
  0
BLOCK_RECORD
  5
9
102
{ACAD_XDICTIONARY
360
A
102
}
100
AcDbSymbolTableRecord
100
AcDbBlockTableRecord
  2
*PAPER_SPACE
  0
BLOCK_RECORD
  5
22
100
AcDbSymbolTableRecord
100
AcDbBlockTableRecord
  2
_DOTSMALL
  0
BLOCK_RECORD
  5
31
100
AcDbSymbolTableRecord
100
AcDbBlockTableRecord
  2
_OPEN30
  0
BLOCK_RECORD
  5
155
100
AcDbSymbolTableRecord
100
AcDbBlockTableRecord
  2
*D2
  0
BLOCK_RECORD
  5
37
100
AcDbSymbolTableRecord
100
AcDbBlockTableRecord
  2
*D3
  0
BLOCK_RECORD
  5
54
100
AcDbSymbolTableRecord
100
AcDbBlockTableRecord
  2
*D4
  0
BLOCK_RECORD
  5
172
100
AcDbSymbolTableRecord
100
AcDbBlockTableRecord
  2
*D5
  0
BLOCK_RECORD
  5
86
100
AcDbSymbolTableRecord
100
AcDbBlockTableRecord
  2
*D6
  0
BLOCK_RECORD
  5
E0
100
AcDbSymbolTableRecord
100
AcDbBlockTableRecord
  2
*D7
  0
BLOCK_RECORD
  5
B6
100
AcDbSymbolTableRecord
100
AcDbBlockTableRecord
  2
*D8
  0
BLOCK_RECORD
  5
EF
100
AcDbSymbolTableRecord
100
AcDbBlockTableRecord
  2
*D9
  0
BLOCK_RECORD
  5
180
100
AcDbSymbolTableRecord
100
AcDbBlockTableRecord
  2
*D10
  0
BLOCK_RECORD
  5
136
100
AcDbSymbolTableRecord
100
AcDbBlockTableRecord
  2
*D11
  0
BLOCK_RECORD
  5
10F
100
AcDbSymbolTableRecord
100
AcDbBlockTableRecord
  2
*D12
  0
BLOCK_RECORD
  5
11E
100
AcDbSymbolTableRecord
100
AcDbBlockTableRecord
  2
*D13
  0
BLOCK_RECORD
  5
48
100
AcDbSymbolTableRecord
100
AcDbBlockTableRecord
  2
*D14
  0
BLOCK_RECORD
  5
79
100
AcDbSymbolTableRecord
100
AcDbBlockTableRecord
  2
*D15
  0
BLOCK_RECORD
  5
141
100
AcDbSymbolTableRecord
100
AcDbBlockTableRecord
  2
*D16
  0
BLOCK_RECORD
  5
128
100
AcDbSymbolTableRecord
100
AcDbBlockTableRecord
  2
*D17
  0
BLOCK_RECORD
  5
165
100
AcDbSymbolTableRecord
100
AcDbBlockTableRecord
  2
*D18
  0
BLOCK_RECORD
  5
CD
100
AcDbSymbolTableRecord
100
AcDbBlockTableRecord
  2
*D19
  0
BLOCK_RECORD
  5
66
100
AcDbSymbolTableRecord
100
AcDbBlockTableRecord
  2
*D20
  0
BLOCK_RECORD
  5
2A
100
AcDbSymbolTableRecord
100
AcDbBlockTableRecord
  2
2
  0
BLOCK_RECORD
  5
25D
100
AcDbSymbolTableRecord
100
AcDbBlockTableRecord
  2
*D22
  0
BLOCK_RECORD
  5
269
100
AcDbSymbolTableRecord
100
AcDbBlockTableRecord
  2
*D23
  0
BLOCK_RECORD
  5
274
100
AcDbSymbolTableRecord
100
AcDbBlockTableRecord
  2
*D24
  0
BLOCK_RECORD
  5
280
100
AcDbSymbolTableRecord
100
AcDbBlockTableRecord
  2
*D25
  0
BLOCK_RECORD
  5
29D
100
AcDbSymbolTableRecord
100
AcDbBlockTableRecord
  2
*D27
  0
BLOCK_RECORD
  5
2B7
100
AcDbSymbolTableRecord
100
AcDbBlockTableRecord
  2
*D29
  0
BLOCK_RECORD
  5
2E4
100
AcDbSymbolTableRecord
100
AcDbBlockTableRecord
  2
*D32
  0
BLOCK_RECORD
  5
345
100
AcDbSymbolTableRecord
100
AcDbBlockTableRecord
  2
*D40
  0
ENDTAB
  0
ENDSEC
  0
SECTION
  2
BLOCKS
  0
BLOCK
  5
5
100
AcDbEntity
  8
0
100
AcDbBlockBegin
  2
*MODEL_SPACE
 70
     0
 10
0.0
 20
0.0
 30
0.0
  3
*MODEL_SPACE
  1

  0
ENDBLK
  5
8
100
AcDbEntity
  8
0
100
AcDbBlockEnd
  0
BLOCK
  5
C
100
AcDbEntity
 67
     1
  8
0
100
AcDbBlockBegin
  2
*PAPER_SPACE
 70
     0
 10
0.0
 20
0.0
 30
0.0
  3
*PAPER_SPACE
  1

  0
ENDBLK
  5
D
100
AcDbEntity
 67
     1
  8
0
100
AcDbBlockEnd
  0
BLOCK
  5
27
100
AcDbEntity
  8
0
100
AcDbBlockBegin
  2
_DOTSMALL
 70
     0
 10
0.0
 20
0.0
 30
0.0
  3
_DOTSMALL
  1

  0
POLYLINE
  5
23
100
AcDbEntity
  8
0
  6
BYBLOCK
 62
     0
100
AcDb2dPolyline
 66
     1
 10
0.0
 20
0.0
 30
0.0
 70
     1
 40
0.5
 41
0.5
  0
VERTEX
  5
24
100
AcDbEntity
  8
0
  6
BYBLOCK
 62
     0
100
AcDbVertex
100
AcDb2dVertex
 10
-0.0625
 20
0.0
 30
0.0
 42
1.0
  0
VERTEX
  5
25
100
AcDbEntity
  8
0
  6
BYBLOCK
 62
     0
100
AcDbVertex
100
AcDb2dVertex
 10
0.0625
 20
0.0
 30
0.0
 42
1.0
  0
SEQEND
  5
26
100
AcDbEntity
  8
0
  6
BYBLOCK
 62
     0
  0
ENDBLK
  5
28
100
AcDbEntity
  8
0
100
AcDbBlockEnd
  0
BLOCK
  5
35
100
AcDbEntity
  8
0
100
AcDbBlockBegin
  2
_OPEN30
 70
     0
 10
0.0
 20
0.0
 30
0.0
  3
_OPEN30
  1

  0
LINE
  5
32
100
AcDbEntity
  8
0
  6
BYBLOCK
 62
     0
100
AcDbLine
 10
-1.0
 20
0.267949
 30
0.0
 11
0.0
 21
0.0
 31
0.0
  0
LINE
  5
33
100
AcDbEntity
  8
0
  6
BYBLOCK
 62
     0
100
AcDbLine
 10
0.0
 20
0.0
 30
0.0
 11
-1.0
 21
-0.267949
 31
0.0
  0
LINE
  5
34
100
AcDbEntity
  8
0
  6
BYBLOCK
 62
     0
100
AcDbLine
 10
0.0
 20
0.0
 30
0.0
 11
-1.0
 21
0.0
 31
0.0
  0
ENDBLK
  5
36
100
AcDbEntity
  8
0
100
AcDbBlockEnd
  0
BLOCK
  5
160
100
AcDbEntity
  8
0
100
AcDbBlockBegin
  2
*D2
 70
     1
 10
0.0
 20
0.0
 30
0.0
  3
*D2
  1

  0
LINE
  5
156
100
AcDbEntity
  8
0
  6
BYBLOCK
 62
     2
100
AcDbLine
 10
-407.745437
 20
686.61216
 30
0.0
 11
-407.745437
 21
675.133345
 31
0.0
  0
LINE
  5
157
100
AcDbEntity
  8
0
  6
BYBLOCK
 62
     2
100
AcDbLine
 10
-403.445416
 20
686.61216
 30
0.0
 11
-403.445416
 21
675.133345
 31
0.0
  0
LINE
  5
158
100
AcDbEntity
  8
0
  6
BYBLOCK
 62
     2
100
AcDbLine
 10
-407.745437
 20
677.133345
 30
0.0
 11
-403.445416
 21
677.133345
 31
0.0
  0
LINE
  5
159
100
AcDbEntity
  8
0
  6
BYBLOCK
 62
     2
100
AcDbLine
 10
-403.445416
 20
677.133345
 30
0.0
 11
-396.445416
 21
677.133345
 31
0.0
  0
INSERT
  5
15A
100
AcDbEntity
  8
0
  6
BYBLOCK
 62
     2
100
AcDbBlockReference
  2
_DOTSMALL
 10
-407.745437
 20
677.133345
 30
0.0
 50
180.0
  0
INSERT
  5
15B
100
AcDbEntity
  8
0
  6
BYBLOCK
 62
     2
100
AcDbBlockReference
  2
_DOTSMALL
 10
-403.445416
 20
677.133345
 30
0.0
  0
MTEXT
  5
15C
100
AcDbEntity
  8
0
  6
BYBLOCK
 62
     2
100
AcDbMText
 10
-399.445416
 20
678.883345
 30
0.0
 40
1.5
 41
0.0
 71
     5
 72
     1
  1
\A1;4.3
  0
POINT
  5
15D
100
AcDbEntity
  8
DEFPOINTS
  6
BYBLOCK
 62
     0
100
AcDbPoint
 10
-407.745437
 20
687.61216
 30
0.0
  0
POINT
  5
15E
100
AcDbEntity
  8
DEFPOINTS
  6
BYBLOCK
 62
     0
100
AcDbPoint
 10
-403.445416
 20
687.61216
 30
0.0
  0
POINT
  5
15F
100
AcDbEntity
  8
DEFPOINTS
  6
BYBLOCK
 62
     0
100
AcDbPoint
 10
-403.445416
 20
677.133345
 30
0.0
  0
ENDBLK
  5
161
100
AcDbEntity
  8
0
100
AcDbBlockEnd
  0
BLOCK
  5
44
100
AcDbEntity
  8
0
100
AcDbBlockBegin
  2
*D3
 70
     1
 10
0.0
 20
0.0
 30
0.0
  3
*D3
  1

  0
LINE
  5
38
100
AcDbEntity
  8
0
  6
BYBLOCK
 62
     1
100
AcDbLine
 10
-1.660033
 20
686.540324
 30
0.0
 11
-1.660033
 21
670.079526
 31
0.0
  0
LINE
  5
39
100
AcDbEntity
  8
0
  6
BYBLOCK
 62
     1
100
AcDbLine
 10
9.339967
 20
686.540324
 30
0.0
 11
9.339967
 21
670.079526
 31
0.0
  0
LINE
  5
3A
100
AcDbEntity
  8
0
  6
BYBLOCK
 62
     1
100
AcDbLine
 10
0.339967
 20
672.079526
 30
0.0
 11
7.339967
 21
672.079526
 31
0.0
  0
INSERT
  5
3B
100
AcDbEntity
  8
0
  6
BYBLOCK
 62
     1
100
AcDbBlockReference
  2
_OPEN30
 10
-1.660033
 20
672.079526
 30
0.0
 41
2.0
 42
2.0
 43
2.0
 50
180.0
  0
INSERT
  5
3C
100
AcDbEntity
  8
0
  6
BYBLOCK
 62
     1
100
AcDbBlockReference
  2
_OPEN30
 10
9.339967
 20
672.079526
 30
0.0
 41
2.0
 42
2.0
 43
2.0
  0
MTEXT
  5
3D
100
AcDbEntity
  8
0
  6
BYBLOCK
 62
     3
100
AcDbMText
 10
3.839967
 20
674.579526
 30
0.0
 40
3.0
 41
0.0
 71
     5
 72
     1
  1
\A1;11
  0
POINT
  5
3E
100
AcDbEntity
  8
DEFPOINTS
  6
BYBLOCK
 62
     0
100
AcDbPoint
 10
-1.660033
 20
687.540324
 30
0.0
  0
POINT
  5
42
100
AcDbEntity
  8
DEFPOINTS
  6
BYBLOCK
 62
     0
100
AcDbPoint
 10
9.339967
 20
687.540324
 30
0.0
  0
POINT
  5
43
100
AcDbEntity
  8
DEFPOINTS
  6
BYBLOCK
 62
     0
100
AcDbPoint
 10
9.339967
 20
672.079526
 30
0.0
  0
ENDBLK
  5
45
100
AcDbEntity
  8
0
100
AcDbBlockEnd
  0
BLOCK
  5
5E
100
AcDbEntity
  8
0
100
AcDbBlockBegin
  2
*D4
 70
     1
 10
0.0
 20
0.0
 30
0.0
  3
*D4
  1

  0
LINE
  5
55
100
AcDbEntity
  8
0
  6
BYBLOCK
 62
     1
100
AcDbLine
 10
-136.155945
 20
680.938239
 30
0.0
 11
-136.155945
 21
656.011273
 31
0.0
  0
LINE
  5
56
100
AcDbEntity
  8
0
  6
BYBLOCK
 62
     1
100
AcDbLine
 10
63.839967
 20
683.938239
 30
0.0
 11
63.839967
 21
656.011273
 31
0.0
  0
LINE
  5
57
100
AcDbEntity
  8
0
  6
BYBLOCK
 62
     1
100
AcDbLine
 10
-134.155945
 20
658.011273
 30
0.0
 11
61.839967
 21
658.011273
 31
0.0
  0
INSERT
  5
58
100
AcDbEntity
  8
0
  6
BYBLOCK
 62
     1
100
AcDbBlockReference
  2
_OPEN30
 10
-136.155945
 20
658.011273
 30
0.0
 41
2.0
 42
2.0
 43
2.0
 50
180.0
  0
INSERT
  5
59
100
AcDbEntity
  8
0
  6
BYBLOCK
 62
     1
100
AcDbBlockReference
  2
_OPEN30
 10
63.839967
 20
658.011273
 30
0.0
 41
2.0
 42
2.0
 43
2.0
  0
MTEXT
  5
5A
100
AcDbEntity
  8
0
  6
BYBLOCK
 62
     3
100
AcDbMText
 10
-36.157989
 20
660.511273
 30
0.0
 40
3.0
 41
0.0
 71
     5
 72
     1
  1
\A1;200
  0
POINT
  5
5B
100
AcDbEntity
  8
DEFPOINTS
  6
BYBLOCK
 62
     0
100
AcDbPoint
 10
-136.155945
 20
681.938239
 30
0.0
  0
POINT
  5
5C
100
AcDbEntity
  8
DEFPOINTS
  6
BYBLOCK
 62
     0
100
AcDbPoint
 10
63.839967
 20
684.938239
 30
0.0
  0
POINT
  5
5D
100
AcDbEntity
  8
DEFPOINTS
  6
BYBLOCK
 62
     0
100
AcDbPoint
 10
63.839967
 20
658.011273
 30
0.0
  0
ENDBLK
  5
5F
100
AcDbEntity
  8
0
100
AcDbBlockEnd
  0
BLOCK
  5
17D
100
AcDbEntity
  8
0
100
AcDbBlockBegin
  2
*D5
 70
     1
 10
0.0
 20
0.0
 30
0.0
  3
*D5
  1

  0
LINE
  5
173
100
AcDbEntity
  8
0
  6
BYBLOCK
 62
     2
100
AcDbLine
 10
-408.987111
 20
680.938239
 30
0.0
 11
-408.987111
 21
672.007013
 31
0.0
  0
LINE
  5
174
100
AcDbEntity
  8
0
  6
BYBLOCK
 62
     2
100
AcDbLine
 10
-411.327111
 20
689.67168
 30
0.0
 11
-411.327111
 21
672.007013
 31
0.0
  0
LINE
  5
175
100
AcDbEntity
  8
0
  6
BYBLOCK
 62
     2
100
AcDbLine
 10
-408.987111
 20
674.007013
 30
0.0
 11
-411.327111
 21
674.007013
 31
0.0
  0
LINE
  5
176
100
AcDbEntity
  8
0
  6
BYBLOCK
 62
     2
100
AcDbLine
 10
-411.327111
 20
674.007013
 30
0.0
 11
-419.827111
 21
674.007013
 31
0.0
  0
INSERT
  5
177
100
AcDbEntity
  8
0
  6
BYBLOCK
 62
     2
100
AcDbBlockReference
  2
_DOTSMALL
 10
-408.987111
 20
674.007013
 30
0.0
  0
INSERT
  5
178
100
AcDbEntity
  8
0
  6
BYBLOCK
 62
     2
100
AcDbBlockReference
  2
_DOTSMALL
 10
-411.327111
 20
674.007013
 30
0.0
 50
180.0
  0
MTEXT
  5
179
100
AcDbEntity
  8
0
  6
BYBLOCK
 62
     2
100
AcDbMText
 10
-416.077111
 20
675.757013
 30
0.0
 40
1.5
 41
0.0
 71
     5
 72
     1
  1
\A1;2.34
  0
POINT
  5
17A
100
AcDbEntity
  8
DEFPOINTS
  6
BYBLOCK
 62
     0
100
AcDbPoint
 10
-408.987111
 20
681.938239
 30
0.0
  0
POINT
  5
17B
100
AcDbEntity
  8
DEFPOINTS
  6
BYBLOCK
 62
     0
100
AcDbPoint
 10
-411.327111
 20
690.67168
 30
0.0
  0
POINT
  5
17C
100
AcDbEntity
  8
DEFPOINTS
  6
BYBLOCK
 62
     0
100
AcDbPoint
 10
-411.327111
 20
674.007013
 30
0.0
  0
ENDBLK
  5
17E
100
AcDbEntity
  8
0
100
AcDbBlockEnd
  0
BLOCK
  5
90
100
AcDbEntity
  8
0
100
AcDbBlockBegin
  2
*D6
 70
     1
 10
0.0
 20
0.0
 30
0.0
  3
*D6
  1

  0
LINE
  5
87
100
AcDbEntity
  8
0
  6
BYBLOCK
 62
     2
100
AcDbLine
 10
-408.987111
 20
632.002338
 30
0.0
 11
-408.987111
 21
613.746153
 31
0.0
  0
LINE
  5
88
100
AcDbEntity
  8
0
  6
BYBLOCK
 62
     2
100
AcDbLine
 10
-383.987111
 20
626.002338
 30
0.0
 11
-383.987111
 21
613.746153
 31
0.0
  0
LINE
  5
89
100
AcDbEntity
  8
0
  6
BYBLOCK
 62
     2
100
AcDbLine
 10
-408.987111
 20
615.746153
 30
0.0
 11
-383.987111
 21
615.746153
 31
0.0
  0
INSERT
  5
8A
100
AcDbEntity
  8
0
  6
BYBLOCK
 62
     2
100
AcDbBlockReference
  2
_DOTSMALL
 10
-408.987111
 20
615.746153
 30
0.0
 50
180.0
  0
INSERT
  5
8B
100
AcDbEntity
  8
0
  6
BYBLOCK
 62
     2
100
AcDbBlockReference
  2
_DOTSMALL
 10
-383.987111
 20
615.746153
 30
0.0
  0
MTEXT
  5
8C
100
AcDbEntity
  8
0
  6
BYBLOCK
 62
     2
100
AcDbMText
 10
-396.487111
 20
617.496153
 30
0.0
 40
1.5
 41
0.0
 71
     5
 72
     1
  1
\A1;25
  0
POINT
  5
8D
100
AcDbEntity
  8
DEFPOINTS
  6
BYBLOCK
 62
     0
100
AcDbPoint
 10
-408.987111
 20
633.002338
 30
0.0
  0
POINT
  5
8E
100
AcDbEntity
  8
DEFPOINTS
  6
BYBLOCK
 62
     0
100
AcDbPoint
 10
-383.987111
 20
627.002338
 30
0.0
  0
POINT
  5
8F
100
AcDbEntity
  8
DEFPOINTS
  6
BYBLOCK
 62
     0
100
AcDbPoint
 10
-383.987111
 20
615.746153
 30
0.0
  0
ENDBLK
  5
91
100
AcDbEntity
  8
0
100
AcDbBlockEnd
  0
BLOCK
  5
EC
100
AcDbEntity
  8
0
100
AcDbBlockBegin
  2
*D7
 70
     1
 10
0.0
 20
0.0
 30
0.0
  3
*D7
  1

  0
LINE
  5
E1
100
AcDbEntity
  8
0
  6
BYBLOCK
 62
     2
100
AcDbLine
 10
-473.991222
 20
689.938239
 30
0.0
 11
-479.672539
 21
689.938239
 31
0.0
  0
LINE
  5
E2
100
AcDbEntity
  8
0
  6
BYBLOCK
 62
     2
100
AcDbLine
 10
-473.991222
 20
688.438239
 30
0.0
 11
-479.672539
 21
688.438239
 31
0.0
  0
LINE
  5
E3
100
AcDbEntity
  8
0
  6
BYBLOCK
 62
     2
100
AcDbLine
 10
-477.672539
 20
689.938239
 30
0.0
 11
-477.672539
 21
690.938239
 31
0.0
  0
LINE
  5
E4
100
AcDbEntity
  8
0
  6
BYBLOCK
 62
     2
100
AcDbLine
 10
-477.672539
 20
688.438239
 30
0.0
 11
-477.672539
 21
680.438239
 31
0.0
  0
LINE
  5
E5
100
AcDbEntity
  8
0
  6
BYBLOCK
 62
     2
100
AcDbLine
 10
-477.672539
 20
689.938239
 30
0.0
 11
-477.672539
 21
688.438239
 31
0.0
  0
INSERT
  5
E6
100
AcDbEntity
  8
0
  6
BYBLOCK
 62
     2
100
AcDbBlockReference
  2
_DOTSMALL
 10
-477.672539
 20
689.938239
 30
0.0
 50
270.0
  0
INSERT
  5
E7
100
AcDbEntity
  8
0
  6
BYBLOCK
 62
     2
100
AcDbBlockReference
  2
_DOTSMALL
 10
-477.672539
 20
688.438239
 30
0.0
 50
90.0
  0
MTEXT
  5
E8
100
AcDbEntity
  8
0
  6
BYBLOCK
 62
     2
100
AcDbMText
 10
-479.422539
 20
683.438239
 30
0.0
 40
1.5
 41
0.0
 71
     5
 72
     1
  1
\A1;1.5
 11
0.0
 21
1.0
 31
0.0
  0
POINT
  5
E9
100
AcDbEntity
  8
DEFPOINTS
  6
BYBLOCK
 62
     0
100
AcDbPoint
 10
-472.991222
 20
689.938239
 30
0.0
  0
POINT
  5
EA
100
AcDbEntity
  8
DEFPOINTS
  6
BYBLOCK
 62
     0
100
AcDbPoint
 10
-472.991222
 20
688.438239
 30
0.0
  0
POINT
  5
EB
100
AcDbEntity
  8
DEFPOINTS
  6
BYBLOCK
 62
     0
100
AcDbPoint
 10
-477.672539
 20
688.438239
 30
0.0
  0
ENDBLK
  5
ED
100
AcDbEntity
  8
0
100
AcDbBlockEnd
  0
BLOCK
  5
C2
100
AcDbEntity
  8
0
100
AcDbBlockBegin
  2
*D8
 70
     1
 10
0.0
 20
0.0
 30
0.0
  3
*D8
  1

  0
LINE
  5
B7
100
AcDbEntity
  8
0
  6
BYBLOCK
 62
     2
100
AcDbLine
 10
-460.90851
 20
676.492505
 30
0.0
 11
-460.90851
 21
670.004696
 31
0.0
  0
LINE
  5
B8
100
AcDbEntity
  8
0
  6
BYBLOCK
 62
     2
100
AcDbLine
 10
-460.82851
 20
676.492505
 30
0.0
 11
-460.82851
 21
670.004696
 31
0.0
  0
LINE
  5
B9
100
AcDbEntity
  8
0
  6
BYBLOCK
 62
     2
100
AcDbLine
 10
-460.90851
 20
672.004696
 30
0.0
 11
-461.90851
 21
672.004696
 31
0.0
  0
LINE
  5
BA
100
AcDbEntity
  8
0
  6
BYBLOCK
 62
     2
100
AcDbLine
 10
-460.82851
 20
672.004696
 30
0.0
 11
-451.32851
 21
672.004696
 31
0.0
  0
LINE
  5
BB
100
AcDbEntity
  8
0
  6
BYBLOCK
 62
     2
100
AcDbLine
 10
-460.90851
 20
672.004696
 30
0.0
 11
-460.82851
 21
672.004696
 31
0.0
  0
INSERT
  5
BC
100
AcDbEntity
  8
0
  6
BYBLOCK
 62
     2
100
AcDbBlockReference
  2
_DOTSMALL
 10
-460.90851
 20
672.004696
 30
0.0
  0
INSERT
  5
BD
100
AcDbEntity
  8
0
  6
BYBLOCK
 62
     2
100
AcDbBlockReference
  2
_DOTSMALL
 10
-460.82851
 20
672.004696
 30
0.0
 50
180.0
  0
MTEXT
  5
BE
100
AcDbEntity
  8
0
  6
BYBLOCK
 62
     2
100
AcDbMText
 10
-455.07851
 20
673.754696
 30
0.0
 40
1.5
 41
0.0
 71
     5
 72
     1
  1
\A1;0.08
  0
POINT
  5
BF
100
AcDbEntity
  8
DEFPOINTS
  6
BYBLOCK
 62
     0
100
AcDbPoint
 10
-460.90851
 20
677.492505
 30
0.0
  0
POINT
  5
C0
100
AcDbEntity
  8
DEFPOINTS
  6
BYBLOCK
 62
     0
100
AcDbPoint
 10
-460.82851
 20
677.492505
 30
0.0
  0
POINT
  5
C1
100
AcDbEntity
  8
DEFPOINTS
  6
BYBLOCK
 62
     0
100
AcDbPoint
 10
-460.82851
 20
672.004696
 30
0.0
  0
ENDBLK
  5
C3
100
AcDbEntity
  8
0
100
AcDbBlockEnd
  0
BLOCK
  5
FA
100
AcDbEntity
  8
0
100
AcDbBlockBegin
  2
*D9
 70
     1
 10
0.0
 20
0.0
 30
0.0
  3
*D9
  1

  0
LINE
  5
F0
100
AcDbEntity
  8
0
  6
BYBLOCK
 62
     2
100
AcDbLine
 10
-461.013038
 20
680.943718
 30
0.0
 11
-461.592673
 21
675.42886
 31
0.0
  0
LINE
  5
F1
100
AcDbEntity
  8
0
  6
BYBLOCK
 62
     2
100
AcDbLine
 10
-464.175618
 20
681.276118
 30
0.0
 11
-464.755253
 21
675.761261
 31
0.0
  0
LINE
  5
F2
100
AcDbEntity
  8
0
  6
BYBLOCK
 62
     2
100
AcDbLine
 10
-461.383616
 20
677.417904
 30
0.0
 11
-464.546196
 21
677.750305
 31
0.0
  0
LINE
  5
F3
100
AcDbEntity
  8
0
  6
BYBLOCK
 62
     2
100
AcDbLine
 10
-464.546196
 20
677.750305
 30
0.0
 11
-472.999632
 21
678.638797
 31
0.0
  0
INSERT
  5
F4
100
AcDbEntity
  8
0
  6
BYBLOCK
 62
     2
100
AcDbBlockReference
  2
_DOTSMALL
 10
-461.383616
 20
677.417904
 30
0.0
 50
354.0
  0
INSERT
  5
F5
100
AcDbEntity
  8
0
  6
BYBLOCK
 62
     2
100
AcDbBlockReference
  2
_DOTSMALL
 10
-464.546196
 20
677.750305
 30
0.0
 50
174.0
  0
MTEXT
  5
F6
100
AcDbEntity
  8
0
  6
BYBLOCK
 62
     2
100
AcDbMText
 10
-469.08725
 20
679.987228
 30
0.0
 40
1.5
 41
0.0
 71
     5
 72
     1
  1
\A1;3.18
 11
0.994522
 21
-0.104528
 31
0.0
  0
POINT
  5
F7
100
AcDbEntity
  8
DEFPOINTS
  6
BYBLOCK
 62
     0
100
AcDbPoint
 10
-460.90851
 20
681.938239
 30
0.0
  0
POINT
  5
F8
100
AcDbEntity
  8
DEFPOINTS
  6
BYBLOCK
 62
     0
100
AcDbPoint
 10
-464.071089
 20
682.27064
 30
0.0
  0
POINT
  5
F9
100
AcDbEntity
  8
DEFPOINTS
  6
BYBLOCK
 62
     0
100
AcDbPoint
 10
-464.546196
 20
677.750305
 30
0.0
  0
ENDBLK
  5
FB
100
AcDbEntity
  8
0
100
AcDbBlockEnd
  0
BLOCK
  5
18A
100
AcDbEntity
  8
0
100
AcDbBlockBegin
  2
*D10
 70
     1
 10
0.0
 20
0.0
 30
0.0
  3
*D10
  1

  0
LINE
  5
181
100
AcDbEntity
  8
0
  6
BYBLOCK
 62
     1
100
AcDbLine
 10
-409.987111
 20
681.938239
 30
0.0
 11
-424.100793
 21
681.938239
 31
0.0
  0
LINE
  5
182
100
AcDbEntity
  8
0
  6
BYBLOCK
 62
     1
100
AcDbLine
 10
-418.757237
 20
689.938239
 30
0.0
 11
-424.100793
 21
689.938239
 31
0.0
  0
LINE
  5
183
100
AcDbEntity
  8
0
  6
BYBLOCK
 62
     1
100
AcDbLine
 10
-422.100793
 20
683.938239
 30
0.0
 11
-422.100793
 21
687.938239
 31
0.0
  0
INSERT
  5
184
100
AcDbEntity
  8
0
  6
BYBLOCK
 62
     1
100
AcDbBlockReference
  2
_OPEN30
 10
-422.100793
 20
681.938239
 30
0.0
 41
2.0
 42
2.0
 43
2.0
 50
270.0
  0
INSERT
  5
185
100
AcDbEntity
  8
0
  6
BYBLOCK
 62
     1
100
AcDbBlockReference
  2
_OPEN30
 10
-422.100793
 20
689.938239
 30
0.0
 41
2.0
 42
2.0
 43
2.0
 50
90.0
  0
MTEXT
  5
186
100
AcDbEntity
  8
0
  6
BYBLOCK
 62
     3
100
AcDbMText
 10
-424.600793
 20
685.938239
 30
0.0
 40
3.0
 41
0.0
 71
     5
 72
     1
  1
\A1;8
 11
0.0
 21
1.0
 31
0.0
  0
POINT
  5
187
100
AcDbEntity
  8
DEFPOINTS
  6
BYBLOCK
 62
     0
100
AcDbPoint
 10
-408.987111
 20
681.938239
 30
0.0
  0
POINT
  5
188
100
AcDbEntity
  8
DEFPOINTS
  6
BYBLOCK
 62
     0
100
AcDbPoint
 10
-417.757237
 20
689.938239
 30
0.0
  0
POINT
  5
189
100
AcDbEntity
  8
DEFPOINTS
  6
BYBLOCK
 62
     0
100
AcDbPoint
 10
-422.100793
 20
689.938239
 30
0.0
  0
ENDBLK
  5
18B
100
AcDbEntity
  8
0
100
AcDbBlockEnd
  0
BLOCK
  5
13E
100
AcDbEntity
  8
0
100
AcDbBlockBegin
  2
*D11
 70
     1
 10
0.0
 20
0.0
 30
0.0
  3
*D11
  1

  0
LINE
  5
137
100
AcDbEntity
  8
0
  6
BYBLOCK
 62
     2
100
AcDbLine
 10
-389.671868
 20
700.874681
 30
0.0
 11
-401.928163
 21
690.719706
 31
0.0
  0
MTEXT
  5
138
100
AcDbEntity
  8
0
  6
BYBLOCK
 62
     2
100
AcDbMText
 10
-394.831036
 20
698.872685
 30
0.0
 40
1.5
 41
0.0
 71
     5
 72
     1
  1
\A1;\U+22059.525
 11
0.770029
 21
0.638009
 31
0.0
  0
LINE
  5
139
100
AcDbEntity
  8
0
  6
BYBLOCK
 62
     2
100
AcDbLine
 10
-409.26269
 20
684.642672
 30
0.0
 11
-401.928163
 21
690.719706
 31
0.0
  0
INSERT
  5
13A
100
AcDbEntity
  8
0
  6
BYBLOCK
 62
     2
100
AcDbBlockReference
  2
_DOTSMALL
 10
-409.26269
 20
684.642672
 30
0.0
 50
39.643505
  0
INSERT
  5
13B
100
AcDbEntity
  8
0
  6
BYBLOCK
 62
     2
100
AcDbBlockReference
  2
_DOTSMALL
 10
-401.928163
 20
690.719706
 30
0.0
 50
219.643505
  0
POINT
  5
13C
100
AcDbEntity
  8
DEFPOINTS
  6
BYBLOCK
 62
     0
100
AcDbPoint
 10
-401.928163
 20
690.719706
 30
0.0
  0
POINT
  5
13D
100
AcDbEntity
  8
DEFPOINTS
  6
BYBLOCK
 62
     0
100
AcDbPoint
 10
-409.26269
 20
684.642672
 30
0.0
  0
ENDBLK
  5
13F
100
AcDbEntity
  8
0
100
AcDbBlockEnd
  0
BLOCK
  5
11B
100
AcDbEntity
  8
0
100
AcDbBlockBegin
  2
*D12
 70
     1
 10
0.0
 20
0.0
 30
0.0
  3
*D12
  1

  0
LINE
  5
110
100
AcDbEntity
  8
0
  6
BYBLOCK
 62
     1
100
AcDbLine
 10
-411.480038
 20
691.152072
 30
0.0
 11
-415.597267
 21
706.517781
 31
0.0
  0
LINE
  5
111
100
AcDbEntity
  8
0
  6
BYBLOCK
 62
     1
100
AcDbLine
 10
-410.011199
 20
681.938239
 30
0.0
 11
-434.457813
 21
681.938239
 31
0.0
  0
ARC
  5
112
100
AcDbEntity
  8
0
  6
BYBLOCK
 62
     1
100
AcDbCircle
 10
-409.011199
 20
681.938239
 30
0.0
 40
23.446614
100
AcDbArc
 50
109.888822
 51
175.111178
  0
INSERT
  5
113
100
AcDbEntity
  8
0
  6
BYBLOCK
 62
     1
100
AcDbBlockReference
  2
_OPEN30
 10
-415.079629
 20
704.585929
 30
0.0
 41
2.0
 42
2.0
 43
2.0
 50
17.444411
  0
INSERT
  5
114
100
AcDbEntity
  8
0
  6
BYBLOCK
 62
     1
100
AcDbBlockReference
  2
_OPEN30
 10
-432.457813
 20
681.938239
 30
0.0
 41
2.0
 42
2.0
 43
2.0
 50
267.555589
  0
MTEXT
  5
115
100
AcDbEntity
  8
0
  6
BYBLOCK
 62
     3
100
AcDbMText
 10
-429.596031
 20
697.733537
 30
0.0
 40
3.0
 41
0.0
 71
     5
 72
     1
  1
\A1;75°
 11
0.608761
 21
0.793353
 31
0.0
  0
POINT
  5
116
100
AcDbEntity
  8
DEFPOINTS
  6
BYBLOCK
 62
     0
100
AcDbPoint
 10
-424.082392
 20
699.899388
 30
0.0
  0
POINT
  5
117
100
AcDbEntity
  8
DEFPOINTS
  6
BYBLOCK
 62
     0
100
AcDbPoint
 10
-411.221219
 20
690.186146
 30
0.0
  0
POINT
  5
118
100
AcDbEntity
  8
DEFPOINTS
  6
BYBLOCK
 62
     0
100
AcDbPoint
 10
-408.397337
 20
681.938239
 30
0.0
  0
POINT
  5
119
100
AcDbEntity
  8
DEFPOINTS
  6
BYBLOCK
 62
     0
100
AcDbPoint
 10
-408.987111
 20
681.938239
 30
0.0
  0
POINT
  5
11A
100
AcDbEntity
  8
DEFPOINTS
  6
BYBLOCK
 62
     0
100
AcDbPoint
 10
-409.170078
 20
682.531184
 30
0.0
  0
ENDBLK
  5
11C
100
AcDbEntity
  8
0
100
AcDbBlockEnd
  0
BLOCK
  5
125
100
AcDbEntity
  8
0
100
AcDbBlockBegin
  2
*D13
 70
     1
 10
0.0
 20
0.0
 30
0.0
  3
*D13
  1

  0
LINE
  5
11F
100
AcDbEntity
  8
0
  6
BYBLOCK
 62
     2
100
AcDbLine
 10
-422.55904
 20
696.172153
 30
0.0
 11
-411.301049
 21
690.934667
 31
0.0
  0
MTEXT
  5
120
100
AcDbEntity
  8
0
  6
BYBLOCK
 62
     2
100
AcDbMText
 10
-418.420806
 20
696.177059
 30
0.0
 40
1.5
 41
0.0
 71
     5
 72
     1
  1
\A1;R0.4
 11
0.906684
 21
-0.421811
 31
0.0
  0
LINE
  5
121
100
AcDbEntity
  8
0
  6
BYBLOCK
 62
     2
100
AcDbLine
 10
-410.938376
 20
690.765942
 30
0.0
 11
-411.301049
 21
690.934667
 31
0.0
  0
INSERT
  5
122
100
AcDbEntity
  8
0
  6
BYBLOCK
 62
     2
100
AcDbBlockReference
  2
_DOTSMALL
 10
-411.301049
 20
690.934667
 30
0.0
 50
335.051024
  0
POINT
  5
123
100
AcDbEntity
  8
DEFPOINTS
  6
BYBLOCK
 62
     0
100
AcDbPoint
 10
-411.301049
 20
690.934667
 30
0.0
  0
POINT
  5
124
100
AcDbEntity
  8
DEFPOINTS
  6
BYBLOCK
 62
     0
100
AcDbPoint
 10
-410.938376
 20
690.765942
 30
0.0
  0
ENDBLK
  5
126
100
AcDbEntity
  8
0
100
AcDbBlockEnd
  0
BLOCK
  5
51
100
AcDbEntity
  8
0
100
AcDbBlockBegin
  2
*D14
 70
     1
 10
0.0
 20
0.0
 30
0.0
  3
*D14
  1

  0
LINE
  5
49
100
AcDbEntity
  8
0
  6
BYBLOCK
 62
     1
100
AcDbLine
 10
-304.909105
 20
707.046882
 30
0.0
 11
-313.907128
 21
696.114988
 31
0.0
  0
LINE
  5
4A
100
AcDbEntity
  8
0
  6
BYBLOCK
 62
     1
100
AcDbLine
 10
-324.07527
 20
683.761491
 30
0.0
 11
-325.346287
 21
682.217304
 31
0.0
  0
MTEXT
  5
4B
100
AcDbEntity
  8
0
  6
BYBLOCK
 62
     3
100
AcDbMText
 10
-310.016883
 20
704.775186
 30
0.0
 40
3.0
 41
0.0
 71
     5
 72
     1
  1
\A1;\U+220512
 11
0.635509
 21
0.772094
 31
0.0
  0
LINE
  5
4C
100
AcDbEntity
  8
0
  6
BYBLOCK
 62
     1
100
AcDbLine
 10
-322.804252
 20
685.305678
 30
0.0
 11
-315.178145
 21
694.570801
 31
0.0
  0
INSERT
  5
4D
100
AcDbEntity
  8
0
  6
BYBLOCK
 62
     1
100
AcDbBlockReference
  2
_OPEN30
 10
-322.804252
 20
685.305678
 30
0.0
 41
2.0
 42
2.0
 43
2.0
 50
50.542263
  0
INSERT
  5
4E
100
AcDbEntity
  8
0
  6
BYBLOCK
 62
     1
100
AcDbBlockReference
  2
_OPEN30
 10
-315.178145
 20
694.570801
 30
0.0
 41
2.0
 42
2.0
 43
2.0
 50
230.542263
  0
POINT
  5
4F
100
AcDbEntity
  8
DEFPOINTS
  6
BYBLOCK
 62
     0
100
AcDbPoint
 10
-315.178145
 20
694.570801
 30
0.0
  0
POINT
  5
50
100
AcDbEntity
  8
DEFPOINTS
  6
BYBLOCK
 62
     0
100
AcDbPoint
 10
-322.804252
 20
685.305678
 30
0.0
  0
ENDBLK
  5
52
100
AcDbEntity
  8
0
100
AcDbBlockEnd
  0
BLOCK
  5
83
100
AcDbEntity
  8
0
100
AcDbBlockBegin
  2
*D15
 70
     1
 10
0.0
 20
0.0
 30
0.0
  3
*D15
  1

  0
LINE
  5
7A
100
AcDbEntity
  8
0
  6
BYBLOCK
 62
     2
100
AcDbLine
 10
-391.987111
 20
639.502338
 30
0.0
 11
-391.987111
 21
648.294745
 31
0.0
  0
LINE
  5
7B
100
AcDbEntity
  8
0
  6
BYBLOCK
 62
     2
100
AcDbLine
 10
-408.987111
 20
636.212338
 30
0.0
 11
-408.987111
 21
648.294745
 31
0.0
  0
LINE
  5
7C
100
AcDbEntity
  8
0
  6
BYBLOCK
 62
     2
100
AcDbLine
 10
-391.987111
 20
646.294745
 30
0.0
 11
-408.987111
 21
646.294745
 31
0.0
  0
INSERT
  5
7D
100
AcDbEntity
  8
0
  6
BYBLOCK
 62
     2
100
AcDbBlockReference
  2
_DOTSMALL
 10
-391.987111
 20
646.294745
 30
0.0
  0
INSERT
  5
7E
100
AcDbEntity
  8
0
  6
BYBLOCK
 62
     2
100
AcDbBlockReference
  2
_DOTSMALL
 10
-408.987111
 20
646.294745
 30
0.0
 50
180.0
  0
MTEXT
  5
7F
100
AcDbEntity
  8
0
  6
BYBLOCK
 62
     2
100
AcDbMText
 10
-400.487111
 20
648.044745
 30
0.0
 40
1.5
 41
0.0
 71
     5
 72
     1
  1
\A1;17
  0
POINT
  5
80
100
AcDbEntity
  8
DEFPOINTS
  6
BYBLOCK
 62
     0
100
AcDbPoint
 10
-391.987111
 20
638.502338
 30
0.0
  0
POINT
  5
81
100
AcDbEntity
  8
DEFPOINTS
  6
BYBLOCK
 62
     0
100
AcDbPoint
 10
-408.987111
 20
635.212338
 30
0.0
  0
POINT
  5
82
100
AcDbEntity
  8
DEFPOINTS
  6
BYBLOCK
 62
     0
100
AcDbPoint
 10
-408.987111
 20
646.294745
 30
0.0
  0
ENDBLK
  5
84
100
AcDbEntity
  8
0
100
AcDbBlockEnd
  0
BLOCK
  5
14D
100
AcDbEntity
  8
0
100
AcDbBlockBegin
  2
*D16
 70
     1
 10
0.0
 20
0.0
 30
0.0
  3
*D16
  1

  0
LINE
  5
142
100
AcDbEntity
  8
0
  6
BYBLOCK
 62
     2
100
AcDbLine
 10
-407.429996
 20
696.188239
 30
0.0
 11
-401.331462
 21
699.70923
 31
0.0
  0
LINE
  5
143
100
AcDbEntity
  8
0
  6
BYBLOCK
 62
     2
100
AcDbLine
 10
-411.327111
 20
694.938239
 30
0.0
 11
-411.327111
 21
705.48022
 31
0.0
  0
ARC
  5
144
100
AcDbEntity
  8
0
  6
BYBLOCK
 62
     2
100
AcDbCircle
 10
-411.327111
 20
693.938239
 30
0.0
 40
9.541981
100
AcDbArc
 50
30.0
 51
90.0
  0
INSERT
  5
145
100
AcDbEntity
  8
0
  6
BYBLOCK
 62
     2
100
AcDbBlockReference
  2
_DOTSMALL
 10
-403.063513
 20
698.70923
 30
0.0
 50
300.0
  0
INSERT
  5
146
100
AcDbEntity
  8
0
  6
BYBLOCK
 62
     2
100
AcDbBlockReference
  2
_DOTSMALL
 10
-411.327111
 20
703.48022
 30
0.0
 50
180.0
  0
MTEXT
  5
147
100
AcDbEntity
  8
0
  6
BYBLOCK
 62
     2
100
AcDbMText
 10
-405.68112
 20
703.717381
 30
0.0
 40
1.5
 41
0.0
 71
     5
 72
     1
  1
\A1;60°
 11
0.866025
 21
-0.5
 31
0.0
  0
POINT
  5
148
100
AcDbEntity
  8
DEFPOINTS
  6
BYBLOCK
 62
     0
100
AcDbPoint
 10
-405.193644
 20
701.247821
 30
0.0
  0
POINT
  5
149
100
AcDbEntity
  8
DEFPOINTS
  6
BYBLOCK
 62
     0
100
AcDbPoint
 10
-411.327111
 20
693.938239
 30
0.0
  0
POINT
  5
14A
100
AcDbEntity
  8
DEFPOINTS
  6
BYBLOCK
 62
     0
100
AcDbPoint
 10
-411.327111
 20
693.938239
 30
0.0
  0
POINT
  5
14B
100
AcDbEntity
  8
DEFPOINTS
  6
BYBLOCK
 62
     0
100
AcDbPoint
 10
-411.327111
 20
681.324997
 30
0.0
  0
POINT
  5
14C
100
AcDbEntity
  8
DEFPOINTS
  6
BYBLOCK
 62
     0
100
AcDbPoint
 10
-408.296022
 20
695.688239
 30
0.0
  0
ENDBLK
  5
14E
100
AcDbEntity
  8
0
100
AcDbBlockEnd
  0
BLOCK
  5
132
100
AcDbEntity
  8
0
100
AcDbBlockBegin
  2
*D17
 70
     1
 10
0.0
 20
0.0
 30
0.0
  3
*D17
  1

  0
LINE
  5
129
100
AcDbEntity
  8
0
  6
BYBLOCK
 62
     1
100
AcDbLine
 10
-145.926071
 20
689.938239
 30
0.0
 11
-151.269628
 21
689.938239
 31
0.0
  0
LINE
  5
12A
100
AcDbEntity
  8
0
  6
BYBLOCK
 62
     1
100
AcDbLine
 10
-139.144261
 20
693.938239
 30
0.0
 11
-151.269628
 21
693.938239
 31
0.0
  0
LINE
  5
12B
100
AcDbEntity
  8
0
  6
BYBLOCK
 62
     1
100
AcDbLine
 10
-149.269628
 20
693.938239
 30
0.0
 11
-149.269628
 21
699.938239
 31
0.0
  0
INSERT
  5
12C
100
AcDbEntity
  8
0
  6
BYBLOCK
 62
     1
100
AcDbBlockReference
  2
_OPEN30
 10
-149.269628
 20
689.938239
 30
0.0
 41
2.0
 42
2.0
 43
2.0
 50
270.0
  0
INSERT
  5
12D
100
AcDbEntity
  8
0
  6
BYBLOCK
 62
     1
100
AcDbBlockReference
  2
_OPEN30
 10
-149.269628
 20
693.938239
 30
0.0
 41
2.0
 42
2.0
 43
2.0
 50
90.0
  0
MTEXT
  5
12E
100
AcDbEntity
  8
0
  6
BYBLOCK
 62
     3
100
AcDbMText
 10
-151.769628
 20
697.938239
 30
0.0
 40
3.0
 41
0.0
 71
     5
 72
     1
  1
\A1;4
 11
0.0
 21
1.0
 31
0.0
  0
POINT
  5
12F
100
AcDbEntity
  8
DEFPOINTS
  6
BYBLOCK
 62
     0
100
AcDbPoint
 10
-144.926071
 20
689.938239
 30
0.0
  0
POINT
  5
130
100
AcDbEntity
  8
DEFPOINTS
  6
BYBLOCK
 62
     0
100
AcDbPoint
 10
-138.144261
 20
693.938239
 30
0.0
  0
POINT
  5
131
100
AcDbEntity
  8
DEFPOINTS
  6
BYBLOCK
 62
     0
100
AcDbPoint
 10
-149.269628
 20
693.938239
 30
0.0
  0
ENDBLK
  5
133
100
AcDbEntity
  8
0
100
AcDbBlockEnd
  0
BLOCK
  5
16F
100
AcDbEntity
  8
0
100
AcDbBlockBegin
  2
*D18
 70
     1
 10
0.0
 20
0.0
 30
0.0
  3
*D18
  1

  0
LINE
  5
166
100
AcDbEntity
  8
0
  6
BYBLOCK
 62
     2
100
AcDbLine
 10
-388.987111
 20
682.938239
 30
0.0
 11
-388.987111
 21
667.425847
 31
0.0
  0
LINE
  5
167
100
AcDbEntity
  8
0
  6
BYBLOCK
 62
     2
100
AcDbLine
 10
-408.987111
 20
680.938239
 30
0.0
 11
-408.987111
 21
667.425847
 31
0.0
  0
LINE
  5
168
100
AcDbEntity
  8
0
  6
BYBLOCK
 62
     2
100
AcDbLine
 10
-388.987111
 20
669.425847
 30
0.0
 11
-408.987111
 21
669.425847
 31
0.0
  0
INSERT
  5
169
100
AcDbEntity
  8
0
  6
BYBLOCK
 62
     2
100
AcDbBlockReference
  2
_DOTSMALL
 10
-388.987111
 20
669.425847
 30
0.0
  0
INSERT
  5
16A
100
AcDbEntity
  8
0
  6
BYBLOCK
 62
     2
100
AcDbBlockReference
  2
_DOTSMALL
 10
-408.987111
 20
669.425847
 30
0.0
 50
180.0
  0
MTEXT
  5
16B
100
AcDbEntity
  8
0
  6
BYBLOCK
 62
     2
100
AcDbMText
 10
-398.987111
 20
671.175847
 30
0.0
 40
1.5
 41
0.0
 71
     5
 72
     1
  1
\A1;20
  0
POINT
  5
16C
100
AcDbEntity
  8
DEFPOINTS
  6
BYBLOCK
 62
     0
100
AcDbPoint
 10
-388.987111
 20
683.938239
 30
0.0
  0
POINT
  5
16D
100
AcDbEntity
  8
DEFPOINTS
  6
BYBLOCK
 62
     0
100
AcDbPoint
 10
-408.987111
 20
681.938239
 30
0.0
  0
POINT
  5
16E
100
AcDbEntity
  8
DEFPOINTS
  6
BYBLOCK
 62
     0
100
AcDbPoint
 10
-408.987111
 20
669.425847
 30
0.0
  0
ENDBLK
  5
170
100
AcDbEntity
  8
0
100
AcDbBlockEnd
  0
BLOCK
  5
DD
100
AcDbEntity
  8
0
100
AcDbBlockBegin
  2
*D19
 70
     1
 10
0.0
 20
0.0
 30
0.0
  3
*D19
  1

  0
LINE
  5
CE
100
AcDbEntity
  8
0
  6
BYBLOCK
 62
     1
100
AcDbLine
 10
-461.013038
 20
680.943718
 30
0.0
 11
-462.929199
 21
662.712666
 31
0.0
  0
LINE
  5
CF
100
AcDbEntity
  8
0
  6
BYBLOCK
 62
     1
100
AcDbLine
 10
-460.90851
 20
676.492505
 30
0.0
 11
-460.90851
 21
662.606766
 31
0.0
  0
ARC
  5
D0
100
AcDbEntity
  8
0
  6
BYBLOCK
 62
     1
100
AcDbCircle
 10
-460.90851
 20
681.938239
 30
0.0
 40
17.331474
100
AcDbArc
 50
250.746953
 51
264.0
  0
LINE
  5
D1
100
AcDbEntity
  8
0
  6
BYBLOCK
 62
     1
100
AcDbLine
 10
-466.623405
 20
665.576089
 30
0.0
 11
-474.74242
 21
668.411861
 31
0.0
  0
ARC
  5
D2
100
AcDbEntity
  8
0
  6
BYBLOCK
 62
     1
100
AcDbCircle
 10
-460.90851
 20
681.938239
 30
0.0
 40
17.331474
100
AcDbArc
 50
250.76913
 51
257.384565
  0
ARC
  5
D3
100
AcDbEntity
  8
0
  6
BYBLOCK
 62
     1
100
AcDbCircle
 10
-460.90851
 20
681.938239
 30
0.0
 40
17.331474
100
AcDbArc
 50
276.615435
 51
283.23087
  0
ARC
  5
D4
100
AcDbEntity
  8
0
  6
BYBLOCK
 62
     1
100
AcDbCircle
 10
-460.90851
 20
681.938239
 30
0.0
 40
17.331474
100
AcDbArc
 50
264.0
 51
270.0
  0
INSERT
  5
D5
100
AcDbEntity
  8
0
  6
BYBLOCK
 62
     1
100
AcDbBlockReference
  2
_OPEN30
 10
-462.720142
 20
664.701709
 30
0.0
 41
2.0
 42
2.0
 43
2.0
 50
350.692283
  0
INSERT
  5
D6
100
AcDbEntity
  8
0
  6
BYBLOCK
 62
     1
100
AcDbBlockReference
  2
_OPEN30
 10
-460.90851
 20
664.606766
 30
0.0
 41
2.0
 42
2.0
 43
2.0
 50
183.307717
  0
MTEXT
  5
D7
100
AcDbEntity
  8
0
  6
BYBLOCK
 62
     3
100
AcDbMText
 10
-469.85856
 20
669.354154
 30
0.0
 40
3.0
 41
0.0
 71
     5
 72
     1
  1
\A1;6°
 11
0.944071
 21
-0.329741
 31
0.0
  0
POINT
  5
D8
100
AcDbEntity
  8
DEFPOINTS
  6
BYBLOCK
 62
     0
100
AcDbPoint
 10
-461.513369
 20
664.617324
 30
0.0
  0
POINT
  5
D9
100
AcDbEntity
  8
DEFPOINTS
  6
BYBLOCK
 62
     0
100
AcDbPoint
 10
-460.90851
 20
702.383974
 30
0.0
  0
POINT
  5
DA
100
AcDbEntity
  8
DEFPOINTS
  6
BYBLOCK
 62
     0
100
AcDbPoint
 10
-459.647259
 20
693.938239
 30
0.0
  0
POINT
  5
DB
100
AcDbEntity
  8
DEFPOINTS
  6
BYBLOCK
 62
     0
100
AcDbPoint
 10
-460.90851
 20
681.938239
 30
0.0
  0
POINT
  5
DC
100
AcDbEntity
  8
DEFPOINTS
  6
BYBLOCK
 62
     0
100
AcDbPoint
 10
-460.90851
 20
677.492505
 30
0.0
  0
ENDBLK
  5
DE
100
AcDbEntity
  8
0
100
AcDbBlockEnd
  0
BLOCK
  5
75
100
AcDbEntity
  8
0
100
AcDbBlockBegin
  2
*D20
 70
     1
 10
0.0
 20
0.0
 30
0.0
  3
*D20
  1

  0
LINE
  5
67
100
AcDbEntity
  8
0
  6
BYBLOCK
 62
     1
100
AcDbLine
 10
-137.15214
 20
633.089494
 30
0.0
 11
-152.749539
 21
634.45409
 31
0.0
  0
ARC
  5
68
100
AcDbEntity
  8
0
  6
BYBLOCK
 62
     1
100
AcDbCircle
 10
-136.155945
 20
633.002338
 30
0.0
 40
14.656979
100
AcDbArc
 50
159.314615
 51
175.0
  0
LINE
  5
69
100
AcDbEntity
  8
0
  6
BYBLOCK
 62
     1
100
AcDbLine
 10
-149.86805
 20
638.179714
 30
0.0
 11
-146.830218
 21
646.225308
 31
0.0
  0
ARC
  5
6A
100
AcDbEntity
  8
0
  6
BYBLOCK
 62
     1
100
AcDbCircle
 10
-136.155945
 20
633.002338
 30
0.0
 40
14.656979
100
AcDbArc
 50
159.351394
 51
167.175697
  0
ARC
  5
6B
100
AcDbEntity
  8
0
  6
BYBLOCK
 62
     1
100
AcDbCircle
 10
-136.155945
 20
633.002338
 30
0.0
 40
14.656979
100
AcDbArc
 50
187.824303
 51
195.648606
  0
ARC
  5
6C
100
AcDbEntity
  8
0
  6
BYBLOCK
 62
     1
100
AcDbCircle
 10
-136.155945
 20
633.002338
 30
0.0
 40
14.656979
100
AcDbArc
 50
175.0
 51
180.0
  0
INSERT
  5
6D
100
AcDbEntity
  8
0
  6
BYBLOCK
 62
     1
100
AcDbBlockReference
  2
_OPEN30
 10
-150.75715
 20
634.279778
 30
0.0
 41
2.0
 42
2.0
 43
2.0
 50
261.087848
  0
INSERT
  5
6E
100
AcDbEntity
  8
0
  6
BYBLOCK
 62
     1
100
AcDbBlockReference
  2
_OPEN30
 10
-150.812924
 20
633.002338
 30
0.0
 41
2.0
 42
2.0
 43
2.0
 50
93.912152
  0
MTEXT
  5
6F
100
AcDbEntity
  8
0
  6
BYBLOCK
 62
     3
100
AcDbMText
 10
-150.687969
 20
643.085602
 30
0.0
 40
3.0
 41
0.0
 71
     5
 72
     1
  1
\A1;5°
 11
0.353236
 21
0.935534
 31
0.0
  0
POINT
  5
70
100
AcDbEntity
  8
DEFPOINTS
  6
BYBLOCK
 62
     0
100
AcDbPoint
 10
-150.806724
 20
633.428632
 30
0.0
  0
POINT
  5
71
100
AcDbEntity
  8
DEFPOINTS
  6
BYBLOCK
 62
     0
100
AcDbPoint
 10
-136.155945
 20
633.002338
 30
0.0
  0
POINT
  5
72
100
AcDbEntity
  8
DEFPOINTS
  6
BYBLOCK
 62
     0
100
AcDbPoint
 10
-155.657607
 20
633.002338
 30
0.0
  0
POINT
  5
73
100
AcDbEntity
  8
DEFPOINTS
  6
BYBLOCK
 62
     0
100
AcDbPoint
 10
71.327961
 20
633.002338
 30
0.0
  0
POINT
  5
74
100
AcDbEntity
  8
DEFPOINTS
  6
BYBLOCK
 62
     0
100
AcDbPoint
 10
-126.966516
 20
632.198367
 30
0.0
  0
ENDBLK
  5
76
100
AcDbEntity
  8
0
100
AcDbBlockEnd
  0
BLOCK
  5
1C3
100
AcDbEntity
  8
0
100
AcDbBlockBegin
  2
2
 70
     0
 10
0.0
 20
0.0
 30
0.0
  3
2
  1

  0
ARC
  5
2B
100
AcDbEntity
  8
外形
  6
CONTINUOUS
100
AcDbCircle
 10
194.532911
 20
104.310405
 30
0.0
 40
6.0
100
AcDbArc
 50
203.556464
 51
336.443536
  0
DIMENSION
  5
2C
100
AcDbEntity
  8
寸法
  6
CONTINUOUS
100
AcDbDimension
  2
*D3
 10
200.032911
 20
86.451691
 30
0.0
 11
194.532911
 21
88.951691
 31
0.0
 12
190.692945
 22
-585.627834
 32
0.0
  3
STANDARD
100
AcDbAlignedDimension
 13
189.032911
 23
101.912489
 33
0.0
 14
200.032911
 24
101.912489
 34
0.0
100
AcDbRotatedDimension
1001
ACAD
1000
DSTYLE
1002
{
1070
    40
1040
1.0
1002
}
  0
ARC
  5
46
100
AcDbEntity
  8
外形
  6
CONTINUOUS
100
AcDbCircle
 10
194.532911
 20
104.310405
 30
0.0
 40
6.0
100
AcDbArc
 50
23.556464
 51
156.443536
  0
DIMENSION
  5
47
100
AcDbEntity
  8
寸法
  6
CONTINUOUS
100
AcDbDimension
  2
*D14
 10
190.719858
 20
99.677844
 30
0.0
 11
205.437461
 21
117.558579
 31
0.0
 12
513.52411
 22
-585.627834
 32
0.0
 70
   131
  3
STANDARD
100
AcDbDiametricDimension
 15
198.345965
 25
108.942966
 35
0.0
 40
0.0
1001
ACAD
1000
DSTYLE
1002
{
1070
    40
1040
1.0
1002
}
  0
DIMENSION
  5
53
100
AcDbEntity
  8
寸法
  6
CONTINUOUS
100
AcDbDimension
  2
*D4
 10
254.532911
 20
72.383439
 30
0.0
 11
154.534955
 21
74.883439
 31
0.0
 12
190.692945
 22
-585.627834
 32
0.0
  3
STANDARD
100
AcDbAlignedDimension
 13
54.537
 23
96.310405
 33
0.0
 14
254.532911
 24
99.310405
 34
0.0
100
AcDbRotatedDimension
1001
ACAD
1000
DSTYLE
1002
{
1070
    40
1040
1.0
1002
}
  0
LINE
  5
60
100
AcDbEntity
  8
外形
  6
CENTER
 62
     1
100
AcDbLine
 10
45.766873
 20
104.310405
 30
0.0
 11
262.020905
 21
104.310405
 31
0.0
  0
LINE
  5
62
100
AcDbEntity
  8
外形
  6
CENTER
 62
     1
100
AcDbLine
 10
35.035337
 20
47.374504
 30
0.0
 11
262.020905
 21
47.374504
 31
0.0
  0
LINE
  5
63
100
AcDbEntity
  8
外形
  6
CONTINUOUS
100
AcDbLine
 10
79.537
 20
41.874504
 30
0.0
 11
253.532911
 21
41.874504
 31
0.0
  0
LINE
  5
64
100
AcDbEntity
  8
外形
  6
CONTINUOUS
100
AcDbLine
 10
71.787
 20
52.874504
 30
0.0
 11
253.532911
 21
52.874504
 31
0.0
  0
DIMENSION
  5
65
100
AcDbEntity
  8
寸法
  6
CONTINUOUS
100
AcDbDimension
  2
*D20
 10
63.726429
 20
46.570533
 30
0.0
 11
40.004975
 21
57.457767
 31
0.0
 12
190.692945
 22
-585.627834
 32
0.0
 70
     2
  3
STANDARD
100
AcDb2LineAngularDimension
 13
35.035337
 23
47.374504
 33
0.0
 14
262.020905
 24
47.374504
 34
0.0
 15
54.537
 25
47.374504
 35
0.0
 16
39.886221
 26
47.800798
 36
0.0
1001
ACAD
1000
DSTYLE
1002
{
1070
    40
1040
1.0
1002
}
  0
DIMENSION
  5
77
100
AcDbEntity
  8
参考
  6
CONTINUOUS
100
AcDbDimension
  2
*D15
 10
54.537
 20
60.666911
 30
0.0
 11
63.037
 21
62.416911
 31
0.0
 12
463.52411
 22
-585.627834
 32
0.0
  3
参考寸法
100
AcDbAlignedDimension
 13
71.537
 23
52.874504
 33
0.0
 14
54.537
 24
49.584504
 34
0.0
100
AcDbRotatedDimension
1001
ACAD
1000
DSTYLE
1002
{
1070
   140
1040
1.5
1070
    41
1040
1.0
1002
}
  0
DIMENSION
  5
85
100
AcDbEntity
  8
参考
  6
CONTINUOUS
100
AcDbDimension
  2
*D6
 10
79.537
 20
30.118318
 30
0.0
 11
67.037
 21
31.868318
 31
0.0
 12
463.52411
 22
-585.627834
 32
0.0
  3
参考寸法
100
AcDbAlignedDimension
 13
54.537
 23
47.374504
 33
0.0
 14
79.537
 24
41.374504
 34
0.0
100
AcDbRotatedDimension
1001
ACAD
1000
DSTYLE
1002
{
1070
   140
1040
1.5
1070
    41
1040
1.0
1002
}
  0
LINE
  5
92
100
AcDbEntity
  8
外形
  6
CONTINUOUS
100
AcDbLine
 10
54.537
 20
47.374504
 30
0.0
 11
63.726429
 21
46.570533
 31
0.0
  0
SPLINE
  5
93
100
AcDbEntity
  8
外形
  6
CONTINUOUS
100
AcDbSpline
210
0.0
220
0.0
230
-1.0
 70
     8
 71
     3
 72
     9
 73
     5
 74
     0
 42
0.0000001
 43
0.0000001
 40
0.0
 40
0.0
 40
0.0
 40
0.0
 40
5.039786751347365
 40
8.463799782317817
 40
8.463799782317817
 40
8.463799782317817
 40
8.463799782317817
 10
52.54868366408118
 20
49.1886150368864
 30
0.0
 10
54.20257703113055
 20
49.53356212216977
 30
0.0
 10
56.98011961589699
 20
50.11286501917243
 30
0.0
 10
59.48761100782471
 20
51.47475359461395
 30
0.0
 10
71.53699953596326
 20
53.12450396471991
 30
0.0
  0
LINE
  5
94
100
AcDbEntity
  8
外形
  6
CONTINUOUS
100
AcDbLine
 10
52.197
 20
48.913991
 30
0.0
 11
61.386429
 21
48.11002
 31
0.0
  0
ARC
  5
95
100
AcDbEntity
  8
外形
  6
CONTINUOUS
100
AcDbCircle
 10
63.430419
 20
57.381965
 30
0.0
 40
15.757821
100
AcDbArc
 50
237.086569
 51
270.387534
  0
LINE
  5
96
100
AcDbEntity
  8
外形
  6
CONTINUOUS
100
AcDbLine
 10
54.868071
 20
44.153392
 30
0.0
 11
63.537
 21
43.394959
 31
0.0
  0
LINE
  5
97
100
AcDbEntity
  8
外形
  6
CONTINUOUS
100
AcDbLine
 10
54.537
 20
40.124504
 30
0.0
 11
63.537
 21
40.124504
 31
0.0
  0
LINE
  5
98
100
AcDbEntity
  8
外形
  6
CONTINUOUS
100
AcDbLine
 10
54.537
 20
47.374504
 30
0.0
 11
54.868071
 21
44.153392
 31
0.0
  0
LINE
  5
99
100
AcDbEntity
  8
外形
  6
CONTINUOUS
100
AcDbLine
 10
52.536108
 20
45.687592
 30
0.0
 11
52.536108
 21
41.624504
 31
0.0
  0
LINE
  5
9A
100
AcDbEntity
  8
外形
  6
CONTINUOUS
100
AcDbLine
 10
54.868071
 20
44.153392
 30
0.0
 11
52.536108
 21
45.687592
 31
0.0
  0
SPLINE
  5
9B
100
AcDbEntity
  8
外形
  6
CONTINUOUS
100
AcDbSpline
210
0.0
220
0.0
230
1.0
 70
     8
 71
     3
 72
     9
 73
     5
 74
     3
 42
0.0000001
 43
0.0000001
 44
0.0000000001
 40
0.0
 40
0.0
 40
0.0
 40
0.0
 40
2.542210511734396
 40
4.154437519426662
 40
4.154437519426662
 40
4.154437519426662
 40
4.154437519426662
 10
54.86807143716254
 20
44.15339184325875
 30
0.0
 10
55.07626421101925
 20
43.29373989410445
 30
0.0
 10
55.41648932888085
 20
41.88891118510097
 30
0.0
 10
54.78288469027837
 20
40.61779171542427
 30
0.0
 10
54.5369995359639
 20
40.12450396481222
 30
0.0
 11
54.86807143716254
 21
44.15339184325875
 31
0.0
 11
55.12799524181122
 21
41.62450396481301
 31
0.0
 11
54.5369995359639
 21
40.12450396481222
 31
0.0
  0
LINE
  5
9C
100
AcDbEntity
  8
外形
  6
CONTINUOUS
100
AcDbLine
 10
54.537
 20
40.124504
 30
0.0
 11
52.536108
 21
41.624504
 31
0.0
  0
LINE
  5
9D
100
AcDbEntity
  8
外形
  6
CONTINUOUS
100
AcDbLine
 10
52.197
 20
48.913991
 30
0.0
 11
52.536108
 21
45.687592
 31
0.0
  0
LINE
  5
9E
100
AcDbEntity
  8
外形
  6
CONTINUOUS
100
AcDbLine
 10
52.548684
 20
49.188615
 30
0.0
 11
52.548684
 21
48.883223
 31
0.0
  0
LINE
  5
9F
100
AcDbEntity
  8
外形
  6
CONTINUOUS
100
AcDbLine
 10
54.537
 20
47.374504
 30
0.0
 11
52.197
 21
48.913991
 31
0.0
  0
LINE
  5
A0
100
AcDbEntity
  8
外形
  6
HIDDEN
100
AcDbLine
 10
70.037
 20
45.874504
 30
0.0
 11
74.537
 21
41.374504
 31
0.0
  0
LINE
  5
A2
100
AcDbEntity
  8
外形
  6
CONTINUOUS
100
AcDbLine
 10
71.787
 20
41.374504
 30
0.0
 11
71.787
 21
52.874504
 31
0.0
  0
LINE
  5
A3
100
AcDbEntity
  8
外形
  6
CONTINUOUS
100
AcDbLine
 10
71.537
 20
41.624504
 30
0.0
 11
71.537
 21
53.124504
 31
0.0
  0
LINE
  5
A4
100
AcDbEntity
  8
外形
  6
HIDDEN
100
AcDbLine
 10
74.537
 20
52.874504
 30
0.0
 11
74.537
 21
41.374504
 31
0.0
  0
LINE
  5
A5
100
AcDbEntity
  8
外形
  6
CONTINUOUS
100
AcDbLine
 10
64.009934
 20
47.559232
 30
0.0
 11
62.833497
 21
43.456507
 31
0.0
  0
LINE
  5
A6
100
AcDbEntity
  8
外形
  6
CONTINUOUS
100
AcDbLine
 10
63.537
 20
45.909914
 30
0.0
 11
63.537
 21
40.124504
 31
0.0
  0
LINE
  5
A7
100
AcDbEntity
  8
外形
  6
CONTINUOUS
100
AcDbLine
 10
71.537
 20
41.624504
 30
0.0
 11
63.537
 21
41.624504
 31
0.0
  0
LINE
  5
A8
100
AcDbEntity
  8
外形
  6
CONTINUOUS
100
AcDbLine
 10
63.537
 20
41.624504
 30
0.0
 11
71.537
 21
41.624504
 31
0.0
  0
LINE
  5
A9
100
AcDbEntity
  8
外形
  6
CONTINUOUS
100
AcDbLine
 10
71.537
 20
41.624504
 30
0.0
 11
63.537
 21
41.624504
 31
0.0
  0
LINE
  5
AA
100
AcDbEntity
  8
外形
  6
CONTINUOUS
100
AcDbLine
 10
79.537
 20
41.874504
 30
0.0
 11
79.537
 21
41.374504
 31
0.0
  0
LINE
  5
AB
100
AcDbEntity
  8
外形
  6
CONTINUOUS
100
AcDbLine
 10
71.537
 20
41.624504
 30
0.0
 11
71.787
 21
41.374504
 31
0.0
  0
LINE
  5
AC
100
AcDbEntity
  8
外形
  6
CONTINUOUS
100
AcDbLine
 10
79.537
 20
41.374504
 30
0.0
 11
71.787
 21
41.374504
 31
0.0
  0
SPLINE
  5
AD
100
AcDbEntity
  8
外形
  6
CONTINUOUS
100
AcDbSpline
210
0.0
220
0.0
230
1.0
 70
     8
 71
     3
 72
     8
 73
     4
 74
     0
 42
0.0000001
 43
0.0000001
 40
0.0303895746755311
 40
0.0303895746755311
 40
0.0303895746755311
 40
0.0303895746755311
 40
4.296442058183304
 40
4.296442058183304
 40
4.296442058183304
 40
4.296442058183304
 10
71.53699953596325
 20
53.12450396471991
 30
0.0
 10
70.76847377832308
 20
51.38496475262775
 30
0.0
 10
69.97938301175567
 20
49.92025166962446
 30
0.0
 10
64.00993377710294
 20
47.55923176539283
 30
0.0
  0
LINE
  5
AE
100
AcDbEntity
  8
外形
  6
CONTINUOUS
100
AcDbLine
 10
63.726429
 20
46.570533
 30
0.0
 11
61.386429
 21
48.11002
 31
0.0
  0
LINE
  5
AF
100
AcDbEntity
  8
外形
  6
CONTINUOUS
100
AcDbLine
 10
71.537
 20
53.124504
 30
0.0
 11
71.787
 21
52.874504
 31
0.0
  0
LINE
  5
B0
100
AcDbEntity
  8
外形
  6
HIDDEN
100
AcDbLine
 10
70.037
 20
48.874504
 30
0.0
 11
70.037
 21
45.874504
 31
0.0
  0
LINE
  5
B1
100
AcDbEntity
  8
外形
  6
HIDDEN
100
AcDbLine
 10
70.037
 20
48.874504
 30
0.0
 11
74.037
 21
52.874504
 31
0.0
  0
TEXT
  5
B2
100
AcDbEntity
  8
外形
  6
CONTINUOUS
 62
     2
100
AcDbText
 10
133.022219
 20
8.336145
 30
0.0
 40
6.0
  1
WBPS-312R
100
AcDbText
  0
LEADER
  5
B3
100
AcDbEntity
  8
寸法
  6
CONTINUOUS
 62
     1
100
AcDbLeader
  3
STANDARD
 73
     0
 74
     0
 75
     1
 40
3.0
 41
26.0
 76
     3
 10
8.077743
 20
110.155488
 30
0.0
 10
16.045068
 20
123.396697
 30
0.0
 10
18.045068
 20
123.396697
 30
0.0
 77
   256
340
B4
213
-0.1129475379637483
223
0.5510341987360618
233
0.0
1001
ACAD
1000
DSTYLE
1002
{
1070
   284
1070
    13
1070
   146
1040
0.5
1070
   272
1070
     3
1070
    40
1040
1.0
1070
   287
1070
     0
1002
}
  0
DIMENSION
  5
B5
100
AcDbEntity
  8
参考
  6
CONTINUOUS
100
AcDbDimension
  2
*D8
 10
2.6956
 20
86.376861
 30
0.0
 11
8.4456
 21
88.126861
 31
0.0
 12
463.52411
 22
-585.627834
 32
0.0
  3
参考寸法
100
AcDbAlignedDimension
 13
2.6156
 23
91.86467
 33
0.0
 14
2.6956
 24
91.86467
 34
0.0
100
AcDbRotatedDimension
1001
ACAD
1000
DSTYLE
1002
{
1070
   140
1040
1.5
1070
    41
1040
1.0
1002
}
  0
LINE
  5
C4
100
AcDbEntity
  8
外形
  6
CENTER
 62
     1
100
AcDbLine
 10
14.698312
 20
104.310405
 30
0.0
 11
-9.467112
 21
104.310405
 31
0.0
  0
LINE
  5
C5
100
AcDbEntity
  8
外形
  6
CENTER
 62
     1
100
AcDbLine
 10
14.698312
 20
102.810405
 30
0.0
 11
-9.467112
 21
102.810405
 31
0.0
  0
LINE
  5
C6
100
AcDbEntity
  8
外形
  6
CENTER
 62
     1
100
AcDbLine
 10
2.6156
 20
116.75614
 30
0.0
 11
2.6156
 21
91.86467
 31
0.0
  0
LINE
  5
C7
100
AcDbEntity
  8
外形
  6
CENTER
 62
     1
100
AcDbLine
 10
2.6956
 20
116.75614
 30
0.0
 11
2.6956
 21
91.86467
 31
0.0
  0
ARC
  5
C8
100
AcDbEntity
  8
外形
  6
CONTINUOUS
100
AcDbCircle
 10
2.6956
 20
104.310405
 30
0.0
 40
5.75
100
AcDbArc
 50
19.505628
 51
90.0
  0
ARC
  5
C9
100
AcDbEntity
  8
外形
  6
CONTINUOUS
100
AcDbCircle
 10
2.6956
 20
102.810405
 30
0.0
 40
7.25
100
AcDbArc
 50
90.0
 51
243.15264
  0
CIRCLE
  5
CA
100
AcDbEntity
  8
外形
  6
CENTER
 62
     1
100
AcDbCircle
 10
2.6156
 20
104.310405
 30
0.0
 40
8.0
  0
LINE
  5
CB
100
AcDbEntity
  8
外形
  6
CONTINUOUS
100
AcDbLine
 10
3.876851
 20
108.310405
 30
0.0
 11
2.6156
 21
96.310405
 31
0.0
  0
DIMENSION
  5
CC
100
AcDbEntity
  8
寸法
  6
CONTINUOUS
100
AcDbDimension
  2
*D19
 10
2.6156
 20
91.86467
 30
0.0
 11
-6.33445
 21
83.726319
 31
0.0
 12
463.52411
 22
-585.627834
 32
0.0
 70
     2
  3
STANDARD
100
AcDb2LineAngularDimension
 13
3.876851
 23
108.310405
 33
0.0
 14
2.6156
 24
96.310405
 34
0.0
 15
2.6156
 25
116.75614
 35
0.0
 16
2.010741
 26
78.989489
 36
0.0
1001
ACAD
1000
DSTYLE
1002
{
1070
    40
1040
1.0
1002
}
  0
DIMENSION
  5
DF
100
AcDbEntity
  8
参考
  6
CONTINUOUS
100
AcDbDimension
  2
*D7
 10
-14.148429
 20
102.810405
 30
0.0
 11
-15.898429
 21
97.810405
 31
0.0
 12
463.52411
 22
-585.627834
 32
0.0
  3
参考寸法
100
AcDbAlignedDimension
 13
-9.467112
 23
104.310405
 33
0.0
 14
-9.467112
 24
102.810405
 34
0.0
 50
90.0
100
AcDbRotatedDimension
1001
ACAD
1000
DSTYLE
1002
{
1070
   140
1040
1.5
1070
    41
1040
1.0
1002
}
  0
DIMENSION
  5
EE
100
AcDbEntity
  8
参考
  6
CONTINUOUS
100
AcDbDimension
  2
*D9
 10
-1.022086
 20
92.12247
 30
0.0
 11
-5.56314
 21
94.359394
 31
0.0
 12
463.52411
 22
-585.627834
 32
0.0
 70
     1
  3
参考寸法
100
AcDbAlignedDimension
 13
2.6156
 23
96.310405
 33
0.0
 14
-0.546979
 24
96.642806
 34
0.0
1001
ACAD
1000
DSTYLE
1002
{
1070
   140
1040
1.5
1070
    41
1040
1.0
1002
}
  0
LINE
  5
FC
100
AcDbEntity
  8
外形
  6
CONTINUOUS
100
AcDbLine
 10
2.6156
 20
96.310405
 30
0.0
 11
-0.482367
 21
97.257549
 31
0.0
  0
LINE
  5
FD
100
AcDbEntity
  8
外形
  6
CONTINUOUS
100
AcDbLine
 10
0.339389
 20
105.076039
 30
0.0
 11
-0.57861
 21
96.341862
 31
0.0
  0
LINE
  5
FE
100
AcDbEntity
  8
外形
  6
CONTINUOUS
100
AcDbLine
 10
8.1156
 20
106.230327
 30
0.0
 11
8.1156
 21
101.912489
 31
0.0
  0
ARC
  5
FF
100
AcDbEntity
  8
外形
  6
CONTINUOUS
100
AcDbCircle
 10
2.6156
 20
104.310405
 30
0.0
 40
6.0
100
AcDbArc
 50
272.011467
 51
336.443536
  0
LINE
  5
100
100
AcDbEntity
  8
外形
  6
CONTINUOUS
100
AcDbLine
 10
3.566581
 20
105.358382
 30
0.0
 11
0.339389
 21
105.076039
 31
0.0
  0
LINE
  5
101
100
AcDbEntity
  8
外形
  6
CONTINUOUS
100
AcDbLine
 10
3.876851
 20
108.310405
 30
0.0
 11
-2.028011
 21
108.310405
 31
0.0
  0
LINE
  5
102
100
AcDbEntity
  8
外形
  6
CONTINUOUS
100
AcDbLine
 10
3.876851
 20
108.310405
 30
0.0
 11
3.731985
 21
109.966235
 31
0.0
  0
LINE
  5
103
100
AcDbEntity
  8
外形
  6
CONTINUOUS
100
AcDbLine
 10
187.032911
 20
98.310405
 30
0.0
 11
71.787
 21
98.310405
 31
0.0
  0
LINE
  5
104
100
AcDbEntity
  8
外形
  6
CONTINUOUS
100
AcDbLine
 10
187.032911
 20
101.912489
 30
0.0
 11
71.537
 21
101.912489
 31
0.0
  0
LINE
  5
105
100
AcDbEntity
  8
外形
  6
CONTINUOUS
100
AcDbLine
 10
187.032911
 20
106.708321
 30
0.0
 11
71.525315
 21
106.708321
 31
0.0
  0
LINE
  5
106
100
AcDbEntity
  8
外形
  6
CONTINUOUS
100
AcDbLine
 10
187.032911
 20
110.310405
 30
0.0
 11
71.787
 21
110.310405
 31
0.0
  0
SPLINE
  5
107
100
AcDbEntity
  8
外形
  6
CONTINUOUS
100
AcDbSpline
210
0.0
220
0.0
230
1.0
 70
     8
 71
     3
 72
    10
 73
     6
 74
     0
 42
0.0000001
 43
0.0000001
 40
0.0
 40
0.0
 40
0.0
 40
0.0
 40
14.57416889301886
 40
19.32969967647291
 40
26.89733992799716
 40
26.89733992799716
 40
26.89733992799716
 40
26.89733992799716
 10
55.41666445681252
 20
109.9662345597055
 30
0.0
 10
60.08831274323313
 20
109.8937125849313
 30
0.0
 10
66.75075144972628
 20
109.7975267919287
 30
0.0
 10
73.45276447938329
 20
100.4571804722023
 30
0.0
 10
68.36410865019009
 20
99.3928497297734
 30
0.0
 10
63.79511947140009
 20
98.56040507698152
 30
0.0
  0
LINE
  5
108
100
AcDbEntity
  8
外形
  6
CONTINUOUS
100
AcDbLine
 10
52.548684
 20
108.310405
 30
0.0
 11
52.548684
 21
105.542291
 31
0.0
  0
LINE
  5
109
100
AcDbEntity
  8
外形
  6
CONTINUOUS
100
AcDbLine
 10
71.537
 20
105.987456
 30
0.0
 11
71.537
 21
110.060405
 31
0.0
  0
ARC
  5
10A
100
AcDbEntity
  8
外形
  6
HIDDEN
100
AcDbCircle
 10
80.037
 20
104.310405
 30
0.0
 40
6.0
100
AcDbArc
 50
156.443536
 51
203.556464
  0
LINE
  5
10B
100
AcDbEntity
  8
外形
  6
HIDDEN
100
AcDbLine
 10
70.037
 20
105.810405
 30
0.0
 11
74.537
 21
110.310405
 31
0.0
  0
LINE
  5
10C
100
AcDbEntity
  8
外形
  6
CONTINUOUS
100
AcDbLine
 10
61.399807
 20
107.499832
 30
0.0
 11
63.795119
 21
98.560405
 31
0.0
  0
LINE
  5
10D
100
AcDbEntity
  8
外形
  6
CENTER
 62
     1
100
AcDbLine
 10
57.928684
 20
94.959669
 30
0.0
 11
57.928684
 21
108.615293
 31
0.0
  0
DIMENSION
  5
10E
100
AcDbEntity
  8
寸法
  6
CONTINUOUS
100
AcDbDimension
  2
*D12
 10
54.354032
 20
96.90335
 30
0.0
 11
33.928079
 21
112.105703
 31
0.0
 12
463.52411
 22
-585.627834
 32
0.0
 70
     2
  3
STANDARD
100
AcDb2LineAngularDimension
 13
55.126773
 23
96.310405
 33
0.0
 14
54.537
 24
96.310405
 34
0.0
 15
52.302891
 25
104.558312
 35
0.0
 16
39.441719
 26
114.271553
 36
0.0
1001
ACAD
1000
DSTYLE
1002
{
1070
    40
1040
1.0
1002
}
  0
DIMENSION
  5
11D
100
AcDbEntity
  8
参考
  6
CONTINUOUS
100
AcDbDimension
  2
*D13
 10
52.585734
 20
105.138108
 30
0.0
 11
44.365134
 21
108.962528
 31
0.0
 12
463.52411
 22
-585.627834
 32
0.0
 70
   132
  3
参考寸法
100
AcDbRadialDimension
 15
52.223061
 25
105.306832
 35
0.0
 40
0.0
1001
ACAD
1000
DSTYLE
1002
{
1070
   140
1040
1.5
1070
    41
1040
1.0
1002
}
  0
DIMENSION
  5
127
100
AcDbEntity
  8
寸法
  6
CONTINUOUS
100
AcDbDimension
  2
*D17
 10
41.423317
 20
108.310405
 30
0.0
 11
38.923317
 21
112.310405
 31
0.0
 12
190.692945
 22
-585.627834
 32
0.0
  3
STANDARD
100
AcDbAlignedDimension
 13
45.766873
 23
104.310405
 33
0.0
 14
52.548684
 24
108.310405
 34
0.0
 50
90.0
100
AcDbRotatedDimension
1001
ACAD
1000
DSTYLE
1002
{
1070
    40
1040
1.0
1002
}
  0
CIRCLE
  5
134
100
AcDbEntity
  8
外形
  6
CONTINUOUS
100
AcDbCircle
 10
57.928684
 20
102.053355
 30
0.0
 40
4.7625
  0
DIMENSION
  5
135
100
AcDbEntity
  8
参考
  6
CONTINUOUS
100
AcDbDimension
  2
*D11
 10
54.26142
 20
99.014837
 30
0.0
 11
69.80959
 21
111.8973
 31
0.0
 12
463.52411
 22
-585.627834
 32
0.0
 70
   131
  3
参考寸法
100
AcDbDiametricDimension
 15
61.595947
 25
105.091872
 35
0.0
 40
0.0
1001
ACAD
1000
DSTYLE
1002
{
1070
   140
1040
1.5
1070
    41
1040
1.0
1002
}
  0
DIMENSION
  5
140
100
AcDbEntity
  8
参考
  6
CONTINUOUS
100
AcDbDimension
  2
*D16
 10
55.579773
 20
110.060405
 30
0.0
 11
58.194674
 21
118.089547
 31
0.0
 12
463.875794
 22
-585.627834
 32
0.0
 70
     2
  3
参考寸法
100
AcDb2LineAngularDimension
 13
52.548684
 23
108.310405
 33
0.0
 14
52.548684
 24
95.697163
 34
0.0
 15
52.548684
 25
108.310405
 35
0.0
 16
58.682151
 26
115.619986
 36
0.0
1001
ACAD
1000
DSTYLE
1002
{
1070
   140
1040
1.5
1070
    41
1040
1.0
1002
}
  0
ARC
  5
14F
100
AcDbEntity
  8
外形
  6
CONTINUOUS
100
AcDbCircle
 10
60.435449
 20
106.395778
 30
0.0
 40
1.75
100
AcDbArc
 50
329.072705
 51
150.945905
  0
LINE
  5
150
100
AcDbEntity
  8
外形
  6
CONTINUOUS
100
AcDbLine
 10
52.482207
 20
105.524478
 30
0.0
 11
60.909909
 21
107.782674
 31
0.0
  0
CIRCLE
  5
151
100
AcDbEntity
  8
外形
  6
CONTINUOUS
100
AcDbCircle
 10
57.928684
 20
102.053355
 30
0.0
 40
2.15001
  0
LINE
  5
152
100
AcDbEntity
  8
外形
  6
CONTINUOUS
100
AcDbLine
 10
58.606679
 20
100.879033
 30
0.0
 11
58.093441
 21
101.171974
 31
0.0
  0
LINE
  5
153
100
AcDbEntity
  8
外形
  6
CONTINUOUS
100
AcDbLine
 10
58.093441
 20
102.934735
 30
0.0
 11
58.606679
 21
103.227677
 31
0.0
  0
DIMENSION
  5
154
100
AcDbEntity
  8
参考
  6
CONTINUOUS
100
AcDbDimension
  2
*D2
 10
60.078694
 20
91.50551
 30
0.0
 11
64.078694
 21
93.25551
 31
0.0
 12
463.52411
 22
-585.627834
 32
0.0
  3
参考寸法
100
AcDbAlignedDimension
 13
55.778674
 23
101.984326
 33
0.0
 14
60.078694
 24
101.984326
 34
0.0
 50
0.0
100
AcDbRotatedDimension
1001
ACAD
1000
DSTYLE
1002
{
1070
   140
1040
1.5
1070
    41
1040
1.0
1002
}
  0
LINE
  5
162
100
AcDbEntity
  8
外形
  6
CENTER
 62
     1
100
AcDbLine
 10
51.259107
 20
102.053355
 30
0.0
 11
64.520572
 21
102.053355
 31
0.0
  0
LINE
  5
163
100
AcDbEntity
  8
外形
  6
CONTINUOUS
100
AcDbLine
 10
54.947458
 20
96.324035
 30
0.0
 11
63.375161
 21
98.582231
 31
0.0
  0
DIMENSION
  5
164
100
AcDbEntity
  8
参考
  6
CONTINUOUS
100
AcDbDimension
  2
*D18
 10
54.537
 20
83.798013
 30
0.0
 11
64.537
 21
85.548013
 31
0.0
 12
463.52411
 22
-585.627834
 32
0.0
  3
参考寸法
100
AcDbAlignedDimension
 13
74.537
 23
98.310405
 33
0.0
 14
54.537
 24
96.310405
 34
0.0
100
AcDbRotatedDimension
1001
ACAD
1000
DSTYLE
1002
{
1070
   140
1040
1.5
1070
    41
1040
1.0
1002
}
  0
DIMENSION
  5
171
100
AcDbEntity
  8
参考
  6
CONTINUOUS
100
AcDbDimension
  2
*D5
 10
52.197
 20
88.379178
 30
0.0
 11
47.447
 21
90.129178
 31
0.0
 12
463.52411
 22
-585.627834
 32
0.0
  3
参考寸法
100
AcDbAlignedDimension
 13
54.537
 23
96.310405
 33
0.0
 14
52.197
 24
105.043846
 34
0.0
100
AcDbRotatedDimension
1001
ACAD
1000
DSTYLE
1002
{
1070
   140
1040
1.5
1070
    41
1040
1.0
1002
}
  0
DIMENSION
  5
17F
100
AcDbEntity
  8
寸法
  6
CONTINUOUS
100
AcDbDimension
  2
*D10
 10
41.423317
 20
104.310405
 30
0.0
 11
38.923317
 21
100.310405
 31
0.0
 12
463.52411
 22
-585.627834
 32
0.0
  3
STANDARD
100
AcDbAlignedDimension
 13
54.537
 23
96.310405
 33
0.0
 14
45.766873
 24
104.310405
 34
0.0
 50
90.0
100
AcDbRotatedDimension
1001
ACAD
1000
DSTYLE
1002
{
1070
    40
1040
1.0
1002
}
  0
LINE
  5
18C
100
AcDbEntity
  8
外形
  6
CONTINUOUS
100
AcDbLine
 10
56.572693
 20
102.053355
 30
0.0
 11
57.083007
 21
102.35136
 31
0.0
  0
LINE
  5
18D
100
AcDbEntity
  8
外形
  6
CONTINUOUS
100
AcDbLine
 10
57.083007
 20
101.755349
 30
0.0
 11
56.572693
 21
102.053355
 31
0.0
  0
LINE
  5
18E
100
AcDbEntity
  8
外形
  6
CONTINUOUS
100
AcDbLine
 10
57.763926
 20
101.171974
 30
0.0
 11
57.250689
 21
100.879033
 31
0.0
  0
LINE
  5
18F
100
AcDbEntity
  8
外形
  6
CONTINUOUS
100
AcDbLine
 10
57.250689
 20
100.879033
 30
0.0
 11
57.247765
 21
101.46998
 31
0.0
  0
ARC
  5
190
100
AcDbEntity
  8
外形
  6
CONTINUOUS
100
AcDbCircle
 10
57.928684
 20
100.883316
 30
0.0
 40
0.332368
100
AcDbArc
 50
60.283476
 51
119.716524
  0
ARC
  5
191
100
AcDbEntity
  8
外形
  6
CONTINUOUS
100
AcDbCircle
 10
56.915401
 20
101.468336
 30
0.0
 40
0.332368
100
AcDbArc
 50
0.283476
 51
59.716524
  0
LINE
  5
192
100
AcDbEntity
  8
外形
  6
CONTINUOUS
100
AcDbLine
 10
57.247765
 20
102.636729
 30
0.0
 11
57.250689
 21
103.227677
 31
0.0
  0
LINE
  5
193
100
AcDbEntity
  8
外形
  6
CONTINUOUS
100
AcDbLine
 10
57.250689
 20
103.227677
 30
0.0
 11
57.763926
 21
102.934735
 31
0.0
  0
ARC
  5
194
100
AcDbEntity
  8
外形
  6
CONTINUOUS
100
AcDbCircle
 10
56.915401
 20
102.638374
 30
0.0
 40
0.332368
100
AcDbArc
 50
300.283476
 51
359.716524
  0
ARC
  5
195
100
AcDbEntity
  8
外形
  6
CONTINUOUS
100
AcDbCircle
 10
57.928684
 20
103.223393
 30
0.0
 40
0.332368
100
AcDbArc
 50
240.283476
 51
299.716524
  0
LINE
  5
196
100
AcDbEntity
  8
外形
  6
CONTINUOUS
 62
     1
100
AcDbLine
 10
54.45756
 20
96.606877
 30
0.0
 11
54.537
 21
96.310405
 31
0.0
  0
LINE
  5
197
100
AcDbEntity
  8
外形
  6
CONTINUOUS
 62
     1
100
AcDbLine
 10
54.896591
 20
96.310405
 30
0.0
 11
54.537
 21
96.310405
 31
0.0
  0
ARC
  5
198
100
AcDbEntity
  8
外形
  6
CONTINUOUS
100
AcDbCircle
 10
52.585734
 20
105.138108
 30
0.0
 40
0.4
100
AcDbArc
 50
105.0
 51
195.0
  0
ARC
  5
199
100
AcDbEntity
  8
外形
  6
CONTINUOUS
100
AcDbCircle
 10
54.84393
 20
96.710405
 30
0.0
 40
0.4
100
AcDbArc
 50
195.0
 51
285.0
  0
LINE
  5
19A
100
AcDbEntity
  8
外形
  6
CONTINUOUS
 62
     1
100
AcDbLine
 10
54.84393
 20
96.310405
 30
0.0
 11
54.537
 21
96.310405
 31
0.0
  0
LINE
  5
19B
100
AcDbEntity
  8
外形
  6
CONTINUOUS
100
AcDbLine
 10
52.199364
 20
105.03458
 30
0.0
 11
54.45756
 21
96.606877
 31
0.0
  0
LINE
  5
19C
100
AcDbEntity
  8
外形
  6
CONTINUOUS
100
AcDbLine
 10
71.537
 20
105.987456
 30
0.0
 11
69.085527
 21
105.987456
 31
0.0
  0
LINE
  5
19D
100
AcDbEntity
  8
外形
  6
CONTINUOUS
100
AcDbLine
 10
71.537
 20
98.560405
 30
0.0
 11
63.795119
 21
98.560405
 31
0.0
  0
ARC
  5
19E
100
AcDbEntity
  8
外形
  6
CONTINUOUS
100
AcDbCircle
 10
63.271633
 20
98.968601
 30
0.0
 40
0.4
100
AcDbArc
 50
285.0
 51
15.0
  0
LINE
  5
19F
100
AcDbEntity
  8
外形
  6
CONTINUOUS
100
AcDbLine
 10
58.77436
 20
102.35136
 30
0.0
 11
59.284674
 21
102.053355
 31
0.0
  0
LINE
  5
1A0
100
AcDbEntity
  8
外形
  6
CONTINUOUS
100
AcDbLine
 10
59.284674
 20
102.053355
 30
0.0
 11
58.77436
 21
101.755349
 31
0.0
  0
LINE
  5
1A1
100
AcDbEntity
  8
外形
  6
CONTINUOUS
100
AcDbLine
 10
58.609603
 20
101.46998
 30
0.0
 11
58.606679
 21
100.879033
 31
0.0
  0
ARC
  5
1A2
100
AcDbEntity
  8
外形
  6
CONTINUOUS
100
AcDbCircle
 10
58.941966
 20
101.468336
 30
0.0
 40
0.332368
100
AcDbArc
 50
120.283476
 51
179.716524
  0
LINE
  5
1A3
100
AcDbEntity
  8
外形
  6
CONTINUOUS
100
AcDbLine
 10
58.606679
 20
103.227677
 30
0.0
 11
58.609603
 21
102.636729
 31
0.0
  0
ARC
  5
1A4
100
AcDbEntity
  8
外形
  6
CONTINUOUS
100
AcDbCircle
 10
58.941966
 20
102.638374
 30
0.0
 40
0.332368
100
AcDbArc
 50
180.283476
 51
239.716524
  0
LINE
  5
1A5
100
AcDbEntity
  8
外形
  6
HIDDEN
100
AcDbLine
 10
70.037
 20
102.810405
 30
0.0
 11
74.537
 21
98.310405
 31
0.0
  0
LINE
  5
1A6
100
AcDbEntity
  8
外形
  6
HIDDEN
100
AcDbLine
 10
70.037
 20
105.810405
 30
0.0
 11
70.037
 21
102.810405
 31
0.0
  0
LINE
  5
1A7
100
AcDbEntity
  8
外形
  6
CONTINUOUS
100
AcDbLine
 10
71.537
 20
98.560405
 30
0.0
 11
71.787
 21
98.310405
 31
0.0
  0
LINE
  5
1A8
100
AcDbEntity
  8
外形
  6
CONTINUOUS
100
AcDbLine
 10
71.537
 20
98.560405
 30
0.0
 11
71.537
 21
101.912489
 31
0.0
  0
LINE
  5
1A9
100
AcDbEntity
  8
外形
  6
CONTINUOUS
100
AcDbLine
 10
71.787
 20
98.310405
 30
0.0
 11
71.787
 21
101.912489
 31
0.0
  0
LINE
  5
1AA
100
AcDbEntity
  8
外形
  6
HIDDEN
100
AcDbLine
 10
74.537
 20
101.912489
 30
0.0
 11
74.537
 21
98.310405
 31
0.0
  0
LINE
  5
1AB
100
AcDbEntity
  8
外形
  6
CONTINUOUS
100
AcDbLine
 10
71.537
 20
110.060405
 30
0.0
 11
55.579773
 21
110.060405
 31
0.0
  0
MTEXT
  5
B4
102
{ACAD_REACTORS
330
B3
102
}
100
AcDbEntity
  8
寸法
  6
CONTINUOUS
 62
     3
100
AcDbMText
 10
19.158016
 20
125.345663
 30
0.0
 40
3.0
 41
0.0
 71
     4
 72
     1
  1
%%c16最小加工径
  0
LINE
  5
1AC
100
AcDbEntity
  8
外形
  6
CONTINUOUS
100
AcDbLine
 10
52.548684
 20
108.310405
 30
0.0
 11
55.579773
 21
110.060405
 31
0.0
  0
ARC
  5
1AD
100
AcDbEntity
  8
外形
  6
CONTINUOUS
100
AcDbCircle
 10
61.013437
 20
107.396304
 30
0.0
 40
0.4
100
AcDbArc
 50
15.0
 51
105.0
  0
LINE
  5
1AE
100
AcDbEntity
  8
外形
  6
CONTINUOUS
100
AcDbLine
 10
71.787
 20
106.708321
 30
0.0
 11
71.787
 21
110.310405
 31
0.0
  0
LINE
  5
1AF
100
AcDbEntity
  8
外形
  6
CONTINUOUS
100
AcDbLine
 10
71.537
 20
110.060405
 30
0.0
 11
71.787
 21
110.310405
 31
0.0
  0
LINE
  5
1B0
100
AcDbEntity
  8
外形
  6
HIDDEN
100
AcDbLine
 10
74.537
 20
110.310405
 30
0.0
 11
74.537
 21
106.708321
 31
0.0
  0
LINE
  5
1B1
100
AcDbEntity
  8
外形
  6
CENTER
 62
     1
100
AcDbLine
 10
194.532911
 20
115.694326
 30
0.0
 11
194.532911
 21
92.956399
 31
0.0
  0
LINE
  5
1B2
100
AcDbEntity
  8
外形
  6
CONTINUOUS
100
AcDbLine
 10
189.032911
 20
106.708321
 30
0.0
 11
189.032911
 21
101.912489
 31
0.0
  0
LINE
  5
1B3
100
AcDbEntity
  8
外形
  6
CONTINUOUS
100
AcDbLine
 10
254.532911
 20
42.874504
 30
0.0
 11
254.532911
 21
51.874504
 31
0.0
  0
LINE
  5
1B4
100
AcDbEntity
  8
外形
  6
CONTINUOUS
100
AcDbLine
 10
253.532911
 20
52.874504
 30
0.0
 11
253.532911
 21
41.874504
 31
0.0
  0
LINE
  5
1B5
100
AcDbEntity
  8
外形
  6
CONTINUOUS
100
AcDbLine
 10
253.532911
 20
41.874504
 30
0.0
 11
254.532911
 21
42.874504
 31
0.0
  0
LINE
  5
1B6
100
AcDbEntity
  8
外形
  6
CONTINUOUS
100
AcDbLine
 10
253.532911
 20
52.874504
 30
0.0
 11
254.532911
 21
51.874504
 31
0.0
  0
LINE
  5
1B7
100
AcDbEntity
  8
外形
  6
CONTINUOUS
100
AcDbLine
 10
254.532911
 20
99.310405
 30
0.0
 11
254.532911
 21
109.310405
 31
0.0
  0
ARC
  5
1B8
100
AcDbEntity
  8
外形
  6
CONTINUOUS
100
AcDbCircle
 10
248.032911
 20
104.310405
 30
0.0
 40
6.0
100
AcDbArc
 50
336.443536
 51
23.556464
  0
LINE
  5
1B9
100
AcDbEntity
  8
外形
  6
CENTER
 62
     1
100
AcDbLine
 10
255.798684
 20
94.959669
 30
0.0
 11
255.798684
 21
108.615293
 31
0.0
  0
LINE
  5
1BA
100
AcDbEntity
  8
外形
  6
CONTINUOUS
100
AcDbLine
 10
200.032911
 20
106.708321
 30
0.0
 11
200.032911
 21
101.912489
 31
0.0
  0
LINE
  5
1BB
100
AcDbEntity
  8
外形
  6
CONTINUOUS
100
AcDbLine
 10
253.532911
 20
98.310405
 30
0.0
 11
202.032911
 21
98.310405
 31
0.0
  0
LINE
  5
1BC
100
AcDbEntity
  8
外形
  6
CONTINUOUS
100
AcDbLine
 10
253.532911
 20
101.912489
 30
0.0
 11
202.032911
 21
101.912489
 31
0.0
  0
LINE
  5
1BD
100
AcDbEntity
  8
外形
  6
CONTINUOUS
100
AcDbLine
 10
253.532911
 20
98.310405
 30
0.0
 11
254.532911
 21
99.310405
 31
0.0
  0
LINE
  5
1BE
100
AcDbEntity
  8
外形
  6
CONTINUOUS
100
AcDbLine
 10
253.532911
 20
101.912489
 30
0.0
 11
253.532911
 21
98.310405
 31
0.0
  0
LINE
  5
1BF
100
AcDbEntity
  8
外形
  6
CONTINUOUS
100
AcDbLine
 10
253.532911
 20
110.310405
 30
0.0
 11
202.032911
 21
110.310405
 31
0.0
  0
LINE
  5
1C0
100
AcDbEntity
  8
外形
  6
CONTINUOUS
100
AcDbLine
 10
253.532911
 20
106.708321
 30
0.0
 11
202.032911
 21
106.708321
 31
0.0
  0
LINE
  5
1C1
100
AcDbEntity
  8
外形
  6
CONTINUOUS
100
AcDbLine
 10
253.532911
 20
110.310405
 30
0.0
 11
254.532911
 21
109.310405
 31
0.0
  0
LINE
  5
1C2
100
AcDbEntity
  8
外形
  6
CONTINUOUS
100
AcDbLine
 10
253.532911
 20
110.310405
 30
0.0
 11
253.532911
 21
106.708321
 31
0.0
  0
ENDBLK
  5
1C4
100
AcDbEntity
  8
0
100
AcDbBlockEnd
  0
BLOCK
  5
351
100
AcDbEntity
  8
0
100
AcDbBlockBegin
  2
*D22
 70
     1
 10
0.0
 20
0.0
 30
0.0
  3
*D22
  1

  0
LINE
  5
352
100
AcDbEntity
  8
0
  6
BYBLOCK
 62
     1
100
AcDbLine
 10
919.520211
 20
286.143138
 30
0.0
 11
919.520211
 21
269.68234
 31
0.0
  0
LINE
  5
353
100
AcDbEntity
  8
0
  6
BYBLOCK
 62
     1
100
AcDbLine
 10
930.520211
 20
286.143138
 30
0.0
 11
930.520211
 21
269.68234
 31
0.0
  0
LINE
  5
354
100
AcDbEntity
  8
0
  6
BYBLOCK
 62
     1
100
AcDbLine
 10
921.520211
 20
271.68234
 30
0.0
 11
928.520211
 21
271.68234
 31
0.0
  0
INSERT
  5
355
100
AcDbEntity
  8
0
  6
BYBLOCK
 62
     1
100
AcDbBlockReference
  2
_OPEN30
 10
919.520211
 20
271.68234
 30
0.0
 41
2.0
 42
2.0
 43
2.0
 50
180.0
  0
INSERT
  5
356
100
AcDbEntity
  8
0
  6
BYBLOCK
 62
     1
100
AcDbBlockReference
  2
_OPEN30
 10
930.520211
 20
271.68234
 30
0.0
 41
2.0
 42
2.0
 43
2.0
  0
MTEXT
  5
357
100
AcDbEntity
  8
0
  6
BYBLOCK
 62
     3
100
AcDbMText
 10
925.020211
 20
274.18234
 30
0.0
 40
3.0
 41
0.0
 71
     5
 72
     1
  1
\A1;11
  0
POINT
  5
358
100
AcDbEntity
  8
DEFPOINTS
  6
BYBLOCK
 62
     0
100
AcDbPoint
 10
919.520211
 20
287.143138
 30
0.0
  0
POINT
  5
359
100
AcDbEntity
  8
DEFPOINTS
  6
BYBLOCK
 62
     0
100
AcDbPoint
 10
930.520211
 20
287.143138
 30
0.0
  0
POINT
  5
35A
100
AcDbEntity
  8
DEFPOINTS
  6
BYBLOCK
 62
     0
100
AcDbPoint
 10
930.520211
 20
271.68234
 30
0.0
  0
ENDBLK
  5
35B
100
AcDbEntity
  8
0
100
AcDbBlockEnd
  0
BLOCK
  5
35C
100
AcDbEntity
  8
0
100
AcDbBlockBegin
  2
*D23
 70
     1
 10
0.0
 20
0.0
 30
0.0
  3
*D23
  1

  0
LINE
  5
35D
100
AcDbEntity
  8
0
  6
BYBLOCK
 62
     1
100
AcDbLine
 10
939.102304
 20
306.649696
 30
0.0
 11
930.104282
 21
295.717802
 31
0.0
  0
LINE
  5
35E
100
AcDbEntity
  8
0
  6
BYBLOCK
 62
     1
100
AcDbLine
 10
919.93614
 20
283.364305
 30
0.0
 11
918.665122
 21
281.820118
 31
0.0
  0
MTEXT
  5
35F
100
AcDbEntity
  8
0
  6
BYBLOCK
 62
     3
100
AcDbMText
 10
933.994526
 20
304.378
 30
0.0
 40
3.0
 41
0.0
 71
     5
 72
     1
  1
\A1;\U+220512
 11
0.635509
 21
0.772094
 31
0.0
  0
LINE
  5
360
100
AcDbEntity
  8
0
  6
BYBLOCK
 62
     1
100
AcDbLine
 10
921.207157
 20
284.908493
 30
0.0
 11
928.833264
 21
294.173615
 31
0.0
  0
INSERT
  5
361
100
AcDbEntity
  8
0
  6
BYBLOCK
 62
     1
100
AcDbBlockReference
  2
_OPEN30
 10
921.207157
 20
284.908493
 30
0.0
 41
2.0
 42
2.0
 43
2.0
 50
50.542263
  0
INSERT
  5
362
100
AcDbEntity
  8
0
  6
BYBLOCK
 62
     1
100
AcDbBlockReference
  2
_OPEN30
 10
928.833264
 20
294.173615
 30
0.0
 41
2.0
 42
2.0
 43
2.0
 50
230.542263
  0
POINT
  5
363
100
AcDbEntity
  8
DEFPOINTS
  6
BYBLOCK
 62
     0
100
AcDbPoint
 10
928.833264
 20
294.173615
 30
0.0
  0
POINT
  5
364
100
AcDbEntity
  8
DEFPOINTS
  6
BYBLOCK
 62
     0
100
AcDbPoint
 10
921.207157
 20
284.908493
 30
0.0
  0
ENDBLK
  5
365
100
AcDbEntity
  8
0
100
AcDbBlockEnd
  0
BLOCK
  5
366
100
AcDbEntity
  8
0
100
AcDbBlockBegin
  2
*D24
 70
     1
 10
0.0
 20
0.0
 30
0.0
  3
*D24
  1

  0
LINE
  5
367
100
AcDbEntity
  8
0
  6
BYBLOCK
 62
     1
100
AcDbLine
 10
785.024299
 20
280.541054
 30
0.0
 11
785.024299
 21
255.614088
 31
0.0
  0
LINE
  5
368
100
AcDbEntity
  8
0
  6
BYBLOCK
 62
     1
100
AcDbLine
 10
985.020211
 20
283.541054
 30
0.0
 11
985.020211
 21
255.614088
 31
0.0
  0
LINE
  5
369
100
AcDbEntity
  8
0
  6
BYBLOCK
 62
     1
100
AcDbLine
 10
787.024299
 20
257.614088
 30
0.0
 11
983.020211
 21
257.614088
 31
0.0
  0
INSERT
  5
36A
100
AcDbEntity
  8
0
  6
BYBLOCK
 62
     1
100
AcDbBlockReference
  2
_OPEN30
 10
785.024299
 20
257.614088
 30
0.0
 41
2.0
 42
2.0
 43
2.0
 50
180.0
  0
INSERT
  5
36B
100
AcDbEntity
  8
0
  6
BYBLOCK
 62
     1
100
AcDbBlockReference
  2
_OPEN30
 10
985.020211
 20
257.614088
 30
0.0
 41
2.0
 42
2.0
 43
2.0
  0
MTEXT
  5
36C
100
AcDbEntity
  8
0
  6
BYBLOCK
 62
     3
100
AcDbMText
 10
885.022255
 20
260.114088
 30
0.0
 40
3.0
 41
0.0
 71
     5
 72
     1
  1
\A1;200
  0
POINT
  5
36D
100
AcDbEntity
  8
DEFPOINTS
  6
BYBLOCK
 62
     0
100
AcDbPoint
 10
785.024299
 20
281.541054
 30
0.0
  0
POINT
  5
36E
100
AcDbEntity
  8
DEFPOINTS
  6
BYBLOCK
 62
     0
100
AcDbPoint
 10
985.020211
 20
284.541054
 30
0.0
  0
POINT
  5
36F
100
AcDbEntity
  8
DEFPOINTS
  6
BYBLOCK
 62
     0
100
AcDbPoint
 10
985.020211
 20
257.614088
 30
0.0
  0
ENDBLK
  5
370
100
AcDbEntity
  8
0
100
AcDbBlockEnd
  0
BLOCK
  5
371
100
AcDbEntity
  8
0
100
AcDbBlockBegin
  2
*D25
 70
     1
 10
0.0
 20
0.0
 30
0.0
  3
*D25
  1

  0
LINE
  5
372
100
AcDbEntity
  8
0
  6
BYBLOCK
 62
     1
100
AcDbLine
 10
784.028104
 20
232.692309
 30
0.0
 11
768.430705
 21
234.056904
 31
0.0
  0
ARC
  5
373
100
AcDbEntity
  8
0
  6
BYBLOCK
 62
     1
100
AcDbCircle
 10
785.024299
 20
232.605153
 30
0.0
 40
14.656979
100
AcDbArc
 50
159.314615
 51
175.0
  0
LINE
  5
374
100
AcDbEntity
  8
0
  6
BYBLOCK
 62
     1
100
AcDbLine
 10
771.312194
 20
237.782529
 30
0.0
 11
774.350026
 21
245.828123
 31
0.0
  0
ARC
  5
375
100
AcDbEntity
  8
0
  6
BYBLOCK
 62
     1
100
AcDbCircle
 10
785.024299
 20
232.605153
 30
0.0
 40
14.656979
100
AcDbArc
 50
159.351394
 51
167.175697
  0
ARC
  5
376
100
AcDbEntity
  8
0
  6
BYBLOCK
 62
     1
100
AcDbCircle
 10
785.024299
 20
232.605153
 30
0.0
 40
14.656979
100
AcDbArc
 50
187.824303
 51
195.648606
  0
ARC
  5
377
100
AcDbEntity
  8
0
  6
BYBLOCK
 62
     1
100
AcDbCircle
 10
785.024299
 20
232.605153
 30
0.0
 40
14.656979
100
AcDbArc
 50
175.0
 51
180.0
  0
INSERT
  5
378
100
AcDbEntity
  8
0
  6
BYBLOCK
 62
     1
100
AcDbBlockReference
  2
_OPEN30
 10
770.423094
 20
233.882593
 30
0.0
 41
2.0
 42
2.0
 43
2.0
 50
261.087848
  0
INSERT
  5
379
100
AcDbEntity
  8
0
  6
BYBLOCK
 62
     1
100
AcDbBlockReference
  2
_OPEN30
 10
770.36732
 20
232.605153
 30
0.0
 41
2.0
 42
2.0
 43
2.0
 50
93.912152
  0
MTEXT
  5
37A
100
AcDbEntity
  8
0
  6
BYBLOCK
 62
     3
100
AcDbMText
 10
770.492274
 20
242.688416
 30
0.0
 40
3.0
 41
0.0
 71
     5
 72
     1
  1
\A1;5°
 11
0.353236
 21
0.935534
 31
0.0
  0
POINT
  5
37B
100
AcDbEntity
  8
DEFPOINTS
  6
BYBLOCK
 62
     0
100
AcDbPoint
 10
770.37352
 20
233.031447
 30
0.0
  0
POINT
  5
37C
100
AcDbEntity
  8
DEFPOINTS
  6
BYBLOCK
 62
     0
100
AcDbPoint
 10
785.024299
 20
232.605153
 30
0.0
  0
POINT
  5
37D
100
AcDbEntity
  8
DEFPOINTS
  6
BYBLOCK
 62
     0
100
AcDbPoint
 10
765.522636
 20
232.605153
 30
0.0
  0
POINT
  5
37E
100
AcDbEntity
  8
DEFPOINTS
  6
BYBLOCK
 62
     0
100
AcDbPoint
 10
992.508205
 20
232.605153
 30
0.0
  0
POINT
  5
37F
100
AcDbEntity
  8
DEFPOINTS
  6
BYBLOCK
 62
     0
100
AcDbPoint
 10
794.213728
 20
231.801182
 30
0.0
  0
ENDBLK
  5
380
100
AcDbEntity
  8
0
100
AcDbBlockEnd
  0
BLOCK
  5
432
100
AcDbEntity
  8
0
100
AcDbBlockBegin
  2
*D27
 70
     1
 10
0.0
 20
0.0
 30
0.0
  3
*D27
  1

  0
LINE
  5
433
100
AcDbEntity
  8
0
  6
BYBLOCK
 62
     1
100
AcDbLine
 10
785.024299
 20
231.605153
 30
0.0
 11
785.024299
 21
213.348967
 31
0.0
  0
LINE
  5
434
100
AcDbEntity
  8
0
  6
BYBLOCK
 62
     1
100
AcDbLine
 10
810.024299
 20
225.605153
 30
0.0
 11
810.024299
 21
213.348967
 31
0.0
  0
LINE
  5
435
100
AcDbEntity
  8
0
  6
BYBLOCK
 62
     1
100
AcDbLine
 10
787.024299
 20
215.348967
 30
0.0
 11
808.024299
 21
215.348967
 31
0.0
  0
INSERT
  5
436
100
AcDbEntity
  8
0
  6
BYBLOCK
 62
     1
100
AcDbBlockReference
  2
_OPEN30
 10
785.024299
 20
215.348967
 30
0.0
 41
2.0
 42
2.0
 43
2.0
 50
180.0
  0
INSERT
  5
437
100
AcDbEntity
  8
0
  6
BYBLOCK
 62
     1
100
AcDbBlockReference
  2
_OPEN30
 10
810.024299
 20
215.348967
 30
0.0
 41
2.0
 42
2.0
 43
2.0
  0
MTEXT
  5
438
100
AcDbEntity
  8
0
  6
BYBLOCK
 62
     3
100
AcDbMText
 10
797.524299
 20
217.848967
 30
0.0
 40
3.0
 41
0.0
 71
     5
 72
     1
  1
\A1;25
  0
POINT
  5
439
100
AcDbEntity
  8
DEFPOINTS
  6
BYBLOCK
 62
     0
100
AcDbPoint
 10
785.024299
 20
232.605153
 30
0.0
  0
POINT
  5
43A
100
AcDbEntity
  8
DEFPOINTS
  6
BYBLOCK
 62
     0
100
AcDbPoint
 10
810.024299
 20
226.605153
 30
0.0
  0
POINT
  5
43B
100
AcDbEntity
  8
DEFPOINTS
  6
BYBLOCK
 62
     0
100
AcDbPoint
 10
810.024299
 20
215.348967
 30
0.0
  0
ENDBLK
  5
43C
100
AcDbEntity
  8
0
100
AcDbBlockEnd
  0
BLOCK
  5
3A4
100
AcDbEntity
  8
0
100
AcDbBlockBegin
  2
*D29
 70
     1
 10
0.0
 20
0.0
 30
0.0
  3
*D29
  1

  0
LINE
  5
3A5
100
AcDbEntity
  8
0
  6
BYBLOCK
 62
     1
100
AcDbLine
 10
732.998371
 20
280.546532
 30
0.0
 11
731.08221
 21
262.31548
 31
0.0
  0
LINE
  5
3A6
100
AcDbEntity
  8
0
  6
BYBLOCK
 62
     1
100
AcDbLine
 10
733.102899
 20
276.095319
 30
0.0
 11
733.102899
 21
262.20958
 31
0.0
  0
ARC
  5
3A7
100
AcDbEntity
  8
0
  6
BYBLOCK
 62
     1
100
AcDbCircle
 10
733.102899
 20
281.541054
 30
0.0
 40
17.331474
100
AcDbArc
 50
250.746953
 51
264.0
  0
LINE
  5
3A8
100
AcDbEntity
  8
0
  6
BYBLOCK
 62
     1
100
AcDbLine
 10
727.388004
 20
265.178904
 30
0.0
 11
719.26899
 21
268.014675
 31
0.0
  0
ARC
  5
3A9
100
AcDbEntity
  8
0
  6
BYBLOCK
 62
     1
100
AcDbCircle
 10
733.102899
 20
281.541054
 30
0.0
 40
17.331474
100
AcDbArc
 50
250.76913
 51
257.384565
  0
ARC
  5
3AA
100
AcDbEntity
  8
0
  6
BYBLOCK
 62
     1
100
AcDbCircle
 10
733.102899
 20
281.541054
 30
0.0
 40
17.331474
100
AcDbArc
 50
276.615435
 51
283.23087
  0
ARC
  5
3AB
100
AcDbEntity
  8
0
  6
BYBLOCK
 62
     1
100
AcDbCircle
 10
733.102899
 20
281.541054
 30
0.0
 40
17.331474
100
AcDbArc
 50
264.0
 51
270.0
  0
INSERT
  5
3AC
100
AcDbEntity
  8
0
  6
BYBLOCK
 62
     1
100
AcDbBlockReference
  2
_OPEN30
 10
731.291267
 20
264.304524
 30
0.0
 41
2.0
 42
2.0
 43
2.0
 50
350.692283
  0
INSERT
  5
3AD
100
AcDbEntity
  8
0
  6
BYBLOCK
 62
     1
100
AcDbBlockReference
  2
_OPEN30
 10
733.102899
 20
264.20958
 30
0.0
 41
2.0
 42
2.0
 43
2.0
 50
183.307717
  0
MTEXT
  5
3AE
100
AcDbEntity
  8
0
  6
BYBLOCK
 62
     3
100
AcDbMText
 10
724.152849
 20
268.956968
 30
0.0
 40
3.0
 41
0.0
 71
     5
 72
     1
  1
\A1;6°
 11
0.944071
 21
-0.329741
 31
0.0
  0
POINT
  5
3AF
100
AcDbEntity
  8
DEFPOINTS
  6
BYBLOCK
 62
     0
100
AcDbPoint
 10
732.49804
 20
264.220138
 30
0.0
  0
POINT
  5
3B0
100
AcDbEntity
  8
DEFPOINTS
  6
BYBLOCK
 62
     0
100
AcDbPoint
 10
733.102899
 20
301.986789
 30
0.0
  0
POINT
  5
3B1
100
AcDbEntity
  8
DEFPOINTS
  6
BYBLOCK
 62
     0
100
AcDbPoint
 10
734.36415
 20
293.541054
 30
0.0
  0
POINT
  5
3B2
100
AcDbEntity
  8
DEFPOINTS
  6
BYBLOCK
 62
     0
100
AcDbPoint
 10
733.102899
 20
281.541054
 30
0.0
  0
POINT
  5
3B3
100
AcDbEntity
  8
DEFPOINTS
  6
BYBLOCK
 62
     0
100
AcDbPoint
 10
733.102899
 20
277.095319
 30
0.0
  0
ENDBLK
  5
3B4
100
AcDbEntity
  8
0
100
AcDbBlockEnd
  0
BLOCK
  5
3CE
100
AcDbEntity
  8
0
100
AcDbBlockBegin
  2
*D32
 70
     1
 10
0.0
 20
0.0
 30
0.0
  3
*D32
  1

  0
LINE
  5
3CF
100
AcDbEntity
  8
0
  6
BYBLOCK
 62
     1
100
AcDbLine
 10
782.531372
 20
290.754887
 30
0.0
 11
778.414142
 21
306.120596
 31
0.0
  0
LINE
  5
3D0
100
AcDbEntity
  8
0
  6
BYBLOCK
 62
     1
100
AcDbLine
 10
784.000211
 20
281.541054
 30
0.0
 11
759.553597
 21
281.541054
 31
0.0
  0
ARC
  5
3D1
100
AcDbEntity
  8
0
  6
BYBLOCK
 62
     1
100
AcDbCircle
 10
785.000211
 20
281.541054
 30
0.0
 40
23.446614
100
AcDbArc
 50
109.888822
 51
175.111178
  0
INSERT
  5
3D2
100
AcDbEntity
  8
0
  6
BYBLOCK
 62
     1
100
AcDbBlockReference
  2
_OPEN30
 10
778.93178
 20
304.188744
 30
0.0
 41
2.0
 42
2.0
 43
2.0
 50
17.444411
  0
INSERT
  5
3D3
100
AcDbEntity
  8
0
  6
BYBLOCK
 62
     1
100
AcDbBlockReference
  2
_OPEN30
 10
761.553597
 20
281.541054
 30
0.0
 41
2.0
 42
2.0
 43
2.0
 50
267.555589
  0
MTEXT
  5
3D4
100
AcDbEntity
  8
0
  6
BYBLOCK
 62
     3
100
AcDbMText
 10
764.415378
 20
297.336352
 30
0.0
 40
3.0
 41
0.0
 71
     5
 72
     1
  1
\A1;75°
 11
0.608761
 21
0.793353
 31
0.0
  0
POINT
  5
3D5
100
AcDbEntity
  8
DEFPOINTS
  6
BYBLOCK
 62
     0
100
AcDbPoint
 10
769.929018
 20
299.502202
 30
0.0
  0
POINT
  5
3D6
100
AcDbEntity
  8
DEFPOINTS
  6
BYBLOCK
 62
     0
100
AcDbPoint
 10
782.790191
 20
289.788961
 30
0.0
  0
POINT
  5
3D7
100
AcDbEntity
  8
DEFPOINTS
  6
BYBLOCK
 62
     0
100
AcDbPoint
 10
785.614072
 20
281.541054
 30
0.0
  0
POINT
  5
3D8
100
AcDbEntity
  8
DEFPOINTS
  6
BYBLOCK
 62
     0
100
AcDbPoint
 10
785.024299
 20
281.541054
 30
0.0
  0
POINT
  5
3D9
100
AcDbEntity
  8
DEFPOINTS
  6
BYBLOCK
 62
     0
100
AcDbPoint
 10
784.841332
 20
282.133999
 30
0.0
  0
ENDBLK
  5
3DA
100
AcDbEntity
  8
0
100
AcDbBlockEnd
  0
BLOCK
  5
427
100
AcDbEntity
  8
0
100
AcDbBlockBegin
  2
*D40
 70
     1
 10
0.0
 20
0.0
 30
0.0
  3
*D40
  1

  0
LINE
  5
428
100
AcDbEntity
  8
0
  6
BYBLOCK
 62
     1
100
AcDbLine
 10
784.024299
 20
281.541054
 30
0.0
 11
769.910616
 21
281.541054
 31
0.0
  0
LINE
  5
429
100
AcDbEntity
  8
0
  6
BYBLOCK
 62
     1
100
AcDbLine
 10
775.254173
 20
289.541054
 30
0.0
 11
769.910616
 21
289.541054
 31
0.0
  0
LINE
  5
42A
100
AcDbEntity
  8
0
  6
BYBLOCK
 62
     1
100
AcDbLine
 10
771.910616
 20
283.541054
 30
0.0
 11
771.910616
 21
287.541054
 31
0.0
  0
INSERT
  5
42B
100
AcDbEntity
  8
0
  6
BYBLOCK
 62
     1
100
AcDbBlockReference
  2
_OPEN30
 10
771.910616
 20
281.541054
 30
0.0
 41
2.0
 42
2.0
 43
2.0
 50
270.0
  0
INSERT
  5
42C
100
AcDbEntity
  8
0
  6
BYBLOCK
 62
     1
100
AcDbBlockReference
  2
_OPEN30
 10
771.910616
 20
289.541054
 30
0.0
 41
2.0
 42
2.0
 43
2.0
 50
90.0
  0
MTEXT
  5
42D
100
AcDbEntity
  8
0
  6
BYBLOCK
 62
     3
100
AcDbMText
 10
769.410616
 20
285.541054
 30
0.0
 40
3.0
 41
0.0
 71
     5
 72
     1
  1
\A1;8
 11
0.0
 21
1.0
 31
0.0
  0
POINT
  5
42E
100
AcDbEntity
  8
DEFPOINTS
  6
BYBLOCK
 62
     0
100
AcDbPoint
 10
785.024299
 20
281.541054
 30
0.0
  0
POINT
  5
42F
100
AcDbEntity
  8
DEFPOINTS
  6
BYBLOCK
 62
     0
100
AcDbPoint
 10
776.254173
 20
289.541054
 30
0.0
  0
POINT
  5
430
100
AcDbEntity
  8
DEFPOINTS
  6
BYBLOCK
 62
     0
100
AcDbPoint
 10
771.910616
 20
289.541054
 30
0.0
  0
ENDBLK
  5
431
100
AcDbEntity
  8
0
100
AcDbBlockEnd
  0
ENDSEC
  0
SECTION
  2
ENTITIES
  0
ARC
  5
1C9
100
AcDbEntity
  8
外形
  6
CONTINUOUS
100
AcDbCircle
 10
925.020211
 20
289.541054
 30
0.0
 40
6.0
100
AcDbArc
 50
203.556464
 51
336.443536
  0
DIMENSION
  5
1CA
100
AcDbEntity
  8
寸法
  6
CONTINUOUS
100
AcDbDimension
  2
*D22
 10
930.520211
 20
271.68234
 30
0.0
 11
925.020211
 21
274.18234
 31
0.0
 70
    32
  3
STANDARD
100
AcDbAlignedDimension
 13
919.520211
 23
287.143138
 33
0.0
 14
930.520211
 24
287.143138
 34
0.0
100
AcDbRotatedDimension
1001
ACAD
1000
DSTYLE
1002
{
1070
    40
1040
1.0
1002
}
  0
ARC
  5
1CB
100
AcDbEntity
  8
外形
  6
CONTINUOUS
100
AcDbCircle
 10
925.020211
 20
289.541054
 30
0.0
 40
6.0
100
AcDbArc
 50
23.556464
 51
156.443536
  0
DIMENSION
  5
1CC
100
AcDbEntity
  8
寸法
  6
CONTINUOUS
100
AcDbDimension
  2
*D23
 10
921.207157
 20
284.908493
 30
0.0
 11
935.92476
 21
302.789228
 31
0.0
 70
   163
  3
STANDARD
100
AcDbDiametricDimension
 15
928.833264
 25
294.173615
 35
0.0
 40
0.0
1001
ACAD
1000
DSTYLE
1002
{
1070
    40
1040
1.0
1002
}
  0
DIMENSION
  5
1CD
100
AcDbEntity
  8
寸法
  6
CONTINUOUS
100
AcDbDimension
  2
*D24
 10
985.020211
 20
257.614088
 30
0.0
 11
885.022255
 21
260.114088
 31
0.0
 70
    32
  3
STANDARD
100
AcDbAlignedDimension
 13
785.024299
 23
281.541054
 33
0.0
 14
985.020211
 24
284.541054
 34
0.0
100
AcDbRotatedDimension
1001
ACAD
1000
DSTYLE
1002
{
1070
    40
1040
1.0
1002
}
  0
LINE
  5
1CE
100
AcDbEntity
  8
外形
  6
CENTER
 62
     1
100
AcDbLine
 10
776.254173
 20
289.541054
 30
0.0
 11
992.508205
 21
289.541054
 31
0.0
  0
LINE
  5
1CF
100
AcDbEntity
  8
外形
  6
CENTER
 62
     1
100
AcDbLine
 10
765.522636
 20
232.605153
 30
0.0
 11
992.508205
 21
232.605153
 31
0.0
  0
LINE
  5
1D0
100
AcDbEntity
  8
外形
  6
CONTINUOUS
100
AcDbLine
 10
810.024299
 20
227.105153
 30
0.0
 11
984.020211
 21
227.105153
 31
0.0
  0
LINE
  5
1D1
100
AcDbEntity
  8
外形
  6
CONTINUOUS
100
AcDbLine
 10
802.274299
 20
238.105153
 30
0.0
 11
984.020211
 21
238.105153
 31
0.0
  0
DIMENSION
  5
1D2
100
AcDbEntity
  8
寸法
  6
CONTINUOUS
100
AcDbDimension
  2
*D25
 10
794.213728
 20
231.801182
 30
0.0
 11
770.492274
 21
242.688416
 31
0.0
 70
    34
  3
STANDARD
100
AcDb2LineAngularDimension
 13
765.522636
 23
232.605153
 33
0.0
 14
992.508205
 24
232.605153
 34
0.0
 15
785.024299
 25
232.605153
 35
0.0
 16
770.37352
 26
233.031447
 36
0.0
1001
ACAD
1000
DSTYLE
1002
{
1070
    40
1040
1.0
1002
}
  0
DIMENSION
  5
1D4
100
AcDbEntity
  8
寸法
  6
CONTINUOUS
100
AcDbDimension
  2
*D27
 10
810.024299
 20
215.348967
 30
0.0
 11
797.524299
 21
217.848967
 31
0.0
 70
    32
  3
STANDARD
100
AcDbAlignedDimension
 13
785.024299
 23
232.605153
 33
0.0
 14
810.024299
 24
226.605153
 34
0.0
100
AcDbRotatedDimension
1001
ACAD
1000
DSTYLE
1002
{
1070
    40
1040
1.0
1002
}
  0
LINE
  5
1D5
100
AcDbEntity
  8
外形
  6
CONTINUOUS
100
AcDbLine
 10
785.024299
 20
232.605153
 30
0.0
 11
794.213728
 21
231.801182
 31
0.0
  0
SPLINE
  5
1D6
100
AcDbEntity
  8
外形
  6
CONTINUOUS
100
AcDbSpline
210
0.0
220
0.0
230
-1.0
 70
     8
 71
     3
 72
     9
 73
     5
 74
     0
 42
0.0000001
 43
0.0000001
 40
0.0
 40
0.0
 40
0.0
 40
0.0
 40
5.039786751347365
 40
8.463799782317817
 40
8.463799782317817
 40
8.463799782317817
 40
8.463799782317817
 10
783.0359828236638
 20
234.4192638994492
 30
0.0
 10
784.6898761907132
 20
234.7642109847325
 30
0.0
 10
787.4674187754797
 20
235.3435138817352
 30
0.0
 10
789.9749101674074
 20
236.7054024571767
 30
0.0
 10
802.0242986955459
 20
238.3551528272827
 30
0.0
  0
LINE
  5
1D7
100
AcDbEntity
  8
外形
  6
CONTINUOUS
100
AcDbLine
 10
782.684299
 20
234.14464
 30
0.0
 11
791.873728
 21
233.340669
 31
0.0
  0
ARC
  5
1D8
100
AcDbEntity
  8
外形
  6
CONTINUOUS
100
AcDbCircle
 10
793.917718
 20
242.612614
 30
0.0
 40
15.757821
100
AcDbArc
 50
237.086569
 51
270.387534
  0
LINE
  5
1D9
100
AcDbEntity
  8
外形
  6
CONTINUOUS
100
AcDbLine
 10
785.355371
 20
229.384041
 30
0.0
 11
794.024299
 21
228.625608
 31
0.0
  0
LINE
  5
1DA
100
AcDbEntity
  8
外形
  6
CONTINUOUS
100
AcDbLine
 10
785.024299
 20
225.355153
 30
0.0
 11
794.024299
 21
225.355153
 31
0.0
  0
LINE
  5
1DB
100
AcDbEntity
  8
外形
  6
CONTINUOUS
100
AcDbLine
 10
785.024299
 20
232.605153
 30
0.0
 11
785.355371
 21
229.384041
 31
0.0
  0
LINE
  5
1DC
100
AcDbEntity
  8
外形
  6
CONTINUOUS
100
AcDbLine
 10
783.023407
 20
230.918241
 30
0.0
 11
783.023407
 21
226.855153
 31
0.0
  0
LINE
  5
1DD
100
AcDbEntity
  8
外形
  6
CONTINUOUS
100
AcDbLine
 10
785.355371
 20
229.384041
 30
0.0
 11
783.023407
 21
230.918241
 31
0.0
  0
SPLINE
  5
1DE
100
AcDbEntity
  8
外形
  6
CONTINUOUS
100
AcDbSpline
210
0.0
220
0.0
230
1.0
 70
     8
 71
     3
 72
     9
 73
     5
 74
     3
 42
0.0000001
 43
0.0000001
 44
0.0000000001
 40
0.0
 40
0.0
 40
0.0
 40
0.0
 40
2.542210511734396
 40
4.154437519426641
 40
4.154437519426641
 40
4.154437519426641
 40
4.154437519426641
 10
785.3553705967451
 20
229.3840407058215
 30
0.0
 10
785.5635633706019
 20
228.5243887566672
 30
0.0
 10
785.9037884884635
 20
227.1195600476638
 30
0.0
 10
785.2701838498609
 20
225.848440577987
 30
0.0
 10
785.0242986955465
 20
225.355152827375
 30
0.0
 11
785.3553705967451
 21
229.3840407058215
 31
0.0
 11
785.6152944013938
 21
226.8551528273758
 31
0.0
 11
785.0242986955465
 21
225.355152827375
 31
0.0
  0
LINE
  5
1DF
100
AcDbEntity
  8
外形
  6
CONTINUOUS
100
AcDbLine
 10
785.024299
 20
225.355153
 30
0.0
 11
783.023407
 21
226.855153
 31
0.0
  0
LINE
  5
1E0
100
AcDbEntity
  8
外形
  6
CONTINUOUS
100
AcDbLine
 10
782.684299
 20
234.14464
 30
0.0
 11
783.023407
 21
230.918241
 31
0.0
  0
LINE
  5
1E1
100
AcDbEntity
  8
外形
  6
CONTINUOUS
100
AcDbLine
 10
783.035983
 20
234.419264
 30
0.0
 11
783.035983
 21
234.113872
 31
0.0
  0
LINE
  5
1E2
100
AcDbEntity
  8
外形
  6
CONTINUOUS
100
AcDbLine
 10
785.024299
 20
232.605153
 30
0.0
 11
782.684299
 21
234.14464
 31
0.0
  0
LINE
  5
1E3
100
AcDbEntity
  8
外形
  6
HIDDEN
100
AcDbLine
 10
800.524299
 20
231.105153
 30
0.0
 11
805.024299
 21
226.605153
 31
0.0
  0
LINE
  5
1E4
100
AcDbEntity
  8
外形
  6
CONTINUOUS
100
AcDbLine
 10
802.274299
 20
226.605153
 30
0.0
 11
802.274299
 21
238.105153
 31
0.0
  0
LINE
  5
1E5
100
AcDbEntity
  8
外形
  6
CONTINUOUS
100
AcDbLine
 10
802.024299
 20
226.855153
 30
0.0
 11
802.024299
 21
238.355153
 31
0.0
  0
LINE
  5
1E6
100
AcDbEntity
  8
外形
  6
HIDDEN
100
AcDbLine
 10
805.024299
 20
238.105153
 30
0.0
 11
805.024299
 21
226.605153
 31
0.0
  0
LINE
  5
1E7
100
AcDbEntity
  8
外形
  6
CONTINUOUS
100
AcDbLine
 10
794.497233
 20
232.789881
 30
0.0
 11
793.320796
 21
228.687156
 31
0.0
  0
LINE
  5
1E8
100
AcDbEntity
  8
外形
  6
CONTINUOUS
100
AcDbLine
 10
794.024299
 20
231.140563
 30
0.0
 11
794.024299
 21
225.355153
 31
0.0
  0
LINE
  5
1E9
100
AcDbEntity
  8
外形
  6
CONTINUOUS
100
AcDbLine
 10
802.024299
 20
226.855153
 30
0.0
 11
794.024299
 21
226.855153
 31
0.0
  0
LINE
  5
1EA
100
AcDbEntity
  8
外形
  6
CONTINUOUS
100
AcDbLine
 10
794.024299
 20
226.855153
 30
0.0
 11
802.024299
 21
226.855153
 31
0.0
  0
LINE
  5
1EB
100
AcDbEntity
  8
外形
  6
CONTINUOUS
100
AcDbLine
 10
802.024299
 20
226.855153
 30
0.0
 11
794.024299
 21
226.855153
 31
0.0
  0
LINE
  5
1EC
100
AcDbEntity
  8
外形
  6
CONTINUOUS
100
AcDbLine
 10
810.024299
 20
227.105153
 30
0.0
 11
810.024299
 21
226.605153
 31
0.0
  0
LINE
  5
1ED
100
AcDbEntity
  8
外形
  6
CONTINUOUS
100
AcDbLine
 10
802.024299
 20
226.855153
 30
0.0
 11
802.274299
 21
226.605153
 31
0.0
  0
LINE
  5
1EE
100
AcDbEntity
  8
外形
  6
CONTINUOUS
100
AcDbLine
 10
810.024299
 20
226.605153
 30
0.0
 11
802.274299
 21
226.605153
 31
0.0
  0
SPLINE
  5
1EF
100
AcDbEntity
  8
外形
  6
CONTINUOUS
100
AcDbSpline
210
0.0
220
0.0
230
1.0
 70
     8
 71
     3
 72
     8
 73
     4
 74
     0
 42
0.0000001
 43
0.0000001
 40
0.0303895746755311
 40
0.0303895746755311
 40
0.0303895746755311
 40
0.0303895746755311
 40
4.296442058183304
 40
4.296442058183304
 40
4.296442058183304
 40
4.296442058183304
 10
802.0242986955459
 20
238.3551528272827
 30
0.0
 10
801.2557729379057
 20
236.6156136151905
 30
0.0
 10
800.4666821713383
 20
235.1509005321872
 30
0.0
 10
794.4972329366856
 20
232.7898806279556
 30
0.0
  0
LINE
  5
1F0
100
AcDbEntity
  8
外形
  6
CONTINUOUS
100
AcDbLine
 10
794.213728
 20
231.801182
 30
0.0
 11
791.873728
 21
233.340669
 31
0.0
  0
LINE
  5
1F1
100
AcDbEntity
  8
外形
  6
CONTINUOUS
100
AcDbLine
 10
802.024299
 20
238.355153
 30
0.0
 11
802.274299
 21
238.105153
 31
0.0
  0
LINE
  5
1F2
100
AcDbEntity
  8
外形
  6
HIDDEN
100
AcDbLine
 10
800.524299
 20
234.105153
 30
0.0
 11
800.524299
 21
231.105153
 31
0.0
  0
LINE
  5
1F3
100
AcDbEntity
  8
外形
  6
HIDDEN
100
AcDbLine
 10
800.524299
 20
234.105153
 30
0.0
 11
804.524299
 21
238.105153
 31
0.0
  0
TEXT
  5
1F4
100
AcDbEntity
  8
外形
  6
CONTINUOUS
 62
     2
100
AcDbText
 10
863.509518
 20
193.566794
 30
0.0
 40
6.0
  1
WBPS-312R
100
AcDbText
  0
LEADER
  5
1F5
100
AcDbEntity
  8
寸法
  6
CONTINUOUS
 62
     1
100
AcDbLeader
  3
STANDARD
 73
     0
 74
     0
 75
     1
 40
3.0
 41
26.0
 76
     3
 10
738.565042
 20
295.386137
 30
0.0
 10
746.532368
 20
308.627346
 30
0.0
 10
748.532368
 20
308.627346
 30
0.0
 77
   256
340
245
213
-0.1129475379637483
223
0.5510341987360618
233
0.0
1001
ACAD
1000
DSTYLE
1002
{
1070
   284
1070
    13
1070
   146
1040
0.5
1070
   272
1070
     3
1070
    40
1040
1.0
1070
   287
1070
     0
1002
}
  0
LINE
  5
1F7
100
AcDbEntity
  8
外形
  6
CENTER
 62
     1
100
AcDbLine
 10
745.185611
 20
289.541054
 30
0.0
 11
721.020188
 21
289.541054
 31
0.0
  0
LINE
  5
1F9
100
AcDbEntity
  8
外形
  6
CENTER
 62
     1
100
AcDbLine
 10
733.102899
 20
301.986789
 30
0.0
 11
733.102899
 21
277.095319
 31
0.0
  0
LINE
  5
1FA
100
AcDbEntity
  8
外形
  6
CENTER
 62
     1
100
AcDbLine
 10
733.182899
 20
301.986789
 30
0.0
 11
733.182899
 21
277.095319
 31
0.0
  0
ARC
  5
1FB
100
AcDbEntity
  8
外形
  6
CONTINUOUS
100
AcDbCircle
 10
733.182899
 20
289.541054
 30
0.0
 40
5.75
100
AcDbArc
 50
19.505628
 51
90.0
  0
ARC
  5
1FC
100
AcDbEntity
  8
外形
  6
CONTINUOUS
100
AcDbCircle
 10
732.737015
 20
288.605882
 30
0.0
 40
6.700025
100
AcDbArc
 50
86.184162
 51
245.935048
  0
CIRCLE
  5
1FD
100
AcDbEntity
  8
外形
  6
CENTER
 62
     1
100
AcDbCircle
 10
733.102899
 20
289.541054
 30
0.0
 40
8.0
  0
LINE
  5
1FE
100
AcDbEntity
  8
外形
  6
CONTINUOUS
100
AcDbLine
 10
734.36415
 20
293.541054
 30
0.0
 11
733.102899
 21
281.541054
 31
0.0
  0
DIMENSION
  5
1FF
100
AcDbEntity
  8
寸法
  6
CONTINUOUS
100
AcDbDimension
  2
*D29
 10
733.102899
 20
277.095319
 30
0.0
 11
724.152849
 21
268.956968
 31
0.0
 70
    34
  3
STANDARD
100
AcDb2LineAngularDimension
 13
734.36415
 23
293.541054
 33
0.0
 14
733.102899
 24
281.541054
 34
0.0
 15
733.102899
 25
301.986789
 35
0.0
 16
732.49804
 26
264.220138
 36
0.0
1001
ACAD
1000
DSTYLE
1002
{
1070
    40
1040
1.0
1002
}
  0
LINE
  5
202
100
AcDbEntity
  8
外形
  6
CONTINUOUS
100
AcDbLine
 10
733.102899
 20
281.541054
 30
0.0
 11
730.004932
 21
282.488198
 31
0.0
  0
LINE
  5
203
100
AcDbEntity
  8
外形
  6
CONTINUOUS
100
AcDbLine
 10
730.826688
 20
290.306688
 30
0.0
 11
730.004932
 21
282.488198
 31
0.0
  0
LINE
  5
204
100
AcDbEntity
  8
外形
  6
CONTINUOUS
100
AcDbLine
 10
738.602899
 20
291.460976
 30
0.0
 11
738.602899
 21
287.143138
 31
0.0
  0
ARC
  5
205
100
AcDbEntity
  8
外形
  6
CONTINUOUS
100
AcDbCircle
 10
733.102899
 20
289.541054
 30
0.0
 40
6.0
100
AcDbArc
 50
272.011467
 51
336.443536
  0
LINE
  5
206
100
AcDbEntity
  8
外形
  6
CONTINUOUS
100
AcDbLine
 10
734.05388
 20
290.589031
 30
0.0
 11
730.826688
 21
290.306688
 31
0.0
  0
LINE
  5
207
100
AcDbEntity
  8
外形
  6
CONTINUOUS
100
AcDbLine
 10
734.36415
 20
293.541054
 30
0.0
 11
728.205523
 21
293.541054
 31
0.0
  0
LINE
  5
208
100
AcDbEntity
  8
外形
  6
CONTINUOUS
100
AcDbLine
 10
734.36415
 20
293.541054
 30
0.0
 11
734.219284
 21
295.196883
 31
0.0
  0
LINE
  5
209
100
AcDbEntity
  8
外形
  6
CONTINUOUS
100
AcDbLine
 10
917.520211
 20
283.541054
 30
0.0
 11
802.274299
 21
283.541054
 31
0.0
  0
LINE
  5
20A
100
AcDbEntity
  8
外形
  6
CONTINUOUS
100
AcDbLine
 10
917.520211
 20
287.143138
 30
0.0
 11
802.024299
 21
287.143138
 31
0.0
  0
LINE
  5
20B
100
AcDbEntity
  8
外形
  6
CONTINUOUS
100
AcDbLine
 10
917.520211
 20
291.93897
 30
0.0
 11
802.012615
 21
291.93897
 31
0.0
  0
LINE
  5
20C
100
AcDbEntity
  8
外形
  6
CONTINUOUS
100
AcDbLine
 10
917.520211
 20
295.541054
 30
0.0
 11
802.274299
 21
295.541054
 31
0.0
  0
SPLINE
  5
20D
100
AcDbEntity
  8
外形
  6
CONTINUOUS
100
AcDbSpline
210
0.0
220
0.0
230
1.0
 70
     8
 71
     3
 72
    10
 73
     6
 74
     0
 42
0.0000001
 43
0.0000001
 40
0.0
 40
0.0
 40
0.0
 40
0.0
 40
14.57416889301886
 40
19.32969967647291
 40
26.89733992799716
 40
26.89733992799716
 40
26.89733992799716
 40
26.89733992799716
 10
785.9039636163952
 20
295.1968834222683
 30
0.0
 10
790.5756119028158
 20
295.1243614474941
 30
0.0
 10
797.2380506093089
 20
295.0281756544915
 30
0.0
 10
803.9400636389659
 20
285.6878293347651
 30
0.0
 10
798.8514078097728
 20
284.6234985923361
 30
0.0
 10
794.2824186309827
 20
283.7910539395443
 30
0.0
  0
LINE
  5
20E
100
AcDbEntity
  8
外形
  6
CONTINUOUS
100
AcDbLine
 10
783.035983
 20
293.541054
 30
0.0
 11
783.035983
 21
290.77294
 31
0.0
  0
LINE
  5
20F
100
AcDbEntity
  8
外形
  6
CONTINUOUS
100
AcDbLine
 10
802.024299
 20
291.218105
 30
0.0
 11
802.024299
 21
295.291054
 31
0.0
  0
ARC
  5
210
100
AcDbEntity
  8
外形
  6
HIDDEN
100
AcDbCircle
 10
810.524299
 20
289.541054
 30
0.0
 40
6.0
100
AcDbArc
 50
156.443536
 51
203.556464
  0
LINE
  5
211
100
AcDbEntity
  8
外形
  6
HIDDEN
100
AcDbLine
 10
800.524299
 20
291.041054
 30
0.0
 11
805.024299
 21
295.541054
 31
0.0
  0
LINE
  5
212
100
AcDbEntity
  8
外形
  6
CONTINUOUS
100
AcDbLine
 10
791.887106
 20
292.730481
 30
0.0
 11
794.282419
 21
283.791054
 31
0.0
  0
LINE
  5
213
100
AcDbEntity
  8
外形
  6
CENTER
 62
     1
100
AcDbLine
 10
788.415983
 20
280.190318
 30
0.0
 11
788.415983
 21
293.845942
 31
0.0
  0
DIMENSION
  5
214
100
AcDbEntity
  8
寸法
  6
CONTINUOUS
100
AcDbDimension
  2
*D32
 10
784.841332
 20
282.133999
 30
0.0
 11
764.415378
 21
297.336352
 31
0.0
 70
    34
  3
STANDARD
100
AcDb2LineAngularDimension
 13
785.614072
 23
281.541054
 33
0.0
 14
785.024299
 24
281.541054
 34
0.0
 15
782.790191
 25
289.788961
 35
0.0
 16
769.929018
 26
299.502202
 36
0.0
1001
ACAD
1000
DSTYLE
1002
{
1070
    40
1040
1.0
1002
}
  0
CIRCLE
  5
217
100
AcDbEntity
  8
外形
  6
CONTINUOUS
100
AcDbCircle
 10
788.415983
 20
287.284003
 30
0.0
 40
4.7625
  0
ARC
  5
21A
100
AcDbEntity
  8
外形
  6
CONTINUOUS
100
AcDbCircle
 10
790.922748
 20
291.626426
 30
0.0
 40
1.75
100
AcDbArc
 50
329.072705
 51
150.945905
  0
LINE
  5
21B
100
AcDbEntity
  8
外形
  6
CONTINUOUS
100
AcDbLine
 10
782.969506
 20
290.755127
 30
0.0
 11
791.397209
 21
293.013323
 31
0.0
  0
CIRCLE
  5
21C
100
AcDbEntity
  8
外形
  6
CONTINUOUS
100
AcDbCircle
 10
788.415983
 20
287.284003
 30
0.0
 40
2.15001
  0
LINE
  5
21D
100
AcDbEntity
  8
外形
  6
CONTINUOUS
100
AcDbLine
 10
789.093978
 20
286.109681
 30
0.0
 11
788.580741
 21
286.402623
 31
0.0
  0
LINE
  5
21E
100
AcDbEntity
  8
外形
  6
CONTINUOUS
100
AcDbLine
 10
788.580741
 20
288.165384
 30
0.0
 11
789.093978
 21
288.458325
 31
0.0
  0
LINE
  5
220
100
AcDbEntity
  8
外形
  6
CENTER
 62
     1
100
AcDbLine
 10
781.746406
 20
287.284003
 30
0.0
 11
795.007871
 21
287.284003
 31
0.0
  0
LINE
  5
221
100
AcDbEntity
  8
外形
  6
CONTINUOUS
100
AcDbLine
 10
785.434757
 20
281.554684
 30
0.0
 11
793.86246
 21
283.81288
 31
0.0
  0
DIMENSION
  5
224
100
AcDbEntity
  8
寸法
  6
CONTINUOUS
100
AcDbDimension
  2
*D40
 10
771.910616
 20
289.541054
 30
0.0
 11
769.410616
 21
285.541054
 31
0.0
 70
    32
  3
STANDARD
100
AcDbAlignedDimension
 13
785.024299
 23
281.541054
 33
0.0
 14
776.254173
 24
289.541054
 34
0.0
 50
90.0
100
AcDbRotatedDimension
1001
ACAD
1000
DSTYLE
1002
{
1070
    40
1040
1.0
1002
}
  0
LINE
  5
225
100
AcDbEntity
  8
外形
  6
CONTINUOUS
100
AcDbLine
 10
787.059993
 20
287.284003
 30
0.0
 11
787.570306
 21
287.582009
 31
0.0
  0
LINE
  5
226
100
AcDbEntity
  8
外形
  6
CONTINUOUS
100
AcDbLine
 10
787.570306
 20
286.985998
 30
0.0
 11
787.059993
 21
287.284003
 31
0.0
  0
LINE
  5
227
100
AcDbEntity
  8
外形
  6
CONTINUOUS
100
AcDbLine
 10
788.251225
 20
286.402623
 30
0.0
 11
787.737988
 21
286.109681
 31
0.0
  0
LINE
  5
228
100
AcDbEntity
  8
外形
  6
CONTINUOUS
100
AcDbLine
 10
787.737988
 20
286.109681
 30
0.0
 11
787.735064
 21
286.700629
 31
0.0
  0
ARC
  5
229
100
AcDbEntity
  8
外形
  6
CONTINUOUS
100
AcDbCircle
 10
788.415983
 20
286.113965
 30
0.0
 40
0.332368
100
AcDbArc
 50
60.283476
 51
119.716524
  0
ARC
  5
22A
100
AcDbEntity
  8
外形
  6
CONTINUOUS
100
AcDbCircle
 10
787.4027
 20
286.698984
 30
0.0
 40
0.332368
100
AcDbArc
 50
0.283476
 51
59.716524
  0
LINE
  5
22B
100
AcDbEntity
  8
外形
  6
CONTINUOUS
100
AcDbLine
 10
787.735064
 20
287.867378
 30
0.0
 11
787.737988
 21
288.458325
 31
0.0
  0
LINE
  5
22C
100
AcDbEntity
  8
外形
  6
CONTINUOUS
100
AcDbLine
 10
787.737988
 20
288.458325
 30
0.0
 11
788.251225
 21
288.165384
 31
0.0
  0
ARC
  5
22D
100
AcDbEntity
  8
外形
  6
CONTINUOUS
100
AcDbCircle
 10
787.4027
 20
287.869022
 30
0.0
 40
0.332368
100
AcDbArc
 50
300.283476
 51
359.716524
  0
ARC
  5
22E
100
AcDbEntity
  8
外形
  6
CONTINUOUS
100
AcDbCircle
 10
788.415983
 20
288.454042
 30
0.0
 40
0.332368
100
AcDbArc
 50
240.283476
 51
299.716524
  0
LINE
  5
22F
100
AcDbEntity
  8
外形
  6
CONTINUOUS
 62
     1
100
AcDbLine
 10
784.944859
 20
281.837526
 30
0.0
 11
785.024299
 21
281.541054
 31
0.0
  0
LINE
  5
230
100
AcDbEntity
  8
外形
  6
CONTINUOUS
 62
     1
100
AcDbLine
 10
785.38389
 20
281.541054
 30
0.0
 11
785.024299
 21
281.541054
 31
0.0
  0
ARC
  5
231
100
AcDbEntity
  8
外形
  6
CONTINUOUS
100
AcDbCircle
 10
783.073033
 20
290.368757
 30
0.0
 40
0.4
100
AcDbArc
 50
105.0
 51
195.0
  0
ARC
  5
232
100
AcDbEntity
  8
外形
  6
CONTINUOUS
100
AcDbCircle
 10
785.331229
 20
281.941054
 30
0.0
 40
0.4
100
AcDbArc
 50
195.0
 51
285.0
  0
LINE
  5
233
100
AcDbEntity
  8
外形
  6
CONTINUOUS
 62
     1
100
AcDbLine
 10
785.331229
 20
281.541054
 30
0.0
 11
785.024299
 21
281.541054
 31
0.0
  0
LINE
  5
234
100
AcDbEntity
  8
外形
  6
CONTINUOUS
100
AcDbLine
 10
782.686663
 20
290.265229
 30
0.0
 11
784.944859
 21
281.837526
 31
0.0
  0
LINE
  5
235
100
AcDbEntity
  8
外形
  6
CONTINUOUS
100
AcDbLine
 10
802.024299
 20
291.218105
 30
0.0
 11
799.572826
 21
291.218105
 31
0.0
  0
LINE
  5
236
100
AcDbEntity
  8
外形
  6
CONTINUOUS
100
AcDbLine
 10
802.024299
 20
283.791054
 30
0.0
 11
794.282419
 21
283.791054
 31
0.0
  0
ARC
  5
237
100
AcDbEntity
  8
外形
  6
CONTINUOUS
100
AcDbCircle
 10
793.758932
 20
284.19925
 30
0.0
 40
0.4
100
AcDbArc
 50
285.0
 51
15.0
  0
LINE
  5
238
100
AcDbEntity
  8
外形
  6
CONTINUOUS
100
AcDbLine
 10
789.26166
 20
287.582009
 30
0.0
 11
789.771973
 21
287.284003
 31
0.0
  0
LINE
  5
239
100
AcDbEntity
  8
外形
  6
CONTINUOUS
100
AcDbLine
 10
789.771973
 20
287.284003
 30
0.0
 11
789.26166
 21
286.985998
 31
0.0
  0
LINE
  5
23A
100
AcDbEntity
  8
外形
  6
CONTINUOUS
100
AcDbLine
 10
789.096902
 20
286.700629
 30
0.0
 11
789.093978
 21
286.109681
 31
0.0
  0
ARC
  5
23B
100
AcDbEntity
  8
外形
  6
CONTINUOUS
100
AcDbCircle
 10
789.429266
 20
286.698984
 30
0.0
 40
0.332368
100
AcDbArc
 50
120.283476
 51
179.716524
  0
LINE
  5
23C
100
AcDbEntity
  8
外形
  6
CONTINUOUS
100
AcDbLine
 10
789.093978
 20
288.458325
 30
0.0
 11
789.096902
 21
287.867378
 31
0.0
  0
ARC
  5
23D
100
AcDbEntity
  8
外形
  6
CONTINUOUS
100
AcDbCircle
 10
789.429266
 20
287.869022
 30
0.0
 40
0.332368
100
AcDbArc
 50
180.283476
 51
239.716524
  0
LINE
  5
23E
100
AcDbEntity
  8
外形
  6
HIDDEN
100
AcDbLine
 10
800.524299
 20
288.041054
 30
0.0
 11
805.024299
 21
283.541054
 31
0.0
  0
LINE
  5
23F
100
AcDbEntity
  8
外形
  6
HIDDEN
100
AcDbLine
 10
800.524299
 20
291.041054
 30
0.0
 11
800.524299
 21
288.041054
 31
0.0
  0
LINE
  5
240
100
AcDbEntity
  8
外形
  6
CONTINUOUS
100
AcDbLine
 10
802.024299
 20
283.791054
 30
0.0
 11
802.274299
 21
283.541054
 31
0.0
  0
LINE
  5
241
100
AcDbEntity
  8
外形
  6
CONTINUOUS
100
AcDbLine
 10
802.024299
 20
283.791054
 30
0.0
 11
802.024299
 21
287.143138
 31
0.0
  0
LINE
  5
242
100
AcDbEntity
  8
外形
  6
CONTINUOUS
100
AcDbLine
 10
802.274299
 20
283.541054
 30
0.0
 11
802.274299
 21
287.143138
 31
0.0
  0
LINE
  5
243
100
AcDbEntity
  8
外形
  6
HIDDEN
100
AcDbLine
 10
805.024299
 20
287.143138
 30
0.0
 11
805.024299
 21
283.541054
 31
0.0
  0
LINE
  5
244
100
AcDbEntity
  8
外形
  6
CONTINUOUS
100
AcDbLine
 10
802.024299
 20
295.291054
 30
0.0
 11
786.067072
 21
295.291054
 31
0.0
  0
MTEXT
  5
245
102
{ACAD_REACTORS
330
1F5
102
}
100
AcDbEntity
  8
寸法
  6
CONTINUOUS
 62
     3
100
AcDbMText
 10
749.645315
 20
310.576312
 30
0.0
 40
3.0
 41
0.0
 71
     4
 72
     1
  1
%%c16最小加工径
  0
LINE
  5
246
100
AcDbEntity
  8
外形
  6
CONTINUOUS
100
AcDbLine
 10
783.035983
 20
293.541054
 30
0.0
 11
786.067072
 21
295.291054
 31
0.0
  0
ARC
  5
247
100
AcDbEntity
  8
外形
  6
CONTINUOUS
100
AcDbCircle
 10
791.500736
 20
292.626953
 30
0.0
 40
0.4
100
AcDbArc
 50
15.0
 51
105.0
  0
LINE
  5
248
100
AcDbEntity
  8
外形
  6
CONTINUOUS
100
AcDbLine
 10
802.274299
 20
291.93897
 30
0.0
 11
802.274299
 21
295.541054
 31
0.0
  0
LINE
  5
249
100
AcDbEntity
  8
外形
  6
CONTINUOUS
100
AcDbLine
 10
802.024299
 20
295.291054
 30
0.0
 11
802.274299
 21
295.541054
 31
0.0
  0
LINE
  5
24A
100
AcDbEntity
  8
外形
  6
HIDDEN
100
AcDbLine
 10
805.024299
 20
295.541054
 30
0.0
 11
805.024299
 21
291.93897
 31
0.0
  0
LINE
  5
24B
100
AcDbEntity
  8
外形
  6
CENTER
 62
     1
100
AcDbLine
 10
925.020211
 20
300.924975
 30
0.0
 11
925.020211
 21
278.187048
 31
0.0
  0
LINE
  5
24C
100
AcDbEntity
  8
外形
  6
CONTINUOUS
100
AcDbLine
 10
919.520211
 20
291.93897
 30
0.0
 11
919.520211
 21
287.143138
 31
0.0
  0
LINE
  5
24D
100
AcDbEntity
  8
外形
  6
CONTINUOUS
100
AcDbLine
 10
985.020211
 20
228.105153
 30
0.0
 11
985.020211
 21
237.105153
 31
0.0
  0
LINE
  5
24E
100
AcDbEntity
  8
外形
  6
CONTINUOUS
100
AcDbLine
 10
984.020211
 20
238.105153
 30
0.0
 11
984.020211
 21
227.105153
 31
0.0
  0
LINE
  5
24F
100
AcDbEntity
  8
外形
  6
CONTINUOUS
100
AcDbLine
 10
984.020211
 20
227.105153
 30
0.0
 11
985.020211
 21
228.105153
 31
0.0
  0
LINE
  5
250
100
AcDbEntity
  8
外形
  6
CONTINUOUS
100
AcDbLine
 10
984.020211
 20
238.105153
 30
0.0
 11
985.020211
 21
237.105153
 31
0.0
  0
LINE
  5
251
100
AcDbEntity
  8
外形
  6
CONTINUOUS
100
AcDbLine
 10
985.020211
 20
284.541054
 30
0.0
 11
985.020211
 21
294.541054
 31
0.0
  0
ARC
  5
252
100
AcDbEntity
  8
外形
  6
CONTINUOUS
100
AcDbCircle
 10
978.520211
 20
289.541054
 30
0.0
 40
6.0
100
AcDbArc
 50
336.443536
 51
23.556464
  0
LINE
  5
253
100
AcDbEntity
  8
外形
  6
CENTER
 62
     1
100
AcDbLine
 10
986.285983
 20
280.190318
 30
0.0
 11
986.285983
 21
293.845942
 31
0.0
  0
LINE
  5
254
100
AcDbEntity
  8
外形
  6
CONTINUOUS
100
AcDbLine
 10
930.520211
 20
291.93897
 30
0.0
 11
930.520211
 21
287.143138
 31
0.0
  0
LINE
  5
255
100
AcDbEntity
  8
外形
  6
CONTINUOUS
100
AcDbLine
 10
984.020211
 20
283.541054
 30
0.0
 11
932.520211
 21
283.541054
 31
0.0
  0
LINE
  5
256
100
AcDbEntity
  8
外形
  6
CONTINUOUS
100
AcDbLine
 10
984.020211
 20
287.143138
 30
0.0
 11
932.520211
 21
287.143138
 31
0.0
  0
LINE
  5
257
100
AcDbEntity
  8
外形
  6
CONTINUOUS
100
AcDbLine
 10
984.020211
 20
283.541054
 30
0.0
 11
985.020211
 21
284.541054
 31
0.0
  0
LINE
  5
258
100
AcDbEntity
  8
外形
  6
CONTINUOUS
100
AcDbLine
 10
984.020211
 20
287.143138
 30
0.0
 11
984.020211
 21
283.541054
 31
0.0
  0
LINE
  5
259
100
AcDbEntity
  8
外形
  6
CONTINUOUS
100
AcDbLine
 10
984.020211
 20
295.541054
 30
0.0
 11
932.520211
 21
295.541054
 31
0.0
  0
LINE
  5
25A
100
AcDbEntity
  8
外形
  6
CONTINUOUS
100
AcDbLine
 10
984.020211
 20
291.93897
 30
0.0
 11
932.520211
 21
291.93897
 31
0.0
  0
LINE
  5
25B
100
AcDbEntity
  8
外形
  6
CONTINUOUS
100
AcDbLine
 10
984.020211
 20
295.541054
 30
0.0
 11
985.020211
 21
294.541054
 31
0.0
  0
LINE
  5
25C
100
AcDbEntity
  8
外形
  6
CONTINUOUS
100
AcDbLine
 10
984.020211
 20
295.541054
 30
0.0
 11
984.020211
 21
291.93897
 31
0.0
  0
ENDSEC
  0
SECTION
  2
OBJECTS
  0
DICTIONARY
  5
1E
100
AcDbDictionary
  3
ACAD_GROUP
350
1C
  3
ACAD_MLINESTYLE
350
1D
  0
DICTIONARY
  5
40
100
AcDbDictionary
280
     1
  3
ACAD_XREC_ROUNDTRIP
360
41
  0
DICTIONARY
  5
2F
100
AcDbDictionary
280
     1
  3
ACAD_XREC_ROUNDTRIP
360
30
  0
DICTIONARY
  5
3
100
AcDbDictionary
280
     1
  3
ACAD_LAYOUTSELFREF
360
4
  0
DICTIONARY
  5
A
100
AcDbDictionary
280
     1
  3
ACAD_LAYOUTSELFREF
360
B
  0
DICTIONARY
  5
1C
102
{ACAD_REACTORS
330
1E
102
}
100
AcDbDictionary
  0
DICTIONARY
  5
1D
102
{ACAD_REACTORS
330
1E
102
}
100
AcDbDictionary
  3
STANDARD
350
20
  0
XRECORD
  5
41
102
{ACAD_REACTORS
330
40
102
}
100
AcDbXrecord
102
PLOTBIT
280
     0
  0
XRECORD
  5
30
102
{ACAD_REACTORS
330
2F
102
}
100
AcDbXrecord
102
ACADR14ROUNDTRIP
1000
DSTYLE
1002
{
1070
   341
340
0
1070
   343
340
0
1070
   344
340
0
1002
}
  0
XRECORD
  5
4
102
{ACAD_REACTORS
330
3
102
}
100
AcDbXrecord
340
2
  0
XRECORD
  5
B
102
{ACAD_REACTORS
330
A
102
}
100
AcDbXrecord
340
9
  0
MLINESTYLE
  5
20
102
{ACAD_REACTORS
330
1D
102
}
100
AcDbMlineStyle
  2
STANDARD
 70
     0
  3

 62
     0
 51
90.0
 52
90.0
 71
     2
 49
0.5
 62
   256
  6
BYLAYER
 49
-0.5
 62
   256
  6
BYLAYER
  0
ENDSEC
  0
EOF
