  0
SECTION
  2
HEADER
  9
$ACADVER
  1
AC1014
  9
$ACADMAINTVER
 70
     0
  9
$DWGCODEPAGE
  3
ANSI_932
  9
$INSBASE
 10
705.108159
 20
108.447012
 30
0.0
  9
$EXTMIN
 10
674.255522
 20
70.203703
 30
0.0
  9
$EXTMAX
 10
996.922943
 20
190.457478
 30
0.0
  9
$LIMMIN
 10
-587.250952
 20
327.890188
  9
$LIMMAX
 10
600.749048
 20
957.890188
  9
$ORTHOMODE
 70
     1
  9
$REGENMODE
 70
     1
  9
$FILLMODE
 70
     1
  9
$QTEXTMODE
 70
     0
  9
$MIRRTEXT
 70
     1
  9
$DRAGMODE
 70
     2
  9
$LTSCALE
 40
5.0
  9
$OSMODE
 70
   303
  9
$ATTMODE
 70
     1
  9
$TEXTSIZE
 40
5.0
  9
$TRACEWID
 40
0.05
  9
$TEXTSTYLE
  7
STANDARD
  9
$CLAYER
  8
外形
  9
$CELTYPE
  6
CONTINUOUS
  9
$CECOLOR
 62
   256
  9
$CELTSCALE
 40
1.0
  9
$DELOBJ
 70
     1
  9
$DISPSILH
 70
     0
  9
$DIMSCALE
 40
1.0
  9
$DIMASZ
 40
2.0
  9
$DIMEXO
 40
1.0
  9
$DIMDLI
 40
8.0
  9
$DIMRND
 40
0.0
  9
$DIMDLE
 40
0.0
  9
$DIMEXE
 40
2.0
  9
$DIMTP
 40
0.0
  9
$DIMTM
 40
0.0
  9
$DIMTXT
 40
2.0
  9
$DIMCEN
 40
-1.0
  9
$DIMTSZ
 40
0.0
  9
$DIMTOL
 70
     0
  9
$DIMLIM
 70
     0
  9
$DIMTIH
 70
     0
  9
$DIMTOH
 70
     0
  9
$DIMSE1
 70
     0
  9
$DIMSE2
 70
     0
  9
$DIMTAD
 70
     1
  9
$DIMZIN
 70
     8
  9
$DIMBLK
  1

  9
$DIMASO
 70
     1
  9
$DIMSHO
 70
     1
  9
$DIMPOST
  1

  9
$DIMAPOST
  1

  9
$DIMALT
 70
     0
  9
$DIMALTD
 70
     2
  9
$DIMALTF
 40
25.4
  9
$DIMLFAC
 40
1.0
  9
$DIMTOFL
 70
     1
  9
$DIMTVP
 40
0.0
  9
$DIMTIX
 70
     0
  9
$DIMSOXD
 70
     0
  9
$DIMSAH
 70
     1
  9
$DIMBLK1
  1
_DOTSMALL
  9
$DIMBLK2
  1
_DOTSMALL
  9
$DIMSTYLE
  2
参考寸法
  9
$DIMCLRD
 70
     2
  9
$DIMCLRE
 70
     2
  9
$DIMCLRT
 70
     2
  9
$DIMTFAC
 40
1.0
  9
$DIMGAP
 40
1.0
  9
$DIMJUST
 70
     0
  9
$DIMSD1
 70
     0
  9
$DIMSD2
 70
     0
  9
$DIMTOLJ
 70
     1
  9
$DIMTZIN
 70
     8
  9
$DIMALTZ
 70
     0
  9
$DIMALTTZ
 70
     0
  9
$DIMFIT
 70
     3
  9
$DIMUPT
 70
     0
  9
$DIMUNIT
 70
     2
  9
$DIMDEC
 70
     3
  9
$DIMTDEC
 70
     2
  9
$DIMALTU
 70
     2
  9
$DIMALTTD
 70
     2
  9
$DIMTXSTY
  7
STANDARD
  9
$DIMAUNIT
 70
     0
  9
$LUNITS
 70
     2
  9
$LUPREC
 70
     3
  9
$SKETCHINC
 40
0.1
  9
$FILLETRAD
 40
3.0
  9
$AUNITS
 70
     0
  9
$AUPREC
 70
     3
  9
$MENU
  1
acad
  9
$ELEVATION
 40
0.0
  9
$PELEVATION
 40
0.0
  9
$THICKNESS
 40
0.0
  9
$LIMCHECK
 70
     0
  9
$BLIPMODE
 70
     0
  9
$CHAMFERA
 40
0.0
  9
$CHAMFERB
 40
0.0
  9
$CHAMFERC
 40
0.0
  9
$CHAMFERD
 40
0.0
  9
$SKPOLY
 70
     0
  9
$TDCREATE
 40
2450751.535399305
  9
$TDUPDATE
 40
2452013.575497685
  9
$TDINDWG
 40
4.2214046296
  9
$TDUSRTIMER
 40
4.2214046296
  9
$USRTIMER
 70
     1
  9
$ANGBASE
 50
0.0
  9
$ANGDIR
 70
     0
  9
$PDMODE
 70
    32
  9
$PDSIZE
 40
0.0
  9
$PLINEWID
 40
0.0
  9
$COORDS
 70
     2
  9
$SPLFRAME
 70
     0
  9
$SPLINETYPE
 70
     5
  9
$SPLINESEGS
 70
     8
  9
$ATTDIA
 70
     0
  9
$ATTREQ
 70
     1
  9
$HANDLING
 70
     1
  9
$HANDSEED
  5
446
  9
$SURFTAB1
 70
     6
  9
$SURFTAB2
 70
     6
  9
$SURFTYPE
 70
     6
  9
$SURFU
 70
     6
  9
$SURFV
 70
     6
  9
$UCSNAME
  2

  9
$UCSORG
 10
0.0
 20
0.0
 30
0.0
  9
$UCSXDIR
 10
1.0
 20
0.0
 30
0.0
  9
$UCSYDIR
 10
0.0
 20
1.0
 30
0.0
  9
$PUCSNAME
  2

  9
$PUCSORG
 10
0.0
 20
0.0
 30
0.0
  9
$PUCSXDIR
 10
1.0
 20
0.0
 30
0.0
  9
$PUCSYDIR
 10
0.0
 20
1.0
 30
0.0
  9
$USERI1
 70
     0
  9
$USERI2
 70
     0
  9
$USERI3
 70
     0
  9
$USERI4
 70
     0
  9
$USERI5
 70
     0
  9
$USERR1
 40
0.0
  9
$USERR2
 40
0.0
  9
$USERR3
 40
0.0
  9
$USERR4
 40
0.0
  9
$USERR5
 40
0.0
  9
$WORLDVIEW
 70
     1
  9
$SHADEDGE
 70
     3
  9
$SHADEDIF
 70
    70
  9
$TILEMODE
 70
     1
  9
$MAXACTVP
 70
    16
  9
$PINSBASE
 10
0.0
 20
0.0
 30
0.0
  9
$PLIMCHECK
 70
     0
  9
$PEXTMIN
 10
1.000000E+20
 20
1.000000E+20
 30
1.000000E+20
  9
$PEXTMAX
 10
-1.000000E+20
 20
-1.000000E+20
 30
-1.000000E+20
  9
$PLIMMIN
 10
0.0
 20
0.0
  9
$PLIMMAX
 10
12.0
 20
9.0
  9
$UNITMODE
 70
     0
  9
$VISRETAIN
 70
     0
  9
$PLINEGEN
 70
     0
  9
$PSLTSCALE
 70
     1
  9
$TREEDEPTH
 70
  3020
  9
$PICKSTYLE
 70
     1
  9
$CMLSTYLE
  2
STANDARD
  9
$CMLJUST
 70
     0
  9
$CMLSCALE
 40
1.0
  9
$PROXYGRAPHICS
 70
     1
  9
$MEASUREMENT
 70
     0
  0
ENDSEC
  0
SECTION
  2
CLASSES
  0
CLASS
  1
LWPOLYLINE
  2
AcDbPolyline
  3
"AutoCAD"
 90
        0
280
     0
281
     1
  0
CLASS
  1
ACDBDICTIONARYWDFLT
  2
AcDbDictionaryWithDefault
  3
AutoCAD 2000
 90
        0
280
     1
281
     0
  0
CLASS
  1
ACDBPLACEHOLDER
  2
AcDbPlaceHolder
  3
AutoCAD 2000
 90
        0
280
     1
281
     0
  0
CLASS
  1
LAYOUT
  2
AcDbLayout
  3
AutoCAD 2000
 90
        0
280
     1
281
     0
  0
CLASS
  1
LONG_TRANSACTION
  2
AcDbLongTransaction
  3
AutoCAD 2000
 90
        0
280
     1
281
     0
  0
CLASS
  1
LWPOLYLINE
  2
AcDbPolyline
  3
"AutoCAD"
 90
        0
280
     0
281
     1
  0
CLASS
  1
HATCH
  2
AcDbHatch
  3
"ACAD_SEDONA"
 90
        0
280
     0
281
     1
  0
CLASS
  1
XRECORD
  2
AcDbXrecord
  3
"<Built In>"
 90
        0
280
     0
281
     0
  0
CLASS
  1
DICTIONARYVAR
  2
AcDbDictionaryVar
  3
"AutoCAD"
 90
        0
280
     0
281
     0
  0
ENDSEC
  0
SECTION
  2
TABLES
  0
TABLE
  2
VPORT
  5
16
100
AcDbSymbolTable
 70
     1
  0
VPORT
  5
441
100
AcDbSymbolTableRecord
100
AcDbViewportTableRecord
  2
*ACTIVE
 70
     0
 10
0.0
 20
0.0
 11
1.0
 21
1.0
 12
834.157402
 22
144.088337
 13
0.0
 23
0.0
 14
1.0
 24
1.0
 15
10.0
 25
10.0
 16
0.0
 26
0.0
 36
1.0
 17
0.0
 27
0.0
 37
0.0
 40
215.506669
 41
1.710425
 42
50.0
 43
0.0
 44
0.0
 50
0.0
 51
0.0
 71
     0
 72
   100
 73
     1
 74
     1
 75
     0
 76
     0
 77
     0
 78
     2
  0
ENDTAB
  0
TABLE
  2
LTYPE
  5
11
100
AcDbSymbolTable
 70
     3
  0
LTYPE
  5
12
100
AcDbSymbolTableRecord
100
AcDbLinetypeTableRecord
  2
BYBLOCK
 70
     0
  3

 72
    65
 73
     0
 40
0.0
  0
LTYPE
  5
13
100
AcDbSymbolTableRecord
100
AcDbLinetypeTableRecord
  2
BYLAYER
 70
     0
  3

 72
    65
 73
     0
 40
0.0
  0
LTYPE
  5
7
100
AcDbSymbolTableRecord
100
AcDbLinetypeTableRecord
  2
CONTINUOUS
 70
     0
  3
Solid line
 72
    65
 73
     0
 40
0.0
  0
LTYPE
  5
5B
100
AcDbSymbolTableRecord
100
AcDbLinetypeTableRecord
  2
CENTER
 70
     0
  3
Center ____ _ ____ _ ____ _ ____ _ ____ _ ____
 72
    65
 73
     4
 40
2.0
 49
1.25
 74
     0
 49
-0.25
 74
     0
 49
0.25
 74
     0
 49
-0.25
 74
     0
  0
LTYPE
  5
7C
100
AcDbSymbolTableRecord
100
AcDbLinetypeTableRecord
  2
HIDDEN
 70
     0
  3
Hidden __ __ __ __ __ __ __ __ __ __ __ __ __ _
 72
    65
 73
     2
 40
0.375
 49
0.25
 74
     0
 49
-0.125
 74
     0
  0
ENDTAB
  0
TABLE
  2
LAYER
  5
E
100
AcDbSymbolTable
 70
     5
  0
LAYER
  5
6
100
AcDbSymbolTableRecord
100
AcDbLayerTableRecord
  2
0
 70
     0
 62
     7
  6
CONTINUOUS
  0
LAYER
  5
1F
100
AcDbSymbolTableRecord
100
AcDbLayerTableRecord
  2
外形
 70
     0
 62
     4
  6
CONTINUOUS
  0
LAYER
  5
35
102
{ACAD_XDICTIONARY
360
36
102
}
100
AcDbSymbolTableRecord
100
AcDbLayerTableRecord
  2
DEFPOINTS
 70
     0
 62
     7
  6
CONTINUOUS
  0
LAYER
  5
3D
100
AcDbSymbolTableRecord
100
AcDbLayerTableRecord
  2
寸法
 70
     0
 62
     1
  6
CONTINUOUS
  0
LAYER
  5
2C
100
AcDbSymbolTableRecord
100
AcDbLayerTableRecord
  2
参考
 70
     0
 62
     2
  6
CONTINUOUS
  0
ENDTAB
  0
TABLE
  2
STYLE
  5
F
100
AcDbSymbolTable
 70
     1
  0
STYLE
  5
10
100
AcDbSymbolTableRecord
100
AcDbTextStyleTableRecord
  2
STANDARD
 70
     0
 40
0.0
 41
1.0
 50
0.0
 71
     0
 42
5.0
  3
MONOTXT
  4
BIGFONT
  0
ENDTAB
  0
TABLE
  2
VIEW
  5
14
100
AcDbSymbolTable
 70
     0
  0
ENDTAB
  0
TABLE
  2
UCS
  5
15
100
AcDbSymbolTable
 70
     0
  0
ENDTAB
  0
TABLE
  2
APPID
  5
18
100
AcDbSymbolTable
 70
     1
  0
APPID
  5
19
100
AcDbSymbolTableRecord
100
AcDbRegAppTableRecord
  2
ACAD
 70
     0
  0
ENDTAB
  0
TABLE
  2
DIMSTYLE
  5
1A
100
AcDbSymbolTable
 70
     2
  0
DIMSTYLE
105
3E
102
{ACAD_XDICTIONARY
360
3F
102
}
102
{ACAD_REACTORS
330
3C
330
A8
330
167
330
11C
330
9A
330
109
330
8D
330
F5
330
1D4
102
}
100
AcDbSymbolTableRecord
100
AcDbDimStyleTableRecord
  2
STANDARD
 70
     0
  3

  4

  5

  6
_OPEN30
  7
_OPEN30
 40
0.0
 41
2.0
 42
1.0
 43
8.0
 44
2.0
 45
0.0
 46
0.0
 47
0.0
 48
0.0
140
3.0
141
-1.0
142
0.0
143
25.4
144
1.0
145
0.0
146
1.0
147
1.0
 71
     0
 72
     0
 73
     0
 74
     0
 75
     0
 76
     0
 77
     1
 78
     8
170
     0
171
     2
172
     1
173
     1
174
     0
175
     0
176
     1
177
     1
178
     3
270
     2
271
     2
272
     2
273
     2
274
     2
340
10
275
     0
280
     0
281
     0
282
     0
283
     1
284
     8
285
     0
286
     0
287
     3
288
     0
  0
DIMSTYLE
105
21
102
{ACAD_REACTORS
330
2B
330
61
330
174
330
12B
330
145
330
137
330
155
330
E4
330
D6
330
C8
330
B6
102
}
100
AcDbSymbolTableRecord
100
AcDbDimStyleTableRecord
  2
参考寸法
 70
     0
  3

  4

  5

  6
_DOTSMALL
  7
_DOTSMALL
 40
1.0
 41
2.0
 42
1.0
 43
8.0
 44
2.0
 45
0.0
 46
0.0
 47
0.0
 48
0.0
140
2.0
141
-1.0
142
0.0
143
25.4
144
1.0
145
0.0
146
1.0
147
1.0
 71
     0
 72
     0
 73
     0
 74
     0
 75
     0
 76
     0
 77
     1
 78
     8
170
     0
171
     2
172
     1
173
     1
174
     0
175
     0
176
     2
177
     2
178
     2
270
     2
271
     3
272
     2
273
     2
274
     2
340
10
275
     0
280
     0
281
     0
282
     0
283
     1
284
     8
285
     0
286
     0
287
     3
288
     0
  0
ENDTAB
  0
TABLE
  2
BLOCK_RECORD
  5
1
100
AcDbSymbolTable
 70
    41
  0
BLOCK_RECORD
  5
2
102
{ACAD_XDICTIONARY
360
3
102
}
100
AcDbSymbolTableRecord
100
AcDbBlockTableRecord
  2
*MODEL_SPACE
  0
BLOCK_RECORD
  5
9
102
{ACAD_XDICTIONARY
360
A
102
}
100
AcDbSymbolTableRecord
100
AcDbBlockTableRecord
  2
*PAPER_SPACE
  0
BLOCK_RECORD
  5
22
100
AcDbSymbolTableRecord
100
AcDbBlockTableRecord
  2
_DOTSMALL
  0
BLOCK_RECORD
  5
41
100
AcDbSymbolTableRecord
100
AcDbBlockTableRecord
  2
_OPEN30
  0
BLOCK_RECORD
  5
2D
100
AcDbSymbolTableRecord
100
AcDbBlockTableRecord
  2
*D2
  0
BLOCK_RECORD
  5
47
100
AcDbSymbolTableRecord
100
AcDbBlockTableRecord
  2
*D3
  0
BLOCK_RECORD
  5
62
100
AcDbSymbolTableRecord
100
AcDbBlockTableRecord
  2
*D4
  0
BLOCK_RECORD
  5
A9
100
AcDbSymbolTableRecord
100
AcDbBlockTableRecord
  2
*D5
  0
BLOCK_RECORD
  5
D7
100
AcDbSymbolTableRecord
100
AcDbBlockTableRecord
  2
*D6
  0
BLOCK_RECORD
  5
E5
100
AcDbSymbolTableRecord
100
AcDbBlockTableRecord
  2
*D7
  0
BLOCK_RECORD
  5
C9
100
AcDbSymbolTableRecord
100
AcDbBlockTableRecord
  2
*D8
  0
BLOCK_RECORD
  5
11D
100
AcDbSymbolTableRecord
100
AcDbBlockTableRecord
  2
*D9
  0
BLOCK_RECORD
  5
12C
100
AcDbSymbolTableRecord
100
AcDbBlockTableRecord
  2
*D10
  0
BLOCK_RECORD
  5
138
100
AcDbSymbolTableRecord
100
AcDbBlockTableRecord
  2
*D11
  0
BLOCK_RECORD
  5
146
100
AcDbSymbolTableRecord
100
AcDbBlockTableRecord
  2
*D12
  0
BLOCK_RECORD
  5
156
100
AcDbSymbolTableRecord
100
AcDbBlockTableRecord
  2
*D13
  0
BLOCK_RECORD
  5
175
100
AcDbSymbolTableRecord
100
AcDbBlockTableRecord
  2
*D14
  0
BLOCK_RECORD
  5
168
100
AcDbSymbolTableRecord
100
AcDbBlockTableRecord
  2
*D15
  0
BLOCK_RECORD
  5
9B
100
AcDbSymbolTableRecord
100
AcDbBlockTableRecord
  2
*D16
  0
BLOCK_RECORD
  5
10A
100
AcDbSymbolTableRecord
100
AcDbBlockTableRecord
  2
*D17
  0
BLOCK_RECORD
  5
8E
100
AcDbSymbolTableRecord
100
AcDbBlockTableRecord
  2
*D18
  0
BLOCK_RECORD
  5
B7
100
AcDbSymbolTableRecord
100
AcDbBlockTableRecord
  2
*D19
  0
BLOCK_RECORD
  5
F6
100
AcDbSymbolTableRecord
100
AcDbBlockTableRecord
  2
*D20
  0
BLOCK_RECORD
  5
2A
100
AcDbSymbolTableRecord
100
AcDbBlockTableRecord
  2
3
  0
BLOCK_RECORD
  5
269
100
AcDbSymbolTableRecord
100
AcDbBlockTableRecord
  2
*D23
  0
BLOCK_RECORD
  5
27A
100
AcDbSymbolTableRecord
100
AcDbBlockTableRecord
  2
*D24
  0
BLOCK_RECORD
  5
286
100
AcDbSymbolTableRecord
100
AcDbBlockTableRecord
  2
*D25
  0
BLOCK_RECORD
  5
291
100
AcDbSymbolTableRecord
100
AcDbBlockTableRecord
  2
*D26
  0
BLOCK_RECORD
  5
29D
100
AcDbSymbolTableRecord
100
AcDbBlockTableRecord
  2
*D27
  0
BLOCK_RECORD
  5
2DA
100
AcDbSymbolTableRecord
100
AcDbBlockTableRecord
  2
*D32
  0
BLOCK_RECORD
  5
2EC
100
AcDbSymbolTableRecord
100
AcDbBlockTableRecord
  2
*D33
  0
BLOCK_RECORD
  5
33A
100
AcDbSymbolTableRecord
100
AcDbBlockTableRecord
  2
*D39
  0
ENDTAB
  0
ENDSEC
  0
SECTION
  2
BLOCKS
  0
BLOCK
  5
5
100
AcDbEntity
  8
0
100
AcDbBlockBegin
  2
*MODEL_SPACE
 70
     0
 10
0.0
 20
0.0
 30
0.0
  3
*MODEL_SPACE
  1

  0
ENDBLK
  5
8
100
AcDbEntity
  8
0
100
AcDbBlockEnd
  0
BLOCK
  5
C
100
AcDbEntity
 67
     1
  8
0
100
AcDbBlockBegin
  2
*PAPER_SPACE
 70
     0
 10
0.0
 20
0.0
 30
0.0
  3
*PAPER_SPACE
  1

  0
ENDBLK
  5
D
100
AcDbEntity
 67
     1
  8
0
100
AcDbBlockEnd
  0
BLOCK
  5
27
100
AcDbEntity
  8
0
100
AcDbBlockBegin
  2
_DOTSMALL
 70
     0
 10
0.0
 20
0.0
 30
0.0
  3
_DOTSMALL
  1

  0
POLYLINE
  5
23
100
AcDbEntity
  8
0
  6
BYBLOCK
 62
     0
100
AcDb2dPolyline
 66
     1
 10
0.0
 20
0.0
 30
0.0
 70
     1
 40
0.5
 41
0.5
  0
VERTEX
  5
24
100
AcDbEntity
  8
0
  6
BYBLOCK
 62
     0
100
AcDbVertex
100
AcDb2dVertex
 10
-0.0625
 20
0.0
 30
0.0
 42
1.0
  0
VERTEX
  5
25
100
AcDbEntity
  8
0
  6
BYBLOCK
 62
     0
100
AcDbVertex
100
AcDb2dVertex
 10
0.0625
 20
0.0
 30
0.0
 42
1.0
  0
SEQEND
  5
26
100
AcDbEntity
  8
0
  6
BYBLOCK
 62
     0
  0
ENDBLK
  5
28
100
AcDbEntity
  8
0
100
AcDbBlockEnd
  0
BLOCK
  5
45
100
AcDbEntity
  8
0
100
AcDbBlockBegin
  2
_OPEN30
 70
     0
 10
0.0
 20
0.0
 30
0.0
  3
_OPEN30
  1

  0
LINE
  5
42
100
AcDbEntity
  8
0
  6
BYBLOCK
 62
     0
100
AcDbLine
 10
-1.0
 20
0.267949
 30
0.0
 11
0.0
 21
0.0
 31
0.0
  0
LINE
  5
43
100
AcDbEntity
  8
0
  6
BYBLOCK
 62
     0
100
AcDbLine
 10
0.0
 20
0.0
 30
0.0
 11
-1.0
 21
-0.267949
 31
0.0
  0
LINE
  5
44
100
AcDbEntity
  8
0
  6
BYBLOCK
 62
     0
100
AcDbLine
 10
0.0
 20
0.0
 30
0.0
 11
-1.0
 21
0.0
 31
0.0
  0
ENDBLK
  5
46
100
AcDbEntity
  8
0
100
AcDbBlockEnd
  0
BLOCK
  5
3A
100
AcDbEntity
  8
0
100
AcDbBlockBegin
  2
*D2
 70
     1
 10
0.0
 20
0.0
 30
0.0
  3
*D2
  1

  0
LINE
  5
2E
100
AcDbEntity
  8
0
  6
BYBLOCK
 62
     2
100
AcDbLine
 10
206.796136
 20
641.752338
 30
0.0
 11
206.796136
 21
648.294745
 31
0.0
  0
LINE
  5
2F
100
AcDbEntity
  8
0
  6
BYBLOCK
 62
     2
100
AcDbLine
 10
184.796136
 20
634.002338
 30
0.0
 11
184.796136
 21
648.294745
 31
0.0
  0
LINE
  5
30
100
AcDbEntity
  8
0
  6
BYBLOCK
 62
     2
100
AcDbLine
 10
206.796136
 20
646.294745
 30
0.0
 11
184.796136
 21
646.294745
 31
0.0
  0
INSERT
  5
31
100
AcDbEntity
  8
0
  6
BYBLOCK
 62
     2
100
AcDbBlockReference
  2
_DOTSMALL
 10
206.796136
 20
646.294745
 30
0.0
  0
INSERT
  5
32
100
AcDbEntity
  8
0
  6
BYBLOCK
 62
     2
100
AcDbBlockReference
  2
_DOTSMALL
 10
184.796136
 20
646.294745
 30
0.0
 50
180.0
  0
MTEXT
  5
33
100
AcDbEntity
  8
0
  6
BYBLOCK
 62
     2
100
AcDbMText
 10
195.796136
 20
648.044745
 30
0.0
 40
1.5
 41
0.0
 71
     5
 72
     1
  1
\A1;22
  0
POINT
  5
34
100
AcDbEntity
  8
DEFPOINTS
  6
BYBLOCK
 62
     0
100
AcDbPoint
 10
206.796136
 20
640.752338
 30
0.0
  0
POINT
  5
38
100
AcDbEntity
  8
DEFPOINTS
  6
BYBLOCK
 62
     0
100
AcDbPoint
 10
184.796136
 20
633.002338
 30
0.0
  0
POINT
  5
39
100
AcDbEntity
  8
DEFPOINTS
  6
BYBLOCK
 62
     0
100
AcDbPoint
 10
184.796136
 20
646.294745
 30
0.0
  0
ENDBLK
  5
3B
100
AcDbEntity
  8
0
100
AcDbBlockEnd
  0
BLOCK
  5
56
100
AcDbEntity
  8
0
100
AcDbBlockBegin
  2
*D3
 70
     1
 10
0.0
 20
0.0
 30
0.0
  3
*D3
  1

  0
LINE
  5
48
100
AcDbEntity
  8
0
  6
BYBLOCK
 62
     1
100
AcDbLine
 10
183.799941
 20
633.089494
 30
0.0
 11
168.202542
 21
634.45409
 31
0.0
  0
ARC
  5
49
100
AcDbEntity
  8
0
  6
BYBLOCK
 62
     1
100
AcDbCircle
 10
184.796136
 20
633.002338
 30
0.0
 40
14.656979
100
AcDbArc
 50
159.314615
 51
175.0
  0
LINE
  5
4A
100
AcDbEntity
  8
0
  6
BYBLOCK
 62
     1
100
AcDbLine
 10
171.084032
 20
638.179714
 30
0.0
 11
174.121863
 21
646.225308
 31
0.0
  0
ARC
  5
4B
100
AcDbEntity
  8
0
  6
BYBLOCK
 62
     1
100
AcDbCircle
 10
184.796136
 20
633.002338
 30
0.0
 40
14.656979
100
AcDbArc
 50
159.351394
 51
167.175697
  0
ARC
  5
4C
100
AcDbEntity
  8
0
  6
BYBLOCK
 62
     1
100
AcDbCircle
 10
184.796136
 20
633.002338
 30
0.0
 40
14.656979
100
AcDbArc
 50
187.824303
 51
195.648606
  0
ARC
  5
4D
100
AcDbEntity
  8
0
  6
BYBLOCK
 62
     1
100
AcDbCircle
 10
184.796136
 20
633.002338
 30
0.0
 40
14.656979
100
AcDbArc
 50
175.0
 51
180.0
  0
INSERT
  5
4E
100
AcDbEntity
  8
0
  6
BYBLOCK
 62
     1
100
AcDbBlockReference
  2
_OPEN30
 10
170.194931
 20
634.279778
 30
0.0
 41
2.0
 42
2.0
 43
2.0
 50
261.087848
  0
INSERT
  5
4F
100
AcDbEntity
  8
0
  6
BYBLOCK
 62
     1
100
AcDbBlockReference
  2
_OPEN30
 10
170.139157
 20
633.002338
 30
0.0
 41
2.0
 42
2.0
 43
2.0
 50
93.912152
  0
MTEXT
  5
50
100
AcDbEntity
  8
0
  6
BYBLOCK
 62
     3
100
AcDbMText
 10
170.264112
 20
643.085602
 30
0.0
 40
3.0
 41
0.0
 71
     5
 72
     1
  1
\A1;5°
 11
0.353236
 21
0.935534
 31
0.0
  0
POINT
  5
51
100
AcDbEntity
  8
DEFPOINTS
  6
BYBLOCK
 62
     0
100
AcDbPoint
 10
170.145358
 20
633.428632
 30
0.0
  0
POINT
  5
52
100
AcDbEntity
  8
DEFPOINTS
  6
BYBLOCK
 62
     0
100
AcDbPoint
 10
184.796136
 20
633.002338
 30
0.0
  0
POINT
  5
53
100
AcDbEntity
  8
DEFPOINTS
  6
BYBLOCK
 62
     0
100
AcDbPoint
 10
165.294474
 20
633.002338
 30
0.0
  0
POINT
  5
54
100
AcDbEntity
  8
DEFPOINTS
  6
BYBLOCK
 62
     0
100
AcDbPoint
 10
442.280042
 20
633.002338
 30
0.0
  0
POINT
  5
55
100
AcDbEntity
  8
DEFPOINTS
  6
BYBLOCK
 62
     0
100
AcDbPoint
 10
193.985566
 20
632.198367
 30
0.0
  0
ENDBLK
  5
57
100
AcDbEntity
  8
0
100
AcDbBlockEnd
  0
BLOCK
  5
6C
100
AcDbEntity
  8
0
100
AcDbBlockBegin
  2
*D4
 70
     1
 10
0.0
 20
0.0
 30
0.0
  3
*D4
  1

  0
LINE
  5
63
100
AcDbEntity
  8
0
  6
BYBLOCK
 62
     2
100
AcDbLine
 10
184.796136
 20
632.002338
 30
0.0
 11
184.796136
 21
611.746153
 31
0.0
  0
LINE
  5
64
100
AcDbEntity
  8
0
  6
BYBLOCK
 62
     2
100
AcDbLine
 10
214.796136
 20
624.002338
 30
0.0
 11
214.796136
 21
611.746153
 31
0.0
  0
LINE
  5
65
100
AcDbEntity
  8
0
  6
BYBLOCK
 62
     2
100
AcDbLine
 10
184.796136
 20
613.746153
 30
0.0
 11
214.796136
 21
613.746153
 31
0.0
  0
INSERT
  5
66
100
AcDbEntity
  8
0
  6
BYBLOCK
 62
     2
100
AcDbBlockReference
  2
_DOTSMALL
 10
184.796136
 20
613.746153
 30
0.0
 50
180.0
  0
INSERT
  5
67
100
AcDbEntity
  8
0
  6
BYBLOCK
 62
     2
100
AcDbBlockReference
  2
_DOTSMALL
 10
214.796136
 20
613.746153
 30
0.0
  0
MTEXT
  5
68
100
AcDbEntity
  8
0
  6
BYBLOCK
 62
     2
100
AcDbMText
 10
199.796136
 20
615.496153
 30
0.0
 40
1.5
 41
0.0
 71
     5
 72
     1
  1
\A1;30
  0
POINT
  5
69
100
AcDbEntity
  8
DEFPOINTS
  6
BYBLOCK
 62
     0
100
AcDbPoint
 10
184.796136
 20
633.002338
 30
0.0
  0
POINT
  5
6A
100
AcDbEntity
  8
DEFPOINTS
  6
BYBLOCK
 62
     0
100
AcDbPoint
 10
214.796136
 20
625.002338
 30
0.0
  0
POINT
  5
6B
100
AcDbEntity
  8
DEFPOINTS
  6
BYBLOCK
 62
     0
100
AcDbPoint
 10
214.796136
 20
613.746153
 30
0.0
  0
ENDBLK
  5
6D
100
AcDbEntity
  8
0
100
AcDbBlockEnd
  0
BLOCK
  5
B3
100
AcDbEntity
  8
0
100
AcDbBlockBegin
  2
*D5
 70
     1
 10
0.0
 20
0.0
 30
0.0
  3
*D5
  1

  0
LINE
  5
AA
100
AcDbEntity
  8
0
  6
BYBLOCK
 62
     1
100
AcDbLine
 10
184.796136
 20
678.938239
 30
0.0
 11
184.796136
 21
656.011273
 31
0.0
  0
LINE
  5
AB
100
AcDbEntity
  8
0
  6
BYBLOCK
 62
     1
100
AcDbLine
 10
434.792048
 20
681.938239
 30
0.0
 11
434.792048
 21
656.011273
 31
0.0
  0
LINE
  5
AC
100
AcDbEntity
  8
0
  6
BYBLOCK
 62
     1
100
AcDbLine
 10
186.796136
 20
658.011273
 30
0.0
 11
432.792048
 21
658.011273
 31
0.0
  0
INSERT
  5
AD
100
AcDbEntity
  8
0
  6
BYBLOCK
 62
     1
100
AcDbBlockReference
  2
_OPEN30
 10
184.796136
 20
658.011273
 30
0.0
 41
2.0
 42
2.0
 43
2.0
 50
180.0
  0
INSERT
  5
AE
100
AcDbEntity
  8
0
  6
BYBLOCK
 62
     1
100
AcDbBlockReference
  2
_OPEN30
 10
434.792048
 20
658.011273
 30
0.0
 41
2.0
 42
2.0
 43
2.0
  0
MTEXT
  5
AF
100
AcDbEntity
  8
0
  6
BYBLOCK
 62
     3
100
AcDbMText
 10
309.794092
 20
660.511273
 30
0.0
 40
3.0
 41
0.0
 71
     5
 72
     1
  1
\A1;250
  0
POINT
  5
B0
100
AcDbEntity
  8
DEFPOINTS
  6
BYBLOCK
 62
     0
100
AcDbPoint
 10
184.796136
 20
679.938239
 30
0.0
  0
POINT
  5
B1
100
AcDbEntity
  8
DEFPOINTS
  6
BYBLOCK
 62
     0
100
AcDbPoint
 10
434.792048
 20
682.938239
 30
0.0
  0
POINT
  5
B2
100
AcDbEntity
  8
DEFPOINTS
  6
BYBLOCK
 62
     0
100
AcDbPoint
 10
434.792048
 20
658.011273
 30
0.0
  0
ENDBLK
  5
B4
100
AcDbEntity
  8
0
100
AcDbBlockEnd
  0
BLOCK
  5
E1
100
AcDbEntity
  8
0
100
AcDbBlockBegin
  2
*D6
 70
     1
 10
0.0
 20
0.0
 30
0.0
  3
*D6
  1

  0
LINE
  5
D8
100
AcDbEntity
  8
0
  6
BYBLOCK
 62
     2
100
AcDbLine
 10
208.796136
 20
680.938239
 30
0.0
 11
208.796136
 21
667.425847
 31
0.0
  0
LINE
  5
D9
100
AcDbEntity
  8
0
  6
BYBLOCK
 62
     2
100
AcDbLine
 10
184.796136
 20
678.938239
 30
0.0
 11
184.796136
 21
667.425847
 31
0.0
  0
LINE
  5
DA
100
AcDbEntity
  8
0
  6
BYBLOCK
 62
     2
100
AcDbLine
 10
208.796136
 20
669.425847
 30
0.0
 11
184.796136
 21
669.425847
 31
0.0
  0
INSERT
  5
DB
100
AcDbEntity
  8
0
  6
BYBLOCK
 62
     2
100
AcDbBlockReference
  2
_DOTSMALL
 10
208.796136
 20
669.425847
 30
0.0
  0
INSERT
  5
DC
100
AcDbEntity
  8
0
  6
BYBLOCK
 62
     2
100
AcDbBlockReference
  2
_DOTSMALL
 10
184.796136
 20
669.425847
 30
0.0
 50
180.0
  0
MTEXT
  5
DD
100
AcDbEntity
  8
0
  6
BYBLOCK
 62
     2
100
AcDbMText
 10
196.796136
 20
671.175847
 30
0.0
 40
1.5
 41
0.0
 71
     5
 72
     1
  1
\A1;24
  0
POINT
  5
DE
100
AcDbEntity
  8
DEFPOINTS
  6
BYBLOCK
 62
     0
100
AcDbPoint
 10
208.796136
 20
681.938239
 30
0.0
  0
POINT
  5
DF
100
AcDbEntity
  8
DEFPOINTS
  6
BYBLOCK
 62
     0
100
AcDbPoint
 10
184.796136
 20
679.938239
 30
0.0
  0
POINT
  5
E0
100
AcDbEntity
  8
DEFPOINTS
  6
BYBLOCK
 62
     0
100
AcDbPoint
 10
184.796136
 20
669.425847
 30
0.0
  0
ENDBLK
  5
E2
100
AcDbEntity
  8
0
100
AcDbBlockEnd
  0
BLOCK
  5
ED
100
AcDbEntity
  8
0
100
AcDbBlockBegin
  2
*D7
 70
     1
 10
0.0
 20
0.0
 30
0.0
  3
*D7
  1

  0
LINE
  5
E6
100
AcDbEntity
  8
0
  6
BYBLOCK
 62
     2
100
AcDbLine
 10
-116.840703
 20
700.874681
 30
0.0
 11
-129.096998
 21
690.719706
 31
0.0
  0
MTEXT
  5
E7
100
AcDbEntity
  8
0
  6
BYBLOCK
 62
     2
100
AcDbMText
 10
-121.99987
 20
698.872685
 30
0.0
 40
1.5
 41
0.0
 71
     5
 72
     1
  1
\A1;\U+22059.525
 11
0.770029
 21
0.638009
 31
0.0
  0
LINE
  5
E8
100
AcDbEntity
  8
0
  6
BYBLOCK
 62
     2
100
AcDbLine
 10
-136.431524
 20
684.642672
 30
0.0
 11
-129.096998
 21
690.719706
 31
0.0
  0
INSERT
  5
E9
100
AcDbEntity
  8
0
  6
BYBLOCK
 62
     2
100
AcDbBlockReference
  2
_DOTSMALL
 10
-136.431524
 20
684.642672
 30
0.0
 50
39.643505
  0
INSERT
  5
EA
100
AcDbEntity
  8
0
  6
BYBLOCK
 62
     2
100
AcDbBlockReference
  2
_DOTSMALL
 10
-129.096998
 20
690.719706
 30
0.0
 50
219.643505
  0
POINT
  5
EB
100
AcDbEntity
  8
DEFPOINTS
  6
BYBLOCK
 62
     0
100
AcDbPoint
 10
-129.096998
 20
690.719706
 30
0.0
  0
POINT
  5
EC
100
AcDbEntity
  8
DEFPOINTS
  6
BYBLOCK
 62
     0
100
AcDbPoint
 10
-136.431524
 20
684.642672
 30
0.0
  0
ENDBLK
  5
EE
100
AcDbEntity
  8
0
100
AcDbBlockEnd
  0
BLOCK
  5
D4
100
AcDbEntity
  8
0
100
AcDbBlockBegin
  2
*D8
 70
     1
 10
0.0
 20
0.0
 30
0.0
  3
*D8
  1

  0
LINE
  5
CA
100
AcDbEntity
  8
0
  6
BYBLOCK
 62
     2
100
AcDbLine
 10
-134.914271
 20
686.61216
 30
0.0
 11
-134.914271
 21
675.133345
 31
0.0
  0
LINE
  5
CB
100
AcDbEntity
  8
0
  6
BYBLOCK
 62
     2
100
AcDbLine
 10
-130.614251
 20
686.61216
 30
0.0
 11
-130.614251
 21
675.133345
 31
0.0
  0
LINE
  5
CC
100
AcDbEntity
  8
0
  6
BYBLOCK
 62
     2
100
AcDbLine
 10
-134.914271
 20
677.133345
 30
0.0
 11
-130.614251
 21
677.133345
 31
0.0
  0
LINE
  5
CD
100
AcDbEntity
  8
0
  6
BYBLOCK
 62
     2
100
AcDbLine
 10
-130.614251
 20
677.133345
 30
0.0
 11
-123.614251
 21
677.133345
 31
0.0
  0
INSERT
  5
CE
100
AcDbEntity
  8
0
  6
BYBLOCK
 62
     2
100
AcDbBlockReference
  2
_DOTSMALL
 10
-134.914271
 20
677.133345
 30
0.0
 50
180.0
  0
INSERT
  5
CF
100
AcDbEntity
  8
0
  6
BYBLOCK
 62
     2
100
AcDbBlockReference
  2
_DOTSMALL
 10
-130.614251
 20
677.133345
 30
0.0
  0
MTEXT
  5
D0
100
AcDbEntity
  8
0
  6
BYBLOCK
 62
     2
100
AcDbMText
 10
-126.614251
 20
678.883345
 30
0.0
 40
1.5
 41
0.0
 71
     5
 72
     1
  1
\A1;4.3
  0
POINT
  5
D1
100
AcDbEntity
  8
DEFPOINTS
  6
BYBLOCK
 62
     0
100
AcDbPoint
 10
-134.914271
 20
687.61216
 30
0.0
  0
POINT
  5
D2
100
AcDbEntity
  8
DEFPOINTS
  6
BYBLOCK
 62
     0
100
AcDbPoint
 10
-130.614251
 20
687.61216
 30
0.0
  0
POINT
  5
D3
100
AcDbEntity
  8
DEFPOINTS
  6
BYBLOCK
 62
     0
100
AcDbPoint
 10
-130.614251
 20
677.133345
 30
0.0
  0
ENDBLK
  5
D5
100
AcDbEntity
  8
0
100
AcDbBlockEnd
  0
BLOCK
  5
129
100
AcDbEntity
  8
0
100
AcDbBlockBegin
  2
*D9
 70
     1
 10
0.0
 20
0.0
 30
0.0
  3
*D9
  1

  0
LINE
  5
11E
100
AcDbEntity
  8
0
  6
BYBLOCK
 62
     1
100
AcDbLine
 10
175.02601
 20
689.938239
 30
0.0
 11
169.682454
 21
689.938239
 31
0.0
  0
LINE
  5
11F
100
AcDbEntity
  8
0
  6
BYBLOCK
 62
     1
100
AcDbLine
 10
182.10782
 20
693.938239
 30
0.0
 11
169.682454
 21
693.938239
 31
0.0
  0
LINE
  5
120
100
AcDbEntity
  8
0
  6
BYBLOCK
 62
     1
100
AcDbLine
 10
171.682454
 20
687.938239
 30
0.0
 11
171.682454
 21
685.938239
 31
0.0
  0
LINE
  5
121
100
AcDbEntity
  8
0
  6
BYBLOCK
 62
     1
100
AcDbLine
 10
171.682454
 20
695.938239
 30
0.0
 11
171.682454
 21
697.938239
 31
0.0
  0
LINE
  5
122
100
AcDbEntity
  8
0
  6
BYBLOCK
 62
     1
100
AcDbLine
 10
171.682454
 20
689.938239
 30
0.0
 11
171.682454
 21
693.938239
 31
0.0
  0
INSERT
  5
123
100
AcDbEntity
  8
0
  6
BYBLOCK
 62
     1
100
AcDbBlockReference
  2
_OPEN30
 10
171.682454
 20
689.938239
 30
0.0
 41
2.0
 42
2.0
 43
2.0
 50
90.0
  0
INSERT
  5
124
100
AcDbEntity
  8
0
  6
BYBLOCK
 62
     1
100
AcDbBlockReference
  2
_OPEN30
 10
171.682454
 20
693.938239
 30
0.0
 41
2.0
 42
2.0
 43
2.0
 50
270.0
  0
MTEXT
  5
125
100
AcDbEntity
  8
0
  6
BYBLOCK
 62
     3
100
AcDbMText
 10
169.182454
 20
691.938239
 30
0.0
 40
3.0
 41
0.0
 71
     5
 72
     1
  1
\A1;4
 11
0.0
 21
1.0
 31
0.0
  0
POINT
  5
126
100
AcDbEntity
  8
DEFPOINTS
  6
BYBLOCK
 62
     0
100
AcDbPoint
 10
176.02601
 20
689.938239
 30
0.0
  0
POINT
  5
127
100
AcDbEntity
  8
DEFPOINTS
  6
BYBLOCK
 62
     0
100
AcDbPoint
 10
183.10782
 20
693.938239
 30
0.0
  0
POINT
  5
128
100
AcDbEntity
  8
DEFPOINTS
  6
BYBLOCK
 62
     0
100
AcDbPoint
 10
171.682454
 20
693.938239
 30
0.0
  0
ENDBLK
  5
12A
100
AcDbEntity
  8
0
100
AcDbBlockEnd
  0
BLOCK
  5
133
100
AcDbEntity
  8
0
100
AcDbBlockBegin
  2
*D10
 70
     1
 10
0.0
 20
0.0
 30
0.0
  3
*D10
  1

  0
LINE
  5
12D
100
AcDbEntity
  8
0
  6
BYBLOCK
 62
     2
100
AcDbLine
 10
-149.727874
 20
696.172153
 30
0.0
 11
-138.469884
 21
690.934667
 31
0.0
  0
MTEXT
  5
12E
100
AcDbEntity
  8
0
  6
BYBLOCK
 62
     2
100
AcDbMText
 10
-145.589641
 20
696.177059
 30
0.0
 40
1.5
 41
0.0
 71
     5
 72
     1
  1
\A1;R0.4
 11
0.906684
 21
-0.421811
 31
0.0
  0
LINE
  5
12F
100
AcDbEntity
  8
0
  6
BYBLOCK
 62
     2
100
AcDbLine
 10
-138.107211
 20
690.765942
 30
0.0
 11
-138.469884
 21
690.934667
 31
0.0
  0
INSERT
  5
130
100
AcDbEntity
  8
0
  6
BYBLOCK
 62
     2
100
AcDbBlockReference
  2
_DOTSMALL
 10
-138.469884
 20
690.934667
 30
0.0
 50
335.051024
  0
POINT
  5
131
100
AcDbEntity
  8
DEFPOINTS
  6
BYBLOCK
 62
     0
100
AcDbPoint
 10
-138.469884
 20
690.934667
 30
0.0
  0
POINT
  5
132
100
AcDbEntity
  8
DEFPOINTS
  6
BYBLOCK
 62
     0
100
AcDbPoint
 10
-138.107211
 20
690.765942
 30
0.0
  0
ENDBLK
  5
134
100
AcDbEntity
  8
0
100
AcDbBlockEnd
  0
BLOCK
  5
143
100
AcDbEntity
  8
0
100
AcDbBlockBegin
  2
*D11
 70
     1
 10
0.0
 20
0.0
 30
0.0
  3
*D11
  1

  0
LINE
  5
139
100
AcDbEntity
  8
0
  6
BYBLOCK
 62
     2
100
AcDbLine
 10
132.80498
 20
680.940675
 30
0.0
 11
132.418164
 21
675.408949
 31
0.0
  0
LINE
  5
13A
100
AcDbEntity
  8
0
  6
BYBLOCK
 62
     2
100
AcDbLine
 10
129.632727
 20
681.162501
 30
0.0
 11
129.245911
 21
675.630774
 31
0.0
  0
LINE
  5
13B
100
AcDbEntity
  8
0
  6
BYBLOCK
 62
     2
100
AcDbLine
 10
132.557677
 20
677.404077
 30
0.0
 11
129.385424
 21
677.625902
 31
0.0
  0
LINE
  5
13C
100
AcDbEntity
  8
0
  6
BYBLOCK
 62
     2
100
AcDbLine
 10
129.385424
 20
677.625902
 30
0.0
 11
120.906129
 21
678.218832
 31
0.0
  0
INSERT
  5
13D
100
AcDbEntity
  8
0
  6
BYBLOCK
 62
     2
100
AcDbBlockReference
  2
_DOTSMALL
 10
132.557677
 20
677.404077
 30
0.0
 50
356.0
  0
INSERT
  5
13E
100
AcDbEntity
  8
0
  6
BYBLOCK
 62
     2
100
AcDbBlockReference
  2
_DOTSMALL
 10
129.385424
 20
677.625902
 30
0.0
 50
176.0
  0
MTEXT
  5
13F
100
AcDbEntity
  8
0
  6
BYBLOCK
 62
     2
100
AcDbMText
 10
124.769068
 20
679.702983
 30
0.0
 40
1.5
 41
0.0
 71
     5
 72
     1
  1
\A1;3.18
 11
0.997564
 21
-0.069756
 31
0.0
  0
POINT
  5
140
100
AcDbEntity
  8
DEFPOINTS
  6
BYBLOCK
 62
     0
100
AcDbPoint
 10
132.874737
 20
681.938239
 30
0.0
  0
POINT
  5
141
100
AcDbEntity
  8
DEFPOINTS
  6
BYBLOCK
 62
     0
100
AcDbPoint
 10
129.702483
 20
682.160065
 30
0.0
  0
POINT
  5
142
100
AcDbEntity
  8
DEFPOINTS
  6
BYBLOCK
 62
     0
100
AcDbPoint
 10
129.385424
 20
677.625902
 30
0.0
  0
ENDBLK
  5
144
100
AcDbEntity
  8
0
100
AcDbBlockEnd
  0
BLOCK
  5
152
100
AcDbEntity
  8
0
100
AcDbBlockBegin
  2
*D12
 70
     1
 10
0.0
 20
0.0
 30
0.0
  3
*D12
  1

  0
LINE
  5
147
100
AcDbEntity
  8
0
  6
BYBLOCK
 62
     2
100
AcDbLine
 10
-201.160056
 20
689.938239
 30
0.0
 11
-206.841374
 21
689.938239
 31
0.0
  0
LINE
  5
148
100
AcDbEntity
  8
0
  6
BYBLOCK
 62
     2
100
AcDbLine
 10
-201.160056
 20
688.438239
 30
0.0
 11
-206.841374
 21
688.438239
 31
0.0
  0
LINE
  5
149
100
AcDbEntity
  8
0
  6
BYBLOCK
 62
     2
100
AcDbLine
 10
-204.841374
 20
689.938239
 30
0.0
 11
-204.841374
 21
690.938239
 31
0.0
  0
LINE
  5
14A
100
AcDbEntity
  8
0
  6
BYBLOCK
 62
     2
100
AcDbLine
 10
-204.841374
 20
688.438239
 30
0.0
 11
-204.841374
 21
680.438239
 31
0.0
  0
LINE
  5
14B
100
AcDbEntity
  8
0
  6
BYBLOCK
 62
     2
100
AcDbLine
 10
-204.841374
 20
689.938239
 30
0.0
 11
-204.841374
 21
688.438239
 31
0.0
  0
INSERT
  5
14C
100
AcDbEntity
  8
0
  6
BYBLOCK
 62
     2
100
AcDbBlockReference
  2
_DOTSMALL
 10
-204.841374
 20
689.938239
 30
0.0
 50
270.0
  0
INSERT
  5
14D
100
AcDbEntity
  8
0
  6
BYBLOCK
 62
     2
100
AcDbBlockReference
  2
_DOTSMALL
 10
-204.841374
 20
688.438239
 30
0.0
 50
90.0
  0
MTEXT
  5
14E
100
AcDbEntity
  8
0
  6
BYBLOCK
 62
     2
100
AcDbMText
 10
-206.591374
 20
683.438239
 30
0.0
 40
1.5
 41
0.0
 71
     5
 72
     1
  1
\A1;1.5
 11
0.0
 21
1.0
 31
0.0
  0
POINT
  5
14F
100
AcDbEntity
  8
DEFPOINTS
  6
BYBLOCK
 62
     0
100
AcDbPoint
 10
-200.160056
 20
689.938239
 30
0.0
  0
POINT
  5
150
100
AcDbEntity
  8
DEFPOINTS
  6
BYBLOCK
 62
     0
100
AcDbPoint
 10
-200.160056
 20
688.438239
 30
0.0
  0
POINT
  5
151
100
AcDbEntity
  8
DEFPOINTS
  6
BYBLOCK
 62
     0
100
AcDbPoint
 10
-204.841374
 20
688.438239
 30
0.0
  0
ENDBLK
  5
153
100
AcDbEntity
  8
0
100
AcDbBlockEnd
  0
BLOCK
  5
162
100
AcDbEntity
  8
0
100
AcDbBlockBegin
  2
*D13
 70
     1
 10
0.0
 20
0.0
 30
0.0
  3
*D13
  1

  0
LINE
  5
157
100
AcDbEntity
  8
0
  6
BYBLOCK
 62
     2
100
AcDbLine
 10
132.874737
 20
676.492505
 30
0.0
 11
132.874737
 21
670.004696
 31
0.0
  0
LINE
  5
158
100
AcDbEntity
  8
0
  6
BYBLOCK
 62
     2
100
AcDbLine
 10
132.944737
 20
676.492505
 30
0.0
 11
132.944737
 21
670.004696
 31
0.0
  0
LINE
  5
159
100
AcDbEntity
  8
0
  6
BYBLOCK
 62
     2
100
AcDbLine
 10
132.874737
 20
672.004696
 30
0.0
 11
131.874737
 21
672.004696
 31
0.0
  0
LINE
  5
15A
100
AcDbEntity
  8
0
  6
BYBLOCK
 62
     2
100
AcDbLine
 10
132.944737
 20
672.004696
 30
0.0
 11
142.444737
 21
672.004696
 31
0.0
  0
LINE
  5
15B
100
AcDbEntity
  8
0
  6
BYBLOCK
 62
     2
100
AcDbLine
 10
132.874737
 20
672.004696
 30
0.0
 11
132.944737
 21
672.004696
 31
0.0
  0
INSERT
  5
15C
100
AcDbEntity
  8
0
  6
BYBLOCK
 62
     2
100
AcDbBlockReference
  2
_DOTSMALL
 10
132.874737
 20
672.004696
 30
0.0
  0
INSERT
  5
15D
100
AcDbEntity
  8
0
  6
BYBLOCK
 62
     2
100
AcDbBlockReference
  2
_DOTSMALL
 10
132.944737
 20
672.004696
 30
0.0
 50
180.0
  0
MTEXT
  5
15E
100
AcDbEntity
  8
0
  6
BYBLOCK
 62
     2
100
AcDbMText
 10
138.694737
 20
673.754696
 30
0.0
 40
1.5
 41
0.0
 71
     5
 72
     1
  1
\A1;0.07
  0
POINT
  5
15F
100
AcDbEntity
  8
DEFPOINTS
  6
BYBLOCK
 62
     0
100
AcDbPoint
 10
132.874737
 20
677.492505
 30
0.0
  0
POINT
  5
160
100
AcDbEntity
  8
DEFPOINTS
  6
BYBLOCK
 62
     0
100
AcDbPoint
 10
132.944737
 20
677.492505
 30
0.0
  0
POINT
  5
161
100
AcDbEntity
  8
DEFPOINTS
  6
BYBLOCK
 62
     0
100
AcDbPoint
 10
132.944737
 20
672.004696
 30
0.0
  0
ENDBLK
  5
163
100
AcDbEntity
  8
0
100
AcDbBlockEnd
  0
BLOCK
  5
180
100
AcDbEntity
  8
0
100
AcDbBlockBegin
  2
*D14
 70
     1
 10
0.0
 20
0.0
 30
0.0
  3
*D14
  1

  0
LINE
  5
176
100
AcDbEntity
  8
0
  6
BYBLOCK
 62
     2
100
AcDbLine
 10
184.796136
 20
678.938239
 30
0.0
 11
184.796136
 21
672.007013
 31
0.0
  0
LINE
  5
177
100
AcDbEntity
  8
0
  6
BYBLOCK
 62
     2
100
AcDbLine
 10
182.456136
 20
687.67168
 30
0.0
 11
182.456136
 21
672.007013
 31
0.0
  0
LINE
  5
178
100
AcDbEntity
  8
0
  6
BYBLOCK
 62
     2
100
AcDbLine
 10
184.796136
 20
674.007013
 30
0.0
 11
182.456136
 21
674.007013
 31
0.0
  0
LINE
  5
179
100
AcDbEntity
  8
0
  6
BYBLOCK
 62
     2
100
AcDbLine
 10
182.456136
 20
674.007013
 30
0.0
 11
173.956136
 21
674.007013
 31
0.0
  0
INSERT
  5
17A
100
AcDbEntity
  8
0
  6
BYBLOCK
 62
     2
100
AcDbBlockReference
  2
_DOTSMALL
 10
184.796136
 20
674.007013
 30
0.0
  0
INSERT
  5
17B
100
AcDbEntity
  8
0
  6
BYBLOCK
 62
     2
100
AcDbBlockReference
  2
_DOTSMALL
 10
182.456136
 20
674.007013
 30
0.0
 50
180.0
  0
MTEXT
  5
17C
100
AcDbEntity
  8
0
  6
BYBLOCK
 62
     2
100
AcDbMText
 10
177.706136
 20
675.757013
 30
0.0
 40
1.5
 41
0.0
 71
     5
 72
     1
  1
\A1;2.34
  0
POINT
  5
17D
100
AcDbEntity
  8
DEFPOINTS
  6
BYBLOCK
 62
     0
100
AcDbPoint
 10
184.796136
 20
679.938239
 30
0.0
  0
POINT
  5
17E
100
AcDbEntity
  8
DEFPOINTS
  6
BYBLOCK
 62
     0
100
AcDbPoint
 10
182.456136
 20
688.67168
 30
0.0
  0
POINT
  5
17F
100
AcDbEntity
  8
DEFPOINTS
  6
BYBLOCK
 62
     0
100
AcDbPoint
 10
182.456136
 20
674.007013
 30
0.0
  0
ENDBLK
  5
181
100
AcDbEntity
  8
0
100
AcDbBlockEnd
  0
BLOCK
  5
172
100
AcDbEntity
  8
0
100
AcDbBlockBegin
  2
*D15
 70
     1
 10
0.0
 20
0.0
 30
0.0
  3
*D15
  1

  0
LINE
  5
169
100
AcDbEntity
  8
0
  6
BYBLOCK
 62
     1
100
AcDbLine
 10
183.796136
 20
679.938239
 30
0.0
 11
169.682454
 21
679.938239
 31
0.0
  0
LINE
  5
16A
100
AcDbEntity
  8
0
  6
BYBLOCK
 62
     1
100
AcDbLine
 10
175.02601
 20
689.938239
 30
0.0
 11
169.682454
 21
689.938239
 31
0.0
  0
LINE
  5
16B
100
AcDbEntity
  8
0
  6
BYBLOCK
 62
     1
100
AcDbLine
 10
171.682454
 20
681.938239
 30
0.0
 11
171.682454
 21
687.938239
 31
0.0
  0
INSERT
  5
16C
100
AcDbEntity
  8
0
  6
BYBLOCK
 62
     1
100
AcDbBlockReference
  2
_OPEN30
 10
171.682454
 20
679.938239
 30
0.0
 41
2.0
 42
2.0
 43
2.0
 50
270.0
  0
INSERT
  5
16D
100
AcDbEntity
  8
0
  6
BYBLOCK
 62
     1
100
AcDbBlockReference
  2
_OPEN30
 10
171.682454
 20
689.938239
 30
0.0
 41
2.0
 42
2.0
 43
2.0
 50
90.0
  0
MTEXT
  5
16E
100
AcDbEntity
  8
0
  6
BYBLOCK
 62
     3
100
AcDbMText
 10
169.182454
 20
684.938239
 30
0.0
 40
3.0
 41
0.0
 71
     5
 72
     1
  1
\A1;10
 11
0.0
 21
1.0
 31
0.0
  0
POINT
  5
16F
100
AcDbEntity
  8
DEFPOINTS
  6
BYBLOCK
 62
     0
100
AcDbPoint
 10
184.796136
 20
679.938239
 30
0.0
  0
POINT
  5
170
100
AcDbEntity
  8
DEFPOINTS
  6
BYBLOCK
 62
     0
100
AcDbPoint
 10
176.02601
 20
689.938239
 30
0.0
  0
POINT
  5
171
100
AcDbEntity
  8
DEFPOINTS
  6
BYBLOCK
 62
     0
100
AcDbPoint
 10
171.682454
 20
689.938239
 30
0.0
  0
ENDBLK
  5
173
100
AcDbEntity
  8
0
100
AcDbBlockEnd
  0
BLOCK
  5
A5
100
AcDbEntity
  8
0
100
AcDbBlockBegin
  2
*D16
 70
     1
 10
0.0
 20
0.0
 30
0.0
  3
*D16
  1

  0
LINE
  5
9C
100
AcDbEntity
  8
0
  6
BYBLOCK
 62
     1
100
AcDbLine
 10
367.292048
 20
686.154357
 30
0.0
 11
367.292048
 21
663.659654
 31
0.0
  0
LINE
  5
9D
100
AcDbEntity
  8
0
  6
BYBLOCK
 62
     1
100
AcDbLine
 10
382.292048
 20
686.154357
 30
0.0
 11
382.292048
 21
663.659654
 31
0.0
  0
LINE
  5
9E
100
AcDbEntity
  8
0
  6
BYBLOCK
 62
     1
100
AcDbLine
 10
369.292048
 20
665.659654
 30
0.0
 11
380.292048
 21
665.659654
 31
0.0
  0
INSERT
  5
9F
100
AcDbEntity
  8
0
  6
BYBLOCK
 62
     1
100
AcDbBlockReference
  2
_OPEN30
 10
367.292048
 20
665.659654
 30
0.0
 41
2.0
 42
2.0
 43
2.0
 50
180.0
  0
INSERT
  5
A0
100
AcDbEntity
  8
0
  6
BYBLOCK
 62
     1
100
AcDbBlockReference
  2
_OPEN30
 10
382.292048
 20
665.659654
 30
0.0
 41
2.0
 42
2.0
 43
2.0
  0
MTEXT
  5
A1
100
AcDbEntity
  8
0
  6
BYBLOCK
 62
     3
100
AcDbMText
 10
374.792048
 20
668.159654
 30
0.0
 40
3.0
 41
0.0
 71
     5
 72
     1
  1
\A1;15
  0
POINT
  5
A2
100
AcDbEntity
  8
DEFPOINTS
  6
BYBLOCK
 62
     0
100
AcDbPoint
 10
367.292048
 20
687.154357
 30
0.0
  0
POINT
  5
A3
100
AcDbEntity
  8
DEFPOINTS
  6
BYBLOCK
 62
     0
100
AcDbPoint
 10
382.292048
 20
687.154357
 30
0.0
  0
POINT
  5
A4
100
AcDbEntity
  8
DEFPOINTS
  6
BYBLOCK
 62
     0
100
AcDbPoint
 10
382.292048
 20
665.659654
 30
0.0
  0
ENDBLK
  5
A6
100
AcDbEntity
  8
0
100
AcDbBlockEnd
  0
BLOCK
  5
116
100
AcDbEntity
  8
0
100
AcDbBlockBegin
  2
*D17
 70
     1
 10
0.0
 20
0.0
 30
0.0
  3
*D17
  1

  0
LINE
  5
10B
100
AcDbEntity
  8
0
  6
BYBLOCK
 62
     1
100
AcDbLine
 10
182.199681
 20
689.628341
 30
0.0
 11
177.653549
 21
706.594738
 31
0.0
  0
LINE
  5
10C
100
AcDbEntity
  8
0
  6
BYBLOCK
 62
     1
100
AcDbLine
 10
183.796136
 20
679.938239
 30
0.0
 11
157.199298
 21
679.938239
 31
0.0
  0
ARC
  5
10D
100
AcDbEntity
  8
0
  6
BYBLOCK
 62
     1
100
AcDbCircle
 10
184.796136
 20
679.938239
 30
0.0
 40
25.596838
100
AcDbArc
 50
109.477925
 51
175.522075
  0
INSERT
  5
10E
100
AcDbEntity
  8
0
  6
BYBLOCK
 62
     1
100
AcDbBlockReference
  2
_OPEN30
 10
178.171187
 20
704.662887
 30
0.0
 41
2.0
 42
2.0
 43
2.0
 50
17.238963
  0
INSERT
  5
10F
100
AcDbEntity
  8
0
  6
BYBLOCK
 62
     1
100
AcDbBlockReference
  2
_OPEN30
 10
159.199298
 20
679.938239
 30
0.0
 41
2.0
 42
2.0
 43
2.0
 50
267.761037
  0
MTEXT
  5
110
100
AcDbEntity
  8
0
  6
BYBLOCK
 62
     3
100
AcDbMText
 10
162.505416
 20
697.042511
 30
0.0
 40
3.0
 41
0.0
 71
     5
 72
     1
  1
\A1;75°
 11
0.608761
 21
0.793353
 31
0.0
  0
POINT
  5
111
100
AcDbEntity
  8
DEFPOINTS
  6
BYBLOCK
 62
     0
100
AcDbPoint
 10
168.342806
 20
699.546555
 30
0.0
  0
POINT
  5
112
100
AcDbEntity
  8
DEFPOINTS
  6
BYBLOCK
 62
     0
100
AcDbPoint
 10
182.4585
 20
688.662415
 30
0.0
  0
POINT
  5
113
100
AcDbEntity
  8
DEFPOINTS
  6
BYBLOCK
 62
     0
100
AcDbPoint
 10
185.155728
 20
679.938239
 30
0.0
  0
POINT
  5
114
100
AcDbEntity
  8
DEFPOINTS
  6
BYBLOCK
 62
     0
100
AcDbPoint
 10
184.796136
 20
679.938239
 30
0.0
  0
POINT
  5
115
100
AcDbEntity
  8
DEFPOINTS
  6
BYBLOCK
 62
     0
100
AcDbPoint
 10
184.716697
 20
680.234712
 30
0.0
  0
ENDBLK
  5
117
100
AcDbEntity
  8
0
100
AcDbBlockEnd
  0
BLOCK
  5
97
100
AcDbEntity
  8
0
100
AcDbBlockBegin
  2
*D18
 70
     1
 10
0.0
 20
0.0
 30
0.0
  3
*D18
  1

  0
LINE
  5
8F
100
AcDbEntity
  8
0
  6
BYBLOCK
 62
     1
100
AcDbLine
 10
391.305365
 20
709.420701
 30
0.0
 11
381.257893
 21
697.566663
 31
0.0
  0
LINE
  5
90
100
AcDbEntity
  8
0
  6
BYBLOCK
 62
     1
100
AcDbLine
 10
368.326203
 20
682.309816
 30
0.0
 11
367.033034
 21
680.784131
 31
0.0
  0
MTEXT
  5
91
100
AcDbEntity
  8
0
  6
BYBLOCK
 62
     3
100
AcDbMText
 10
386.165337
 20
707.22295
 30
0.0
 40
3.0
 41
0.0
 71
     5
 72
     1
  1
\A1;\U+220516
 11
0.646585
 21
0.762842
 31
0.0
  0
LINE
  5
92
100
AcDbEntity
  8
0
  6
BYBLOCK
 62
     1
100
AcDbLine
 10
369.619372
 20
683.835501
 30
0.0
 11
379.964724
 21
696.040978
 31
0.0
  0
INSERT
  5
93
100
AcDbEntity
  8
0
  6
BYBLOCK
 62
     1
100
AcDbBlockReference
  2
_OPEN30
 10
369.619372
 20
683.835501
 30
0.0
 41
2.0
 42
2.0
 43
2.0
 50
49.715419
  0
INSERT
  5
94
100
AcDbEntity
  8
0
  6
BYBLOCK
 62
     1
100
AcDbBlockReference
  2
_OPEN30
 10
379.964724
 20
696.040978
 30
0.0
 41
2.0
 42
2.0
 43
2.0
 50
229.715419
  0
POINT
  5
95
100
AcDbEntity
  8
DEFPOINTS
  6
BYBLOCK
 62
     0
100
AcDbPoint
 10
379.964724
 20
696.040978
 30
0.0
  0
POINT
  5
96
100
AcDbEntity
  8
DEFPOINTS
  6
BYBLOCK
 62
     0
100
AcDbPoint
 10
369.619372
 20
683.835501
 30
0.0
  0
ENDBLK
  5
98
100
AcDbEntity
  8
0
100
AcDbBlockEnd
  0
BLOCK
  5
C3
100
AcDbEntity
  8
0
100
AcDbBlockBegin
  2
*D19
 70
     1
 10
0.0
 20
0.0
 30
0.0
  3
*D19
  1

  0
LINE
  5
B8
100
AcDbEntity
  8
0
  6
BYBLOCK
 62
     2
100
AcDbLine
 10
190.469036
 20
698.188239
 30
0.0
 11
194.144376
 21
700.310198
 31
0.0
  0
LINE
  5
B9
100
AcDbEntity
  8
0
  6
BYBLOCK
 62
     2
100
AcDbLine
 10
183.10782
 20
694.938239
 30
0.0
 11
183.10782
 21
706.682156
 31
0.0
  0
ARC
  5
BA
100
AcDbEntity
  8
0
  6
BYBLOCK
 62
     2
100
AcDbCircle
 10
183.10782
 20
693.938239
 30
0.0
 40
10.743916
100
AcDbArc
 50
30.0
 51
90.0
  0
INSERT
  5
BB
100
AcDbEntity
  8
0
  6
BYBLOCK
 62
     2
100
AcDbBlockReference
  2
_DOTSMALL
 10
192.412325
 20
699.310198
 30
0.0
 50
300.0
  0
INSERT
  5
BC
100
AcDbEntity
  8
0
  6
BYBLOCK
 62
     2
100
AcDbBlockReference
  2
_DOTSMALL
 10
183.10782
 20
704.682156
 30
0.0
 50
180.0
  0
MTEXT
  5
BD
100
AcDbEntity
  8
0
  6
BYBLOCK
 62
     2
100
AcDbMText
 10
189.354778
 20
704.758288
 30
0.0
 40
1.5
 41
0.0
 71
     5
 72
     1
  1
\A1;60°
 11
0.866025
 21
-0.5
 31
0.0
  0
POINT
  5
BE
100
AcDbEntity
  8
DEFPOINTS
  6
BYBLOCK
 62
     0
100
AcDbPoint
 10
190.013877
 20
702.168557
 30
0.0
  0
POINT
  5
BF
100
AcDbEntity
  8
DEFPOINTS
  6
BYBLOCK
 62
     0
100
AcDbPoint
 10
183.10782
 20
693.938239
 30
0.0
  0
POINT
  5
C0
100
AcDbEntity
  8
DEFPOINTS
  6
BYBLOCK
 62
     0
100
AcDbPoint
 10
183.10782
 20
693.938239
 30
0.0
  0
POINT
  5
C1
100
AcDbEntity
  8
DEFPOINTS
  6
BYBLOCK
 62
     0
100
AcDbPoint
 10
189.603011
 20
697.688239
 30
0.0
  0
POINT
  5
C2
100
AcDbEntity
  8
DEFPOINTS
  6
BYBLOCK
 62
     0
100
AcDbPoint
 10
183.10782
 20
689.25051
 30
0.0
  0
ENDBLK
  5
C4
100
AcDbEntity
  8
0
100
AcDbBlockEnd
  0
BLOCK
  5
106
100
AcDbEntity
  8
0
100
AcDbBlockBegin
  2
*D20
 70
     1
 10
0.0
 20
0.0
 30
0.0
  3
*D20
  1

  0
LINE
  5
F7
100
AcDbEntity
  8
0
  6
BYBLOCK
 62
     1
100
AcDbLine
 10
132.80498
 20
680.940675
 30
0.0
 11
131.583315
 21
663.470042
 31
0.0
  0
LINE
  5
F8
100
AcDbEntity
  8
0
  6
BYBLOCK
 62
     1
100
AcDbLine
 10
132.874737
 20
676.492505
 30
0.0
 11
132.874737
 21
663.424945
 31
0.0
  0
ARC
  5
F9
100
AcDbEntity
  8
0
  6
BYBLOCK
 62
     1
100
AcDbCircle
 10
132.874737
 20
681.938239
 30
0.0
 40
16.513295
100
AcDbArc
 50
252.08714
 51
266.0
  0
LINE
  5
FA
100
AcDbEntity
  8
0
  6
BYBLOCK
 62
     1
100
AcDbLine
 10
127.79574
 20
666.22542
 30
0.0
 11
119.612621
 21
668.870524
 31
0.0
  0
ARC
  5
FB
100
AcDbEntity
  8
0
  6
BYBLOCK
 62
     1
100
AcDbCircle
 10
132.874737
 20
681.938239
 30
0.0
 40
16.513295
100
AcDbArc
 50
252.1128
 51
259.0564
  0
ARC
  5
FC
100
AcDbEntity
  8
0
  6
BYBLOCK
 62
     1
100
AcDbCircle
 10
132.874737
 20
681.938239
 30
0.0
 40
16.513295
100
AcDbArc
 50
276.9436
 51
283.8872
  0
ARC
  5
FD
100
AcDbEntity
  8
0
  6
BYBLOCK
 62
     1
100
AcDbCircle
 10
132.874737
 20
681.938239
 30
0.0
 40
16.513295
100
AcDbArc
 50
266.0
 51
270.0
  0
INSERT
  5
FE
100
AcDbEntity
  8
0
  6
BYBLOCK
 62
     1
100
AcDbBlockReference
  2
_OPEN30
 10
131.722828
 20
665.46517
 30
0.0
 41
2.0
 42
2.0
 43
2.0
 50
352.5282
  0
INSERT
  5
FF
100
AcDbEntity
  8
0
  6
BYBLOCK
 62
     1
100
AcDbBlockReference
  2
_OPEN30
 10
132.874737
 20
665.424945
 30
0.0
 41
2.0
 42
2.0
 43
2.0
 50
183.4718
  0
MTEXT
  5
100
100
AcDbEntity
  8
0
  6
BYBLOCK
 62
     3
100
AcDbMText
 10
124.473106
 20
669.926785
 30
0.0
 40
3.0
 41
0.0
 71
     5
 72
     1
  1
\A1;4°
 11
0.951525
 21
-0.30757
 31
0.0
  0
POINT
  5
101
100
AcDbEntity
  8
DEFPOINTS
  6
BYBLOCK
 62
     0
100
AcDbPoint
 10
132.49049
 20
665.429416
 30
0.0
  0
POINT
  5
102
100
AcDbEntity
  8
DEFPOINTS
  6
BYBLOCK
 62
     0
100
AcDbPoint
 10
132.874737
 20
702.383974
 30
0.0
  0
POINT
  5
103
100
AcDbEntity
  8
DEFPOINTS
  6
BYBLOCK
 62
     0
100
AcDbPoint
 10
133.716425
 20
693.974946
 30
0.0
  0
POINT
  5
104
100
AcDbEntity
  8
DEFPOINTS
  6
BYBLOCK
 62
     0
100
AcDbPoint
 10
132.874737
 20
681.938239
 30
0.0
  0
POINT
  5
105
100
AcDbEntity
  8
DEFPOINTS
  6
BYBLOCK
 62
     0
100
AcDbPoint
 10
132.874737
 20
677.492505
 30
0.0
  0
ENDBLK
  5
107
100
AcDbEntity
  8
0
100
AcDbBlockEnd
  0
BLOCK
  5
1C4
100
AcDbEntity
  8
0
100
AcDbBlockBegin
  2
3
 70
     0
 10
0.0
 20
0.0
 30
0.0
  3
3
  1

  0
DIMENSION
  5
2B
100
AcDbEntity
  8
参考
  6
CONTINUOUS
100
AcDbDimension
  2
*D2
 10
77.36132
 20
55.418881
 30
0.0
 11
88.36132
 21
57.168881
 31
0.0
 12
-107.434816
 22
-590.875864
 32
0.0
  3
参考寸法
100
AcDbAlignedDimension
 13
99.36132
 23
49.876475
 33
0.0
 14
77.36132
 24
42.126475
 34
0.0
100
AcDbRotatedDimension
1001
ACAD
1000
DSTYLE
1002
{
1070
   140
1040
1.5
1070
    41
1040
1.0
1002
}
  0
DIMENSION
  5
3C
100
AcDbEntity
  8
寸法
  6
CONTINUOUS
100
AcDbDimension
  2
*D3
 10
86.55075
 20
41.322504
 30
0.0
 11
62.829296
 21
52.209738
 31
0.0
 12
-107.434816
 22
-590.875864
 32
0.0
 70
     2
  3
STANDARD
100
AcDb2LineAngularDimension
 13
57.859658
 23
42.126475
 33
0.0
 14
334.845226
 24
42.126475
 34
0.0
 15
77.36132
 25
42.126475
 35
0.0
 16
62.710542
 26
42.552769
 36
0.0
1001
ACAD
1000
DSTYLE
1002
{
1070
    40
1040
1.0
1002
}
  0
LINE
  5
58
100
AcDbEntity
  8
外形
  6
CONTINUOUS
100
AcDbLine
 10
99.61132
 20
49.626475
 30
0.0
 11
326.357232
 21
49.626475
 31
0.0
  0
LINE
  5
59
100
AcDbEntity
  8
外形
  6
CONTINUOUS
100
AcDbLine
 10
107.36132
 20
34.626475
 30
0.0
 11
326.357232
 21
34.626475
 31
0.0
  0
LINE
  5
5A
100
AcDbEntity
  8
外形
  6
CENTER
 62
     1
100
AcDbLine
 10
57.859658
 20
42.126475
 30
0.0
 11
334.845226
 21
42.126475
 31
0.0
  0
LINE
  5
5C
100
AcDbEntity
  8
外形
  6
CONTINUOUS
100
AcDbLine
 10
77.36132
 20
42.11603
 30
0.0
 11
86.55075
 21
41.312059
 31
0.0
  0
LINE
  5
5D
100
AcDbEntity
  8
外形
  6
CONTINUOUS
100
AcDbLine
 10
77.573004
 20
38.905362
 30
0.0
 11
85.657817
 21
38.198033
 31
0.0
  0
LINE
  5
5E
100
AcDbEntity
  8
外形
  6
CONTINUOUS
100
AcDbLine
 10
86.55075
 20
41.312059
 30
0.0
 11
84.18768
 21
42.939456
 31
0.0
  0
LINE
  5
5F
100
AcDbEntity
  8
外形
  6
CONTINUOUS
100
AcDbLine
 10
99.36132
 20
34.376475
 30
0.0
 11
84.16132
 21
34.376475
 31
0.0
  0
SPLINE
  5
60
100
AcDbEntity
  8
外形
  6
CONTINUOUS
100
AcDbSpline
210
0.0
220
0.0
230
-1.0
 70
     8
 71
     3
 72
     9
 73
     5
 74
     0
 42
0.0000001
 43
0.0000001
 40
0.0
 40
0.0
 40
0.0
 40
0.0
 40
5.039786751347365
 40
8.515420093217388
 40
8.515420093217388
 40
8.515420093217388
 40
8.515420093217388
 10
75.67300434198266
 20
43.91433907171903
 30
0.0
 10
77.32689770903203
 20
44.2592861570024
 30
0.0
 10
80.12138039345227
 20
44.84212219472408
 30
0.0
 10
82.64250778120912
 20
46.21711892629605
 30
0.0
 10
99.36132021386498
 20
49.87647459879998
 30
0.0
  0
DIMENSION
  5
61
100
AcDbEntity
  8
参考
  6
CONTINUOUS
100
AcDbDimension
  2
*D4
 10
107.36132
 20
22.870289
 30
0.0
 11
92.36132
 21
24.620289
 31
0.0
 12
-107.434816
 22
-590.875864
 32
0.0
  3
参考寸法
100
AcDbAlignedDimension
 13
77.36132
 23
42.126475
 33
0.0
 14
107.36132
 24
34.126475
 34
0.0
100
AcDbRotatedDimension
1001
ACAD
1000
DSTYLE
1002
{
1070
   140
1040
1.5
1070
    41
1040
1.0
1002
}
  0
LINE
  5
6E
100
AcDbEntity
  8
外形
  6
CONTINUOUS
100
AcDbLine
 10
75.588582
 20
40.271993
 30
0.0
 11
77.573004
 21
32.86603
 31
0.0
  0
LINE
  5
6F
100
AcDbEntity
  8
外形
  6
CONTINUOUS
100
AcDbLine
 10
77.36132
 20
42.11603
 30
0.0
 11
77.573004
 21
38.905362
 31
0.0
  0
LINE
  5
70
100
AcDbEntity
  8
外形
  6
CONTINUOUS
100
AcDbLine
 10
77.573004
 20
38.905362
 30
0.0
 11
75.22803
 21
40.520298
 31
0.0
  0
LINE
  5
71
100
AcDbEntity
  8
外形
  6
CONTINUOUS
100
AcDbLine
 10
78.573004
 20
32.86603
 30
0.0
 11
84.16132
 21
34.363414
 31
0.0
  0
LINE
  5
72
100
AcDbEntity
  8
外形
  6
CONTINUOUS
100
AcDbLine
 10
78.573004
 20
32.86603
 30
0.0
 11
77.573004
 21
32.86603
 31
0.0
  0
LINE
  5
73
100
AcDbEntity
  8
外形
  6
CONTINUOUS
100
AcDbLine
 10
77.573004
 20
38.894917
 30
0.0
 11
77.573004
 21
32.86603
 31
0.0
  0
LINE
  5
74
100
AcDbEntity
  8
外形
  6
CONTINUOUS
100
AcDbLine
 10
78.573004
 20
38.817874
 30
0.0
 11
78.573004
 21
32.86603
 31
0.0
  0
LINE
  5
75
100
AcDbEntity
  8
外形
  6
CONTINUOUS
100
AcDbLine
 10
84.16132
 20
38.32896
 30
0.0
 11
84.16132
 21
34.363414
 31
0.0
  0
LINE
  5
76
100
AcDbEntity
  8
外形
  6
CONTINUOUS
100
AcDbLine
 10
75.015624
 20
43.741907
 30
0.0
 11
75.22803
 21
40.520298
 31
0.0
  0
LINE
  5
77
100
AcDbEntity
  8
外形
  6
CONTINUOUS
100
AcDbLine
 10
75.673004
 20
43.903894
 30
0.0
 11
75.673004
 21
43.684393
 31
0.0
  0
LINE
  5
78
100
AcDbEntity
  8
外形
  6
CONTINUOUS
100
AcDbLine
 10
77.36132
 20
42.126475
 30
0.0
 11
75.015624
 21
43.741907
 31
0.0
  0
LINE
  5
79
100
AcDbEntity
  8
外形
  6
CONTINUOUS
100
AcDbLine
 10
75.015624
 20
43.741907
 30
0.0
 11
84.18768
 21
42.939456
 31
0.0
  0
LINE
  5
7A
100
AcDbEntity
  8
外形
  6
CONTINUOUS
100
AcDbLine
 10
86.834254
 20
42.300757
 30
0.0
 11
85.657817
 21
38.198033
 31
0.0
  0
LINE
  5
7B
100
AcDbEntity
  8
外形
  6
HIDDEN
100
AcDbLine
 10
96.36132
 20
40.126475
 30
0.0
 11
102.36132
 21
34.126475
 31
0.0
  0
LINE
  5
7D
100
AcDbEntity
  8
外形
  6
CONTINUOUS
100
AcDbLine
 10
99.36132
 20
34.376475
 30
0.0
 11
99.36132
 21
49.876475
 31
0.0
  0
LINE
  5
7E
100
AcDbEntity
  8
外形
  6
CONTINUOUS
100
AcDbLine
 10
99.61132
 20
34.126475
 30
0.0
 11
99.61132
 21
49.626475
 31
0.0
  0
LINE
  5
7F
100
AcDbEntity
  8
外形
  6
HIDDEN
100
AcDbLine
 10
102.36132
 20
49.626475
 30
0.0
 11
102.36132
 21
34.126475
 31
0.0
  0
LINE
  5
80
100
AcDbEntity
  8
外形
  6
CONTINUOUS
100
AcDbLine
 10
107.36132
 20
34.126475
 30
0.0
 11
99.61132
 21
34.126475
 31
0.0
  0
LINE
  5
81
100
AcDbEntity
  8
外形
  6
CONTINUOUS
100
AcDbLine
 10
99.36132
 20
34.376475
 30
0.0
 11
99.61132
 21
34.126475
 31
0.0
  0
LINE
  5
82
100
AcDbEntity
  8
外形
  6
CONTINUOUS
100
AcDbLine
 10
107.36132
 20
34.626475
 30
0.0
 11
107.36132
 21
34.126475
 31
0.0
  0
LINE
  5
83
100
AcDbEntity
  8
外形
  6
HIDDEN
100
AcDbLine
 10
96.36132
 20
44.126475
 30
0.0
 11
101.86132
 21
49.626475
 31
0.0
  0
SPLINE
  5
84
100
AcDbEntity
  8
外形
  6
CONTINUOUS
100
AcDbSpline
210
0.0
220
0.0
230
1.0
 70
     8
 71
     3
 72
     8
 73
     4
 74
     0
 42
0.0000001
 43
0.0000001
 40
0.0
 40
0.0
 40
0.0
 40
0.0
 40
4.296442058183304
 40
4.296442058183304
 40
4.296442058183304
 40
4.296442058183304
 10
99.36132021386526
 20
49.87647459879531
 30
0.0
 10
98.60377388231546
 20
46.15775791055307
 30
0.0
 10
97.84622755076526
 20
44.68904122240224
 30
0.0
 10
86.83425445500471
 20
42.31120239928316
 30
0.0
  0
LINE
  5
85
100
AcDbEntity
  8
外形
  6
HIDDEN
100
AcDbLine
 10
96.36132
 20
44.126475
 30
0.0
 11
96.36132
 21
40.126475
 31
0.0
  0
LINE
  5
86
100
AcDbEntity
  8
外形
  6
CONTINUOUS
100
AcDbLine
 10
99.61132
 20
49.626475
 30
0.0
 11
99.36132
 21
49.876475
 31
0.0
  0
TEXT
  5
87
100
AcDbEntity
  8
外形
  6
CONTINUOUS
 62
     2
100
AcDbText
 10
181.430787
 20
3.088116
 30
0.0
 40
6.0
  1
WBPS-316R
100
AcDbText
  0
LINE
  5
88
100
AcDbEntity
  8
外形
  6
CONTINUOUS
100
AcDbLine
 10
326.357232
 20
49.626475
 30
0.0
 11
326.357232
 21
34.626475
 31
0.0
  0
LINE
  5
89
100
AcDbEntity
  8
外形
  6
CONTINUOUS
100
AcDbLine
 10
327.357232
 20
35.626475
 30
0.0
 11
327.357232
 21
48.626475
 31
0.0
  0
LINE
  5
8A
100
AcDbEntity
  8
外形
  6
CONTINUOUS
100
AcDbLine
 10
326.357232
 20
34.626475
 30
0.0
 11
327.357232
 21
35.626475
 31
0.0
  0
LINE
  5
8B
100
AcDbEntity
  8
外形
  6
CONTINUOUS
100
AcDbLine
 10
326.357232
 20
49.626475
 30
0.0
 11
327.357232
 21
48.626475
 31
0.0
  0
ARC
  5
8C
100
AcDbEntity
  8
外形
  6
CONTINUOUS
100
AcDbCircle
 10
267.357232
 20
99.062376
 30
0.0
 40
8.0
100
AcDbArc
 50
200.364135
 51
339.635865
  0
DIMENSION
  5
8D
100
AcDbEntity
  8
寸法
  6
CONTINUOUS
100
AcDbDimension
  2
*D18
 10
262.184556
 20
92.959637
 30
0.0
 11
280.637627
 21
114.730625
 31
0.0
 12
-107.434816
 22
-590.875864
 32
0.0
 70
   131
  3
STANDARD
100
AcDbDiametricDimension
 15
272.529908
 25
105.165115
 35
0.0
 40
0.0
1001
ACAD
1000
DSTYLE
1002
{
1070
    40
1040
1.0
1002
}
  0
ARC
  5
99
100
AcDbEntity
  8
外形
  6
CONTINUOUS
100
AcDbCircle
 10
267.357232
 20
99.062376
 30
0.0
 40
8.0
100
AcDbArc
 50
20.364135
 51
159.635865
  0
DIMENSION
  5
9A
100
AcDbEntity
  8
寸法
  6
CONTINUOUS
100
AcDbDimension
  2
*D16
 10
274.857232
 20
74.78379
 30
0.0
 11
267.357232
 21
77.28379
 31
0.0
 12
-107.434816
 22
-590.875864
 32
0.0
  3
STANDARD
100
AcDbAlignedDimension
 13
259.857232
 23
96.278494
 33
0.0
 14
274.857232
 24
96.278494
 34
0.0
100
AcDbRotatedDimension
1001
ACAD
1000
DSTYLE
1002
{
1070
    40
1040
1.0
1002
}
  0
LINE
  5
A7
100
AcDbEntity
  8
外形
  6
CENTER
 62
     1
100
AcDbLine
 10
68.591194
 20
99.062376
 30
0.0
 11
334.845226
 21
99.062376
 31
0.0
  0
DIMENSION
  5
A8
100
AcDbEntity
  8
寸法
  6
CONTINUOUS
100
AcDbDimension
  2
*D5
 10
327.357232
 20
67.135409
 30
0.0
 11
202.359276
 21
69.635409
 31
0.0
 12
-107.434816
 22
-590.875864
 32
0.0
  3
STANDARD
100
AcDbAlignedDimension
 13
77.36132
 23
89.062376
 33
0.0
 14
327.357232
 24
92.062376
 34
0.0
100
AcDbRotatedDimension
1001
ACAD
1000
DSTYLE
1002
{
1070
    40
1040
1.0
1002
}
  0
SPLINE
  5
B5
100
AcDbEntity
  8
外形
  6
CONTINUOUS
100
AcDbSpline
210
0.0
220
0.0
230
1.0
 70
     8
 71
     3
 72
    10
 73
     6
 74
     0
 42
0.0000001
 43
0.0000001
 40
0.0
 40
0.0
 40
0.0
 40
0.0
 40
14.6813596986902
 40
21.0450384659282
 40
34.60811174833256
 40
34.60811174833256
 40
34.60811174833256
 40
34.60811174833256
 10
81.77863745237333
 20
106.5874646307299
 30
0.0
 10
86.31530431346643
 20
105.4764155610662
 30
0.0
 10
92.81840283827971
 20
103.8837789873097
 30
0.0
 10
103.4202996879183
 20
93.697740030747
 30
0.0
 10
93.80197881987582
 20
92.36074270797621
 30
0.0
 10
86.61944014930083
 20
91.3123757108749
 30
0.0
  0
DIMENSION
  5
B6
100
AcDbEntity
  8
参考
  6
CONTINUOUS
100
AcDbDimension
  2
*D19
 10
75.673004
 20
98.374646
 30
0.0
 11
81.919962
 21
113.882425
 31
0.0
 12
-107.434816
 22
-590.875864
 32
0.0
 70
     2
  3
参考寸法
100
AcDb2LineAngularDimension
 13
75.673004
 23
103.062376
 33
0.0
 14
82.168195
 24
106.812376
 34
0.0
 15
75.673004
 25
103.062376
 35
0.0
 16
82.579061
 26
111.292693
 36
0.0
1001
ACAD
1000
DSTYLE
1002
{
1070
   140
1040
1.5
1070
    41
1040
1.0
1002
}
  0
LINE
  5
C5
100
AcDbEntity
  8
外形
  6
CONTINUOUS
100
AcDbLine
 10
99.36132
 20
106.812376
 30
0.0
 11
82.168195
 21
106.812376
 31
0.0
  0
LINE
  5
C6
100
AcDbEntity
  8
外形
  6
CONTINUOUS
100
AcDbLine
 10
77.771779
 20
89.076005
 30
0.0
 11
86.199481
 21
91.334202
 31
0.0
  0
LINE
  5
C7
100
AcDbEntity
  8
外形
  6
CENTER
 62
     1
100
AcDbLine
 10
74.083427
 20
94.805325
 30
0.0
 11
87.344893
 21
94.805325
 31
0.0
  0
DIMENSION
  5
C8
100
AcDbEntity
  8
参考
  6
CONTINUOUS
100
AcDbDimension
  2
*D8
 10
82.903014
 20
84.32651
 30
0.0
 11
86.903014
 21
86.07651
 31
0.0
 12
213.517265
 22
-592.806835
 32
0.0
  3
参考寸法
100
AcDbAlignedDimension
 13
78.602994
 23
94.805325
 33
0.0
 14
82.903014
 24
94.805325
 34
0.0
 50
0.0
100
AcDbRotatedDimension
1001
ACAD
1000
DSTYLE
1002
{
1070
   140
1040
1.5
1070
    41
1040
1.0
1002
}
  0
DIMENSION
  5
D6
100
AcDbEntity
  8
参考
  6
CONTINUOUS
100
AcDbDimension
  2
*D6
 10
77.36132
 20
78.549984
 30
0.0
 11
89.36132
 21
80.299984
 31
0.0
 12
-107.434816
 22
-590.875864
 32
0.0
  3
参考寸法
100
AcDbAlignedDimension
 13
101.36132
 23
91.062376
 33
0.0
 14
77.36132
 24
89.062376
 34
0.0
100
AcDbRotatedDimension
1001
ACAD
1000
DSTYLE
1002
{
1070
   140
1040
1.5
1070
    41
1040
1.0
1002
}
  0
ARC
  5
E3
100
AcDbEntity
  8
外形
  6
CONTINUOUS
100
AcDbCircle
 10
83.25977
 20
99.147748
 30
0.0
 40
1.75
100
AcDbArc
 50
329.072705
 51
150.945905
  0
DIMENSION
  5
E4
100
AcDbEntity
  8
参考
  6
CONTINUOUS
100
AcDbDimension
  2
*D7
 10
77.085741
 20
91.766808
 30
0.0
 11
92.63391
 21
104.64927
 31
0.0
 12
213.517265
 22
-592.875864
 32
0.0
 70
   131
  3
参考寸法
100
AcDbDiametricDimension
 15
84.420268
 25
97.843842
 35
0.0
 40
0.0
1001
ACAD
1000
DSTYLE
1002
{
1070
   140
1040
1.5
1070
    41
1040
1.0
1002
}
  0
CIRCLE
  5
EF
100
AcDbEntity
  8
外形
  6
CONTINUOUS
100
AcDbCircle
 10
80.753004
 20
94.805325
 30
0.0
 40
4.7625
  0
LINE
  5
F0
100
AcDbEntity
  8
外形
  6
CONTINUOUS
100
AcDbLine
 10
84.224128
 20
100.251802
 30
0.0
 11
86.61944
 21
91.312376
 31
0.0
  0
ARC
  5
F1
100
AcDbEntity
  8
外形
  6
CONTINUOUS
100
AcDbCircle
 10
25.439921
 20
99.062376
 30
0.0
 40
2.15
100
AcDbArc
 50
67.067821
 51
214.561278
  0
LINE
  5
F2
100
AcDbEntity
  8
外形
  6
CONTINUOUS
100
AcDbLine
 10
32.939921
 20
96.278494
 30
0.0
 11
32.939921
 21
101.266372
 31
0.0
  0
ARC
  5
F3
100
AcDbEntity
  8
外形
  6
CONTINUOUS
100
AcDbCircle
 10
25.509921
 20
97.562376
 30
0.0
 40
9.25
100
AcDbArc
 50
90.0
 51
249.307665
  0
CIRCLE
  5
F4
100
AcDbEntity
  8
外形
  6
CENTER
 62
     1
100
AcDbCircle
 10
25.439921
 20
99.062376
 30
0.0
 40
10.0
  0
DIMENSION
  5
F5
100
AcDbEntity
  8
寸法
  6
CONTINUOUS
100
AcDbDimension
  2
*D20
 10
25.439921
 20
84.616641
 30
0.0
 11
17.03829
 21
77.050922
 31
0.0
 12
-107.434816
 22
-592.875864
 32
0.0
 70
     2
  3
STANDARD
100
AcDb2LineAngularDimension
 13
26.28161
 23
101.099083
 33
0.0
 14
25.439921
 24
89.062376
 34
0.0
 15
25.439921
 25
109.50811
 35
0.0
 16
25.055674
 26
72.553552
 36
0.0
1001
ACAD
1000
DSTYLE
1002
{
1070
    40
1040
1.0
1002
}
  0
LINE
  5
108
100
AcDbEntity
  8
外形
  6
CENTER
 62
     1
100
AcDbLine
 10
25.509921
 20
111.50811
 30
0.0
 11
25.509921
 21
86.616641
 31
0.0
  0
DIMENSION
  5
109
100
AcDbEntity
  8
寸法
  6
CONTINUOUS
100
AcDbDimension
  2
*D17
 10
77.281881
 20
89.358848
 30
0.0
 11
55.0706
 21
106.166647
 31
0.0
 12
-107.434816
 22
-590.875864
 32
0.0
 70
     2
  3
STANDARD
100
AcDb2LineAngularDimension
 13
77.720912
 23
89.062376
 33
0.0
 14
77.36132
 24
89.062376
 34
0.0
 15
75.023685
 25
97.786551
 35
0.0
 16
60.90799
 26
108.670692
 36
0.0
1001
ACAD
1000
DSTYLE
1002
{
1070
    40
1040
1.0
1002
}
  0
LINE
  5
118
100
AcDbEntity
  8
外形
  6
CENTER
 62
     1
100
AcDbLine
 10
80.753004
 20
87.71164
 30
0.0
 11
80.753004
 21
101.367263
 31
0.0
  0
LINE
  5
119
100
AcDbEntity
  8
外形
  6
CONTINUOUS
100
AcDbLine
 10
75.673004
 20
103.062376
 30
0.0
 11
75.673004
 21
98.374646
 31
0.0
  0
LINE
  5
11A
100
AcDbEntity
  8
外形
  6
CONTINUOUS
100
AcDbLine
 10
26.418896
 20
103.062376
 30
0.0
 11
25.439921
 21
89.062376
 31
0.0
  0
LINE
  5
11B
100
AcDbEntity
  8
外形
  6
CENTER
 62
     1
100
AcDbLine
 10
25.439921
 20
111.50811
 30
0.0
 11
25.439921
 21
86.616641
 31
0.0
  0
DIMENSION
  5
11C
100
AcDbEntity
  8
寸法
  6
CONTINUOUS
100
AcDbDimension
  2
*D9
 10
64.247638
 20
103.062376
 30
0.0
 11
61.747638
 21
101.062376
 31
0.0
 12
-107.434816
 22
-590.875864
 32
0.0
  3
STANDARD
100
AcDbAlignedDimension
 13
68.591194
 23
99.062376
 33
0.0
 14
75.673004
 24
103.062376
 34
0.0
 50
90.0
100
AcDbRotatedDimension
1001
ACAD
1000
DSTYLE
1002
{
1070
    40
1040
1.0
1002
}
  0
DIMENSION
  5
12B
100
AcDbEntity
  8
参考
  6
CONTINUOUS
100
AcDbDimension
  2
*D10
 10
75.410055
 20
97.890079
 30
0.0
 11
67.189455
 21
101.714498
 31
0.0
 12
213.517265
 22
-592.875864
 32
0.0
 70
   132
  3
参考寸法
100
AcDbRadialDimension
 15
75.047381
 25
98.058803
 35
0.0
 40
0.0
1001
ACAD
1000
DSTYLE
1002
{
1070
   140
1040
1.5
1070
    41
1040
1.0
1002
}
  0
LINE
  5
135
100
AcDbEntity
  8
外形
  6
CENTER
 62
     1
100
AcDbLine
 10
37.522633
 20
97.562376
 30
0.0
 11
13.357209
 21
97.562376
 31
0.0
  0
LINE
  5
136
100
AcDbEntity
  8
外形
  6
CENTER
 62
     1
100
AcDbLine
 10
37.522633
 20
99.062376
 30
0.0
 11
13.357209
 21
99.062376
 31
0.0
  0
DIMENSION
  5
137
100
AcDbEntity
  8
参考
  6
CONTINUOUS
100
AcDbDimension
  2
*D11
 10
21.950608
 20
84.750039
 30
0.0
 11
17.334252
 21
86.827119
 31
0.0
 12
-107.434816
 22
-592.875864
 32
0.0
 70
     1
  3
参考寸法
100
AcDbAlignedDimension
 13
25.439921
 23
89.062376
 33
0.0
 14
22.267667
 24
89.284201
 34
0.0
1001
ACAD
1000
DSTYLE
1002
{
1070
   140
1040
1.5
1070
    41
1040
1.0
1002
}
  0
DIMENSION
  5
145
100
AcDbEntity
  8
参考
  6
CONTINUOUS
100
AcDbDimension
  2
*D12
 10
8.675892
 20
97.562376
 30
0.0
 11
6.925892
 21
92.562376
 31
0.0
 12
213.517265
 22
-590.875864
 32
0.0
  3
参考寸法
100
AcDbAlignedDimension
 13
13.357209
 23
99.062376
 33
0.0
 14
13.357209
 24
97.562376
 34
0.0
 50
90.0
100
AcDbRotatedDimension
1001
ACAD
1000
DSTYLE
1002
{
1070
   140
1040
1.5
1070
    41
1040
1.0
1002
}
  0
LINE
  5
154
100
AcDbEntity
  8
外形
  6
CONTINUOUS
100
AcDbLine
 10
22.85918
 20
97.743231
 30
0.0
 11
22.241436
 21
88.909081
 31
0.0
  0
DIMENSION
  5
155
100
AcDbEntity
  8
参考
  6
CONTINUOUS
100
AcDbDimension
  2
*D13
 10
25.509921
 20
81.128832
 30
0.0
 11
31.259921
 21
82.878832
 31
0.0
 12
-107.434816
 22
-590.875864
 32
0.0
  3
参考寸法
100
AcDbAlignedDimension
 13
25.439921
 23
86.616641
 33
0.0
 14
25.509921
 24
86.616641
 34
0.0
100
AcDbRotatedDimension
1001
ACAD
1000
DSTYLE
1002
{
1070
   140
1040
1.5
1070
    41
1040
1.0
1002
}
  0
ARC
  5
164
100
AcDbEntity
  8
外形
  6
CONTINUOUS
100
AcDbCircle
 10
25.439921
 20
99.062376
 30
0.0
 40
8.0
100
AcDbArc
 50
270.501344
 51
339.635865
  0
LINE
  5
165
100
AcDbEntity
  8
外形
  6
CONTINUOUS
100
AcDbLine
 10
26.074553
 20
98.138029
 30
0.0
 11
22.85918
 21
97.743231
 31
0.0
  0
LINE
  5
166
100
AcDbEntity
  8
外形
  6
CONTINUOUS
100
AcDbLine
 10
25.439921
 20
89.062376
 30
0.0
 11
22.310786
 21
89.900825
 31
0.0
  0
DIMENSION
  5
167
100
AcDbEntity
  8
寸法
  6
CONTINUOUS
100
AcDbDimension
  2
*D15
 10
64.247638
 20
99.062376
 30
0.0
 11
61.747638
 21
94.062376
 31
0.0
 12
-107.434816
 22
-590.875864
 32
0.0
  3
STANDARD
100
AcDbAlignedDimension
 13
77.36132
 23
89.062376
 33
0.0
 14
68.591194
 24
99.062376
 34
0.0
 50
90.0
100
AcDbRotatedDimension
1001
ACAD
1000
DSTYLE
1002
{
1070
    40
1040
1.0
1002
}
  0
DIMENSION
  5
174
100
AcDbEntity
  8
参考
  6
CONTINUOUS
100
AcDbDimension
  2
*D14
 10
75.02132
 20
83.131149
 30
0.0
 11
70.27132
 21
84.881149
 31
0.0
 12
-107.434816
 22
-590.875864
 32
0.0
  3
参考寸法
100
AcDbAlignedDimension
 13
77.36132
 23
89.062376
 33
0.0
 14
75.02132
 24
97.795816
 34
0.0
100
AcDbRotatedDimension
1001
ACAD
1000
DSTYLE
1002
{
1070
   140
1040
1.5
1070
    41
1040
1.0
1002
}
  0
ARC
  5
182
100
AcDbEntity
  8
外形
  6
CONTINUOUS
100
AcDbCircle
 10
83.837758
 20
100.148275
 30
0.0
 40
0.4
100
AcDbArc
 50
15.0
 51
105.0
  0
LINE
  5
183
100
AcDbEntity
  8
外形
  6
CONTINUOUS
 62
     1
100
AcDbLine
 10
77.668251
 20
89.062376
 30
0.0
 11
77.36132
 21
89.062376
 31
0.0
  0
ARC
  5
184
100
AcDbEntity
  8
外形
  6
CONTINUOUS
100
AcDbCircle
 10
77.668251
 20
89.462376
 30
0.0
 40
0.4
100
AcDbArc
 50
195.0
 51
285.0
  0
ARC
  5
185
100
AcDbEntity
  8
外形
  6
CONTINUOUS
100
AcDbCircle
 10
75.410055
 20
97.890079
 30
0.0
 40
0.4
100
AcDbArc
 50
105.0
 51
195.0
  0
LINE
  5
186
100
AcDbEntity
  8
外形
  6
CONTINUOUS
 62
     1
100
AcDbLine
 10
77.720912
 20
89.062376
 30
0.0
 11
77.36132
 21
89.062376
 31
0.0
  0
LINE
  5
187
100
AcDbEntity
  8
外形
  6
CONTINUOUS
 62
     1
100
AcDbLine
 10
77.281881
 20
89.358848
 30
0.0
 11
77.36132
 21
89.062376
 31
0.0
  0
ARC
  5
188
100
AcDbEntity
  8
外形
  6
CONTINUOUS
100
AcDbCircle
 10
80.753004
 20
95.975363
 30
0.0
 40
0.332368
100
AcDbArc
 50
240.283476
 51
299.716524
  0
ARC
  5
189
100
AcDbEntity
  8
外形
  6
CONTINUOUS
100
AcDbCircle
 10
79.739722
 20
95.390344
 30
0.0
 40
0.332368
100
AcDbArc
 50
300.283476
 51
359.716524
  0
ARC
  5
18A
100
AcDbEntity
  8
外形
  6
CONTINUOUS
100
AcDbCircle
 10
81.766287
 20
95.390344
 30
0.0
 40
0.332368
100
AcDbArc
 50
180.283476
 51
239.716524
  0
LINE
  5
18B
100
AcDbEntity
  8
外形
  6
CONTINUOUS
100
AcDbLine
 10
80.075009
 20
95.979647
 30
0.0
 11
80.588247
 21
95.686706
 31
0.0
  0
LINE
  5
18C
100
AcDbEntity
  8
外形
  6
CONTINUOUS
100
AcDbLine
 10
80.072085
 20
95.3887
 30
0.0
 11
80.075009
 21
95.979647
 31
0.0
  0
LINE
  5
18D
100
AcDbEntity
  8
外形
  6
CONTINUOUS
100
AcDbLine
 10
81.430999
 20
95.979647
 30
0.0
 11
81.433923
 21
95.3887
 31
0.0
  0
LINE
  5
18E
100
AcDbEntity
  8
外形
  6
CONTINUOUS
100
AcDbLine
 10
80.917762
 20
95.686706
 30
0.0
 11
81.430999
 21
95.979647
 31
0.0
  0
ARC
  5
18F
100
AcDbEntity
  8
外形
  6
CONTINUOUS
100
AcDbCircle
 10
79.739722
 20
94.220306
 30
0.0
 40
0.332368
100
AcDbArc
 50
0.283476
 51
59.716524
  0
ARC
  5
190
100
AcDbEntity
  8
外形
  6
CONTINUOUS
100
AcDbCircle
 10
80.753004
 20
93.635287
 30
0.0
 40
0.332368
100
AcDbArc
 50
60.283476
 51
119.716524
  0
ARC
  5
191
100
AcDbEntity
  8
外形
  6
CONTINUOUS
100
AcDbCircle
 10
81.766287
 20
94.220306
 30
0.0
 40
0.332368
100
AcDbArc
 50
120.283476
 51
179.716524
  0
LINE
  5
192
100
AcDbEntity
  8
外形
  6
CONTINUOUS
100
AcDbLine
 10
81.430999
 20
93.631003
 30
0.0
 11
80.917762
 21
93.923945
 31
0.0
  0
LINE
  5
193
100
AcDbEntity
  8
外形
  6
CONTINUOUS
100
AcDbLine
 10
81.433923
 20
94.221951
 30
0.0
 11
81.430999
 21
93.631003
 31
0.0
  0
LINE
  5
194
100
AcDbEntity
  8
外形
  6
CONTINUOUS
100
AcDbLine
 10
80.075009
 20
93.631003
 30
0.0
 11
80.072085
 21
94.221951
 31
0.0
  0
LINE
  5
195
100
AcDbEntity
  8
外形
  6
CONTINUOUS
100
AcDbLine
 10
80.588247
 20
93.923945
 30
0.0
 11
80.075009
 21
93.631003
 31
0.0
  0
LINE
  5
196
100
AcDbEntity
  8
外形
  6
CONTINUOUS
100
AcDbLine
 10
79.907328
 20
94.507319
 30
0.0
 11
79.397014
 21
94.805325
 31
0.0
  0
LINE
  5
197
100
AcDbEntity
  8
外形
  6
CONTINUOUS
100
AcDbLine
 10
82.108995
 20
94.805325
 30
0.0
 11
81.598681
 21
94.507319
 31
0.0
  0
LINE
  5
198
100
AcDbEntity
  8
外形
  6
CONTINUOUS
100
AcDbLine
 10
79.397014
 20
94.805325
 30
0.0
 11
79.907328
 21
95.103331
 31
0.0
  0
LINE
  5
199
100
AcDbEntity
  8
外形
  6
CONTINUOUS
100
AcDbLine
 10
81.598681
 20
95.103331
 30
0.0
 11
82.108995
 21
94.805325
 31
0.0
  0
CIRCLE
  5
19A
100
AcDbEntity
  8
外形
  6
CONTINUOUS
100
AcDbCircle
 10
80.753004
 20
94.805325
 30
0.0
 40
2.15001
  0
LINE
  5
19B
100
AcDbEntity
  8
外形
  6
CONTINUOUS
100
AcDbLine
 10
75.023685
 20
97.786551
 30
0.0
 11
77.281881
 21
89.358848
 31
0.0
  0
LINE
  5
19C
100
AcDbEntity
  8
外形
  6
CONTINUOUS
100
AcDbLine
 10
75.306527
 20
98.276449
 30
0.0
 11
83.73423
 21
100.534645
 31
0.0
  0
LEADER
  5
19D
100
AcDbEntity
  8
寸法
  6
CONTINUOUS
 62
     1
100
AcDbLeader
  3
STANDARD
 73
     0
 74
     0
 75
     1
 40
3.0
 41
26.0
 76
     3
 10
31.951596
 20
106.651716
 30
0.0
 10
39.918921
 20
119.892926
 30
0.0
 10
41.918921
 20
119.892926
 30
0.0
 77
   256
340
19E
213
-0.1129475379637483
223
0.5510341987360618
233
0.0
1001
ACAD
1000
DSTYLE
1002
{
1070
   284
1070
    13
1070
   146
1040
0.5
1070
   272
1070
     3
1070
    40
1040
1.0
1070
   287
1070
     0
1002
}
  0
LINE
  5
19F
100
AcDbEntity
  8
外形
  6
CONTINUOUS
100
AcDbLine
 10
26.418896
 20
103.062376
 30
0.0
 11
27.363441
 21
106.587465
 31
0.0
  0
ARC
  5
1A0
100
AcDbEntity
  8
外形
  6
CONTINUOUS
100
AcDbCircle
 10
25.509921
 20
99.062376
 30
0.0
 40
7.75
100
AcDbArc
 50
16.522188
 51
90.0
  0
LINE
  5
1A1
100
AcDbEntity
  8
外形
  6
CONTINUOUS
100
AcDbLine
 10
26.418896
 20
103.062376
 30
0.0
 11
18.072684
 21
103.062376
 31
0.0
  0
MTEXT
  5
19E
102
{ACAD_REACTORS
330
19D
102
}
100
AcDbEntity
  8
寸法
  6
CONTINUOUS
 62
     3
100
AcDbMText
 10
43.031868
 20
121.841891
 30
0.0
 40
3.0
 41
0.0
 71
     4
 72
     1
  1
%%c20最小加工径
  0
LINE
  5
1A2
100
AcDbEntity
  8
外形
  6
CONTINUOUS
100
AcDbLine
 10
75.673004
 20
103.062376
 30
0.0
 11
82.168195
 21
106.812376
 31
0.0
  0
LINE
  5
1A3
100
AcDbEntity
  8
外形
  6
CONTINUOUS
100
AcDbLine
 10
257.857232
 20
91.062376
 30
0.0
 11
99.61132
 21
91.062376
 31
0.0
  0
LINE
  5
1A4
100
AcDbEntity
  8
外形
  6
CONTINUOUS
100
AcDbLine
 10
257.857232
 20
96.278494
 30
0.0
 11
99.61132
 21
96.278494
 31
0.0
  0
LINE
  5
1A5
100
AcDbEntity
  8
外形
  6
CONTINUOUS
100
AcDbLine
 10
257.857232
 20
101.846258
 30
0.0
 11
99.349636
 21
101.846258
 31
0.0
  0
LINE
  5
1A6
100
AcDbEntity
  8
外形
  6
CONTINUOUS
100
AcDbLine
 10
257.857232
 20
107.062376
 30
0.0
 11
99.61132
 21
107.062376
 31
0.0
  0
LINE
  5
1A7
100
AcDbEntity
  8
外形
  6
CONTINUOUS
100
AcDbLine
 10
99.36132
 20
101.014938
 30
0.0
 11
99.36132
 21
106.812376
 31
0.0
  0
ARC
  5
1A8
100
AcDbEntity
  8
外形
  6
HIDDEN
100
AcDbCircle
 10
108.86132
 20
99.062376
 30
0.0
 40
8.0
100
AcDbArc
 50
159.635865
 51
200.364135
  0
LINE
  5
1A9
100
AcDbEntity
  8
外形
  6
HIDDEN
100
AcDbLine
 10
95.36132
 20
101.062376
 30
0.0
 11
101.36132
 21
107.062376
 31
0.0
  0
LINE
  5
1AA
100
AcDbEntity
  8
外形
  6
CONTINUOUS
100
AcDbLine
 10
99.36132
 20
91.312376
 30
0.0
 11
86.61944
 21
91.312376
 31
0.0
  0
LINE
  5
1AB
100
AcDbEntity
  8
外形
  6
CONTINUOUS
100
AcDbLine
 10
99.36132
 20
101.014938
 30
0.0
 11
95.36132
 21
101.014938
 31
0.0
  0
LINE
  5
1AC
100
AcDbEntity
  8
外形
  6
HIDDEN
100
AcDbLine
 10
95.36132
 20
97.062376
 30
0.0
 11
101.36132
 21
91.062376
 31
0.0
  0
LINE
  5
1AD
100
AcDbEntity
  8
外形
  6
HIDDEN
100
AcDbLine
 10
95.36132
 20
101.062376
 30
0.0
 11
95.36132
 21
97.062376
 31
0.0
  0
ARC
  5
1AE
100
AcDbEntity
  8
外形
  6
CONTINUOUS
100
AcDbCircle
 10
86.095954
 20
91.720572
 30
0.0
 40
0.4
100
AcDbArc
 50
285.0
 51
15.0
  0
LINE
  5
1AF
100
AcDbEntity
  8
外形
  6
CONTINUOUS
100
AcDbLine
 10
99.61132
 20
91.062376
 30
0.0
 11
99.61132
 21
95.399626
 31
0.0
  0
LINE
  5
1B0
100
AcDbEntity
  8
外形
  6
CONTINUOUS
100
AcDbLine
 10
99.36132
 20
91.312376
 30
0.0
 11
99.36132
 21
94.872469
 31
0.0
  0
LINE
  5
1B1
100
AcDbEntity
  8
外形
  6
CONTINUOUS
100
AcDbLine
 10
99.36132
 20
91.312376
 30
0.0
 11
99.61132
 21
91.062376
 31
0.0
  0
LINE
  5
1B2
100
AcDbEntity
  8
外形
  6
HIDDEN
100
AcDbLine
 10
101.36132
 20
96.278494
 30
0.0
 11
101.36132
 21
91.062376
 31
0.0
  0
LINE
  5
1B3
100
AcDbEntity
  8
外形
  6
CONTINUOUS
100
AcDbLine
 10
99.61132
 20
101.846258
 30
0.0
 11
99.61132
 21
107.062376
 31
0.0
  0
LINE
  5
1B4
100
AcDbEntity
  8
外形
  6
CONTINUOUS
100
AcDbLine
 10
99.36132
 20
106.812376
 30
0.0
 11
99.61132
 21
107.062376
 31
0.0
  0
LINE
  5
1B5
100
AcDbEntity
  8
外形
  6
HIDDEN
100
AcDbLine
 10
101.36132
 20
107.062376
 30
0.0
 11
101.36132
 21
101.846258
 31
0.0
  0
LINE
  5
1B6
100
AcDbEntity
  8
外形
  6
CONTINUOUS
100
AcDbLine
 10
259.857232
 20
101.846258
 30
0.0
 11
259.857232
 21
96.278494
 31
0.0
  0
LINE
  5
1B7
100
AcDbEntity
  8
外形
  6
CENTER
 62
     1
100
AcDbLine
 10
267.357232
 20
110.446297
 30
0.0
 11
267.357232
 21
87.70837
 31
0.0
  0
ARC
  5
1B8
100
AcDbEntity
  8
外形
  6
CONTINUOUS
100
AcDbCircle
 10
318.857232
 20
99.062376
 30
0.0
 40
8.0
100
AcDbArc
 50
339.635865
 51
20.364135
  0
LINE
  5
1B9
100
AcDbEntity
  8
外形
  6
CONTINUOUS
100
AcDbLine
 10
274.857232
 20
101.846258
 30
0.0
 11
274.857232
 21
96.278494
 31
0.0
  0
LINE
  5
1BA
100
AcDbEntity
  8
外形
  6
CENTER
 62
     1
100
AcDbLine
 10
328.623004
 20
89.71164
 30
0.0
 11
328.623004
 21
103.367263
 31
0.0
  0
LINE
  5
1BB
100
AcDbEntity
  8
外形
  6
CONTINUOUS
100
AcDbLine
 10
327.357232
 20
92.062376
 30
0.0
 11
327.357232
 21
106.062376
 31
0.0
  0
LINE
  5
1BC
100
AcDbEntity
  8
外形
  6
CONTINUOUS
100
AcDbLine
 10
326.357232
 20
96.278494
 30
0.0
 11
276.857232
 21
96.278494
 31
0.0
  0
LINE
  5
1BD
100
AcDbEntity
  8
外形
  6
CONTINUOUS
100
AcDbLine
 10
326.357232
 20
91.062376
 30
0.0
 11
276.857232
 21
91.062376
 31
0.0
  0
LINE
  5
1BE
100
AcDbEntity
  8
外形
  6
CONTINUOUS
100
AcDbLine
 10
326.357232
 20
96.278494
 30
0.0
 11
326.357232
 21
91.062376
 31
0.0
  0
LINE
  5
1BF
100
AcDbEntity
  8
外形
  6
CONTINUOUS
100
AcDbLine
 10
326.357232
 20
91.062376
 30
0.0
 11
327.357232
 21
92.062376
 31
0.0
  0
LINE
  5
1C0
100
AcDbEntity
  8
外形
  6
CONTINUOUS
100
AcDbLine
 10
326.357232
 20
101.846258
 30
0.0
 11
276.857232
 21
101.846258
 31
0.0
  0
LINE
  5
1C1
100
AcDbEntity
  8
外形
  6
CONTINUOUS
100
AcDbLine
 10
326.357232
 20
107.062376
 30
0.0
 11
276.857232
 21
107.062376
 31
0.0
  0
LINE
  5
1C2
100
AcDbEntity
  8
外形
  6
CONTINUOUS
100
AcDbLine
 10
326.357232
 20
107.062376
 30
0.0
 11
326.357232
 21
101.846258
 31
0.0
  0
LINE
  5
1C3
100
AcDbEntity
  8
外形
  6
CONTINUOUS
100
AcDbLine
 10
326.357232
 20
107.062376
 30
0.0
 11
327.357232
 21
106.062376
 31
0.0
  0
ENDBLK
  5
1C5
100
AcDbEntity
  8
0
100
AcDbBlockEnd
  0
BLOCK
  5
35E
100
AcDbEntity
  8
0
100
AcDbBlockBegin
  2
*D23
 70
     1
 10
0.0
 20
0.0
 30
0.0
  3
*D23
  1

  0
LINE
  5
35F
100
AcDbEntity
  8
0
  6
BYBLOCK
 62
     1
100
AcDbLine
 10
738.442842
 20
109.329217
 30
0.0
 11
722.845443
 21
110.693813
 31
0.0
  0
ARC
  5
360
100
AcDbEntity
  8
0
  6
BYBLOCK
 62
     1
100
AcDbCircle
 10
739.439037
 20
109.242061
 30
0.0
 40
14.656979
100
AcDbArc
 50
159.314615
 51
175.0
  0
LINE
  5
361
100
AcDbEntity
  8
0
  6
BYBLOCK
 62
     1
100
AcDbLine
 10
725.726932
 20
114.419437
 30
0.0
 11
728.764764
 21
122.465031
 31
0.0
  0
ARC
  5
362
100
AcDbEntity
  8
0
  6
BYBLOCK
 62
     1
100
AcDbCircle
 10
739.439037
 20
109.242061
 30
0.0
 40
14.656979
100
AcDbArc
 50
159.351394
 51
167.175697
  0
ARC
  5
363
100
AcDbEntity
  8
0
  6
BYBLOCK
 62
     1
100
AcDbCircle
 10
739.439037
 20
109.242061
 30
0.0
 40
14.656979
100
AcDbArc
 50
187.824303
 51
195.648606
  0
ARC
  5
364
100
AcDbEntity
  8
0
  6
BYBLOCK
 62
     1
100
AcDbCircle
 10
739.439037
 20
109.242061
 30
0.0
 40
14.656979
100
AcDbArc
 50
175.0
 51
180.0
  0
INSERT
  5
365
100
AcDbEntity
  8
0
  6
BYBLOCK
 62
     1
100
AcDbBlockReference
  2
_OPEN30
 10
724.837832
 20
110.519501
 30
0.0
 41
2.0
 42
2.0
 43
2.0
 50
261.087848
  0
INSERT
  5
366
100
AcDbEntity
  8
0
  6
BYBLOCK
 62
     1
100
AcDbBlockReference
  2
_OPEN30
 10
724.782058
 20
109.242061
 30
0.0
 41
2.0
 42
2.0
 43
2.0
 50
93.912152
  0
MTEXT
  5
367
100
AcDbEntity
  8
0
  6
BYBLOCK
 62
     3
100
AcDbMText
 10
724.907013
 20
119.325325
 30
0.0
 40
3.0
 41
0.0
 71
     5
 72
     1
  1
\A1;5°
 11
0.353236
 21
0.935534
 31
0.0
  0
POINT
  5
368
100
AcDbEntity
  8
DEFPOINTS
  6
BYBLOCK
 62
     0
100
AcDbPoint
 10
724.788259
 20
109.668355
 30
0.0
  0
POINT
  5
369
100
AcDbEntity
  8
DEFPOINTS
  6
BYBLOCK
 62
     0
100
AcDbPoint
 10
739.439037
 20
109.242061
 30
0.0
  0
POINT
  5
36A
100
AcDbEntity
  8
DEFPOINTS
  6
BYBLOCK
 62
     0
100
AcDbPoint
 10
719.937375
 20
109.242061
 30
0.0
  0
POINT
  5
36B
100
AcDbEntity
  8
DEFPOINTS
  6
BYBLOCK
 62
     0
100
AcDbPoint
 10
996.922943
 20
109.242061
 30
0.0
  0
POINT
  5
36C
100
AcDbEntity
  8
DEFPOINTS
  6
BYBLOCK
 62
     0
100
AcDbPoint
 10
748.628466
 20
108.43809
 30
0.0
  0
ENDBLK
  5
36D
100
AcDbEntity
  8
0
100
AcDbBlockEnd
  0
BLOCK
  5
436
100
AcDbEntity
  8
0
100
AcDbBlockBegin
  2
*D24
 70
     1
 10
0.0
 20
0.0
 30
0.0
  3
*D24
  1

  0
LINE
  5
437
100
AcDbEntity
  8
0
  6
BYBLOCK
 62
     1
100
AcDbLine
 10
739.439037
 20
108.242061
 30
0.0
 11
739.439037
 21
87.985875
 31
0.0
  0
LINE
  5
438
100
AcDbEntity
  8
0
  6
BYBLOCK
 62
     1
100
AcDbLine
 10
769.439037
 20
100.242061
 30
0.0
 11
769.439037
 21
87.985875
 31
0.0
  0
LINE
  5
439
100
AcDbEntity
  8
0
  6
BYBLOCK
 62
     1
100
AcDbLine
 10
741.439037
 20
89.985875
 30
0.0
 11
767.439037
 21
89.985875
 31
0.0
  0
INSERT
  5
43A
100
AcDbEntity
  8
0
  6
BYBLOCK
 62
     1
100
AcDbBlockReference
  2
_OPEN30
 10
739.439037
 20
89.985875
 30
0.0
 41
2.0
 42
2.0
 43
2.0
 50
180.0
  0
INSERT
  5
43B
100
AcDbEntity
  8
0
  6
BYBLOCK
 62
     1
100
AcDbBlockReference
  2
_OPEN30
 10
769.439037
 20
89.985875
 30
0.0
 41
2.0
 42
2.0
 43
2.0
  0
MTEXT
  5
43C
100
AcDbEntity
  8
0
  6
BYBLOCK
 62
     3
100
AcDbMText
 10
754.439037
 20
92.485875
 30
0.0
 40
3.0
 41
0.0
 71
     5
 72
     1
  1
\A1;30
  0
POINT
  5
43D
100
AcDbEntity
  8
DEFPOINTS
  6
BYBLOCK
 62
     0
100
AcDbPoint
 10
739.439037
 20
109.242061
 30
0.0
  0
POINT
  5
43E
100
AcDbEntity
  8
DEFPOINTS
  6
BYBLOCK
 62
     0
100
AcDbPoint
 10
769.439037
 20
101.242061
 30
0.0
  0
POINT
  5
43F
100
AcDbEntity
  8
DEFPOINTS
  6
BYBLOCK
 62
     0
100
AcDbPoint
 10
769.439037
 20
89.985875
 30
0.0
  0
ENDBLK
  5
440
100
AcDbEntity
  8
0
100
AcDbBlockEnd
  0
BLOCK
  5
379
100
AcDbEntity
  8
0
100
AcDbBlockBegin
  2
*D25
 70
     1
 10
0.0
 20
0.0
 30
0.0
  3
*D25
  1

  0
LINE
  5
37A
100
AcDbEntity
  8
0
  6
BYBLOCK
 62
     1
100
AcDbLine
 10
945.948266
 20
185.660424
 30
0.0
 11
935.900794
 21
173.806386
 31
0.0
  0
LINE
  5
37B
100
AcDbEntity
  8
0
  6
BYBLOCK
 62
     1
100
AcDbLine
 10
922.969104
 20
158.549539
 30
0.0
 11
921.675935
 21
157.023854
 31
0.0
  0
MTEXT
  5
37C
100
AcDbEntity
  8
0
  6
BYBLOCK
 62
     3
100
AcDbMText
 10
940.808237
 20
183.462673
 30
0.0
 40
3.0
 41
0.0
 71
     5
 72
     1
  1
\A1;\U+220516
 11
0.646585
 21
0.762842
 31
0.0
  0
LINE
  5
37D
100
AcDbEntity
  8
0
  6
BYBLOCK
 62
     1
100
AcDbLine
 10
924.262273
 20
160.075223
 30
0.0
 11
934.607625
 21
172.280701
 31
0.0
  0
INSERT
  5
37E
100
AcDbEntity
  8
0
  6
BYBLOCK
 62
     1
100
AcDbBlockReference
  2
_OPEN30
 10
924.262273
 20
160.075223
 30
0.0
 41
2.0
 42
2.0
 43
2.0
 50
49.715419
  0
INSERT
  5
37F
100
AcDbEntity
  8
0
  6
BYBLOCK
 62
     1
100
AcDbBlockReference
  2
_OPEN30
 10
934.607625
 20
172.280701
 30
0.0
 41
2.0
 42
2.0
 43
2.0
 50
229.715419
  0
POINT
  5
380
100
AcDbEntity
  8
DEFPOINTS
  6
BYBLOCK
 62
     0
100
AcDbPoint
 10
934.607625
 20
172.280701
 30
0.0
  0
POINT
  5
381
100
AcDbEntity
  8
DEFPOINTS
  6
BYBLOCK
 62
     0
100
AcDbPoint
 10
924.262273
 20
160.075223
 30
0.0
  0
ENDBLK
  5
382
100
AcDbEntity
  8
0
100
AcDbBlockEnd
  0
BLOCK
  5
383
100
AcDbEntity
  8
0
100
AcDbBlockBegin
  2
*D26
 70
     1
 10
0.0
 20
0.0
 30
0.0
  3
*D26
  1

  0
LINE
  5
384
100
AcDbEntity
  8
0
  6
BYBLOCK
 62
     1
100
AcDbLine
 10
921.934949
 20
162.39408
 30
0.0
 11
921.934949
 21
139.899377
 31
0.0
  0
LINE
  5
385
100
AcDbEntity
  8
0
  6
BYBLOCK
 62
     1
100
AcDbLine
 10
936.934949
 20
162.39408
 30
0.0
 11
936.934949
 21
139.899377
 31
0.0
  0
LINE
  5
386
100
AcDbEntity
  8
0
  6
BYBLOCK
 62
     1
100
AcDbLine
 10
923.934949
 20
141.899377
 30
0.0
 11
934.934949
 21
141.899377
 31
0.0
  0
INSERT
  5
387
100
AcDbEntity
  8
0
  6
BYBLOCK
 62
     1
100
AcDbBlockReference
  2
_OPEN30
 10
921.934949
 20
141.899377
 30
0.0
 41
2.0
 42
2.0
 43
2.0
 50
180.0
  0
INSERT
  5
388
100
AcDbEntity
  8
0
  6
BYBLOCK
 62
     1
100
AcDbBlockReference
  2
_OPEN30
 10
936.934949
 20
141.899377
 30
0.0
 41
2.0
 42
2.0
 43
2.0
  0
MTEXT
  5
389
100
AcDbEntity
  8
0
  6
BYBLOCK
 62
     3
100
AcDbMText
 10
929.434949
 20
144.399377
 30
0.0
 40
3.0
 41
0.0
 71
     5
 72
     1
  1
\A1;15
  0
POINT
  5
38A
100
AcDbEntity
  8
DEFPOINTS
  6
BYBLOCK
 62
     0
100
AcDbPoint
 10
921.934949
 20
163.39408
 30
0.0
  0
POINT
  5
38B
100
AcDbEntity
  8
DEFPOINTS
  6
BYBLOCK
 62
     0
100
AcDbPoint
 10
936.934949
 20
163.39408
 30
0.0
  0
POINT
  5
38C
100
AcDbEntity
  8
DEFPOINTS
  6
BYBLOCK
 62
     0
100
AcDbPoint
 10
936.934949
 20
141.899377
 30
0.0
  0
ENDBLK
  5
38D
100
AcDbEntity
  8
0
100
AcDbBlockEnd
  0
BLOCK
  5
38E
100
AcDbEntity
  8
0
100
AcDbBlockBegin
  2
*D27
 70
     1
 10
0.0
 20
0.0
 30
0.0
  3
*D27
  1

  0
LINE
  5
38F
100
AcDbEntity
  8
0
  6
BYBLOCK
 62
     1
100
AcDbLine
 10
739.439037
 20
155.177962
 30
0.0
 11
739.439037
 21
132.250996
 31
0.0
  0
LINE
  5
390
100
AcDbEntity
  8
0
  6
BYBLOCK
 62
     1
100
AcDbLine
 10
989.434949
 20
158.177962
 30
0.0
 11
989.434949
 21
132.250996
 31
0.0
  0
LINE
  5
391
100
AcDbEntity
  8
0
  6
BYBLOCK
 62
     1
100
AcDbLine
 10
741.439037
 20
134.250996
 30
0.0
 11
987.434949
 21
134.250996
 31
0.0
  0
INSERT
  5
392
100
AcDbEntity
  8
0
  6
BYBLOCK
 62
     1
100
AcDbBlockReference
  2
_OPEN30
 10
739.439037
 20
134.250996
 30
0.0
 41
2.0
 42
2.0
 43
2.0
 50
180.0
  0
INSERT
  5
393
100
AcDbEntity
  8
0
  6
BYBLOCK
 62
     1
100
AcDbBlockReference
  2
_OPEN30
 10
989.434949
 20
134.250996
 30
0.0
 41
2.0
 42
2.0
 43
2.0
  0
MTEXT
  5
394
100
AcDbEntity
  8
0
  6
BYBLOCK
 62
     3
100
AcDbMText
 10
864.436993
 20
136.750996
 30
0.0
 40
3.0
 41
0.0
 71
     5
 72
     1
  1
\A1;250
  0
POINT
  5
395
100
AcDbEntity
  8
DEFPOINTS
  6
BYBLOCK
 62
     0
100
AcDbPoint
 10
739.439037
 20
156.177962
 30
0.0
  0
POINT
  5
396
100
AcDbEntity
  8
DEFPOINTS
  6
BYBLOCK
 62
     0
100
AcDbPoint
 10
989.434949
 20
159.177962
 30
0.0
  0
POINT
  5
397
100
AcDbEntity
  8
DEFPOINTS
  6
BYBLOCK
 62
     0
100
AcDbPoint
 10
989.434949
 20
134.250996
 30
0.0
  0
ENDBLK
  5
398
100
AcDbEntity
  8
0
100
AcDbBlockEnd
  0
BLOCK
  5
3C6
100
AcDbEntity
  8
0
100
AcDbBlockBegin
  2
*D32
 70
     1
 10
0.0
 20
0.0
 30
0.0
  3
*D32
  1

  0
LINE
  5
3C7
100
AcDbEntity
  8
0
  6
BYBLOCK
 62
     1
100
AcDbLine
 10
687.447881
 20
155.180398
 30
0.0
 11
686.226216
 21
137.709765
 31
0.0
  0
LINE
  5
3C8
100
AcDbEntity
  8
0
  6
BYBLOCK
 62
     1
100
AcDbLine
 10
687.517638
 20
150.732228
 30
0.0
 11
687.517638
 21
137.664668
 31
0.0
  0
ARC
  5
3C9
100
AcDbEntity
  8
0
  6
BYBLOCK
 62
     1
100
AcDbCircle
 10
687.517638
 20
156.177962
 30
0.0
 40
16.513295
100
AcDbArc
 50
252.08714
 51
266.0
  0
LINE
  5
3CA
100
AcDbEntity
  8
0
  6
BYBLOCK
 62
     1
100
AcDbLine
 10
682.438641
 20
140.465143
 30
0.0
 11
674.255522
 21
143.110247
 31
0.0
  0
ARC
  5
3CB
100
AcDbEntity
  8
0
  6
BYBLOCK
 62
     1
100
AcDbCircle
 10
687.517638
 20
156.177962
 30
0.0
 40
16.513295
100
AcDbArc
 50
252.1128
 51
259.0564
  0
ARC
  5
3CC
100
AcDbEntity
  8
0
  6
BYBLOCK
 62
     1
100
AcDbCircle
 10
687.517638
 20
156.177962
 30
0.0
 40
16.513295
100
AcDbArc
 50
276.9436
 51
283.8872
  0
ARC
  5
3CD
100
AcDbEntity
  8
0
  6
BYBLOCK
 62
     1
100
AcDbCircle
 10
687.517638
 20
156.177962
 30
0.0
 40
16.513295
100
AcDbArc
 50
266.0
 51
270.0
  0
INSERT
  5
3CE
100
AcDbEntity
  8
0
  6
BYBLOCK
 62
     1
100
AcDbBlockReference
  2
_OPEN30
 10
686.365729
 20
139.704893
 30
0.0
 41
2.0
 42
2.0
 43
2.0
 50
352.5282
  0
INSERT
  5
3CF
100
AcDbEntity
  8
0
  6
BYBLOCK
 62
     1
100
AcDbBlockReference
  2
_OPEN30
 10
687.517638
 20
139.664668
 30
0.0
 41
2.0
 42
2.0
 43
2.0
 50
183.4718
  0
MTEXT
  5
3D0
100
AcDbEntity
  8
0
  6
BYBLOCK
 62
     3
100
AcDbMText
 10
679.116007
 20
144.166508
 30
0.0
 40
3.0
 41
0.0
 71
     5
 72
     1
  1
\A1;4°
 11
0.951525
 21
-0.30757
 31
0.0
  0
POINT
  5
3D1
100
AcDbEntity
  8
DEFPOINTS
  6
BYBLOCK
 62
     0
100
AcDbPoint
 10
687.133391
 20
139.669139
 30
0.0
  0
POINT
  5
3D2
100
AcDbEntity
  8
DEFPOINTS
  6
BYBLOCK
 62
     0
100
AcDbPoint
 10
687.517638
 20
176.623697
 30
0.0
  0
POINT
  5
3D3
100
AcDbEntity
  8
DEFPOINTS
  6
BYBLOCK
 62
     0
100
AcDbPoint
 10
688.359326
 20
168.214669
 30
0.0
  0
POINT
  5
3D4
100
AcDbEntity
  8
DEFPOINTS
  6
BYBLOCK
 62
     0
100
AcDbPoint
 10
687.517638
 20
156.177962
 30
0.0
  0
POINT
  5
3D5
100
AcDbEntity
  8
DEFPOINTS
  6
BYBLOCK
 62
     0
100
AcDbPoint
 10
687.517638
 20
151.732228
 30
0.0
  0
ENDBLK
  5
3D6
100
AcDbEntity
  8
0
100
AcDbBlockEnd
  0
BLOCK
  5
3D7
100
AcDbEntity
  8
0
100
AcDbBlockBegin
  2
*D33
 70
     1
 10
0.0
 20
0.0
 30
0.0
  3
*D33
  1

  0
LINE
  5
3D8
100
AcDbEntity
  8
0
  6
BYBLOCK
 62
     1
100
AcDbLine
 10
736.842582
 20
165.868063
 30
0.0
 11
732.29645
 21
182.834461
 31
0.0
  0
LINE
  5
3D9
100
AcDbEntity
  8
0
  6
BYBLOCK
 62
     1
100
AcDbLine
 10
738.439037
 20
156.177962
 30
0.0
 11
711.842199
 21
156.177962
 31
0.0
  0
ARC
  5
3DA
100
AcDbEntity
  8
0
  6
BYBLOCK
 62
     1
100
AcDbCircle
 10
739.439037
 20
156.177962
 30
0.0
 40
25.596838
100
AcDbArc
 50
109.477925
 51
175.522075
  0
INSERT
  5
3DB
100
AcDbEntity
  8
0
  6
BYBLOCK
 62
     1
100
AcDbBlockReference
  2
_OPEN30
 10
732.814088
 20
180.90261
 30
0.0
 41
2.0
 42
2.0
 43
2.0
 50
17.238963
  0
INSERT
  5
3DC
100
AcDbEntity
  8
0
  6
BYBLOCK
 62
     1
100
AcDbBlockReference
  2
_OPEN30
 10
713.842199
 20
156.177962
 30
0.0
 41
2.0
 42
2.0
 43
2.0
 50
267.761037
  0
MTEXT
  5
3DD
100
AcDbEntity
  8
0
  6
BYBLOCK
 62
     3
100
AcDbMText
 10
717.148316
 20
173.282234
 30
0.0
 40
3.0
 41
0.0
 71
     5
 72
     1
  1
\A1;75°
 11
0.608761
 21
0.793353
 31
0.0
  0
POINT
  5
3DE
100
AcDbEntity
  8
DEFPOINTS
  6
BYBLOCK
 62
     0
100
AcDbPoint
 10
722.985706
 20
175.786278
 30
0.0
  0
POINT
  5
3DF
100
AcDbEntity
  8
DEFPOINTS
  6
BYBLOCK
 62
     0
100
AcDbPoint
 10
737.101401
 20
164.902138
 30
0.0
  0
POINT
  5
3E0
100
AcDbEntity
  8
DEFPOINTS
  6
BYBLOCK
 62
     0
100
AcDbPoint
 10
739.798629
 20
156.177962
 30
0.0
  0
POINT
  5
3E1
100
AcDbEntity
  8
DEFPOINTS
  6
BYBLOCK
 62
     0
100
AcDbPoint
 10
739.439037
 20
156.177962
 30
0.0
  0
POINT
  5
3E2
100
AcDbEntity
  8
DEFPOINTS
  6
BYBLOCK
 62
     0
100
AcDbPoint
 10
739.359597
 20
156.474435
 30
0.0
  0
ENDBLK
  5
3E3
100
AcDbEntity
  8
0
100
AcDbBlockEnd
  0
BLOCK
  5
41F
100
AcDbEntity
  8
0
100
AcDbBlockBegin
  2
*D39
 70
     1
 10
0.0
 20
0.0
 30
0.0
  3
*D39
  1

  0
LINE
  5
420
100
AcDbEntity
  8
0
  6
BYBLOCK
 62
     1
100
AcDbLine
 10
738.439037
 20
156.177962
 30
0.0
 11
724.325355
 21
156.177962
 31
0.0
  0
LINE
  5
421
100
AcDbEntity
  8
0
  6
BYBLOCK
 62
     1
100
AcDbLine
 10
729.668911
 20
166.177962
 30
0.0
 11
724.325355
 21
166.177962
 31
0.0
  0
LINE
  5
422
100
AcDbEntity
  8
0
  6
BYBLOCK
 62
     1
100
AcDbLine
 10
726.325355
 20
158.177962
 30
0.0
 11
726.325355
 21
164.177962
 31
0.0
  0
INSERT
  5
423
100
AcDbEntity
  8
0
  6
BYBLOCK
 62
     1
100
AcDbBlockReference
  2
_OPEN30
 10
726.325355
 20
156.177962
 30
0.0
 41
2.0
 42
2.0
 43
2.0
 50
270.0
  0
INSERT
  5
424
100
AcDbEntity
  8
0
  6
BYBLOCK
 62
     1
100
AcDbBlockReference
  2
_OPEN30
 10
726.325355
 20
166.177962
 30
0.0
 41
2.0
 42
2.0
 43
2.0
 50
90.0
  0
MTEXT
  5
425
100
AcDbEntity
  8
0
  6
BYBLOCK
 62
     3
100
AcDbMText
 10
723.825355
 20
161.177962
 30
0.0
 40
3.0
 41
0.0
 71
     5
 72
     1
  1
\A1;10
 11
0.0
 21
1.0
 31
0.0
  0
POINT
  5
426
100
AcDbEntity
  8
DEFPOINTS
  6
BYBLOCK
 62
     0
100
AcDbPoint
 10
739.439037
 20
156.177962
 30
0.0
  0
POINT
  5
427
100
AcDbEntity
  8
DEFPOINTS
  6
BYBLOCK
 62
     0
100
AcDbPoint
 10
730.668911
 20
166.177962
 30
0.0
  0
POINT
  5
428
100
AcDbEntity
  8
DEFPOINTS
  6
BYBLOCK
 62
     0
100
AcDbPoint
 10
726.325355
 20
166.177962
 30
0.0
  0
ENDBLK
  5
429
100
AcDbEntity
  8
0
100
AcDbBlockEnd
  0
ENDSEC
  0
SECTION
  2
ENTITIES
  0
DIMENSION
  5
1CB
100
AcDbEntity
  8
寸法
  6
CONTINUOUS
100
AcDbDimension
  2
*D23
 10
748.628466
 20
108.43809
 30
0.0
 11
724.907013
 21
119.325325
 31
0.0
 70
    34
  3
STANDARD
100
AcDb2LineAngularDimension
 13
719.937375
 23
109.242061
 33
0.0
 14
996.922943
 24
109.242061
 34
0.0
 15
739.439037
 25
109.242061
 35
0.0
 16
724.788259
 26
109.668355
 36
0.0
1001
ACAD
1000
DSTYLE
1002
{
1070
    40
1040
1.0
1002
}
  0
LINE
  5
1CC
100
AcDbEntity
  8
外形
  6
CONTINUOUS
100
AcDbLine
 10
761.689037
 20
116.742061
 30
0.0
 11
988.434949
 21
116.742061
 31
0.0
  0
LINE
  5
1CD
100
AcDbEntity
  8
外形
  6
CONTINUOUS
100
AcDbLine
 10
769.439037
 20
101.742061
 30
0.0
 11
988.434949
 21
101.742061
 31
0.0
  0
LINE
  5
1CE
100
AcDbEntity
  8
外形
  6
CENTER
 62
     1
100
AcDbLine
 10
719.937375
 20
109.242061
 30
0.0
 11
996.922943
 21
109.242061
 31
0.0
  0
LINE
  5
1CF
100
AcDbEntity
  8
外形
  6
CONTINUOUS
100
AcDbLine
 10
739.439037
 20
109.231616
 30
0.0
 11
748.628466
 21
108.427645
 31
0.0
  0
LINE
  5
1D0
100
AcDbEntity
  8
外形
  6
CONTINUOUS
100
AcDbLine
 10
739.650721
 20
106.020949
 30
0.0
 11
747.735534
 21
105.31362
 31
0.0
  0
LINE
  5
1D1
100
AcDbEntity
  8
外形
  6
CONTINUOUS
100
AcDbLine
 10
748.628466
 20
108.427645
 30
0.0
 11
746.265397
 21
110.055042
 31
0.0
  0
LINE
  5
1D2
100
AcDbEntity
  8
外形
  6
CONTINUOUS
100
AcDbLine
 10
761.439037
 20
101.492061
 30
0.0
 11
746.239037
 21
101.492061
 31
0.0
  0
SPLINE
  5
1D3
100
AcDbEntity
  8
外形
  6
CONTINUOUS
100
AcDbSpline
210
0.0
220
0.0
230
-1.0
 70
     8
 71
     3
 72
     9
 73
     5
 74
     0
 42
0.0000001
 43
0.0000001
 40
0.0
 40
0.0
 40
0.0
 40
0.0
 40
5.039786751347365
 40
8.515420093217388
 40
8.515420093217388
 40
8.515420093217388
 40
8.515420093217388
 10
737.7507211317253
 20
111.029925688573
 30
0.0
 10
739.4046144987747
 20
111.3748727738564
 30
0.0
 10
742.199097183195
 20
111.957708811578
 30
0.0
 10
744.7202245709519
 20
113.33270554315
 30
0.0
 10
761.4390370036077
 20
116.9920612156539
 30
0.0
  0
DIMENSION
  5
1D4
100
AcDbEntity
  8
寸法
  6
CONTINUOUS
100
AcDbDimension
  2
*D24
 10
769.439037
 20
89.985875
 30
0.0
 11
754.439037
 21
92.485875
 31
0.0
 70
    32
  3
STANDARD
100
AcDbAlignedDimension
 13
739.439037
 23
109.242061
 33
0.0
 14
769.439037
 24
101.242061
 34
0.0
100
AcDbRotatedDimension
1001
ACAD
1000
DSTYLE
1002
{
1070
    40
1040
1.0
1002
}
  0
LINE
  5
1D5
100
AcDbEntity
  8
外形
  6
CONTINUOUS
100
AcDbLine
 10
737.666299
 20
107.387579
 30
0.0
 11
739.650721
 21
99.981616
 31
0.0
  0
LINE
  5
1D6
100
AcDbEntity
  8
外形
  6
CONTINUOUS
100
AcDbLine
 10
739.439037
 20
109.231616
 30
0.0
 11
739.650721
 21
106.020949
 31
0.0
  0
LINE
  5
1D7
100
AcDbEntity
  8
外形
  6
CONTINUOUS
100
AcDbLine
 10
739.650721
 20
106.020949
 30
0.0
 11
737.305747
 21
107.635884
 31
0.0
  0
LINE
  5
1D8
100
AcDbEntity
  8
外形
  6
CONTINUOUS
100
AcDbLine
 10
740.650721
 20
99.981616
 30
0.0
 11
746.239037
 21
101.479001
 31
0.0
  0
LINE
  5
1D9
100
AcDbEntity
  8
外形
  6
CONTINUOUS
100
AcDbLine
 10
740.650721
 20
99.981616
 30
0.0
 11
739.650721
 21
99.981616
 31
0.0
  0
LINE
  5
1DA
100
AcDbEntity
  8
外形
  6
CONTINUOUS
100
AcDbLine
 10
739.650721
 20
106.010504
 30
0.0
 11
739.650721
 21
99.981616
 31
0.0
  0
LINE
  5
1DB
100
AcDbEntity
  8
外形
  6
CONTINUOUS
100
AcDbLine
 10
740.650721
 20
105.93346
 30
0.0
 11
740.650721
 21
99.981616
 31
0.0
  0
LINE
  5
1DC
100
AcDbEntity
  8
外形
  6
CONTINUOUS
100
AcDbLine
 10
746.239037
 20
105.444546
 30
0.0
 11
746.239037
 21
101.479001
 31
0.0
  0
LINE
  5
1DD
100
AcDbEntity
  8
外形
  6
CONTINUOUS
100
AcDbLine
 10
737.093341
 20
110.857493
 30
0.0
 11
737.305747
 21
107.635884
 31
0.0
  0
LINE
  5
1DE
100
AcDbEntity
  8
外形
  6
CONTINUOUS
100
AcDbLine
 10
737.750721
 20
111.019481
 30
0.0
 11
737.750721
 21
110.79998
 31
0.0
  0
LINE
  5
1DF
100
AcDbEntity
  8
外形
  6
CONTINUOUS
100
AcDbLine
 10
739.439037
 20
109.242061
 30
0.0
 11
737.093341
 21
110.857493
 31
0.0
  0
LINE
  5
1E0
100
AcDbEntity
  8
外形
  6
CONTINUOUS
100
AcDbLine
 10
737.093341
 20
110.857493
 30
0.0
 11
746.265397
 21
110.055042
 31
0.0
  0
LINE
  5
1E1
100
AcDbEntity
  8
外形
  6
CONTINUOUS
100
AcDbLine
 10
748.911971
 20
109.416344
 30
0.0
 11
747.735534
 21
105.31362
 31
0.0
  0
LINE
  5
1E2
100
AcDbEntity
  8
外形
  6
HIDDEN
100
AcDbLine
 10
758.439037
 20
107.242061
 30
0.0
 11
764.439037
 21
101.242061
 31
0.0
  0
LINE
  5
1E3
100
AcDbEntity
  8
外形
  6
CONTINUOUS
100
AcDbLine
 10
761.439037
 20
101.492061
 30
0.0
 11
761.439037
 21
116.992061
 31
0.0
  0
LINE
  5
1E4
100
AcDbEntity
  8
外形
  6
CONTINUOUS
100
AcDbLine
 10
761.689037
 20
101.242061
 30
0.0
 11
761.689037
 21
116.742061
 31
0.0
  0
LINE
  5
1E5
100
AcDbEntity
  8
外形
  6
HIDDEN
100
AcDbLine
 10
764.439037
 20
116.742061
 30
0.0
 11
764.439037
 21
101.242061
 31
0.0
  0
LINE
  5
1E6
100
AcDbEntity
  8
外形
  6
CONTINUOUS
100
AcDbLine
 10
769.439037
 20
101.242061
 30
0.0
 11
761.689037
 21
101.242061
 31
0.0
  0
LINE
  5
1E7
100
AcDbEntity
  8
外形
  6
CONTINUOUS
100
AcDbLine
 10
761.439037
 20
101.492061
 30
0.0
 11
761.689037
 21
101.242061
 31
0.0
  0
LINE
  5
1E8
100
AcDbEntity
  8
外形
  6
CONTINUOUS
100
AcDbLine
 10
769.439037
 20
101.742061
 30
0.0
 11
769.439037
 21
101.242061
 31
0.0
  0
LINE
  5
1E9
100
AcDbEntity
  8
外形
  6
HIDDEN
100
AcDbLine
 10
758.439037
 20
111.242061
 30
0.0
 11
763.939037
 21
116.742061
 31
0.0
  0
SPLINE
  5
1EA
100
AcDbEntity
  8
外形
  6
CONTINUOUS
100
AcDbSpline
210
0.0
220
0.0
230
1.0
 70
     8
 71
     3
 72
     8
 73
     4
 74
     0
 42
0.0000001
 43
0.0000001
 40
0.0
 40
0.0
 40
0.0
 40
0.0
 40
4.296442058183304
 40
4.296442058183304
 40
4.296442058183304
 40
4.296442058183304
 10
761.4390370036081
 20
116.9920612156493
 30
0.0
 10
760.6814906720582
 20
113.273344527407
 30
0.0
 10
759.923944340508
 20
111.8046278392562
 30
0.0
 10
748.9119712447475
 20
109.4267890161371
 30
0.0
  0
LINE
  5
1EB
100
AcDbEntity
  8
外形
  6
HIDDEN
100
AcDbLine
 10
758.439037
 20
111.242061
 30
0.0
 11
758.439037
 21
107.242061
 31
0.0
  0
LINE
  5
1EC
100
AcDbEntity
  8
外形
  6
CONTINUOUS
100
AcDbLine
 10
761.689037
 20
116.742061
 30
0.0
 11
761.439037
 21
116.992061
 31
0.0
  0
TEXT
  5
1ED
100
AcDbEntity
  8
外形
  6
CONTINUOUS
 62
     2
100
AcDbText
 10
843.508504
 20
70.203703
 30
0.0
 40
6.0
  1
WBPS-316R
100
AcDbText
  0
LINE
  5
1EE
100
AcDbEntity
  8
外形
  6
CONTINUOUS
100
AcDbLine
 10
988.434949
 20
116.742061
 30
0.0
 11
988.434949
 21
101.742061
 31
0.0
  0
LINE
  5
1EF
100
AcDbEntity
  8
外形
  6
CONTINUOUS
100
AcDbLine
 10
989.434949
 20
102.742061
 30
0.0
 11
989.434949
 21
115.742061
 31
0.0
  0
LINE
  5
1F0
100
AcDbEntity
  8
外形
  6
CONTINUOUS
100
AcDbLine
 10
988.434949
 20
101.742061
 30
0.0
 11
989.434949
 21
102.742061
 31
0.0
  0
LINE
  5
1F1
100
AcDbEntity
  8
外形
  6
CONTINUOUS
100
AcDbLine
 10
988.434949
 20
116.742061
 30
0.0
 11
989.434949
 21
115.742061
 31
0.0
  0
ARC
  5
1F2
100
AcDbEntity
  8
外形
  6
CONTINUOUS
100
AcDbCircle
 10
929.434949
 20
166.177962
 30
0.0
 40
8.0
100
AcDbArc
 50
200.364135
 51
339.635865
  0
DIMENSION
  5
1F3
100
AcDbEntity
  8
寸法
  6
CONTINUOUS
100
AcDbDimension
  2
*D25
 10
924.262273
 20
160.075223
 30
0.0
 11
942.715343
 21
181.846212
 31
0.0
 70
   163
  3
STANDARD
100
AcDbDiametricDimension
 15
934.607625
 25
172.280701
 35
0.0
 40
0.0
1001
ACAD
1000
DSTYLE
1002
{
1070
    40
1040
1.0
1002
}
  0
ARC
  5
1F4
100
AcDbEntity
  8
外形
  6
CONTINUOUS
100
AcDbCircle
 10
929.434949
 20
166.177962
 30
0.0
 40
8.0
100
AcDbArc
 50
20.364135
 51
159.635865
  0
DIMENSION
  5
1F5
100
AcDbEntity
  8
寸法
  6
CONTINUOUS
100
AcDbDimension
  2
*D26
 10
936.934949
 20
141.899377
 30
0.0
 11
929.434949
 21
144.399377
 31
0.0
 70
    32
  3
STANDARD
100
AcDbAlignedDimension
 13
921.934949
 23
163.39408
 33
0.0
 14
936.934949
 24
163.39408
 34
0.0
100
AcDbRotatedDimension
1001
ACAD
1000
DSTYLE
1002
{
1070
    40
1040
1.0
1002
}
  0
LINE
  5
1F6
100
AcDbEntity
  8
外形
  6
CENTER
 62
     1
100
AcDbLine
 10
730.668911
 20
166.177962
 30
0.0
 11
996.922943
 21
166.177962
 31
0.0
  0
DIMENSION
  5
1F7
100
AcDbEntity
  8
寸法
  6
CONTINUOUS
100
AcDbDimension
  2
*D27
 10
989.434949
 20
134.250996
 30
0.0
 11
864.436993
 21
136.750996
 31
0.0
 70
    32
  3
STANDARD
100
AcDbAlignedDimension
 13
739.439037
 23
156.177962
 33
0.0
 14
989.434949
 24
159.177962
 34
0.0
100
AcDbRotatedDimension
1001
ACAD
1000
DSTYLE
1002
{
1070
    40
1040
1.0
1002
}
  0
SPLINE
  5
1F8
100
AcDbEntity
  8
外形
  6
CONTINUOUS
100
AcDbSpline
210
0.0
220
0.0
230
1.0
 70
     8
 71
     3
 72
    10
 73
     6
 74
     0
 42
0.0000001
 43
0.0000001
 40
0.0
 40
0.0
 40
0.0
 40
0.0
 40
14.6813596986902
 40
21.0450384659282
 40
34.60811174833256
 40
34.60811174833256
 40
34.60811174833256
 40
34.60811174833256
 10
743.8563542421161
 20
173.7030512475839
 30
0.0
 10
748.3930211032092
 20
172.5920021779202
 30
0.0
 10
754.8961196280224
 20
170.9993656041637
 30
0.0
 10
765.4980164776612
 20
160.8133266476009
 30
0.0
 10
755.8796956096186
 20
159.4763293248302
 30
0.0
 10
748.6971569390436
 20
158.4279623277288
 30
0.0
  0
LINE
  5
1FA
100
AcDbEntity
  8
外形
  6
CONTINUOUS
100
AcDbLine
 10
761.439037
 20
173.927962
 30
0.0
 11
744.245912
 21
173.927962
 31
0.0
  0
LINE
  5
1FB
100
AcDbEntity
  8
外形
  6
CONTINUOUS
100
AcDbLine
 10
739.849495
 20
156.191592
 30
0.0
 11
748.277198
 21
158.449788
 31
0.0
  0
LINE
  5
1FC
100
AcDbEntity
  8
外形
  6
CENTER
 62
     1
100
AcDbLine
 10
736.161144
 20
161.920912
 30
0.0
 11
749.42261
 21
161.920912
 31
0.0
  0
ARC
  5
1FF
100
AcDbEntity
  8
外形
  6
CONTINUOUS
100
AcDbCircle
 10
745.337487
 20
166.263335
 30
0.0
 40
1.75
100
AcDbArc
 50
329.072705
 51
150.945905
  0
CIRCLE
  5
201
100
AcDbEntity
  8
外形
  6
CONTINUOUS
100
AcDbCircle
 10
742.830721
 20
161.920912
 30
0.0
 40
4.7625
  0
LINE
  5
202
100
AcDbEntity
  8
外形
  6
CONTINUOUS
100
AcDbLine
 10
746.301845
 20
167.367389
 30
0.0
 11
748.697157
 21
158.427962
 31
0.0
  0
ARC
  5
203
100
AcDbEntity
  8
外形
  6
CONTINUOUS
100
AcDbCircle
 10
687.517638
 20
166.177962
 30
0.0
 40
2.15
100
AcDbArc
 50
67.067821
 51
214.561278
  0
LINE
  5
204
100
AcDbEntity
  8
外形
  6
CONTINUOUS
100
AcDbLine
 10
695.017638
 20
163.39408
 30
0.0
 11
695.017638
 21
168.381959
 31
0.0
  0
ARC
  5
205
100
AcDbEntity
  8
外形
  6
CONTINUOUS
100
AcDbCircle
 10
687.100832
 20
165.261687
 30
0.0
 40
8.679937
100
AcDbArc
 50
86.784933
 51
251.791094
  0
CIRCLE
  5
206
100
AcDbEntity
  8
外形
  6
CENTER
 62
     1
100
AcDbCircle
 10
687.517638
 20
166.177962
 30
0.0
 40
10.0
  0
DIMENSION
  5
207
100
AcDbEntity
  8
寸法
  6
CONTINUOUS
100
AcDbDimension
  2
*D32
 10
687.517638
 20
151.732228
 30
0.0
 11
679.116007
 21
144.166508
 31
0.0
 70
    34
  3
STANDARD
100
AcDb2LineAngularDimension
 13
688.359326
 23
168.214669
 33
0.0
 14
687.517638
 24
156.177962
 34
0.0
 15
687.517638
 25
176.623697
 35
0.0
 16
687.133391
 26
139.669139
 36
0.0
1001
ACAD
1000
DSTYLE
1002
{
1070
    40
1040
1.0
1002
}
  0
LINE
  5
208
100
AcDbEntity
  8
外形
  6
CENTER
 62
     1
100
AcDbLine
 10
687.587638
 20
178.623697
 30
0.0
 11
687.587638
 21
153.732228
 31
0.0
  0
DIMENSION
  5
209
100
AcDbEntity
  8
寸法
  6
CONTINUOUS
100
AcDbDimension
  2
*D33
 10
739.359597
 20
156.474435
 30
0.0
 11
717.148316
 21
173.282234
 31
0.0
 70
    34
  3
STANDARD
100
AcDb2LineAngularDimension
 13
739.798629
 23
156.177962
 33
0.0
 14
739.439037
 24
156.177962
 34
0.0
 15
737.101401
 25
164.902138
 35
0.0
 16
722.985706
 26
175.786278
 36
0.0
1001
ACAD
1000
DSTYLE
1002
{
1070
    40
1040
1.0
1002
}
  0
LINE
  5
20A
100
AcDbEntity
  8
外形
  6
CENTER
 62
     1
100
AcDbLine
 10
742.830721
 20
154.827227
 30
0.0
 11
742.830721
 21
168.48285
 31
0.0
  0
LINE
  5
20B
100
AcDbEntity
  8
外形
  6
CONTINUOUS
100
AcDbLine
 10
737.750721
 20
170.177962
 30
0.0
 11
737.750721
 21
165.490233
 31
0.0
  0
LINE
  5
20C
100
AcDbEntity
  8
外形
  6
CONTINUOUS
100
AcDbLine
 10
688.496613
 20
170.177962
 30
0.0
 11
687.517638
 21
156.177962
 31
0.0
  0
LINE
  5
20D
100
AcDbEntity
  8
外形
  6
CENTER
 62
     1
100
AcDbLine
 10
687.517638
 20
178.623697
 30
0.0
 11
687.517638
 21
153.732228
 31
0.0
  0
LINE
  5
211
100
AcDbEntity
  8
外形
  6
CENTER
 62
     1
100
AcDbLine
 10
699.60035
 20
166.177962
 30
0.0
 11
675.434926
 21
166.177962
 31
0.0
  0
LINE
  5
214
100
AcDbEntity
  8
外形
  6
CONTINUOUS
100
AcDbLine
 10
684.936897
 20
164.858818
 30
0.0
 11
684.388503
 21
157.016412
 31
0.0
  0
ARC
  5
216
100
AcDbEntity
  8
外形
  6
CONTINUOUS
100
AcDbCircle
 10
687.517638
 20
166.177962
 30
0.0
 40
8.0
100
AcDbArc
 50
270.501344
 51
339.635865
  0
LINE
  5
217
100
AcDbEntity
  8
外形
  6
CONTINUOUS
100
AcDbLine
 10
688.152269
 20
165.253616
 30
0.0
 11
684.936897
 21
164.858818
 31
0.0
  0
LINE
  5
218
100
AcDbEntity
  8
外形
  6
CONTINUOUS
100
AcDbLine
 10
687.517638
 20
156.177962
 30
0.0
 11
684.388503
 21
157.016412
 31
0.0
  0
DIMENSION
  5
219
100
AcDbEntity
  8
寸法
  6
CONTINUOUS
100
AcDbDimension
  2
*D39
 10
726.325355
 20
166.177962
 30
0.0
 11
723.825355
 21
161.177962
 31
0.0
 70
    32
  3
STANDARD
100
AcDbAlignedDimension
 13
739.439037
 23
156.177962
 33
0.0
 14
730.668911
 24
166.177962
 34
0.0
 50
90.0
100
AcDbRotatedDimension
1001
ACAD
1000
DSTYLE
1002
{
1070
    40
1040
1.0
1002
}
  0
ARC
  5
21B
100
AcDbEntity
  8
外形
  6
CONTINUOUS
100
AcDbCircle
 10
745.915474
 20
167.263861
 30
0.0
 40
0.4
100
AcDbArc
 50
15.0
 51
105.0
  0
LINE
  5
21C
100
AcDbEntity
  8
外形
  6
CONTINUOUS
 62
     1
100
AcDbLine
 10
739.745968
 20
156.177962
 30
0.0
 11
739.439037
 21
156.177962
 31
0.0
  0
ARC
  5
21D
100
AcDbEntity
  8
外形
  6
CONTINUOUS
100
AcDbCircle
 10
739.745968
 20
156.577962
 30
0.0
 40
0.4
100
AcDbArc
 50
195.0
 51
285.0
  0
ARC
  5
21E
100
AcDbEntity
  8
外形
  6
CONTINUOUS
100
AcDbCircle
 10
737.487772
 20
165.005665
 30
0.0
 40
0.4
100
AcDbArc
 50
105.0
 51
195.0
  0
LINE
  5
21F
100
AcDbEntity
  8
外形
  6
CONTINUOUS
 62
     1
100
AcDbLine
 10
739.798629
 20
156.177962
 30
0.0
 11
739.439037
 21
156.177962
 31
0.0
  0
LINE
  5
220
100
AcDbEntity
  8
外形
  6
CONTINUOUS
 62
     1
100
AcDbLine
 10
739.359597
 20
156.474435
 30
0.0
 11
739.439037
 21
156.177962
 31
0.0
  0
ARC
  5
221
100
AcDbEntity
  8
外形
  6
CONTINUOUS
100
AcDbCircle
 10
742.830721
 20
163.09095
 30
0.0
 40
0.332368
100
AcDbArc
 50
240.283476
 51
299.716524
  0
ARC
  5
222
100
AcDbEntity
  8
外形
  6
CONTINUOUS
100
AcDbCircle
 10
741.817438
 20
162.505931
 30
0.0
 40
0.332368
100
AcDbArc
 50
300.283476
 51
359.716524
  0
ARC
  5
223
100
AcDbEntity
  8
外形
  6
CONTINUOUS
100
AcDbCircle
 10
743.844004
 20
162.505931
 30
0.0
 40
0.332368
100
AcDbArc
 50
180.283476
 51
239.716524
  0
LINE
  5
224
100
AcDbEntity
  8
外形
  6
CONTINUOUS
100
AcDbLine
 10
742.152726
 20
163.095234
 30
0.0
 11
742.665963
 21
162.802292
 31
0.0
  0
LINE
  5
225
100
AcDbEntity
  8
外形
  6
CONTINUOUS
100
AcDbLine
 10
742.149802
 20
162.504286
 30
0.0
 11
742.152726
 21
163.095234
 31
0.0
  0
LINE
  5
226
100
AcDbEntity
  8
外形
  6
CONTINUOUS
100
AcDbLine
 10
743.508716
 20
163.095234
 30
0.0
 11
743.51164
 21
162.504286
 31
0.0
  0
LINE
  5
227
100
AcDbEntity
  8
外形
  6
CONTINUOUS
100
AcDbLine
 10
742.995479
 20
162.802292
 30
0.0
 11
743.508716
 21
163.095234
 31
0.0
  0
ARC
  5
228
100
AcDbEntity
  8
外形
  6
CONTINUOUS
100
AcDbCircle
 10
741.817438
 20
161.335893
 30
0.0
 40
0.332368
100
AcDbArc
 50
0.283476
 51
59.716524
  0
ARC
  5
229
100
AcDbEntity
  8
外形
  6
CONTINUOUS
100
AcDbCircle
 10
742.830721
 20
160.750874
 30
0.0
 40
0.332368
100
AcDbArc
 50
60.283476
 51
119.716524
  0
ARC
  5
22A
100
AcDbEntity
  8
外形
  6
CONTINUOUS
100
AcDbCircle
 10
743.844004
 20
161.335893
 30
0.0
 40
0.332368
100
AcDbArc
 50
120.283476
 51
179.716524
  0
LINE
  5
22B
100
AcDbEntity
  8
外形
  6
CONTINUOUS
100
AcDbLine
 10
743.508716
 20
160.74659
 30
0.0
 11
742.995479
 21
161.039531
 31
0.0
  0
LINE
  5
22C
100
AcDbEntity
  8
外形
  6
CONTINUOUS
100
AcDbLine
 10
743.51164
 20
161.337537
 30
0.0
 11
743.508716
 21
160.74659
 31
0.0
  0
LINE
  5
22D
100
AcDbEntity
  8
外形
  6
CONTINUOUS
100
AcDbLine
 10
742.152726
 20
160.74659
 30
0.0
 11
742.149802
 21
161.337537
 31
0.0
  0
LINE
  5
22E
100
AcDbEntity
  8
外形
  6
CONTINUOUS
100
AcDbLine
 10
742.665963
 20
161.039531
 30
0.0
 11
742.152726
 21
160.74659
 31
0.0
  0
LINE
  5
22F
100
AcDbEntity
  8
外形
  6
CONTINUOUS
100
AcDbLine
 10
741.985044
 20
161.622906
 30
0.0
 11
741.474731
 21
161.920912
 31
0.0
  0
LINE
  5
230
100
AcDbEntity
  8
外形
  6
CONTINUOUS
100
AcDbLine
 10
744.186711
 20
161.920912
 30
0.0
 11
743.676398
 21
161.622906
 31
0.0
  0
LINE
  5
231
100
AcDbEntity
  8
外形
  6
CONTINUOUS
100
AcDbLine
 10
741.474731
 20
161.920912
 30
0.0
 11
741.985044
 21
162.218918
 31
0.0
  0
LINE
  5
232
100
AcDbEntity
  8
外形
  6
CONTINUOUS
100
AcDbLine
 10
743.676398
 20
162.218918
 30
0.0
 11
744.186711
 21
161.920912
 31
0.0
  0
CIRCLE
  5
233
100
AcDbEntity
  8
外形
  6
CONTINUOUS
100
AcDbCircle
 10
742.830721
 20
161.920912
 30
0.0
 40
2.15001
  0
LINE
  5
234
100
AcDbEntity
  8
外形
  6
CONTINUOUS
100
AcDbLine
 10
737.101401
 20
164.902138
 30
0.0
 11
739.359597
 21
156.474435
 31
0.0
  0
LINE
  5
235
100
AcDbEntity
  8
外形
  6
CONTINUOUS
100
AcDbLine
 10
737.384244
 20
165.392035
 30
0.0
 11
745.811947
 21
167.650232
 31
0.0
  0
LEADER
  5
236
100
AcDbEntity
  8
寸法
  6
CONTINUOUS
 62
     1
100
AcDbLeader
  3
STANDARD
 73
     0
 74
     0
 75
     1
 40
3.0
 41
26.0
 76
     3
 10
694.029312
 20
173.767303
 30
0.0
 10
701.996638
 20
187.008512
 30
0.0
 10
703.996638
 20
187.008512
 30
0.0
 77
   256
340
23A
213
-0.1129475379637483
223
0.5510341987360618
233
0.0
1001
ACAD
1000
DSTYLE
1002
{
1070
   284
1070
    13
1070
   146
1040
0.5
1070
   272
1070
     3
1070
    40
1040
1.0
1070
   287
1070
     0
1002
}
  0
LINE
  5
237
100
AcDbEntity
  8
外形
  6
CONTINUOUS
100
AcDbLine
 10
688.496613
 20
170.177962
 30
0.0
 11
689.441158
 21
173.703051
 31
0.0
  0
ARC
  5
238
100
AcDbEntity
  8
外形
  6
CONTINUOUS
100
AcDbCircle
 10
687.587638
 20
166.177962
 30
0.0
 40
7.75
100
AcDbArc
 50
16.522188
 51
90.0
  0
LINE
  5
239
100
AcDbEntity
  8
外形
  6
CONTINUOUS
100
AcDbLine
 10
688.496613
 20
170.177962
 30
0.0
 11
679.947403
 21
170.177962
 31
0.0
  0
MTEXT
  5
23A
102
{ACAD_REACTORS
330
236
102
}
100
AcDbEntity
  8
寸法
  6
CONTINUOUS
 62
     3
100
AcDbMText
 10
705.109585
 20
188.957478
 30
0.0
 40
3.0
 41
0.0
 71
     4
 72
     1
  1
%%c20最小加工径
  0
LINE
  5
23B
100
AcDbEntity
  8
外形
  6
CONTINUOUS
100
AcDbLine
 10
737.750721
 20
170.177962
 30
0.0
 11
744.245912
 21
173.927962
 31
0.0
  0
LINE
  5
23C
100
AcDbEntity
  8
外形
  6
CONTINUOUS
100
AcDbLine
 10
919.934949
 20
158.177962
 30
0.0
 11
761.689037
 21
158.177962
 31
0.0
  0
LINE
  5
23D
100
AcDbEntity
  8
外形
  6
CONTINUOUS
100
AcDbLine
 10
919.934949
 20
163.39408
 30
0.0
 11
761.689037
 21
163.39408
 31
0.0
  0
LINE
  5
23E
100
AcDbEntity
  8
外形
  6
CONTINUOUS
100
AcDbLine
 10
919.934949
 20
168.961845
 30
0.0
 11
761.427353
 21
168.961845
 31
0.0
  0
LINE
  5
23F
100
AcDbEntity
  8
外形
  6
CONTINUOUS
100
AcDbLine
 10
919.934949
 20
174.177962
 30
0.0
 11
761.689037
 21
174.177962
 31
0.0
  0
LINE
  5
240
100
AcDbEntity
  8
外形
  6
CONTINUOUS
100
AcDbLine
 10
761.439037
 20
168.130525
 30
0.0
 11
761.439037
 21
173.927962
 31
0.0
  0
ARC
  5
241
100
AcDbEntity
  8
外形
  6
HIDDEN
100
AcDbCircle
 10
770.939037
 20
166.177962
 30
0.0
 40
8.0
100
AcDbArc
 50
159.635865
 51
200.364135
  0
LINE
  5
242
100
AcDbEntity
  8
外形
  6
HIDDEN
100
AcDbLine
 10
757.439037
 20
168.177962
 30
0.0
 11
763.439037
 21
174.177962
 31
0.0
  0
LINE
  5
243
100
AcDbEntity
  8
外形
  6
CONTINUOUS
100
AcDbLine
 10
761.439037
 20
158.427962
 30
0.0
 11
748.697157
 21
158.427962
 31
0.0
  0
LINE
  5
244
100
AcDbEntity
  8
外形
  6
CONTINUOUS
100
AcDbLine
 10
761.439037
 20
168.130525
 30
0.0
 11
757.439037
 21
168.130525
 31
0.0
  0
LINE
  5
245
100
AcDbEntity
  8
外形
  6
HIDDEN
100
AcDbLine
 10
757.439037
 20
164.177962
 30
0.0
 11
763.439037
 21
158.177962
 31
0.0
  0
LINE
  5
246
100
AcDbEntity
  8
外形
  6
HIDDEN
100
AcDbLine
 10
757.439037
 20
168.177962
 30
0.0
 11
757.439037
 21
164.177962
 31
0.0
  0
ARC
  5
247
100
AcDbEntity
  8
外形
  6
CONTINUOUS
100
AcDbCircle
 10
748.173671
 20
158.836158
 30
0.0
 40
0.4
100
AcDbArc
 50
285.0
 51
15.0
  0
LINE
  5
248
100
AcDbEntity
  8
外形
  6
CONTINUOUS
100
AcDbLine
 10
761.689037
 20
158.177962
 30
0.0
 11
761.689037
 21
162.515213
 31
0.0
  0
LINE
  5
249
100
AcDbEntity
  8
外形
  6
CONTINUOUS
100
AcDbLine
 10
761.439037
 20
158.427962
 30
0.0
 11
761.439037
 21
161.988056
 31
0.0
  0
LINE
  5
24A
100
AcDbEntity
  8
外形
  6
CONTINUOUS
100
AcDbLine
 10
761.439037
 20
158.427962
 30
0.0
 11
761.689037
 21
158.177962
 31
0.0
  0
LINE
  5
24B
100
AcDbEntity
  8
外形
  6
HIDDEN
100
AcDbLine
 10
763.439037
 20
163.39408
 30
0.0
 11
763.439037
 21
158.177962
 31
0.0
  0
LINE
  5
24C
100
AcDbEntity
  8
外形
  6
CONTINUOUS
100
AcDbLine
 10
761.689037
 20
168.961845
 30
0.0
 11
761.689037
 21
174.177962
 31
0.0
  0
LINE
  5
24D
100
AcDbEntity
  8
外形
  6
CONTINUOUS
100
AcDbLine
 10
761.439037
 20
173.927962
 30
0.0
 11
761.689037
 21
174.177962
 31
0.0
  0
LINE
  5
24E
100
AcDbEntity
  8
外形
  6
HIDDEN
100
AcDbLine
 10
763.439037
 20
174.177962
 30
0.0
 11
763.439037
 21
168.961845
 31
0.0
  0
LINE
  5
24F
100
AcDbEntity
  8
外形
  6
CONTINUOUS
100
AcDbLine
 10
921.934949
 20
168.961845
 30
0.0
 11
921.934949
 21
163.39408
 31
0.0
  0
LINE
  5
250
100
AcDbEntity
  8
外形
  6
CENTER
 62
     1
100
AcDbLine
 10
929.434949
 20
177.561883
 30
0.0
 11
929.434949
 21
154.823957
 31
0.0
  0
ARC
  5
251
100
AcDbEntity
  8
外形
  6
CONTINUOUS
100
AcDbCircle
 10
980.934949
 20
166.177962
 30
0.0
 40
8.0
100
AcDbArc
 50
339.635865
 51
20.364135
  0
LINE
  5
252
100
AcDbEntity
  8
外形
  6
CONTINUOUS
100
AcDbLine
 10
936.934949
 20
168.961845
 30
0.0
 11
936.934949
 21
163.39408
 31
0.0
  0
LINE
  5
253
100
AcDbEntity
  8
外形
  6
CENTER
 62
     1
100
AcDbLine
 10
990.700721
 20
156.827227
 30
0.0
 11
990.700721
 21
170.48285
 31
0.0
  0
LINE
  5
254
100
AcDbEntity
  8
外形
  6
CONTINUOUS
100
AcDbLine
 10
989.434949
 20
159.177962
 30
0.0
 11
989.434949
 21
173.177962
 31
0.0
  0
LINE
  5
255
100
AcDbEntity
  8
外形
  6
CONTINUOUS
100
AcDbLine
 10
988.434949
 20
163.39408
 30
0.0
 11
938.934949
 21
163.39408
 31
0.0
  0
LINE
  5
256
100
AcDbEntity
  8
外形
  6
CONTINUOUS
100
AcDbLine
 10
988.434949
 20
158.177962
 30
0.0
 11
938.934949
 21
158.177962
 31
0.0
  0
LINE
  5
257
100
AcDbEntity
  8
外形
  6
CONTINUOUS
100
AcDbLine
 10
988.434949
 20
163.39408
 30
0.0
 11
988.434949
 21
158.177962
 31
0.0
  0
LINE
  5
258
100
AcDbEntity
  8
外形
  6
CONTINUOUS
100
AcDbLine
 10
988.434949
 20
158.177962
 30
0.0
 11
989.434949
 21
159.177962
 31
0.0
  0
LINE
  5
259
100
AcDbEntity
  8
外形
  6
CONTINUOUS
100
AcDbLine
 10
988.434949
 20
168.961845
 30
0.0
 11
938.934949
 21
168.961845
 31
0.0
  0
LINE
  5
25A
100
AcDbEntity
  8
外形
  6
CONTINUOUS
100
AcDbLine
 10
988.434949
 20
174.177962
 30
0.0
 11
938.934949
 21
174.177962
 31
0.0
  0
LINE
  5
25B
100
AcDbEntity
  8
外形
  6
CONTINUOUS
100
AcDbLine
 10
988.434949
 20
174.177962
 30
0.0
 11
988.434949
 21
168.961845
 31
0.0
  0
LINE
  5
25C
100
AcDbEntity
  8
外形
  6
CONTINUOUS
100
AcDbLine
 10
988.434949
 20
174.177962
 30
0.0
 11
989.434949
 21
173.177962
 31
0.0
  0
ENDSEC
  0
SECTION
  2
OBJECTS
  0
DICTIONARY
  5
1E
100
AcDbDictionary
  3
ACAD_GROUP
350
1C
  3
ACAD_MLINESTYLE
350
1D
  0
DICTIONARY
  5
36
100
AcDbDictionary
280
     1
  3
ACAD_XREC_ROUNDTRIP
360
37
  0
DICTIONARY
  5
3F
100
AcDbDictionary
280
     1
  3
ACAD_XREC_ROUNDTRIP
360
40
  0
DICTIONARY
  5
3
100
AcDbDictionary
280
     1
  3
ACAD_LAYOUTSELFREF
360
4
  0
DICTIONARY
  5
A
100
AcDbDictionary
280
     1
  3
ACAD_LAYOUTSELFREF
360
B
  0
DICTIONARY
  5
1C
102
{ACAD_REACTORS
330
1E
102
}
100
AcDbDictionary
  0
DICTIONARY
  5
1D
102
{ACAD_REACTORS
330
1E
102
}
100
AcDbDictionary
  3
STANDARD
350
20
  0
XRECORD
  5
37
102
{ACAD_REACTORS
330
36
102
}
100
AcDbXrecord
102
PLOTBIT
280
     0
  0
XRECORD
  5
40
102
{ACAD_REACTORS
330
3F
102
}
100
AcDbXrecord
102
ACADR14ROUNDTRIP
1000
DSTYLE
1002
{
1070
   341
340
0
1070
   343
340
0
1070
   344
340
0
1002
}
  0
XRECORD
  5
4
102
{ACAD_REACTORS
330
3
102
}
100
AcDbXrecord
340
2
  0
XRECORD
  5
B
102
{ACAD_REACTORS
330
A
102
}
100
AcDbXrecord
340
9
  0
MLINESTYLE
  5
20
102
{ACAD_REACTORS
330
1D
102
}
100
AcDbMlineStyle
  2
STANDARD
 70
     0
  3

 62
     0
 51
90.0
 52
90.0
 71
     2
 49
0.5
 62
   256
  6
BYLAYER
 49
-0.5
 62
   256
  6
BYLAYER
  0
ENDSEC
  0
EOF
