  0
SECTION
  2
HEADER
  9
$ACADVER
  1
AC1014
  9
$ACADMAINTVER
 70
     0
  9
$DWGCODEPAGE
  3
ANSI_932
  9
$INSBASE
 10
-587.250952
 20
747.890188
 30
0.0
  9
$EXTMIN
 10
9.448812
 20
150.213866
 30
0.0
  9
$EXTMAX
 10
237.950826
 20
246.817582
 30
0.0
  9
$LIMMIN
 10
-587.250952
 20
327.890188
  9
$LIMMAX
 10
600.749048
 20
957.890188
  9
$ORTHOMODE
 70
     1
  9
$REGENMODE
 70
     1
  9
$FILLMODE
 70
     1
  9
$QTEXTMODE
 70
     0
  9
$MIRRTEXT
 70
     1
  9
$DRAGMODE
 70
     2
  9
$LTSCALE
 40
5.0
  9
$OSMODE
 70
    37
  9
$ATTMODE
 70
     1
  9
$TEXTSIZE
 40
5.0
  9
$TRACEWID
 40
0.05
  9
$TEXTSTYLE
  7
STANDARD
  9
$CLAYER
  8
外形
  9
$CELTYPE
  6
CONTINUOUS
  9
$CECOLOR
 62
   256
  9
$CELTSCALE
 40
1.0
  9
$DELOBJ
 70
     1
  9
$DISPSILH
 70
     0
  9
$DIMSCALE
 40
1.0
  9
$DIMASZ
 40
1.0
  9
$DIMEXO
 40
1.0
  9
$DIMDLI
 40
8.0
  9
$DIMRND
 40
0.0
  9
$DIMDLE
 40
0.0
  9
$DIMEXE
 40
2.0
  9
$DIMTP
 40
0.0
  9
$DIMTM
 40
0.0
  9
$DIMTXT
 40
1.5
  9
$DIMCEN
 40
-1.0
  9
$DIMTSZ
 40
0.0
  9
$DIMTOL
 70
     0
  9
$DIMLIM
 70
     0
  9
$DIMTIH
 70
     0
  9
$DIMTOH
 70
     0
  9
$DIMSE1
 70
     0
  9
$DIMSE2
 70
     0
  9
$DIMTAD
 70
     1
  9
$DIMZIN
 70
     8
  9
$DIMBLK
  1

  9
$DIMASO
 70
     1
  9
$DIMSHO
 70
     1
  9
$DIMPOST
  1

  9
$DIMAPOST
  1

  9
$DIMALT
 70
     0
  9
$DIMALTD
 70
     2
  9
$DIMALTF
 40
25.4
  9
$DIMLFAC
 40
1.0
  9
$DIMTOFL
 70
     1
  9
$DIMTVP
 40
0.0
  9
$DIMTIX
 70
     0
  9
$DIMSOXD
 70
     0
  9
$DIMSAH
 70
     1
  9
$DIMBLK1
  1
_DOTSMALL
  9
$DIMBLK2
  1
_DOTSMALL
  9
$DIMSTYLE
  2
STANDARD
  9
$DIMCLRD
 70
     2
  9
$DIMCLRE
 70
     2
  9
$DIMCLRT
 70
     2
  9
$DIMTFAC
 40
1.0
  9
$DIMGAP
 40
1.0
  9
$DIMJUST
 70
     0
  9
$DIMSD1
 70
     0
  9
$DIMSD2
 70
     0
  9
$DIMTOLJ
 70
     1
  9
$DIMTZIN
 70
     8
  9
$DIMALTZ
 70
     0
  9
$DIMALTTZ
 70
     0
  9
$DIMFIT
 70
     3
  9
$DIMUPT
 70
     0
  9
$DIMUNIT
 70
     2
  9
$DIMDEC
 70
     3
  9
$DIMTDEC
 70
     2
  9
$DIMALTU
 70
     2
  9
$DIMALTTD
 70
     2
  9
$DIMTXSTY
  7
STANDARD
  9
$DIMAUNIT
 70
     0
  9
$LUNITS
 70
     2
  9
$LUPREC
 70
     0
  9
$SKETCHINC
 40
0.1
  9
$FILLETRAD
 40
0.0
  9
$AUNITS
 70
     0
  9
$AUPREC
 70
     0
  9
$MENU
  1
acad
  9
$ELEVATION
 40
0.0
  9
$PELEVATION
 40
0.0
  9
$THICKNESS
 40
0.0
  9
$LIMCHECK
 70
     0
  9
$BLIPMODE
 70
     0
  9
$CHAMFERA
 40
1.5
  9
$CHAMFERB
 40
1.5
  9
$CHAMFERC
 40
0.0
  9
$CHAMFERD
 40
0.0
  9
$SKPOLY
 70
     0
  9
$TDCREATE
 40
2450751.535399305
  9
$TDUPDATE
 40
2452010.446168981
  9
$TDINDWG
 40
1.9981590278
  9
$TDUSRTIMER
 40
1.9981590278
  9
$USRTIMER
 70
     1
  9
$ANGBASE
 50
0.0
  9
$ANGDIR
 70
     0
  9
$PDMODE
 70
    32
  9
$PDSIZE
 40
0.0
  9
$PLINEWID
 40
0.0
  9
$COORDS
 70
     2
  9
$SPLFRAME
 70
     0
  9
$SPLINETYPE
 70
     5
  9
$SPLINESEGS
 70
     8
  9
$ATTDIA
 70
     0
  9
$ATTREQ
 70
     1
  9
$HANDLING
 70
     1
  9
$HANDSEED
  5
24EF
  9
$SURFTAB1
 70
     6
  9
$SURFTAB2
 70
     6
  9
$SURFTYPE
 70
     6
  9
$SURFU
 70
     6
  9
$SURFV
 70
     6
  9
$UCSNAME
  2

  9
$UCSORG
 10
40.53800450572526
 20
146.9196145921314
 30
0.0
  9
$UCSXDIR
 10
1.0
 20
0.0
 30
0.0
  9
$UCSYDIR
 10
0.0
 20
1.0
 30
0.0
  9
$PUCSNAME
  2

  9
$PUCSORG
 10
0.0
 20
0.0
 30
0.0
  9
$PUCSXDIR
 10
1.0
 20
0.0
 30
0.0
  9
$PUCSYDIR
 10
0.0
 20
1.0
 30
0.0
  9
$USERI1
 70
     0
  9
$USERI2
 70
     0
  9
$USERI3
 70
     0
  9
$USERI4
 70
     0
  9
$USERI5
 70
     0
  9
$USERR1
 40
0.0
  9
$USERR2
 40
0.0
  9
$USERR3
 40
0.0
  9
$USERR4
 40
0.0
  9
$USERR5
 40
0.0
  9
$WORLDVIEW
 70
     1
  9
$SHADEDGE
 70
     3
  9
$SHADEDIF
 70
    70
  9
$TILEMODE
 70
     1
  9
$MAXACTVP
 70
    16
  9
$PINSBASE
 10
0.0
 20
0.0
 30
0.0
  9
$PLIMCHECK
 70
     0
  9
$PEXTMIN
 10
1.000000E+20
 20
1.000000E+20
 30
1.000000E+20
  9
$PEXTMAX
 10
-1.000000E+20
 20
-1.000000E+20
 30
-1.000000E+20
  9
$PLIMMIN
 10
0.0
 20
0.0
  9
$PLIMMAX
 10
12.0
 20
9.0
  9
$UNITMODE
 70
     0
  9
$VISRETAIN
 70
     0
  9
$PLINEGEN
 70
     0
  9
$PSLTSCALE
 70
     1
  9
$TREEDEPTH
 70
  3020
  9
$PICKSTYLE
 70
     1
  9
$CMLSTYLE
  2
STANDARD
  9
$CMLJUST
 70
     0
  9
$CMLSCALE
 40
1.0
  9
$PROXYGRAPHICS
 70
     1
  9
$MEASUREMENT
 70
     0
  0
ENDSEC
  0
SECTION
  2
CLASSES
  0
CLASS
  1
LWPOLYLINE
  2
AcDbPolyline
  3
"AutoCAD"
 90
        0
280
     0
281
     1
  0
CLASS
  1
ACDBDICTIONARYWDFLT
  2
AcDbDictionaryWithDefault
  3
AutoCAD 2000
 90
        0
280
     1
281
     0
  0
CLASS
  1
ACDBPLACEHOLDER
  2
AcDbPlaceHolder
  3
AutoCAD 2000
 90
        0
280
     1
281
     0
  0
CLASS
  1
LAYOUT
  2
AcDbLayout
  3
AutoCAD 2000
 90
        0
280
     1
281
     0
  0
CLASS
  1
LONG_TRANSACTION
  2
AcDbLongTransaction
  3
AutoCAD 2000
 90
        0
280
     1
281
     0
  0
CLASS
  1
LWPOLYLINE
  2
AcDbPolyline
  3
"AutoCAD"
 90
        0
280
     0
281
     1
  0
CLASS
  1
HATCH
  2
AcDbHatch
  3
"ACAD_SEDONA"
 90
        0
280
     0
281
     1
  0
CLASS
  1
XRECORD
  2
AcDbXrecord
  3
"<Built In>"
 90
        0
280
     0
281
     0
  0
CLASS
  1
DICTIONARYVAR
  2
AcDbDictionaryVar
  3
"AutoCAD"
 90
        0
280
     0
281
     0
  0
ENDSEC
  0
SECTION
  2
TABLES
  0
TABLE
  2
VPORT
  5
16
100
AcDbSymbolTable
 70
     1
  0
VPORT
  5
24EA
100
AcDbSymbolTableRecord
100
AcDbViewportTableRecord
  2
*ACTIVE
 70
     0
 10
0.0
 20
0.0
 11
1.0
 21
1.0
 12
120.913605
 22
201.977957
 13
0.0
 23
0.0
 14
1.0
 24
1.0
 15
10.0
 25
10.0
 16
0.0
 26
0.0
 36
1.0
 17
0.0
 27
0.0
 37
0.0
 40
142.671696
 41
1.710425
 42
50.0
 43
0.0
 44
0.0
 50
0.0
 51
0.0
 71
     0
 72
   100
 73
     1
 74
     1
 75
     0
 76
     0
 77
     0
 78
     2
  0
ENDTAB
  0
TABLE
  2
LTYPE
  5
11
100
AcDbSymbolTable
 70
     3
  0
LTYPE
  5
12
100
AcDbSymbolTableRecord
100
AcDbLinetypeTableRecord
  2
BYBLOCK
 70
     0
  3

 72
    65
 73
     0
 40
0.0
  0
LTYPE
  5
13
100
AcDbSymbolTableRecord
100
AcDbLinetypeTableRecord
  2
BYLAYER
 70
     0
  3

 72
    65
 73
     0
 40
0.0
  0
LTYPE
  5
7
100
AcDbSymbolTableRecord
100
AcDbLinetypeTableRecord
  2
CONTINUOUS
 70
     0
  3
Solid line
 72
    65
 73
     0
 40
0.0
  0
LTYPE
  5
AA
100
AcDbSymbolTableRecord
100
AcDbLinetypeTableRecord
  2
CENTER
 70
     0
  3
Center ____ _ ____ _ ____ _ ____ _ ____ _ ____
 72
    65
 73
     4
 40
2.0
 49
1.25
 74
     0
 49
-0.25
 74
     0
 49
0.25
 74
     0
 49
-0.25
 74
     0
  0
LTYPE
  5
1FC7
100
AcDbSymbolTableRecord
100
AcDbLinetypeTableRecord
  2
PHANTOM
 70
     0
  3
Phantom ______  __  __  ______  __  __  ______
 72
    65
 73
     6
 40
2.5
 49
1.25
 74
     0
 49
-0.25
 74
     0
 49
0.25
 74
     0
 49
-0.25
 74
     0
 49
0.25
 74
     0
 49
-0.25
 74
     0
  0
ENDTAB
  0
TABLE
  2
LAYER
  5
E
100
AcDbSymbolTable
 70
     5
  0
LAYER
  5
6
100
AcDbSymbolTableRecord
100
AcDbLayerTableRecord
  2
0
 70
     0
 62
     7
  6
CONTINUOUS
  0
LAYER
  5
2C
100
AcDbSymbolTableRecord
100
AcDbLayerTableRecord
  2
外形
 70
     0
 62
     3
  6
CONTINUOUS
  0
LAYER
  5
37
102
{ACAD_XDICTIONARY
360
38
102
}
100
AcDbSymbolTableRecord
100
AcDbLayerTableRecord
  2
DEFPOINTS
 70
     0
 62
     7
  6
CONTINUOUS
  0
LAYER
  5
1F
100
AcDbSymbolTableRecord
100
AcDbLayerTableRecord
  2
寸法
 70
     0
 62
     1
  6
CONTINUOUS
  0
LAYER
  5
673
100
AcDbSymbolTableRecord
100
AcDbLayerTableRecord
  2
参考
 70
     0
 62
     2
  6
CONTINUOUS
  0
ENDTAB
  0
TABLE
  2
STYLE
  5
F
100
AcDbSymbolTable
 70
     1
  0
STYLE
  5
10
100
AcDbSymbolTableRecord
100
AcDbTextStyleTableRecord
  2
STANDARD
 70
     0
 40
0.0
 41
1.0
 50
0.0
 71
     0
 42
5.0
  3
MONOTXT
  4
BIGFONT
  0
ENDTAB
  0
TABLE
  2
VIEW
  5
14
100
AcDbSymbolTable
 70
     0
  0
ENDTAB
  0
TABLE
  2
UCS
  5
15
100
AcDbSymbolTable
 70
     0
  0
ENDTAB
  0
TABLE
  2
APPID
  5
18
100
AcDbSymbolTable
 70
     2
  0
APPID
  5
19
100
AcDbSymbolTableRecord
100
AcDbRegAppTableRecord
  2
ACAD
 70
     0
  0
APPID
  5
C59
100
AcDbSymbolTableRecord
100
AcDbRegAppTableRecord
  2
DRAWINGVARIABLESXDATA
 70
     0
  0
ENDTAB
  0
TABLE
  2
DIMSTYLE
  5
1A
100
AcDbSymbolTable
 70
     1
  0
DIMSTYLE
105
21
102
{ACAD_XDICTIONARY
360
22
102
}
102
{ACAD_REACTORS
330
2352
330
235F
330
238C
330
23A5
330
23FC
330
2409
330
2416
330
2455
330
2473
102
}
100
AcDbSymbolTableRecord
100
AcDbDimStyleTableRecord
  2
STANDARD
 70
     0
  3

  4

  5

  6
_OPEN30
  7
_OPEN30
 40
0.0
 41
2.0
 42
1.0
 43
8.0
 44
2.0
 45
0.0
 46
0.0
 47
0.0
 48
0.0
140
3.0
141
-1.0
142
0.0
143
25.4
144
1.0
145
0.0
146
1.0
147
1.0
 71
     0
 72
     0
 73
     0
 74
     0
 75
     0
 76
     0
 77
     1
 78
     8
170
     0
171
     2
172
     1
173
     1
174
     0
175
     0
176
     1
177
     1
178
     3
270
     2
271
     2
272
     2
273
     2
274
     2
340
10
275
     0
280
     0
281
     0
282
     0
283
     1
284
     8
285
     0
286
     0
287
     3
288
     0
  0
ENDTAB
  0
TABLE
  2
BLOCK_RECORD
  5
1
100
AcDbSymbolTable
 70
    15
  0
BLOCK_RECORD
  5
2
102
{ACAD_XDICTIONARY
360
3
102
}
100
AcDbSymbolTableRecord
100
AcDbBlockTableRecord
  2
*MODEL_SPACE
  0
BLOCK_RECORD
  5
9
102
{ACAD_XDICTIONARY
360
A
102
}
100
AcDbSymbolTableRecord
100
AcDbBlockTableRecord
  2
*PAPER_SPACE
  0
BLOCK_RECORD
  5
24
100
AcDbSymbolTableRecord
100
AcDbBlockTableRecord
  2
_DOTSMALL
  0
BLOCK_RECORD
  5
470
100
AcDbSymbolTableRecord
100
AcDbBlockTableRecord
  2
_OPEN30
  0
BLOCK_RECORD
  5
2342
100
AcDbSymbolTableRecord
100
AcDbBlockTableRecord
  2
*D4
  0
BLOCK_RECORD
  5
2353
100
AcDbSymbolTableRecord
100
AcDbBlockTableRecord
  2
*D5
  0
BLOCK_RECORD
  5
237E
100
AcDbSymbolTableRecord
100
AcDbBlockTableRecord
  2
*D6
  0
BLOCK_RECORD
  5
239B
100
AcDbSymbolTableRecord
100
AcDbBlockTableRecord
  2
*D7
  0
BLOCK_RECORD
  5
23F2
100
AcDbSymbolTableRecord
100
AcDbBlockTableRecord
  2
*D10
  0
BLOCK_RECORD
  5
23FD
100
AcDbSymbolTableRecord
100
AcDbBlockTableRecord
  2
*D11
  0
BLOCK_RECORD
  5
240A
100
AcDbSymbolTableRecord
100
AcDbBlockTableRecord
  2
*D12
  0
BLOCK_RECORD
  5
2445
100
AcDbSymbolTableRecord
100
AcDbBlockTableRecord
  2
*D13
  0
BLOCK_RECORD
  5
2467
100
AcDbSymbolTableRecord
100
AcDbBlockTableRecord
  2
*D14
  0
ENDTAB
  0
ENDSEC
  0
SECTION
  2
BLOCKS
  0
BLOCK
  5
5
100
AcDbEntity
  8
0
100
AcDbBlockBegin
  2
*MODEL_SPACE
 70
     0
 10
0.0
 20
0.0
 30
0.0
  3
*MODEL_SPACE
  1

  0
ENDBLK
  5
8
100
AcDbEntity
  8
0
100
AcDbBlockEnd
  0
BLOCK
  5
C
100
AcDbEntity
 67
     1
  8
0
100
AcDbBlockBegin
  2
*PAPER_SPACE
 70
     0
 10
0.0
 20
0.0
 30
0.0
  3
*PAPER_SPACE
  1

  0
ENDBLK
  5
D
100
AcDbEntity
 67
     1
  8
0
100
AcDbBlockEnd
  0
BLOCK
  5
29
100
AcDbEntity
  8
0
100
AcDbBlockBegin
  2
_DOTSMALL
 70
     0
 10
0.0
 20
0.0
 30
0.0
  3
_DOTSMALL
  1

  0
POLYLINE
  5
25
100
AcDbEntity
  8
0
  6
BYBLOCK
 62
     0
100
AcDb2dPolyline
 66
     1
 10
0.0
 20
0.0
 30
0.0
 70
     1
 40
0.5
 41
0.5
  0
VERTEX
  5
26
100
AcDbEntity
  8
0
  6
BYBLOCK
 62
     0
100
AcDbVertex
100
AcDb2dVertex
 10
-0.0625
 20
0.0
 30
0.0
 42
1.0
  0
VERTEX
  5
27
100
AcDbEntity
  8
0
  6
BYBLOCK
 62
     0
100
AcDbVertex
100
AcDb2dVertex
 10
0.0625
 20
0.0
 30
0.0
 42
1.0
  0
SEQEND
  5
28
100
AcDbEntity
  8
0
  6
BYBLOCK
 62
     0
  0
ENDBLK
  5
2A
100
AcDbEntity
  8
0
100
AcDbBlockEnd
  0
BLOCK
  5
471
100
AcDbEntity
  8
0
100
AcDbBlockBegin
  2
_OPEN30
 70
     0
 10
0.0
 20
0.0
 30
0.0
  3
_OPEN30
  1

  0
LINE
  5
472
100
AcDbEntity
  8
0
  6
BYBLOCK
 62
     0
100
AcDbLine
 10
-1.0
 20
0.267949
 30
0.0
 11
0.0
 21
0.0
 31
0.0
  0
LINE
  5
473
100
AcDbEntity
  8
0
  6
BYBLOCK
 62
     0
100
AcDbLine
 10
0.0
 20
0.0
 30
0.0
 11
-1.0
 21
-0.267949
 31
0.0
  0
LINE
  5
474
100
AcDbEntity
  8
0
  6
BYBLOCK
 62
     0
100
AcDbLine
 10
0.0
 20
0.0
 30
0.0
 11
-1.0
 21
0.0
 31
0.0
  0
ENDBLK
  5
475
100
AcDbEntity
  8
0
100
AcDbBlockEnd
  0
BLOCK
  5
236D
100
AcDbEntity
  8
0
100
AcDbBlockBegin
  2
*D4
 70
     1
 10
0.0
 20
0.0
 30
0.0
  3
*D4
  1

  0
LINE
  5
236E
100
AcDbEntity
  8
0
  6
BYBLOCK
 62
     1
100
AcDbLine
 10
22.668173
 20
214.042064
 30
0.0
 11
20.735895
 21
200.293193
 31
0.0
  0
LINE
  5
236F
100
AcDbEntity
  8
0
  6
BYBLOCK
 62
     1
100
AcDbLine
 10
22.807346
 20
210.26112
 30
0.0
 11
22.807346
 21
200.148343
 31
0.0
  0
ARC
  5
2370
100
AcDbEntity
  8
0
  6
BYBLOCK
 62
     1
100
AcDbCircle
 10
22.807346
 20
215.032332
 30
0.0
 40
12.88399
100
AcDbArc
 50
244.139564
 51
262.0
  0
LINE
  5
2371
100
AcDbEntity
  8
0
  6
BYBLOCK
 62
     1
100
AcDbLine
 10
17.187601
 20
203.438556
 30
0.0
 11
9.448812
 21
207.189709
 31
0.0
  0
ARC
  5
2372
100
AcDbEntity
  8
0
  6
BYBLOCK
 62
     1
100
AcDbCircle
 10
22.807346
 20
215.032332
 30
0.0
 40
12.88399
100
AcDbArc
 50
244.193881
 51
253.09694
  0
ARC
  5
2373
100
AcDbEntity
  8
0
  6
BYBLOCK
 62
     1
100
AcDbCircle
 10
22.807346
 20
215.032332
 30
0.0
 40
12.88399
100
AcDbArc
 50
278.90306
 51
287.806119
  0
ARC
  5
2374
100
AcDbEntity
  8
0
  6
BYBLOCK
 62
     1
100
AcDbCircle
 10
22.807346
 20
215.032332
 30
0.0
 40
12.88399
100
AcDbArc
 50
262.0
 51
270.0
  0
INSERT
  5
2375
100
AcDbEntity
  8
0
  6
BYBLOCK
 62
     1
100
AcDbBlockReference
  2
_OPEN30
 10
21.014241
 20
202.273729
 30
0.0
 41
2.0
 42
2.0
 43
2.0
 50
347.54847
  0
INSERT
  5
2376
100
AcDbEntity
  8
0
  6
BYBLOCK
 62
     1
100
AcDbBlockReference
  2
_OPEN30
 10
22.807346
 20
202.148343
 30
0.0
 41
2.0
 42
2.0
 43
2.0
 50
184.45153
  0
MTEXT
  5
2377
100
AcDbEntity
  8
0
  6
BYBLOCK
 62
     3
100
AcDbMText
 10
14.408658
 20
207.56378
 30
0.0
 40
3.0
 41
0.0
 71
     5
 72
     1
  1
\A1;8°
 11
0.899859
 21
-0.436181
 31
0.0
  0
POINT
  5
2378
100
AcDbEntity
  8
DEFPOINTS
  6
BYBLOCK
 62
     0
100
AcDbPoint
 10
22.207914
 20
202.162295
 30
0.0
  0
POINT
  5
2379
100
AcDbEntity
  8
DEFPOINTS
  6
BYBLOCK
 62
     0
100
AcDbPoint
 10
22.807346
 20
215.032332
 30
0.0
  0
POINT
  5
237A
100
AcDbEntity
  8
DEFPOINTS
  6
BYBLOCK
 62
     0
100
AcDbPoint
 10
22.807346
 20
230.803545
 30
0.0
  0
POINT
  5
237B
100
AcDbEntity
  8
DEFPOINTS
  6
BYBLOCK
 62
     0
100
AcDbPoint
 10
22.807346
 20
211.26112
 30
0.0
  0
POINT
  5
237C
100
AcDbEntity
  8
DEFPOINTS
  6
BYBLOCK
 62
     0
100
AcDbPoint
 10
24.355615
 20
226.048841
 30
0.0
  0
ENDBLK
  5
237D
100
AcDbEntity
  8
0
100
AcDbBlockEnd
  0
BLOCK
  5
2360
100
AcDbEntity
  8
0
100
AcDbBlockBegin
  2
*D5
 70
     1
 10
0.0
 20
0.0
 30
0.0
  3
*D5
  1

  0
LINE
  5
2361
100
AcDbEntity
  8
0
  6
BYBLOCK
 62
     1
100
AcDbLine
 10
46.911331
 20
221.032332
 30
0.0
 11
43.311831
 21
221.032332
 31
0.0
  0
LINE
  5
2362
100
AcDbEntity
  8
0
  6
BYBLOCK
 62
     1
100
AcDbLine
 10
49.682053
 20
215.032332
 30
0.0
 11
43.311831
 21
215.032332
 31
0.0
  0
LINE
  5
2363
100
AcDbEntity
  8
0
  6
BYBLOCK
 62
     1
100
AcDbLine
 10
45.311831
 20
223.032332
 30
0.0
 11
45.311831
 21
225.032332
 31
0.0
  0
LINE
  5
2364
100
AcDbEntity
  8
0
  6
BYBLOCK
 62
     1
100
AcDbLine
 10
45.311831
 20
213.032332
 30
0.0
 11
45.311831
 21
207.032332
 31
0.0
  0
LINE
  5
2365
100
AcDbEntity
  8
0
  6
BYBLOCK
 62
     1
100
AcDbLine
 10
45.311831
 20
221.032332
 30
0.0
 11
45.311831
 21
215.032332
 31
0.0
  0
INSERT
  5
2366
100
AcDbEntity
  8
0
  6
BYBLOCK
 62
     1
100
AcDbBlockReference
  2
_OPEN30
 10
45.311831
 20
221.032332
 30
0.0
 41
2.0
 42
2.0
 43
2.0
 50
270.0
  0
INSERT
  5
2367
100
AcDbEntity
  8
0
  6
BYBLOCK
 62
     1
100
AcDbBlockReference
  2
_OPEN30
 10
45.311831
 20
215.032332
 30
0.0
 41
2.0
 42
2.0
 43
2.0
 50
90.0
  0
MTEXT
  5
2368
100
AcDbEntity
  8
0
  6
BYBLOCK
 62
     3
100
AcDbMText
 10
42.811831
 20
209.032332
 30
0.0
 40
3.0
 41
0.0
 71
     5
 72
     1
  1
\A1;6
 11
0.0
 21
1.0
 31
0.0
  0
POINT
  5
2369
100
AcDbEntity
  8
DEFPOINTS
  6
BYBLOCK
 62
     0
100
AcDbPoint
 10
47.911331
 20
221.032332
 30
0.0
  0
POINT
  5
236A
100
AcDbEntity
  8
DEFPOINTS
  6
BYBLOCK
 62
     0
100
AcDbPoint
 10
50.682053
 20
215.032332
 30
0.0
  0
POINT
  5
236B
100
AcDbEntity
  8
DEFPOINTS
  6
BYBLOCK
 62
     0
100
AcDbPoint
 10
45.311831
 20
215.032332
 30
0.0
  0
ENDBLK
  5
236C
100
AcDbEntity
  8
0
100
AcDbBlockEnd
  0
BLOCK
  5
238D
100
AcDbEntity
  8
0
100
AcDbBlockBegin
  2
*D6
 70
     1
 10
0.0
 20
0.0
 30
0.0
  3
*D6
  1

  0
LINE
  5
238E
100
AcDbEntity
  8
0
  6
BYBLOCK
 62
     1
100
AcDbLine
 10
51.274296
 20
226.743475
 30
0.0
 11
51.548366
 21
231.97304
 31
0.0
  0
LINE
  5
238F
100
AcDbEntity
  8
0
  6
BYBLOCK
 62
     1
100
AcDbLine
 10
49.660541
 20
215.032332
 30
0.0
 11
33.696584
 21
215.032332
 31
0.0
  0
ARC
  5
2390
100
AcDbEntity
  8
0
  6
BYBLOCK
 62
     1
100
AcDbCircle
 10
50.660541
 20
215.032332
 30
0.0
 40
14.963956
100
AcDbArc
 50
94.66355
 51
172.33645
  0
INSERT
  5
2391
100
AcDbEntity
  8
0
  6
BYBLOCK
 62
     1
100
AcDbBlockReference
  2
_OPEN30
 10
51.443694
 20
229.975781
 30
0.0
 41
2.0
 42
2.0
 43
2.0
 50
0.831775
  0
INSERT
  5
2392
100
AcDbEntity
  8
0
  6
BYBLOCK
 62
     1
100
AcDbBlockReference
  2
_OPEN30
 10
35.696584
 20
215.032332
 30
0.0
 41
2.0
 42
2.0
 43
2.0
 50
266.168225
  0
MTEXT
  5
2393
100
AcDbEntity
  8
0
  6
BYBLOCK
 62
     3
100
AcDbMText
 10
38.639147
 20
227.700239
 30
0.0
 40
3.0
 41
0.0
 71
     5
 72
     1
  1
\A1;93°
 11
0.725374
 21
0.688355
 31
0.0
  0
POINT
  5
2394
100
AcDbEntity
  8
DEFPOINTS
  6
BYBLOCK
 62
     0
100
AcDbPoint
 10
43.635389
 20
228.244722
 30
0.0
  0
POINT
  5
2395
100
AcDbEntity
  8
DEFPOINTS
  6
BYBLOCK
 62
     0
100
AcDbPoint
 10
51.082053
 20
215.032332
 30
0.0
  0
POINT
  5
2396
100
AcDbEntity
  8
DEFPOINTS
  6
BYBLOCK
 62
     0
100
AcDbPoint
 10
50.682601
 20
215.453267
 30
0.0
  0
POINT
  5
2397
100
AcDbEntity
  8
DEFPOINTS
  6
BYBLOCK
 62
     0
100
AcDbPoint
 10
51.22196
 20
225.744846
 30
0.0
  0
POINT
  5
2398
100
AcDbEntity
  8
DEFPOINTS
  6
BYBLOCK
 62
     0
100
AcDbPoint
 10
50.682053
 20
215.032332
 30
0.0
  0
ENDBLK
  5
2399
100
AcDbEntity
  8
0
100
AcDbBlockEnd
  0
BLOCK
  5
23A6
100
AcDbEntity
  8
0
100
AcDbBlockBegin
  2
*D7
 70
     1
 10
0.0
 20
0.0
 30
0.0
  3
*D7
  1

  0
LINE
  5
23A7
100
AcDbEntity
  8
0
  6
BYBLOCK
 62
     1
100
AcDbLine
 10
17.460163
 20
215.081901
 30
0.0
 11
16.123367
 21
213.594293
 31
0.0
  0
LINE
  5
23A8
100
AcDbEntity
  8
0
  6
BYBLOCK
 62
     1
100
AcDbLine
 10
28.154529
 20
226.982764
 30
0.0
 11
36.175303
 21
235.908411
 31
0.0
  0
LINE
  5
23A9
100
AcDbEntity
  8
0
  6
BYBLOCK
 62
     1
100
AcDbLine
 10
18.796959
 20
216.569509
 30
0.0
 11
26.817733
 21
225.495156
 31
0.0
  0
INSERT
  5
23AA
100
AcDbEntity
  8
0
  6
BYBLOCK
 62
     1
100
AcDbBlockReference
  2
_OPEN30
 10
18.796959
 20
216.569509
 30
0.0
 41
2.0
 42
2.0
 43
2.0
 50
48.056469
  0
INSERT
  5
23AB
100
AcDbEntity
  8
0
  6
BYBLOCK
 62
     1
100
AcDbBlockReference
  2
_OPEN30
 10
26.817733
 20
225.495156
 30
0.0
 41
2.0
 42
2.0
 43
2.0
 50
228.056469
  0
MTEXT
  5
23AC
100
AcDbEntity
  8
0
  6
BYBLOCK
 62
     3
100
AcDbMText
 10
30.973804
 20
233.860386
 30
0.0
 40
3.0
 41
0.0
 71
     5
 72
     1
  1
\A1;\U+220512
 11
0.668398
 21
0.743804
 31
0.0
  0
POINT
  5
23AD
100
AcDbEntity
  8
DEFPOINTS
  6
BYBLOCK
 62
     0
100
AcDbPoint
 10
26.817733
 20
225.495156
 30
0.0
  0
POINT
  5
23AE
100
AcDbEntity
  8
DEFPOINTS
  6
BYBLOCK
 62
     0
100
AcDbPoint
 10
18.796959
 20
216.569509
 30
0.0
  0
ENDBLK
  5
23AF
100
AcDbEntity
  8
0
100
AcDbBlockEnd
  0
BLOCK
  5
242D
100
AcDbEntity
  8
0
100
AcDbBlockBegin
  2
*D10
 70
     1
 10
0.0
 20
0.0
 30
0.0
  3
*D10
  1

  0
LINE
  5
242E
100
AcDbEntity
  8
0
  6
BYBLOCK
 62
     1
100
AcDbLine
 10
121.322435
 20
214.814009
 30
0.0
 11
120.404031
 21
213.037345
 31
0.0
  0
LINE
  5
242F
100
AcDbEntity
  8
0
  6
BYBLOCK
 62
     1
100
AcDbLine
 10
127.751261
 20
227.250656
 30
0.0
 11
133.261684
 21
237.910639
 31
0.0
  0
LINE
  5
2430
100
AcDbEntity
  8
0
  6
BYBLOCK
 62
     1
100
AcDbLine
 10
122.240838
 20
216.590673
 30
0.0
 11
126.832858
 21
225.473992
 31
0.0
  0
INSERT
  5
2431
100
AcDbEntity
  8
0
  6
BYBLOCK
 62
     1
100
AcDbBlockReference
  2
_OPEN30
 10
122.240838
 20
216.590673
 30
0.0
 41
2.0
 42
2.0
 43
2.0
 50
62.66438
  0
INSERT
  5
2432
100
AcDbEntity
  8
0
  6
BYBLOCK
 62
     1
100
AcDbBlockReference
  2
_OPEN30
 10
126.832858
 20
225.473992
 30
0.0
 41
2.0
 42
2.0
 43
2.0
 50
242.66438
  0
MTEXT
  5
2433
100
AcDbEntity
  8
0
  6
BYBLOCK
 62
     3
100
AcDbMText
 10
128.744845
 20
234.616984
 30
0.0
 40
3.0
 41
0.0
 71
     5
 72
     1
  1
\A1;\U+220510
 11
0.459202
 21
0.888332
 31
0.0
  0
POINT
  5
2434
100
AcDbEntity
  8
DEFPOINTS
  6
BYBLOCK
 62
     0
100
AcDbPoint
 10
126.832858
 20
225.473992
 30
0.0
  0
POINT
  5
2435
100
AcDbEntity
  8
DEFPOINTS
  6
BYBLOCK
 62
     0
100
AcDbPoint
 10
122.240838
 20
216.590673
 30
0.0
  0
ENDBLK
  5
2436
100
AcDbEntity
  8
0
100
AcDbBlockEnd
  0
BLOCK
  5
24D0
100
AcDbEntity
  8
0
100
AcDbBlockBegin
  2
*D11
 70
     1
 10
0.0
 20
0.0
 30
0.0
  3
*D11
  1

  0
LINE
  5
24D1
100
AcDbEntity
  8
0
  6
BYBLOCK
 62
     1
100
AcDbLine
 10
50.682053
 20
214.032332
 30
0.0
 11
50.682053
 21
195.185098
 31
0.0
  0
LINE
  5
24D2
100
AcDbEntity
  8
0
  6
BYBLOCK
 62
     1
100
AcDbLine
 10
230.682053
 20
216.032332
 30
0.0
 11
230.682053
 21
195.185098
 31
0.0
  0
LINE
  5
24D3
100
AcDbEntity
  8
0
  6
BYBLOCK
 62
     1
100
AcDbLine
 10
52.682053
 20
197.185098
 30
0.0
 11
228.682053
 21
197.185098
 31
0.0
  0
INSERT
  5
24D4
100
AcDbEntity
  8
0
  6
BYBLOCK
 62
     1
100
AcDbBlockReference
  2
_OPEN30
 10
50.682053
 20
197.185098
 30
0.0
 41
2.0
 42
2.0
 43
2.0
 50
180.0
  0
INSERT
  5
24D5
100
AcDbEntity
  8
0
  6
BYBLOCK
 62
     1
100
AcDbBlockReference
  2
_OPEN30
 10
230.682053
 20
197.185098
 30
0.0
 41
2.0
 42
2.0
 43
2.0
  0
MTEXT
  5
24D6
100
AcDbEntity
  8
0
  6
BYBLOCK
 62
     3
100
AcDbMText
 10
140.682053
 20
199.685098
 30
0.0
 40
3.0
 41
0.0
 71
     5
 72
     1
  1
\A1;180
  0
POINT
  5
24D7
100
AcDbEntity
  8
DEFPOINTS
  6
BYBLOCK
 62
     0
100
AcDbPoint
 10
50.682053
 20
215.032332
 30
0.0
  0
POINT
  5
24D8
100
AcDbEntity
  8
DEFPOINTS
  6
BYBLOCK
 62
     0
100
AcDbPoint
 10
230.682053
 20
217.032332
 30
0.0
  0
POINT
  5
24D9
100
AcDbEntity
  8
DEFPOINTS
  6
BYBLOCK
 62
     0
100
AcDbPoint
 10
230.682053
 20
197.185098
 30
0.0
  0
ENDBLK
  5
24DA
100
AcDbEntity
  8
0
100
AcDbBlockEnd
  0
BLOCK
  5
2422
100
AcDbEntity
  8
0
100
AcDbBlockBegin
  2
*D12
 70
     1
 10
0.0
 20
0.0
 30
0.0
  3
*D12
  1

  0
LINE
  5
2423
100
AcDbEntity
  8
0
  6
BYBLOCK
 62
     1
100
AcDbLine
 10
120.036848
 20
217.852883
 30
0.0
 11
120.036848
 21
203.091023
 31
0.0
  0
LINE
  5
2424
100
AcDbEntity
  8
0
  6
BYBLOCK
 62
     1
100
AcDbLine
 10
129.036848
 20
217.852883
 30
0.0
 11
129.036848
 21
203.091023
 31
0.0
  0
LINE
  5
2425
100
AcDbEntity
  8
0
  6
BYBLOCK
 62
     1
100
AcDbLine
 10
122.036848
 20
205.091023
 30
0.0
 11
127.036848
 21
205.091023
 31
0.0
  0
INSERT
  5
2426
100
AcDbEntity
  8
0
  6
BYBLOCK
 62
     1
100
AcDbBlockReference
  2
_OPEN30
 10
120.036848
 20
205.091023
 30
0.0
 41
2.0
 42
2.0
 43
2.0
 50
180.0
  0
INSERT
  5
2427
100
AcDbEntity
  8
0
  6
BYBLOCK
 62
     1
100
AcDbBlockReference
  2
_OPEN30
 10
129.036848
 20
205.091023
 30
0.0
 41
2.0
 42
2.0
 43
2.0
  0
MTEXT
  5
2428
100
AcDbEntity
  8
0
  6
BYBLOCK
 62
     3
100
AcDbMText
 10
124.536848
 20
207.591023
 30
0.0
 40
3.0
 41
0.0
 71
     5
 72
     1
  1
\A1;9
  0
POINT
  5
2429
100
AcDbEntity
  8
DEFPOINTS
  6
BYBLOCK
 62
     0
100
AcDbPoint
 10
120.036848
 20
218.852883
 30
0.0
  0
POINT
  5
242A
100
AcDbEntity
  8
DEFPOINTS
  6
BYBLOCK
 62
     0
100
AcDbPoint
 10
129.036848
 20
218.852883
 30
0.0
  0
POINT
  5
242B
100
AcDbEntity
  8
DEFPOINTS
  6
BYBLOCK
 62
     0
100
AcDbPoint
 10
129.036848
 20
205.091023
 30
0.0
  0
ENDBLK
  5
242C
100
AcDbEntity
  8
0
100
AcDbBlockEnd
  0
BLOCK
  5
24BF
100
AcDbEntity
  8
0
100
AcDbBlockBegin
  2
*D13
 70
     1
 10
0.0
 20
0.0
 30
0.0
  3
*D13
  1

  0
LINE
  5
24C0
100
AcDbEntity
  8
0
  6
BYBLOCK
 62
     1
100
AcDbLine
 10
49.685858
 20
181.467926
 30
0.0
 11
39.478591
 21
182.360946
 31
0.0
  0
LINE
  5
24C1
100
AcDbEntity
  8
0
  6
BYBLOCK
 62
     1
100
AcDbLine
 10
46.955788
 20
181.38077
 30
0.0
 11
39.435795
 21
181.38077
 31
0.0
  0
ARC
  5
24C2
100
AcDbEntity
  8
0
  6
BYBLOCK
 62
     1
100
AcDbCircle
 10
50.682053
 20
181.38077
 30
0.0
 40
9.246258
100
AcDbArc
 50
150.015949
 51
175.0
  0
LINE
  5
24C3
100
AcDbEntity
  8
0
  6
BYBLOCK
 62
     1
100
AcDbLine
 10
42.673272
 20
186.00167
 30
0.0
 11
46.971199
 21
193.450685
 31
0.0
  0
ARC
  5
24C4
100
AcDbEntity
  8
0
  6
BYBLOCK
 62
     1
100
AcDbCircle
 10
50.682053
 20
181.38077
 30
0.0
 40
9.246258
100
AcDbArc
 50
150.164842
 51
162.582421
  0
ARC
  5
24C5
100
AcDbEntity
  8
0
  6
BYBLOCK
 62
     1
100
AcDbCircle
 10
50.682053
 20
181.38077
 30
0.0
 40
9.246258
100
AcDbArc
 50
192.417579
 51
204.835158
  0
ARC
  5
24C6
100
AcDbEntity
  8
0
  6
BYBLOCK
 62
     1
100
AcDbCircle
 10
50.682053
 20
181.38077
 30
0.0
 40
9.246258
100
AcDbArc
 50
175.0
 51
180.0
  0
INSERT
  5
24C7
100
AcDbEntity
  8
0
  6
BYBLOCK
 62
     1
100
AcDbBlockReference
  2
_OPEN30
 10
41.47098
 20
182.186635
 30
0.0
 41
2.0
 42
2.0
 43
2.0
 50
258.79121
  0
INSERT
  5
24C8
100
AcDbEntity
  8
0
  6
BYBLOCK
 62
     1
100
AcDbBlockReference
  2
_OPEN30
 10
41.435795
 20
181.38077
 30
0.0
 41
2.0
 42
2.0
 43
2.0
 50
96.20879
  0
MTEXT
  5
24C9
100
AcDbEntity
  8
0
  6
BYBLOCK
 62
     3
100
AcDbMText
 10
42.656824
 20
190.975575
 30
0.0
 40
3.0
 41
0.0
 71
     5
 72
     1
  1
\A1;5°
 11
0.499759
 21
0.866165
 31
0.0
  0
POINT
  5
24CA
100
AcDbEntity
  8
DEFPOINTS
  6
BYBLOCK
 62
     0
100
AcDbPoint
 10
41.439707
 20
181.649695
 30
0.0
  0
POINT
  5
24CB
100
AcDbEntity
  8
DEFPOINTS
  6
BYBLOCK
 62
     0
100
AcDbPoint
 10
52.650042
 20
181.208593
 30
0.0
  0
POINT
  5
24CC
100
AcDbEntity
  8
DEFPOINTS
  6
BYBLOCK
 62
     0
100
AcDbPoint
 10
47.955788
 20
181.38077
 30
0.0
  0
POINT
  5
24CD
100
AcDbEntity
  8
DEFPOINTS
  6
BYBLOCK
 62
     0
100
AcDbPoint
 10
237.950826
 20
181.38077
 30
0.0
  0
POINT
  5
24CE
100
AcDbEntity
  8
DEFPOINTS
  6
BYBLOCK
 62
     0
100
AcDbPoint
 10
50.682053
 20
181.38077
 30
0.0
  0
ENDBLK
  5
24CF
100
AcDbEntity
  8
0
100
AcDbBlockEnd
  0
BLOCK
  5
2474
100
AcDbEntity
  8
0
100
AcDbBlockBegin
  2
*D14
 70
     1
 10
0.0
 20
0.0
 30
0.0
  3
*D14
  1

  0
LINE
  5
2475
100
AcDbEntity
  8
0
  6
BYBLOCK
 62
     1
100
AcDbLine
 10
50.682053
 20
180.38077
 30
0.0
 11
50.682053
 21
163.292319
 31
0.0
  0
LINE
  5
2476
100
AcDbEntity
  8
0
  6
BYBLOCK
 62
     1
100
AcDbLine
 10
69.682053
 20
175.38077
 30
0.0
 11
69.682053
 21
163.292319
 31
0.0
  0
LINE
  5
2477
100
AcDbEntity
  8
0
  6
BYBLOCK
 62
     1
100
AcDbLine
 10
52.682053
 20
165.292319
 30
0.0
 11
67.682053
 21
165.292319
 31
0.0
  0
INSERT
  5
2478
100
AcDbEntity
  8
0
  6
BYBLOCK
 62
     1
100
AcDbBlockReference
  2
_OPEN30
 10
50.682053
 20
165.292319
 30
0.0
 41
2.0
 42
2.0
 43
2.0
 50
180.0
  0
INSERT
  5
2479
100
AcDbEntity
  8
0
  6
BYBLOCK
 62
     1
100
AcDbBlockReference
  2
_OPEN30
 10
69.682053
 20
165.292319
 30
0.0
 41
2.0
 42
2.0
 43
2.0
  0
MTEXT
  5
247A
100
AcDbEntity
  8
0
  6
BYBLOCK
 62
     3
100
AcDbMText
 10
60.182053
 20
167.792319
 30
0.0
 40
3.0
 41
0.0
 71
     5
 72
     1
  1
\A1;19
  0
POINT
  5
247B
100
AcDbEntity
  8
DEFPOINTS
  6
BYBLOCK
 62
     0
100
AcDbPoint
 10
50.682053
 20
181.38077
 30
0.0
  0
POINT
  5
247C
100
AcDbEntity
  8
DEFPOINTS
  6
BYBLOCK
 62
     0
100
AcDbPoint
 10
69.682053
 20
176.38077
 30
0.0
  0
POINT
  5
247D
100
AcDbEntity
  8
DEFPOINTS
  6
BYBLOCK
 62
     0
100
AcDbPoint
 10
69.682053
 20
165.292319
 30
0.0
  0
ENDBLK
  5
247E
100
AcDbEntity
  8
0
100
AcDbBlockEnd
  0
ENDSEC
  0
SECTION
  2
ENTITIES
  0
TEXT
  5
1453
100
AcDbEntity
  8
外形
  6
CONTINUOUS
 62
     2
100
AcDbText
 10
81.945496
 20
150.213866
 30
0.0
 40
6.0
  1
WBPT210R
100
AcDbText
  0
LINE
  5
2185
100
AcDbEntity
  8
外形
  6
CENTER
 62
     1
100
AcDbLine
 10
49.755294
 20
220.086954
 30
0.0
 11
58.046538
 21
220.086954
 31
0.0
  0
LINE
  5
2189
100
AcDbEntity
  8
外形
  6
CONTINUOUS
100
AcDbLine
 10
51.263649
 20
215.07593
 30
0.0
 11
59.82879
 21
219.440087
 31
0.0
  0
LINE
  5
218A
100
AcDbEntity
  8
外形
  6
CONTINUOUS
100
AcDbLine
 10
50.682601
 20
215.453267
 30
0.0
 11
51.22196
 21
225.744846
 31
0.0
  0
LINE
  5
218C
100
AcDbEntity
  8
外形
  6
CONTINUOUS
100
AcDbLine
 10
50.682053
 20
226.095465
 30
0.0
 11
59.865049
 21
220.131958
 31
0.0
  0
ARC
  5
218D
100
AcDbEntity
  8
外形
  6
CONTINUOUS
100
AcDbCircle
 10
51.082053
 20
215.432332
 30
0.0
 40
0.4
100
AcDbArc
 50
177.0
 51
297.0
  0
ARC
  5
218E
100
AcDbEntity
  8
外形
  6
CONTINUOUS
100
AcDbCircle
 10
51.585152
 20
225.03204
 30
0.0
 40
0.4
100
AcDbArc
 50
57.0
 51
177.0
  0
ARC
  5
218F
100
AcDbEntity
  8
外形
  6
CONTINUOUS
100
AcDbCircle
 10
59.647193
 20
219.79649
 30
0.0
 40
0.4
100
AcDbArc
 50
297.0
 51
57.0
  0
LINE
  5
21A1
100
AcDbEntity
  8
外形
  6
CENTER
 62
     1
100
AcDbLine
 10
54.1048
 20
213.821749
 30
0.0
 11
54.1048
 21
226.352159
 31
0.0
  0
LINE
  5
21A5
100
AcDbEntity
  8
外形
  6
CENTER
 62
     1
100
AcDbLine
 10
47.911331
 20
221.032332
 30
0.0
 11
236.038464
 21
221.032332
 31
0.0
  0
ARC
  5
21AB
100
AcDbEntity
  8
外形
  6
CONTINUOUS
100
AcDbCircle
 10
59.318608
 20
220.214259
 30
0.0
 40
1.5
100
AcDbArc
 50
267.0
 51
87.0
  0
LINE
  5
21AC
100
AcDbEntity
  8
外形
  6
CONTINUOUS
100
AcDbLine
 10
59.397111
 20
221.712203
 30
0.0
 11
57.259149
 21
221.824249
 31
0.0
  0
LINE
  5
21AD
100
AcDbEntity
  8
外形
  6
CONTINUOUS
100
AcDbLine
 10
59.240104
 20
218.716315
 30
0.0
 11
58.485883
 21
218.755842
 31
0.0
  0
LINE
  5
21B1
100
AcDbEntity
  8
外形
  6
CENTER
 62
     1
100
AcDbLine
 10
47.955788
 20
181.38077
 30
0.0
 11
237.950826
 21
181.38077
 31
0.0
  0
LINE
  5
21B4
100
AcDbEntity
  8
外形
  6
CONTINUOUS
100
AcDbLine
 10
51.70255
 20
176.13077
 30
0.0
 11
58.816028
 21
176.13077
 31
0.0
  0
LINE
  5
21B7
100
AcDbEntity
  8
外形
  6
CONTINUOUS
100
AcDbLine
 10
64.932053
 20
176.38077
 30
0.0
 11
69.682053
 21
176.38077
 31
0.0
  0
LINE
  5
21B8
100
AcDbEntity
  8
外形
  6
CONTINUOUS
100
AcDbLine
 10
58.816028
 20
176.13077
 30
0.0
 11
60.682053
 21
176.63077
 31
0.0
  0
LINE
  5
21CA
100
AcDbEntity
  8
外形
  6
CONTINUOUS
100
AcDbLine
 10
60.682053
 20
176.63077
 30
0.0
 11
64.682053
 21
176.63077
 31
0.0
  0
LINE
  5
21CB
100
AcDbEntity
  8
外形
  6
CONTINUOUS
100
AcDbLine
 10
66.682053
 20
185.327582
 30
0.0
 11
66.682053
 21
176.38077
 31
0.0
  0
LINE
  5
21CC
100
AcDbEntity
  8
外形
  6
CONTINUOUS
100
AcDbLine
 10
64.682053
 20
183.566082
 30
0.0
 11
64.682053
 21
182.339539
 31
0.0
  0
LINE
  5
21CE
100
AcDbEntity
  8
外形
  6
CONTINUOUS
100
AcDbLine
 10
64.682053
 20
176.63077
 30
0.0
 11
64.932053
 21
176.38077
 31
0.0
  0
LINE
  5
21CF
100
AcDbEntity
  8
外形
  6
CONTINUOUS
100
AcDbLine
 10
64.932053
 20
183.729837
 30
0.0
 11
64.932053
 21
182.104473
 31
0.0
  0
LINE
  5
21D1
100
AcDbEntity
  8
外形
  6
CONTINUOUS
100
AcDbLine
 10
64.932053
 20
226.032332
 30
0.0
 11
64.932053
 21
223.736496
 31
0.0
  0
LINE
  5
21D2
100
AcDbEntity
  8
外形
  6
CONTINUOUS
100
AcDbLine
 10
66.682053
 20
226.032332
 30
0.0
 11
66.682053
 21
223.736496
 31
0.0
  0
LINE
  5
21D3
100
AcDbEntity
  8
外形
  6
CONTINUOUS
100
AcDbLine
 10
64.682053
 20
225.782332
 30
0.0
 11
64.682053
 21
223.736496
 31
0.0
  0
LINE
  5
21D4
100
AcDbEntity
  8
外形
  6
CONTINUOUS
100
AcDbLine
 10
60.682053
 20
225.30729
 30
0.0
 11
60.682053
 21
225.782332
 31
0.0
  0
LINE
  5
21D5
100
AcDbEntity
  8
外形
  6
CONTINUOUS
100
AcDbLine
 10
58.816028
 20
226.282332
 30
0.0
 11
58.816028
 21
225.791607
 31
0.0
  0
LINE
  5
21D6
100
AcDbEntity
  8
外形
  6
CONTINUOUS
100
AcDbLine
 10
50.682053
 20
226.282332
 30
0.0
 11
50.682053
 21
226.095465
 31
0.0
  0
LINE
  5
21DA
100
AcDbEntity
  8
外形
  6
CONTINUOUS
100
AcDbLine
 10
65.647196
 20
216.032332
 30
0.0
 11
139.450298
 21
216.032332
 31
0.0
  0
LINE
  5
21DC
100
AcDbEntity
  8
外形
  6
CONTINUOUS
100
AcDbLine
 10
50.682053
 20
226.282332
 30
0.0
 11
58.816028
 21
226.282332
 31
0.0
  0
LINE
  5
21DD
100
AcDbEntity
  8
外形
  6
CONTINUOUS
100
AcDbLine
 10
60.682053
 20
225.782332
 30
0.0
 11
64.682053
 21
225.782332
 31
0.0
  0
LINE
  5
21DE
100
AcDbEntity
  8
外形
  6
CONTINUOUS
100
AcDbLine
 10
58.816028
 20
226.282332
 30
0.0
 11
60.682053
 21
225.782332
 31
0.0
  0
LINE
  5
21DF
100
AcDbEntity
  8
外形
  6
CONTINUOUS
100
AcDbLine
 10
64.932053
 20
226.032332
 30
0.0
 11
139.450298
 21
226.032332
 31
0.0
  0
LINE
  5
21E0
100
AcDbEntity
  8
外形
  6
CONTINUOUS
100
AcDbLine
 10
64.682053
 20
225.782332
 30
0.0
 11
64.932053
 21
226.032332
 31
0.0
  0
LINE
  5
21E2
100
AcDbEntity
  8
外形
  6
CONTINUOUS
100
AcDbLine
 10
52.650042
 20
215.782332
 30
0.0
 11
57.182053
 21
215.782332
 31
0.0
  0
LINE
  5
2203
100
AcDbEntity
  8
外形
  6
CENTER
 62
     1
100
AcDbLine
 10
32.578559
 20
221.032332
 30
0.0
 11
13.036133
 21
221.032332
 31
0.0
  0
LINE
  5
2204
100
AcDbEntity
  8
外形
  6
CENTER
 62
     1
100
AcDbLine
 10
22.807346
 20
230.803545
 30
0.0
 11
22.807346
 21
211.26112
 31
0.0
  0
ARC
  5
2205
100
AcDbEntity
  8
外形
  6
CONTINUOUS
100
AcDbCircle
 10
22.807346
 20
221.032332
 30
0.0
 40
5.25
100
AcDbArc
 50
31.002719
 51
235.47045
  0
LINE
  5
2208
100
AcDbEntity
  8
外形
  6
CONTINUOUS
100
AcDbLine
 10
22.807346
 20
215.032332
 30
0.0
 11
24.355615
 21
226.048841
 31
0.0
  0
LINE
  5
220B
100
AcDbEntity
  8
外形
  6
CONTINUOUS
100
AcDbLine
 10
22.807346
 20
215.032332
 30
0.0
 11
19.744321
 21
216.087017
 31
0.0
  0
LINE
  5
220C
100
AcDbEntity
  8
外形
  6
CONTINUOUS
100
AcDbLine
 10
19.744321
 20
216.087017
 30
0.0
 11
21.0115
 21
225.103464
 31
0.0
  0
LINE
  5
220E
100
AcDbEntity
  8
外形
  6
CONTINUOUS
100
AcDbLine
 10
21.0115
 20
225.103464
 30
0.0
 11
24.246579
 21
225.273008
 31
0.0
  0
SPLINE
  5
2292
100
AcDbEntity
  8
外形
  6
CONTINUOUS
100
AcDbSpline
210
0.0
220
0.0
230
1.0
 70
     8
 71
     3
 72
    16
 73
    12
 74
     0
 42
0.0000001
 43
0.0000001
 40
10.50603606332589
 40
10.50603606332589
 40
10.50603606332589
 40
10.50603606332589
 40
10.59282605070529
 40
13.60543853509121
 40
15.50798730123875
 40
16.51258473304895
 40
17.51718216485914
 40
21.18565210141056
 40
21.18565210141056
 40
21.18565210141056
 40
23.56200106563173
 40
23.56200106563173
 40
23.56200106563173
 40
23.56200106563173
 10
57.18383303082345
 20
181.4863249190665
 30
0.0
 10
57.18265049344338
 20
181.4511580693819
 30
0.0
 10
57.16131082519923
 20
180.1943281721676
 30
0.0
 10
58.35673707559059
 20
178.1660011260722
 30
0.0
 10
60.39344524973952
 20
179.4007356476293
 30
0.0
 10
61.67540478569121
 20
179.0628216596519
 30
0.0
 10
63.61123978559926
 20
179.2725857128874
 30
0.0
 10
64.75181601900475
 20
180.4536255528574
 30
0.0
 10
65.64719571135016
 20
181.3807701466059
 30
0.0
 10
65.06718970304419
 20
181.9813527145821
 30
0.0
 10
64.48718369473822
 20
182.5819352825583
 30
0.0
 10
63.83133988812044
 20
183.0136019181234
 30
0.0
  0
LINE
  5
229D
100
AcDbEntity
  8
外形
  6
CONTINUOUS
100
AcDbLine
 10
27.307346
 20
223.736496
 30
0.0
 11
27.307346
 21
218.328169
 31
0.0
  0
LINE
  5
229E
100
AcDbEntity
  8
外形
  6
CONTINUOUS
100
AcDbLine
 10
64.304213
 20
223.736496
 30
0.0
 11
139.450298
 21
223.736496
 31
0.0
  0
LINE
  5
229F
100
AcDbEntity
  8
外形
  6
CONTINUOUS
100
AcDbLine
 10
67.059893
 20
218.328169
 30
0.0
 11
139.450298
 21
218.328169
 31
0.0
  0
LINE
  5
22A0
100
AcDbEntity
  8
外形
  6
CONTINUOUS
100
AcDbLine
 10
52.909345
 20
226.215499
 30
0.0
 11
50.682053
 21
226.215499
 31
0.0
  0
LINE
  5
22A9
100
AcDbEntity
  8
外形
  6
CONTINUOUS
100
AcDbLine
 10
57.317211
 20
215.849166
 30
0.0
 11
52.781211
 21
215.849166
 31
0.0
  0
LINE
  5
22CF
100
AcDbEntity
  8
外形
  6
CONTINUOUS
100
AcDbLine
 10
58.191255
 20
181.486325
 30
0.0
 11
52.650042
 21
181.486325
 31
0.0
  0
LINE
  5
22D0
100
AcDbEntity
  8
外形
  6
CONTINUOUS
100
AcDbLine
 10
64.304213
 20
185.88077
 30
0.0
 11
230.182053
 21
185.88077
 31
0.0
  0
SPLINE
  5
22DA
100
AcDbEntity
  8
外形
  6
CONTINUOUS
100
AcDbSpline
210
0.0
220
0.0
230
1.0
 70
     8
 71
     3
 72
    12
 73
     8
 74
     6
 42
0.0000001
 43
0.0000001
 44
0.0000000001
 40
0.0
 40
0.0
 40
0.0
 40
0.0
 40
1.820174929538594
 40
3.141844879493974
 40
4.520856464342585
 40
6.158835457504931
 40
10.26409578918121
 40
10.26409578918121
 40
10.26409578918121
 40
10.26409578918121
 10
67.05989303720691
 20
185.8807701466059
 30
0.0
 10
66.71818539463266
 20
185.3690104556469
 30
0.0
 10
66.12835614817779
 20
184.4856505442024
 30
0.0
 10
64.83321961985821
 20
183.6765331623842
 30
0.0
 10
63.64456686107192
 20
182.864055155865
 30
0.0
 10
61.51293425687812
 20
181.7604465790724
 30
0.0
 10
59.57586764369003
 20
181.6005901184495
 30
0.0
 10
58.19125483597648
 20
181.4863249190665
 30
0.0
 11
67.05989303720691
 21
185.8807701466059
 31
0.0
 11
65.93064267711877
 21
184.453244175437
 31
0.0
 11
64.85774011363652
 21
183.6814336119642
 31
0.0
 11
63.69955311688986
 21
182.9329178594822
 31
0.0
 11
62.23362661250297
 21
182.2021411043941
 31
0.0
 11
58.19125483597648
 21
181.4863249190665
 31
0.0
  0
LINE
  5
22DF
100
AcDbEntity
  8
外形
  6
CONTINUOUS
100
AcDbLine
 10
52.909345
 20
182.92904
 30
0.0
 11
51.22196
 21
182.92904
 31
0.0
  0
SPLINE
  5
22E6
100
AcDbEntity
  8
外形
  6
CONTINUOUS
100
AcDbSpline
210
0.0
220
0.0
230
1.0
 70
     8
 71
     3
 72
    12
 73
     8
 74
     6
 42
0.0000001
 43
0.0000001
 44
0.0000000001
 40
0.0
 40
0.0
 40
0.0
 40
0.0
 40
2.264694702508513
 40
4.024112718324825
 40
5.712544350892929
 40
7.57304171708993
 40
11.83419600442133
 40
11.83419600442133
 40
11.83419600442133
 40
11.83419600442133
 10
64.30421283574786
 20
185.8807701466059
 30
0.0
 10
63.54920790239807
 20
185.7963774915983
 30
0.0
 10
62.20764740361404
 20
185.646421051124
 30
0.0
 10
60.44336544798859
 20
184.8958266456151
 30
0.0
 10
58.80649151295372
 20
184.2371109588275
 30
0.0
 10
56.38864050255532
 20
183.2362037554538
 30
0.0
 10
54.33726475046052
 20
183.0551012165419
 30
0.0
 10
52.90934479099533
 20
182.9290395090473
 30
0.0
 11
64.30421283574786
 21
185.8807701466059
 31
0.0
 11
62.07047110122271
 21
185.5076214376295
 31
0.0
 11
60.42187717195448
 21
184.8930567048642
 31
0.0
 11
58.85856767595068
 21
184.2551971611079
 31
0.0
 11
57.11740685555872
 21
183.599598619958
 31
0.0
 11
52.90934479099533
 21
182.9290395090473
 31
0.0
  0
LINE
  5
22E7
100
AcDbEntity
  8
外形
  6
CONTINUOUS
100
AcDbLine
 10
64.682053
 20
180.422002
 30
0.0
 11
64.682053
 21
176.63077
 31
0.0
  0
LINE
  5
22E8
100
AcDbEntity
  8
外形
  6
CONTINUOUS
100
AcDbLine
 10
64.932053
 20
180.657067
 30
0.0
 11
64.932053
 21
176.38077
 31
0.0
  0
SPLINE
  5
22E9
100
AcDbEntity
  8
外形
  6
CONTINUOUS
100
AcDbSpline
210
0.0
220
0.0
230
-1.0
 70
     8
 71
     3
 72
    12
 73
     8
 74
     6
 42
0.0000001
 43
0.0000001
 44
0.0000000001
 40
0.0
 40
0.0
 40
0.0
 40
0.0
 40
4.211202054231517
 40
5.973186448483003
 40
7.586252367074497
 40
9.328953338220721
 40
11.81175783945216
 40
11.81175783945216
 40
11.81175783945216
 40
11.81175783945216
 10
52.90934479099533
 20
226.2154985184105
 30
0.0
 10
54.31551240027689
 20
226.2090984544591
 30
0.0
 10
56.31002636562237
 20
226.2000205772233
 30
0.0
 10
58.81648312635033
 20
225.8220976661917
 30
0.0
 10
60.46776266751004
 20
225.3898796809759
 30
0.0
 10
62.32106481645502
 20
224.7796191405855
 30
0.0
 10
63.57023231781132
 20
224.1225649846437
 30
0.0
 10
64.30421283574786
 20
223.7364959033019
 30
0.0
 11
52.90934479099533
 21
226.2154985184105
 31
0.0
 11
57.11740685555872
 21
226.0529057684298
 31
0.0
 11
58.85856767595068
 21
225.7828168883962
 31
0.0
 11
60.42187717195448
 21
225.385268051867
 31
0.0
 11
62.07047110122271
 21
224.8203390906569
 31
0.0
 11
64.30421283574786
 21
223.7364959033019
 31
0.0
  0
SPLINE
  5
22EA
100
AcDbEntity
  8
外形
  6
CONTINUOUS
100
AcDbSpline
210
0.0
220
0.0
230
1.0
 70
     8
 71
     3
 72
    10
 73
     6
 74
     0
 42
0.0000001
 43
0.0000001
 40
0.0
 40
0.0
 40
0.0
 40
0.0
 40
1.565222805397017
 40
2.777767502280673
 40
3.310952065127667
 40
3.310952065127667
 40
3.310952065127667
 40
3.310952065127667
 10
67.05989303720691
 20
218.3281689901059
 30
0.0
 10
66.7067892542596
 20
217.9361694257136
 30
0.0
 10
66.08014350783844
 20
217.2404961662116
 30
0.0
 10
65.07066252629496
 20
216.7572439137106
 30
0.0
 10
64.52640033593557
 20
216.5466150221782
 30
0.0
 10
64.35881231578139
 20
216.4871368926618
 30
0.0
  0
LINE
  5
22EB
100
AcDbEntity
  8
外形
  6
CONTINUOUS
100
AcDbLine
 10
64.304213
 20
223.736496
 30
0.0
 11
67.059893
 21
218.328169
 31
0.0
  0
ELLIPSE
  5
22EF
100
AcDbEntity
  8
外形
  6
CONTINUOUS
100
AcDbEllipse
 10
66.682053
 20
221.032332
 30
0.0
 11
0.0
 21
2.704163456597996
 31
0.0
210
0.0
220
0.0
230
1.0
 40
0.1849
 41
0.0
 42
1.973511392911521
  0
LINE
  5
22F0
100
AcDbEntity
  8
外形
  6
CONTINUOUS
100
AcDbLine
 10
66.682053
 20
217.916226
 30
0.0
 11
66.682053
 21
216.032332
 31
0.0
  0
LINE
  5
22F1
100
AcDbEntity
  8
外形
  6
CONTINUOUS
100
AcDbLine
 10
64.932053
 20
216.71053
 30
0.0
 11
64.932053
 21
216.309187
 31
0.0
  0
LINE
  5
22F2
100
AcDbEntity
  8
外形
  6
CONTINUOUS
100
AcDbLine
 10
64.682053
 20
216.608319
 30
0.0
 11
64.682053
 21
216.391439
 31
0.0
  0
ARC
  5
22F9
100
AcDbEntity
  8
外形
  6
CONTINUOUS
100
AcDbCircle
 10
61.682053
 20
206.852047
 30
0.0
 40
10.0
100
AcDbArc
 50
66.639551
 51
116.743684
  0
LINE
  5
22FA
100
AcDbEntity
  8
外形
  6
CONTINUOUS
100
AcDbLine
 10
52.650042
 20
181.208593
 30
0.0
 11
50.682053
 21
181.38077
 31
0.0
  0
LINE
  5
22FC
100
AcDbEntity
  8
外形
  6
CONTINUOUS
100
AcDbLine
 10
51.70255
 20
176.13077
 30
0.0
 11
50.682053
 21
181.38077
 31
0.0
  0
LINE
  5
22FD
100
AcDbEntity
  8
外形
  6
CONTINUOUS
100
AcDbLine
 10
52.650042
 20
178.197658
 30
0.0
 11
51.277445
 21
178.317745
 31
0.0
  0
LINE
  5
22FF
100
AcDbEntity
  8
外形
  6
CONTINUOUS
100
AcDbLine
 10
52.650042
 20
181.486325
 30
0.0
 11
52.650042
 21
178.197658
 31
0.0
  0
LINE
  5
2300
100
AcDbEntity
  8
外形
  6
CONTINUOUS
100
AcDbLine
 10
50.682053
 20
181.38077
 30
0.0
 11
51.22196
 21
182.92904
 31
0.0
  0
LINE
  5
2301
100
AcDbEntity
  8
外形
  6
CONTINUOUS
100
AcDbLine
 10
58.816028
 20
178.84977
 30
0.0
 11
58.816028
 21
176.13077
 31
0.0
  0
LINE
  5
2302
100
AcDbEntity
  8
外形
  6
CONTINUOUS
100
AcDbLine
 10
60.682053
 20
176.63077
 30
0.0
 11
60.682053
 21
179.22077
 31
0.0
  0
LINE
  5
2303
100
AcDbEntity
  8
外形
  6
CONTINUOUS
100
AcDbLine
 10
69.682053
 20
176.88077
 30
0.0
 11
69.682053
 21
176.38077
 31
0.0
  0
LINE
  5
2304
100
AcDbEntity
  8
外形
  6
CONTINUOUS
100
AcDbLine
 10
69.682053
 20
176.88077
 30
0.0
 11
230.182053
 21
176.88077
 31
0.0
  0
LINE
  5
2309
100
AcDbEntity
  8
外形
  6
CENTER
 62
     1
100
AcDbLine
 10
146.578195
 20
229.931608
 30
0.0
 11
146.578195
 21
212.133057
 31
0.0
  0
ARC
  5
230A
100
AcDbEntity
  8
外形
  6
CONTINUOUS
100
AcDbCircle
 10
146.578195
 20
221.032332
 30
0.0
 40
5.0
100
AcDbArc
 50
25.841933
 51
154.158067
  0
LINE
  5
230B
100
AcDbEntity
  8
外形
  6
CONTINUOUS
100
AcDbLine
 10
142.078195
 20
218.852883
 30
0.0
 11
142.078195
 21
223.211782
 31
0.0
  0
LINE
  5
230C
100
AcDbEntity
  8
外形
  6
CONTINUOUS
100
AcDbLine
 10
151.078195
 20
223.211782
 30
0.0
 11
151.078195
 21
218.852883
 31
0.0
  0
LINE
  5
230F
100
AcDbEntity
  8
外形
  6
CONTINUOUS
100
AcDbLine
 10
154.053793
 20
226.032332
 30
0.0
 11
229.682053
 21
226.032332
 31
0.0
  0
LINE
  5
2310
100
AcDbEntity
  8
外形
  6
CONTINUOUS
100
AcDbLine
 10
154.053793
 20
223.736496
 30
0.0
 11
229.682053
 21
223.736496
 31
0.0
  0
LINE
  5
2311
100
AcDbEntity
  8
外形
  6
CONTINUOUS
100
AcDbLine
 10
154.053793
 20
218.328169
 30
0.0
 11
229.682053
 21
218.328169
 31
0.0
  0
LINE
  5
2312
100
AcDbEntity
  8
外形
  6
CONTINUOUS
100
AcDbLine
 10
154.053793
 20
216.032332
 30
0.0
 11
229.682053
 21
216.032332
 31
0.0
  0
ARC
  5
2313
100
AcDbEntity
  8
外形
  6
CONTINUOUS
100
AcDbCircle
 10
146.578195
 20
221.032332
 30
0.0
 40
5.0
100
AcDbArc
 50
205.841933
 51
334.158067
  0
LINE
  5
2316
100
AcDbEntity
  8
外形
  6
CONTINUOUS
100
AcDbLine
 10
229.682053
 20
226.032332
 30
0.0
 11
229.682053
 21
223.736496
 31
0.0
  0
ELLIPSE
  5
2318
100
AcDbEntity
  8
外形
  6
CONTINUOUS
100
AcDbEllipse
 10
229.682053
 20
221.032332
 30
0.0
 11
0.0
 21
2.704163456597996
 31
0.0
210
0.0
220
0.0
230
1.0
 40
0.1849
 41
3.141592653589793
 42
6.283185307179586
  0
LINE
  5
2319
100
AcDbEntity
  8
外形
  6
CONTINUOUS
100
AcDbLine
 10
229.682053
 20
218.328169
 30
0.0
 11
229.682053
 21
216.032332
 31
0.0
  0
LINE
  5
231A
100
AcDbEntity
  8
外形
  6
CONTINUOUS
100
AcDbLine
 10
229.682053
 20
216.032332
 30
0.0
 11
230.682053
 21
217.032332
 31
0.0
  0
LINE
  5
231B
100
AcDbEntity
  8
外形
  6
CONTINUOUS
100
AcDbLine
 10
229.682053
 20
226.032332
 30
0.0
 11
230.682053
 21
225.032332
 31
0.0
  0
LINE
  5
231C
100
AcDbEntity
  8
外形
  6
CONTINUOUS
100
AcDbLine
 10
230.682053
 20
225.032332
 30
0.0
 11
230.682053
 21
217.032332
 31
0.0
  0
LINE
  5
231E
100
AcDbEntity
  8
外形
  6
CONTINUOUS
100
AcDbLine
 10
230.182053
 20
185.88077
 30
0.0
 11
230.682053
 21
185.38077
 31
0.0
  0
LINE
  5
231F
100
AcDbEntity
  8
外形
  6
CONTINUOUS
100
AcDbLine
 10
229.682053
 20
185.88077
 30
0.0
 11
229.682053
 21
176.88077
 31
0.0
  0
LINE
  5
2320
100
AcDbEntity
  8
外形
  6
CONTINUOUS
100
AcDbLine
 10
230.682053
 20
185.38077
 30
0.0
 11
230.682053
 21
177.38077
 31
0.0
  0
LINE
  5
2321
100
AcDbEntity
  8
外形
  6
CONTINUOUS
100
AcDbLine
 10
230.182053
 20
176.88077
 30
0.0
 11
230.682053
 21
177.38077
 31
0.0
  0
ARC
  5
2322
100
AcDbEntity
  8
外形
  6
CONTINUOUS
100
AcDbCircle
 10
22.807346
 20
221.032332
 30
0.0
 40
5.25
100
AcDbArc
 50
271.152048
 51
328.997281
  0
DIMENSION
  5
2352
100
AcDbEntity
  8
寸法
  6
CONTINUOUS
100
AcDbDimension
  2
*D4
 10
24.355615
 20
226.048841
 30
0.0
 11
14.408658
 21
207.56378
 31
0.0
 70
    34
  3
STANDARD
100
AcDb2LineAngularDimension
 13
22.807346
 23
230.803545
 33
0.0
 14
22.807346
 24
211.26112
 34
0.0
 15
22.807346
 25
215.032332
 35
0.0
 16
22.207914
 26
202.162295
 36
0.0
1001
ACAD
1000
DSTYLE
1002
{
1070
   284
1070
    13
1070
   146
1040
0.5
1070
   272
1070
     3
1070
    40
1040
1.0
1070
   287
1070
     0
1002
}
  0
DIMENSION
  5
235F
100
AcDbEntity
  8
寸法
  6
CONTINUOUS
100
AcDbDimension
  2
*D5
 10
45.311831
 20
215.032332
 30
0.0
 11
42.811831
 21
209.032332
 31
0.0
 70
    32
  3
STANDARD
100
AcDbAlignedDimension
 13
47.911331
 23
221.032332
 33
0.0
 14
50.682053
 24
215.032332
 34
0.0
 50
90.0
100
AcDbRotatedDimension
1001
ACAD
1000
DSTYLE
1002
{
1070
   284
1070
    13
1070
   146
1040
0.5
1070
   272
1070
     3
1070
    40
1040
1.0
1070
   287
1070
     0
1002
}
  0
DIMENSION
  5
238C
100
AcDbEntity
  8
寸法
  6
CONTINUOUS
100
AcDbDimension
  2
*D6
 10
50.682053
 20
215.032332
 30
0.0
 11
38.639147
 21
227.700239
 31
0.0
 70
    34
  3
STANDARD
100
AcDb2LineAngularDimension
 13
50.682601
 23
215.453267
 33
0.0
 14
51.22196
 24
225.744846
 34
0.0
 15
51.082053
 25
215.032332
 35
0.0
 16
43.635389
 26
228.244722
 36
0.0
1001
ACAD
1000
DSTYLE
1002
{
1070
   284
1070
    13
1070
   146
1040
0.5
1070
   272
1070
     3
1070
    40
1040
1.0
1070
   287
1070
     0
1002
}
  0
CIRCLE
  5
239A
100
AcDbEntity
  8
外形
  6
PHANTOM
 62
     1
100
AcDbCircle
 10
22.807346
 20
221.032332
 30
0.0
 40
6.0
  0
DIMENSION
  5
23A5
100
AcDbEntity
  8
寸法
  6
CONTINUOUS
100
AcDbDimension
  2
*D7
 10
18.796959
 20
216.569509
 30
0.0
 11
32.833314
 21
232.189391
 31
0.0
 70
   163
  3
STANDARD
100
AcDbDiametricDimension
 15
26.817733
 25
225.495156
 35
0.0
 40
0.0
1001
ACAD
1000
DSTYLE
1002
{
1070
   284
1070
    13
1070
   146
1040
0.5
1070
   272
1070
     3
1070
    40
1040
1.0
1070
   287
1070
     0
1002
}
  0
MTEXT
  5
23B0
100
AcDbEntity
  8
寸法
  6
BYBLOCK
 62
     3
100
AcDbMText
 10
30.12085
 20
239.539263
 30
0.0
 40
3.0
 41
0.0
 71
     5
 72
     1
  1
最小加工径
 11
0.654345
 21
0.756197
 31
0.0
  0
DIMENSION
  5
23FC
100
AcDbEntity
  8
寸法
  6
CONTINUOUS
100
AcDbDimension
  2
*D10
 10
144.282185
 20
216.590673
 30
0.0
 11
153.007021
 21
233.468979
 31
0.0
 12
22.041347
 22
0.0
 32
0.0
 70
   163
  3
STANDARD
100
AcDbDiametricDimension
 15
148.874204
 25
225.473992
 35
0.0
 40
0.0
1001
ACAD
1000
DSTYLE
1002
{
1070
   284
1070
    13
1070
   146
1040
0.5
1070
   272
1070
     3
1070
    40
1040
1.0
1070
   287
1070
     0
1002
}
  0
DIMENSION
  5
2409
100
AcDbEntity
  8
寸法
  6
CONTINUOUS
100
AcDbDimension
  2
*D11
 10
230.682053
 20
197.185098
 30
0.0
 11
140.682053
 21
199.685098
 31
0.0
 70
    32
  3
STANDARD
100
AcDbAlignedDimension
 13
50.682053
 23
215.032332
 33
0.0
 14
230.682053
 24
217.032332
 34
0.0
100
AcDbRotatedDimension
1001
ACAD
1000
DSTYLE
1002
{
1070
   284
1070
    13
1070
   146
1040
0.5
1070
   272
1070
     3
1070
    40
1040
1.0
1070
   287
1070
     0
1002
}
  0
DIMENSION
  5
2416
100
AcDbEntity
  8
寸法
  6
CONTINUOUS
100
AcDbDimension
  2
*D12
 10
151.078195
 20
205.091023
 30
0.0
 11
124.536848
 21
207.591023
 31
0.0
 12
22.041347
 22
0.0
 32
0.0
 70
    32
  3
STANDARD
100
AcDbAlignedDimension
 13
142.078195
 23
218.852883
 33
0.0
 14
151.078195
 24
218.852883
 34
0.0
100
AcDbRotatedDimension
1001
ACAD
1000
DSTYLE
1002
{
1070
   284
1070
    13
1070
   146
1040
0.5
1070
   272
1070
     3
1070
    40
1040
1.0
1070
   287
1070
     0
1002
}
  0
DIMENSION
  5
2455
100
AcDbEntity
  8
寸法
  6
CONTINUOUS
100
AcDbDimension
  2
*D13
 10
50.682053
 20
181.38077
 30
0.0
 11
42.656824
 21
190.975575
 31
0.0
 70
    34
  3
STANDARD
100
AcDb2LineAngularDimension
 13
47.955788
 23
181.38077
 33
0.0
 14
237.950826
 24
181.38077
 34
0.0
 15
52.650042
 25
181.208593
 35
0.0
 16
41.439707
 26
181.649695
 36
0.0
1001
ACAD
1000
DSTYLE
1002
{
1070
   284
1070
    13
1070
   146
1040
0.5
1070
   272
1070
     3
1070
    40
1040
1.0
1070
   287
1070
     0
1002
}
  0
DIMENSION
  5
2473
100
AcDbEntity
  8
寸法
  6
CONTINUOUS
100
AcDbDimension
  2
*D14
 10
69.682053
 20
165.292319
 30
0.0
 11
60.182053
 21
167.792319
 31
0.0
 70
    32
  3
STANDARD
100
AcDbAlignedDimension
 13
50.682053
 23
181.38077
 33
0.0
 14
69.682053
 24
176.38077
 34
0.0
100
AcDbRotatedDimension
1001
ACAD
1000
DSTYLE
1002
{
1070
   284
1070
    13
1070
   146
1040
0.5
1070
   272
1070
     3
1070
    40
1040
1.0
1070
   287
1070
     0
1002
}
  0
CIRCLE
  5
24A2
100
AcDbEntity
  8
外形
  6
CONTINUOUS
100
AcDbCircle
 10
54.1048
 20
220.086954
 30
0.0
 40
1.35
  0
ARC
  5
24A3
100
AcDbEntity
  8
外形
  6
CONTINUOUS
100
AcDbCircle
 10
54.1048
 20
220.791016
 30
0.0
 40
0.2
100
AcDbArc
 50
240.283476
 51
299.716524
  0
ARC
  5
24A4
100
AcDbEntity
  8
外形
  6
CONTINUOUS
100
AcDbCircle
 10
53.495064
 20
220.438985
 30
0.0
 40
0.2
100
AcDbArc
 50
300.283476
 51
359.716524
  0
ARC
  5
24A5
100
AcDbEntity
  8
外形
  6
CONTINUOUS
100
AcDbCircle
 10
53.495064
 20
219.734923
 30
0.0
 40
0.2
100
AcDbArc
 50
0.283476
 51
59.716524
  0
ARC
  5
24A6
100
AcDbEntity
  8
外形
  6
CONTINUOUS
100
AcDbCircle
 10
54.1048
 20
219.382892
 30
0.0
 40
0.2
100
AcDbArc
 50
60.283476
 51
119.716524
  0
ARC
  5
24A7
100
AcDbEntity
  8
外形
  6
CONTINUOUS
100
AcDbCircle
 10
54.714535
 20
219.734923
 30
0.0
 40
0.2
100
AcDbArc
 50
120.283476
 51
179.716524
  0
ARC
  5
24A8
100
AcDbEntity
  8
外形
  6
CONTINUOUS
100
AcDbCircle
 10
54.714535
 20
220.438985
 30
0.0
 40
0.2
100
AcDbArc
 50
180.283476
 51
239.716524
  0
LINE
  5
24A9
100
AcDbEntity
  8
外形
  6
CONTINUOUS
100
AcDbLine
 10
54.512778
 20
219.380314
 30
0.0
 11
54.203941
 21
219.55659
 31
0.0
  0
LINE
  5
24AA
100
AcDbEntity
  8
外形
  6
CONTINUOUS
100
AcDbLine
 10
54.514538
 20
219.735913
 30
0.0
 11
54.512778
 21
219.380314
 31
0.0
  0
LINE
  5
24AB
100
AcDbEntity
  8
外形
  6
CONTINUOUS
100
AcDbLine
 10
53.696821
 20
219.380314
 30
0.0
 11
53.695061
 21
219.735913
 31
0.0
  0
LINE
  5
24AC
100
AcDbEntity
  8
外形
  6
CONTINUOUS
100
AcDbLine
 10
54.005658
 20
219.55659
 30
0.0
 11
53.696821
 21
219.380314
 31
0.0
  0
LINE
  5
24AD
100
AcDbEntity
  8
外形
  6
CONTINUOUS
100
AcDbLine
 10
53.696821
 20
220.793594
 30
0.0
 11
54.005658
 21
220.617318
 31
0.0
  0
LINE
  5
24AE
100
AcDbEntity
  8
外形
  6
CONTINUOUS
100
AcDbLine
 10
53.695061
 20
220.437996
 30
0.0
 11
53.696821
 21
220.793594
 31
0.0
  0
LINE
  5
24AF
100
AcDbEntity
  8
外形
  6
CONTINUOUS
100
AcDbLine
 10
54.512778
 20
220.793594
 30
0.0
 11
54.514538
 21
220.437996
 31
0.0
  0
LINE
  5
24B0
100
AcDbEntity
  8
外形
  6
CONTINUOUS
100
AcDbLine
 10
54.203941
 20
220.617318
 30
0.0
 11
54.512778
 21
220.793594
 31
0.0
  0
LINE
  5
24B1
100
AcDbEntity
  8
外形
  6
CONTINUOUS
100
AcDbLine
 10
54.920757
 20
220.086954
 30
0.0
 11
54.61368
 21
219.907631
 31
0.0
  0
LINE
  5
24B2
100
AcDbEntity
  8
外形
  6
CONTINUOUS
100
AcDbLine
 10
54.61368
 20
220.266277
 30
0.0
 11
54.920757
 21
220.086954
 31
0.0
  0
LINE
  5
24B3
100
AcDbEntity
  8
外形
  6
CONTINUOUS
100
AcDbLine
 10
53.288842
 20
220.086954
 30
0.0
 11
53.59592
 21
220.266277
 31
0.0
  0
LINE
  5
24B4
100
AcDbEntity
  8
外形
  6
CONTINUOUS
100
AcDbLine
 10
53.59592
 20
219.907631
 30
0.0
 11
53.288842
 21
220.086954
 31
0.0
  0
ENDSEC
  0
SECTION
  2
OBJECTS
  0
DICTIONARY
  5
1E
100
AcDbDictionary
  3
ACAD_GROUP
350
1C
  3
ACAD_MLINESTYLE
350
1D
  3
ACDBVARIABLEDICTIONARY
350
147A
  3
DRAWINGVARIABLESDICT
350
C58
  0
DICTIONARY
  5
38
100
AcDbDictionary
280
     1
  3
ACAD_XREC_ROUNDTRIP
360
39
  0
DICTIONARY
  5
22
100
AcDbDictionary
280
     1
  3
ACAD_XREC_ROUNDTRIP
360
23
  0
DICTIONARY
  5
3
100
AcDbDictionary
280
     1
  3
ACAD_LAYOUTSELFREF
360
4
  0
DICTIONARY
  5
A
100
AcDbDictionary
280
     1
  3
ACAD_LAYOUTSELFREF
360
B
  0
DICTIONARY
  5
1C
102
{ACAD_REACTORS
330
1E
102
}
100
AcDbDictionary
  0
DICTIONARY
  5
1D
102
{ACAD_REACTORS
330
1E
102
}
100
AcDbDictionary
  3
STANDARD
350
20
  0
DICTIONARY
  5
147A
102
{ACAD_REACTORS
330
1E
102
}
100
AcDbDictionary
  3
SORTENTS
350
147B
  0
DICTIONARY
  5
C58
102
{ACAD_REACTORS
330
1E
102
}
100
AcDbDictionary
1001
DRAWINGVARIABLESXDATA
1000
POLARMODE
1000
0
  0
XRECORD
  5
39
102
{ACAD_REACTORS
330
38
102
}
100
AcDbXrecord
102
PLOTBIT
280
     0
  0
XRECORD
  5
23
102
{ACAD_REACTORS
330
22
102
}
100
AcDbXrecord
102
ACADR14ROUNDTRIP
1000
DSTYLE
1002
{
1070
   341
340
0
1070
   343
340
0
1070
   344
340
0
1002
}
  0
XRECORD
  5
4
102
{ACAD_REACTORS
330
3
102
}
100
AcDbXrecord
340
2
  0
XRECORD
  5
B
102
{ACAD_REACTORS
330
A
102
}
100
AcDbXrecord
340
9
  0
MLINESTYLE
  5
20
102
{ACAD_REACTORS
330
1D
102
}
100
AcDbMlineStyle
  2
STANDARD
 70
     0
  3

 62
     0
 51
90.0
 52
90.0
 71
     2
 49
0.5
 62
   256
  6
BYLAYER
 49
-0.5
 62
   256
  6
BYLAYER
  0
DICTIONARYVAR
  5
147B
102
{ACAD_REACTORS
330
147A
102
}
100
DictionaryVariables
280
     0
  1
96
  0
ENDSEC
  0
EOF
