  0
SECTION
  2
HEADER
  9
$ACADVER
  1
AC1015
  9
$ACADMAINTVER
 70
     6
  9
$DWGCODEPAGE
  3
ANSI_932
  9
$INSBASE
 10
0.0
 20
0.0
 30
0.0
  9
$EXTMIN
 10
-105.0159745046985
 20
-111.3326898882273
 30
-0.0000000000112498
  9
$EXTMAX
 10
153.8347748191154
 20
33.65039924677433
 30
0.0000000000002956
  9
$LIMMIN
 10
0.0
 20
0.0
  9
$LIMMAX
 10
420.0
 20
297.0
  9
$ORTHOMODE
 70
     1
  9
$REGENMODE
 70
     1
  9
$FILLMODE
 70
     1
  9
$QTEXTMODE
 70
     0
  9
$MIRRTEXT
 70
     1
  9
$LTSCALE
 40
1.0
  9
$ATTMODE
 70
     1
  9
$TEXTSIZE
 40
2.5
  9
$TRACEWID
 40
1.0
  9
$TEXTSTYLE
  7
STANDARD
  9
$CLAYER
  8
0
  9
$CELTYPE
  6
ByLayer
  9
$CECOLOR
 62
   256
  9
$CELTSCALE
 40
1.0
  9
$DISPSILH
 70
     0
  9
$DIMSCALE
 40
1.0
  9
$DIMASZ
 40
2.5
  9
$DIMEXO
 40
0.625
  9
$DIMDLI
 40
3.75
  9
$DIMRND
 40
0.0
  9
$DIMDLE
 40
0.0
  9
$DIMEXE
 40
1.25
  9
$DIMTP
 40
0.0
  9
$DIMTM
 40
0.0
  9
$DIMTXT
 40
2.5
  9
$DIMCEN
 40
2.5
  9
$DIMTSZ
 40
0.0
  9
$DIMTOL
 70
     0
  9
$DIMLIM
 70
     0
  9
$DIMTIH
 70
     0
  9
$DIMTOH
 70
     0
  9
$DIMSE1
 70
     0
  9
$DIMSE2
 70
     0
  9
$DIMTAD
 70
     1
  9
$DIMZIN
 70
     8
  9
$DIMBLK
  1

  9
$DIMASO
 70
     1
  9
$DIMSHO
 70
     1
  9
$DIMPOST
  1

  9
$DIMAPOST
  1

  9
$DIMALT
 70
     0
  9
$DIMALTD
 70
     3
  9
$DIMALTF
 40
0.03937007874016
  9
$DIMLFAC
 40
1.0
  9
$DIMTOFL
 70
     1
  9
$DIMTVP
 40
0.0
  9
$DIMTIX
 70
     0
  9
$DIMSOXD
 70
     0
  9
$DIMSAH
 70
     0
  9
$DIMBLK1
  1

  9
$DIMBLK2
  1

  9
$DIMSTYLE
  2
ISO-25
  9
$DIMCLRD
 70
     0
  9
$DIMCLRE
 70
     0
  9
$DIMCLRT
 70
     0
  9
$DIMTFAC
 40
1.0
  9
$DIMGAP
 40
0.625
  9
$DIMJUST
 70
     0
  9
$DIMSD1
 70
     0
  9
$DIMSD2
 70
     0
  9
$DIMTOLJ
 70
     0
  9
$DIMTZIN
 70
     8
  9
$DIMALTZ
 70
     0
  9
$DIMALTTZ
 70
     0
  9
$DIMUPT
 70
     0
  9
$DIMDEC
 70
     2
  9
$DIMTDEC
 70
     2
  9
$DIMALTU
 70
     2
  9
$DIMALTTD
 70
     3
  9
$DIMTXSTY
  7
STANDARD
  9
$DIMAUNIT
 70
     0
  9
$DIMADEC
 70
     0
  9
$DIMALTRND
 40
0.0
  9
$DIMAZIN
 70
     0
  9
$DIMDSEP
 70
    46
  9
$DIMATFIT
 70
     3
  9
$DIMFRAC
 70
     0
  9
$DIMLDRBLK
  1

  9
$DIMLUNIT
 70
     2
  9
$DIMLWD
 70
    -2
  9
$DIMLWE
 70
    -2
  9
$DIMTMOVE
 70
     0
  9
$LUNITS
 70
     2
  9
$LUPREC
 70
     2
  9
$SKETCHINC
 40
1.0
  9
$FILLETRAD
 40
2.5
  9
$AUNITS
 70
     0
  9
$AUPREC
 70
     0
  9
$MENU
  1
.
  9
$ELEVATION
 40
0.0
  9
$PELEVATION
 40
0.0
  9
$THICKNESS
 40
0.0
  9
$LIMCHECK
 70
     0
  9
$CHAMFERA
 40
2.5
  9
$CHAMFERB
 40
2.5
  9
$CHAMFERC
 40
20.0
  9
$CHAMFERD
 40
0.0
  9
$SKPOLY
 70
     0
  9
$TDCREATE
 40
2453210.379162743
  9
$TDUCREATE
 40
2453210.004162743
  9
$TDUPDATE
 40
2455468.382816296
  9
$TDUUPDATE
 40
2455468.007816296
  9
$TDINDWG
 40
0.0687058333
  9
$TDUSRTIMER
 40
0.0687053704
  9
$USRTIMER
 70
     1
  9
$ANGBASE
 50
0.0
  9
$ANGDIR
 70
     0
  9
$PDMODE
 70
     0
  9
$PDSIZE
 40
0.0
  9
$PLINEWID
 40
0.0
  9
$SPLFRAME
 70
     0
  9
$SPLINETYPE
 70
     6
  9
$SPLINESEGS
 70
     8
  9
$HANDSEED
  5
253F
  9
$SURFTAB1
 70
     6
  9
$SURFTAB2
 70
     6
  9
$SURFTYPE
 70
     6
  9
$SURFU
 70
     6
  9
$SURFV
 70
     6
  9
$UCSBASE
  2

  9
$UCSNAME
  2

  9
$UCSORG
 10
0.0
 20
0.0
 30
0.0
  9
$UCSXDIR
 10
1.0
 20
0.0
 30
0.0
  9
$UCSYDIR
 10
0.0
 20
1.0
 30
0.0
  9
$UCSORTHOREF
  2

  9
$UCSORTHOVIEW
 70
     0
  9
$UCSORGTOP
 10
0.0
 20
0.0
 30
0.0
  9
$UCSORGBOTTOM
 10
0.0
 20
0.0
 30
0.0
  9
$UCSORGLEFT
 10
0.0
 20
0.0
 30
0.0
  9
$UCSORGRIGHT
 10
0.0
 20
0.0
 30
0.0
  9
$UCSORGFRONT
 10
0.0
 20
0.0
 30
0.0
  9
$UCSORGBACK
 10
0.0
 20
0.0
 30
0.0
  9
$PUCSBASE
  2

  9
$PUCSNAME
  2

  9
$PUCSORG
 10
0.0
 20
0.0
 30
0.0
  9
$PUCSXDIR
 10
1.0
 20
0.0
 30
0.0
  9
$PUCSYDIR
 10
0.0
 20
1.0
 30
0.0
  9
$PUCSORTHOREF
  2

  9
$PUCSORTHOVIEW
 70
     0
  9
$PUCSORGTOP
 10
0.0
 20
0.0
 30
0.0
  9
$PUCSORGBOTTOM
 10
0.0
 20
0.0
 30
0.0
  9
$PUCSORGLEFT
 10
0.0
 20
0.0
 30
0.0
  9
$PUCSORGRIGHT
 10
0.0
 20
0.0
 30
0.0
  9
$PUCSORGFRONT
 10
0.0
 20
0.0
 30
0.0
  9
$PUCSORGBACK
 10
0.0
 20
0.0
 30
0.0
  9
$USERI1
 70
     0
  9
$USERI2
 70
     0
  9
$USERI3
 70
     0
  9
$USERI4
 70
     0
  9
$USERI5
 70
     0
  9
$USERR1
 40
0.0
  9
$USERR2
 40
0.0
  9
$USERR3
 40
0.0
  9
$USERR4
 40
0.0
  9
$USERR5
 40
0.0
  9
$WORLDVIEW
 70
     1
  9
$SHADEDGE
 70
     3
  9
$SHADEDIF
 70
    70
  9
$TILEMODE
 70
     1
  9
$MAXACTVP
 70
    64
  9
$PINSBASE
 10
0.0
 20
0.0
 30
0.0
  9
$PLIMCHECK
 70
     0
  9
$PEXTMIN
 10
1.000000000000000E+20
 20
1.000000000000000E+20
 30
1.000000000000000E+20
  9
$PEXTMAX
 10
-1.000000000000000E+20
 20
-1.000000000000000E+20
 30
-1.000000000000000E+20
  9
$PLIMMIN
 10
0.0
 20
0.0
  9
$PLIMMAX
 10
420.0
 20
297.0
  9
$UNITMODE
 70
     0
  9
$VISRETAIN
 70
     1
  9
$PLINEGEN
 70
     0
  9
$PSLTSCALE
 70
     1
  9
$TREEDEPTH
 70
  3020
  9
$CMLSTYLE
  2
Standard
  9
$CMLJUST
 70
     0
  9
$CMLSCALE
 40
20.0
  9
$PROXYGRAPHICS
 70
     1
  9
$MEASUREMENT
 70
     1
  9
$CELWEIGHT
370
    -1
  9
$ENDCAPS
280
     0
  9
$JOINSTYLE
280
     0
  9
$LWDISPLAY
290
     0
  9
$INSUNITS
 70
     4
  9
$HYPERLINKBASE
  1

  9
$STYLESHEET
  1
sei_cad.ctb
  9
$XEDIT
290
     1
  9
$CEPSNTYPE
380
     0
  9
$PSTYLEMODE
290
     1
  9
$FINGERPRINTGUID
  2
{29CAF1BE-B3FE-466B-B149-E572B19B5D3B}
  9
$VERSIONGUID
  2
{F44ADD4C-CAE0-44D1-A9DF-5984DBDC4D1D}
  9
$EXTNAMES
290
     1
  9
$PSVPSCALE
 40
0.0
  9
$OLESTARTUP
290
     0
  0
ENDSEC
  0
SECTION
  2
CLASSES
  0
CLASS
  1
ACDBDICTIONARYWDFLT
  2
AcDbDictionaryWithDefault
  3
ObjectDBX Classes
 90
        0
280
     0
281
     0
  0
CLASS
  1
ACDBPLACEHOLDER
  2
AcDbPlaceHolder
  3
ObjectDBX Classes
 90
        0
280
     0
281
     0
  0
CLASS
  1
LAYOUT
  2
AcDbLayout
  3
ObjectDBX Classes
 90
        0
280
     0
281
     0
  0
CLASS
  1
AMGSETTINGSOBJ
  2
AmgSettingsObj
  3
"AcadM|Product Description: AutoCAD Mechanical 2000|Company: Autodesk"
 90
        0
280
     1
281
     0
  0
CLASS
  1
ACME_DOCUMENT
  2
AcMeDbDoc
  3
AcMeServices
 90
        0
280
     1
281
     0
  0
CLASS
  1
ACMESCOPE
  2
AcMeScope
  3
AcMeServices
 90
        0
280
     1
281
     0
  0
CLASS
  1
ACMECOMMANDHISTORY
  2
AcMeCommandHistory
  3
AcMeServices
 90
        0
280
     1
281
     0
  0
CLASS
  1
DICTIONARYVAR
  2
AcDbDictionaryVar
  3
ObjectDBX Classes
 90
        0
280
     0
281
     0
  0
CLASS
  1
ACIMSYSVARMAN
  2
AcImSysVarManager
  3
AcMeServices
 90
        0
280
     1
281
     0
  0
CLASS
  1
ACIMREALSYSVAR
  2
AcImRealSysVar
  3
AcMeServices
 90
        0
280
     1
281
     0
  0
CLASS
  1
ACIMINTSYSVAR
  2
AcImIntSysVar
  3
AcMeServices
 90
        0
280
     1
281
     0
  0
CLASS
  1
ACMEDRAWINGMAN
  2
AcMeDrawingMan
  3
AcMeServices
 90
        0
280
     1
281
     0
  0
CLASS
  1
ACMEVIEW
  2
AcMeView
  3
AcMeServices
 90
        0
280
     1
281
     0
  0
CLASS
  1
ACDBENTITYCACHE
  2
AcMeEntityCache
  3
AcMeServices
 90
        0
280
     1
281
     0
  0
CLASS
  1
GSMANAGER
  2
AcMeGSManager
  3
AcMeServices
 90
        0
280
     1
281
     0
  0
CLASS
  1
AMDTINTERNALREACTOR
  2
AmdtInternalReactor
  3
AcMeServices
 90
        0
280
     1
281
     0
  0
CLASS
  1
ACMESTATEMGR
  2
AcMeStateMgr
  3
AcMeServices
 90
        0
280
     1
281
     0
  0
CLASS
  1
ACME_DATABASE
  2
AcMeDbDatabase
  3
AcMeServices
 90
        0
280
     1
281
     0
  0
CLASS
  1
ACRFINSADJUSTERMGR
  2
AcRfInsAdjusterMgr
  3
AcMeServices
 90
        0
280
     1
281
     0
  0
CLASS
  1
ACMDATADICTIONARY
  2
AcmDataDictionary
  3
"AcmSymBB|Product Description: AutoCAD Mechanical 2004 DX|Company: Autodesk"
 90
        0
280
     1
281
     0
  0
CLASS
  1
ACMDATAENTRYBLOCK
  2
AcmDataEntryBlock
  3
"AcmSymBB|Product Description: AutoCAD Mechanical 2004 DX|Company: Autodesk"
 90
        0
280
     1
281
     0
  0
CLASS
  1
AMGOBJPROPCFG
  2
AmgObjPropCfg
  3
"AmgLay|Product Description: AutoCAD Mechanical 2000|Company: Autodesk"
 90
        1
280
     1
281
     0
  0
CLASS
  1
ACMSTANDARDJIS
  2
AcmStandardJIS
  3
"Amdt_StdImp|Product Description: AutoCAD Mechanical 2004 DX|Company: Autodesk"
 90
        0
280
     1
281
     0
  0
CLASS
  1
ACMSURFSTANDARDJIS
  2
AcmSurfTextStdJIS
  3
"Amdt_StdImp|Product Description: AutoCAD Mechanical 2004 DX|Company: Autodesk"
 90
        0
280
     1
281
     0
  0
CLASS
  1
ACMFCFSTANDARDJIS
  2
AcmFCFStdJIS
  3
"Amdt_StdImp|Product Description: AutoCAD Mechanical 2004 DX|Company: Autodesk"
 90
        0
280
     1
281
     0
  0
CLASS
  1
ACMWELDSTANDARDJIS
  2
AcmWeldingStdJIS
  3
"Amdt_StdImp|Product Description: AutoCAD Mechanical 2004 DX|Company: Autodesk"
 90
        0
280
     1
281
     0
  0
CLASS
  1
ACMIDSTANDARDJIS
  2
AcmIdStdJIS
  3
"Amdt_StdImp|Product Description: AutoCAD Mechanical 2004 DX|Company: Autodesk"
 90
        0
280
     1
281
     0
  0
CLASS
  1
ACMDATUMSTANDARDJIS
  2
AcmDatumStdJIS
  3
"Amdt_StdImp|Product Description: AutoCAD Mechanical 2004 DX|Company: Autodesk"
 90
        0
280
     1
281
     0
  0
CLASS
  1
ACMBOMSTANDARDJIS
  2
AcmBOMStdJIS
  3
"Amdt_StdImp|Product Description: AutoCAD Mechanical 2004 DX|Company: Autodesk"
 90
        0
280
     1
281
     0
  0
CLASS
  1
ACAMGFILTERDAT
  2
AcAmgFilterDat
  3
"AcadM|Product Description: AutoCAD Mechanical 2000|Company: Autodesk"
 90
        0
280
     1
281
     0
  0
CLASS
  1
LAYER_INDEX
  2
AcDbLayerIndex
  3
ObjectDBX Classes
 90
        0
280
     0
281
     0
  0
CLASS
  1
IDBUFFER
  2
AcDbIdBuffer
  3
ObjectDBX Classes
 90
        0
280
     0
281
     0
  0
CLASS
  1
AMDTNOTE
  2
AmdtNote
  3
"AcmSymBB|Product Description: AutoCAD Mechanical 2004 DX|Company: Autodesk"
 90
     1023
280
     1
281
     1
  0
CLASS
  1
TABLESTYLE
  2
AcDbTableStyle
  3
ObjectDBX Classes
 90
     2047
280
     0
281
     0
  0
CLASS
  1
ACGREFMASTER
  2
AcGrefMaster
  3
AcAttribServices
 90
        0
280
     1
281
     0
  0
CLASS
  1
AM_DRAWING_MGR
  2
AcDmDwgMgr
  3
AcMechDwgViewMgmt
 90
        0
280
     1
281
     0
  0
CLASS
  1
AM_DWG_DOCUMENT
  2
AcDmDwgDocument
  3
AcMechDwgViewMgmt
 90
        0
280
     1
281
     0
  0
CLASS
  1
AM_DWG_SHEET
  2
AcDmSheet
  3
AcMechDwgViewMgmt
 90
        0
280
     1
281
     0
  0
CLASS
  1
AM_VIEWDIMPARMAP
  2
AcDmViewDimParMap
  3
AcMechDwgViewMgmt
 90
        0
280
     1
281
     0
  0
CLASS
  1
AM_DWGMGR_NAME
  2
AcDmDwgMgrName
  3
AcMechDwgViewMgmt
 90
        0
280
     1
281
     0
  0
CLASS
  1
ACGREFACADMASTER
  2
AcGrefacadMaster
  3
AcGrefServices
 90
        0
280
     1
281
     0
  0
CLASS
  1
AMDTMENUSTATEMGR
  2
AmdtMenuStateMgr
  3
McadcomServices
 90
        0
280
     1
281
     0
  0
CLASS
  1
AMDTMCOMMENUSTATE
  2
AmdtMcomMenuState
  3
McadcomServices
 90
        0
280
     1
281
     0
  0
CLASS
  1
AMIMASTER
  2
AmiMaster
  3
AmiServices
 90
        0
280
     1
281
     0
  0
CLASS
  1
MAPIAMMOUDLE
  2
MApiAmModule
  3
MApiAmServices
 90
        0
280
     1
281
     0
  0
CLASS
  1
AMDTADMENUSTATE
  2
AmdtAdMenuState
  3
DesignerServices
 90
        0
280
     1
281
     0
  0
CLASS
  1
ADAPPL
  2
AcAdAppl
  3
DesignerServices
 90
        0
280
     1
281
     0
  0
CLASS
  1
DEPMGR
  2
AcAdDepMgr
  3
DesignerServices
 90
        0
280
     1
281
     0
  0
CLASS
  1
PARAMMGR
  2
AcAdParamMgr
  3
DesignerServices
 90
        0
280
     1
281
     0
  0
CLASS
  1
PARAMSCOPE
  2
AcAdParamScope
  3
DesignerServices
 90
        0
280
     1
281
     0
  0
CLASS
  1
NAMEDAPPL
  2
AcAdNamedAppl
  3
DesignerServices
 90
        0
280
     1
281
     0
  0
CLASS
  1
AMDTDMMENUSTATE
  2
AmdtDmMenuState
  3
AcMechDwgViewMgmt
 90
        0
280
     1
281
     0
  0
CLASS
  1
AMDTAMMENUSTATE
  2
AmdtAmMenuState
  3
DesignerAssemblies
 90
        0
280
     1
281
     0
  0
CLASS
  1
ACIMSTRSYSVAR
  2
AcImStrSysVar
  3
AcMeServices
 90
        0
280
     1
281
     0
  0
CLASS
  1
ACAMPROJECT
  2
AcAmProject
  3
DesignerAssemblies
 90
        0
280
     1
281
     0
  0
CLASS
  1
ACAMGRCOMPDEF
  2
AcAmGrCompDef
  3
DesignerAssemblies
 90
        0
280
     1
281
     0
  0
CLASS
  1
ACCMCONTEXT
  2
AcCmContext
  3
DesignerAssemblies
 90
        0
280
     1
281
     0
  0
CLASS
  1
ACAMCOMPDEF
  2
AcAmCompDef
  3
DesignerAssemblies
 90
        0
280
     1
281
     0
  0
CLASS
  1
ACAMCOMPDEFMGR
  2
AcAmCompDefMgr
  3
DesignerAssemblies
 90
        0
280
     1
281
     0
  0
CLASS
  1
AMCONTEXTMGR
  2
AcAmContextMgr
  3
DesignerAssemblies
 90
        0
280
     1
281
     0
  0
CLASS
  1
ACAMCONTEXTMODELER
  2
AcAmContextModeler
  3
DesignerAssemblies
 90
        0
280
     1
281
     0
  0
CLASS
  1
ACAMGTITLESTD
  2
AcAmgTitleStd
  3
"TITLEAPP"
 90
        0
280
     1
281
     0
  0
CLASS
  1
ACMDETAILSTANDARDJIS
  2
AmdtDetailSymStdJIS
  3
"Amdt_StdImp|Product Description: AutoCAD Mechanical 2004 DX|Company: Autodesk"
 90
        0
280
     1
281
     0
  0
CLASS
  1
ACMSECTIONSTANDARDJIS
  2
AmdtSectionSymStdJIS
  3
"Amdt_StdImp|Product Description: AutoCAD Mechanical 2004 DX|Company: Autodesk"
 90
        0
280
     1
281
     0
  0
CLASS
  1
ACMCENTERLINESTANDARDJIS
  2
AmdtCenterLineStdJIS
  3
"Amdt_StdImp|Product Description: AutoCAD Mechanical 2004 DX|Company: Autodesk"
 90
        0
280
     1
281
     0
  0
CLASS
  1
ACMTHREADLINESTANDARDJIS
  2
AmdtThreadLineStdJIS
  3
"Amdt_StdImp|Product Description: AutoCAD Mechanical 2004 DX|Company: Autodesk"
 90
        0
280
     1
281
     0
  0
CLASS
  1
ACMNOTESTANDARDJIS
  2
AmdtNoteStdJIS
  3
"Amdt_StdImp|Product Description: AutoCAD Mechanical 2004 DX|Company: Autodesk"
 90
        0
280
     1
281
     0
  0
CLASS
  1
AMDTNOTETEMPLATEDB
  2
AmdtNoteTemplateDB
  3
AMDT_STDIMP_MODULE_NAME
 90
        0
280
     1
281
     0
  0
CLASS
  1
ACAMGLAYSTD
  2
AcAmgLayStd
  3
"AcAmgLayStd|Product Description: AutoCAD Mechanical 2000|Company: Autodesk"
 90
        0
280
     1
281
     0
  0
CLASS
  1
ACAMGDIMSTD
  2
AcAmgDimStd
  3
"AcAmgDimStd|Product Description: AutoCAD Mechanical 2000|Company: Autodesk"
 90
        0
280
     1
281
     0
  0
CLASS
  1
ACAMGHOLECHARTSTDJIS
  2
AcAmgHoleChartStdJIS
  3
ACMSYMBB_MODULE_NAME
 90
        0
280
     1
281
     0
  0
CLASS
  1
CATALOGSTATE
  2
AcAmCatalogState
  3
DesignerAssemblies
 90
        0
280
     1
281
     0
  0
CLASS
  1
ACAMGRCOMPDEFSET
  2
AcAmGrCompDefSet
  3
DesignerAssemblies
 90
        0
280
     1
281
     0
  0
CLASS
  1
AMDTBROWSERDBTAB
  2
AmdtBrowserDbTab
  3
McadcomServices
 90
        0
280
     1
281
     0
  0
CLASS
  1
CBROWSERAPPOBJECT
  2
CBrowserAppObject
  3
McadcomServices
 90
        0
280
     1
281
     0
  0
CLASS
  1
DM_PLACEHOLDER
  2
AcDmSelsetPlaceholder
  3
AcMechDwgViewMgmt
 90
        0
280
     1
281
     0
  0
CLASS
  1
SORTENTSTABLE
  2
AcDbSortentsTable
  3
ObjectDBX Classes
 90
        0
280
     0
281
     0
  0
ENDSEC
  0
SECTION
  2
TABLES
  0
TABLE
  2
VPORT
  5
8
330
0
100
AcDbSymbolTable
 70
     5
  0
VPORT
  5
2538
330
8
100
AcDbSymbolTableRecord
100
AcDbViewportTableRecord
  2
*Active
 70
     0
 10
0.0
 20
0.0
 11
1.0
 21
1.0
 12
24.40940015720844
 22
-38.84114532072647
 13
0.0
 23
0.0
 14
2.5
 24
2.5
 15
10.0
 25
10.0
 16
0.0
 26
0.0
 36
1.0
 17
0.0
 27
0.0
 37
0.0
 40
153.3209184561512
 41
1.697058823529412
 42
50.0
 43
0.0
 44
0.0
 50
0.0
 51
0.0
 71
     0
 72
   100
 73
     1
 74
     3
 75
     0
 76
     0
 77
     0
 78
     0
281
     0
 65
     1
110
0.0
120
0.0
130
0.0
111
1.0
121
0.0
131
0.0
112
0.0
122
1.0
132
0.0
 79
     0
146
0.0
  0
ENDTAB
  0
TABLE
  2
LTYPE
  5
5
330
0
100
AcDbSymbolTable
 70
    13
  0
LTYPE
  5
14
330
5
100
AcDbSymbolTableRecord
100
AcDbLinetypeTableRecord
  2
ByBlock
 70
     0
  3

 72
    65
 73
     0
 40
0.0
  0
LTYPE
  5
15
330
5
100
AcDbSymbolTableRecord
100
AcDbLinetypeTableRecord
  2
ByLayer
 70
     0
  3

 72
    65
 73
     0
 40
0.0
  0
LTYPE
  5
16
330
5
100
AcDbSymbolTableRecord
100
AcDbLinetypeTableRecord
  2
Continuous
 70
     0
  3
Solid line
 72
    65
 73
     0
 40
0.0
  0
LTYPE
  5
4B
330
5
100
AcDbSymbolTableRecord
100
AcDbLinetypeTableRecord
  2
AM_ISO02W050
 70
     0
  3
__ __ __ __ __ __ __ __ __ __ __ __ __ __ __
 72
    65
 73
     2
 40
7.5
 49
6.0
 74
     0
 49
-1.5
 74
     0
  0
LTYPE
  5
4C
330
5
100
AcDbSymbolTableRecord
100
AcDbLinetypeTableRecord
  2
AM_ISO08W050
 70
     0
  3
____ . ____ . ____ . ____ . ____ . ____ . ____
 72
    65
 73
     4
 40
18.0
 49
12.0
 74
     0
 49
-1.5
 74
     0
 49
3.0
 74
     0
 49
-1.5
 74
     0
  0
LTYPE
  5
4D
330
5
100
AcDbSymbolTableRecord
100
AcDbLinetypeTableRecord
  2
AM_ISO09W050
 70
     0
  3
_____ . . _____ . . _____ . . ____ .. ____
 72
    65
 73
     6
 40
22.5
 49
12.0
 74
     0
 49
-1.5
 74
     0
 49
3.0
 74
     0
 49
-1.5
 74
     0
 49
3.0
 74
     0
 49
-1.5
 74
     0
  0
LTYPE
  5
4E
330
5
100
AcDbSymbolTableRecord
100
AcDbLinetypeTableRecord
  2
Amconstr
 70
     0
  3
_______________________
 72
    65
 73
     2
 40
9999.0
 49
9999.0
 74
     0
 49
0.0
 74
     0
  0
LTYPE
  5
4F
330
5
100
AcDbSymbolTableRecord
100
AcDbLinetypeTableRecord
  2
AM_ISO02W050x2
 70
     0
  3
 _ _ _ _ _ _ _ _ _ _ _ _
 72
    65
 73
     2
 40
3.75
 49
3.0
 74
     0
 49
-0.75
 74
     0
  0
LTYPE
  5
50
330
5
100
AcDbSymbolTableRecord
100
AcDbLinetypeTableRecord
  2
AM_ISO08W050x2
 70
     0
  3
__ . __ . __ . __ . __ . __
 72
    65
 73
     4
 40
9.0
 49
6.0
 74
     0
 49
-0.75
 74
     0
 49
1.5
 74
     0
 49
-0.75
 74
     0
  0
LTYPE
  5
53
330
5
100
AcDbSymbolTableRecord
100
AcDbLinetypeTableRecord
  2
Amzigzag
 70
     0
  3
/\/-/\/-/\/-/\/-/\/-/\/
 72
    65
 73
     2
 40
11.0001
 49
0.0001
 74
     4
 75
   135
340
52
 46
0.04
 50
0.0
 44
0.0
 45
0.0
 49
-11.0
 74
     0
  0
LTYPE
  5
328
330
5
100
AcDbSymbolTableRecord
100
AcDbLinetypeTableRecord
  2
ACJISTGB
 70
     0
  3
__ . . __ . .
 72
    65
 73
     6
 40
9.0
 49
4.0
 74
     0
 49
-1.0
 74
     0
 49
1.0
 74
     0
 49
-1.0
 74
     0
 49
1.0
 74
     0
 49
-1.0
 74
     0
  0
LTYPE
  5
329
330
5
100
AcDbSymbolTableRecord
100
AcDbLinetypeTableRecord
  2
ACJISTGL
 70
     0
  3
_ _ _ _ _
 72
    65
 73
     2
 40
3.0
 49
2.0
 74
     0
 49
-1.0
 74
     0
  0
LTYPE
  5
39F
330
5
100
AcDbSymbolTableRecord
100
AcDbLinetypeTableRecord
  2
CENTER
 70
     0
  3
____ _ ____ _ ____ _ ____ _ ____ _ ____ _ ____
 72
    65
 73
     4
 40
17.5
 49
13.0
 74
     0
 49
-1.5
 74
     0
 49
1.5
 74
     0
 49
-1.5
 74
     0
  0
LTYPE
  5
20EF
330
5
100
AcDbSymbolTableRecord
100
AcDbLinetypeTableRecord
  2
HIDDEN
 70
     0
  3
Hidden __ __ __ __ __ __ __ __ __ __ __ __ __ _
 72
    65
 73
     2
 40
9.524999999999999
 49
6.35
 74
     0
 49
-3.175
 74
     0
  0
LTYPE
  5
20F0
330
5
100
AcDbSymbolTableRecord
100
AcDbLinetypeTableRecord
  2
PHANTOM2
 70
     0
  3
Phantom (.5x) ___ _ _ ___ _ _ ___ _ _ ___ _ _
 72
    65
 73
     6
 40
31.75
 49
15.875
 74
     0
 49
-3.175
 74
     0
 49
3.175
 74
     0
 49
-3.175
 74
     0
 49
3.175
 74
     0
 49
-3.175
 74
     0
  0
ENDTAB
  0
TABLE
  2
LAYER
  5
2
102
{ACAD_XDICTIONARY
360
2250
102
}
330
0
100
AcDbSymbolTable
 70
     7
  0
LAYER
  5
10
330
2
100
AcDbSymbolTableRecord
100
AcDbLayerTableRecord
  2
0
 70
     0
 62
     7
  6
Continuous
370
    -3
390
F
  0
LAYER
  5
32E
330
2
100
AcDbSymbolTableRecord
100
AcDbLayerTableRecord
  2
AM_0
 70
     0
 62
     7
  6
Continuous
370
    50
390
F
  0
LAYER
  5
52A
330
2
100
AcDbSymbolTableRecord
100
AcDbLayerTableRecord
  2
AM_5
 70
     0
 62
     3
  6
Continuous
370
    25
390
F
  0
LAYER
  5
52B
330
2
100
AcDbSymbolTableRecord
100
AcDbLayerTableRecord
  2
Defpoints
 70
     0
 62
     7
  6
Continuous
290
     0
370
    -3
390
F
  0
LAYER
  5
52D
330
2
100
AcDbSymbolTableRecord
100
AcDbLayerTableRecord
  2
AM_3
 70
     0
 62
     6
  6
AM_ISO02W050
370
    25
390
F
  0
LAYER
  5
52E
330
2
100
AcDbSymbolTableRecord
100
AcDbLayerTableRecord
  2
AM_7
 70
     0
 62
     4
  6
AM_ISO08W050
370
    25
390
F
  0
LAYER
  5
52F
330
2
100
AcDbSymbolTableRecord
100
AcDbLayerTableRecord
  2
AM_6
 70
     0
 62
     2
  6
Continuous
370
    35
390
F
  0
ENDTAB
  0
TABLE
  2
STYLE
  5
3
330
0
100
AcDbSymbolTable
 70
     5
  0
STYLE
  5
11
330
3
100
AcDbSymbolTableRecord
100
AcDbTextStyleTableRecord
  2
STANDARD
 70
     0
 40
0.0
 41
1.0
 50
0.0
 71
     0
 42
2.5
  3
ISOCP.SHX
  4
EXTFONT.SHX
  0
STYLE
  5
52
330
3
100
AcDbSymbolTableRecord
100
AcDbTextStyleTableRecord
  2

 70
     1
 40
0.0
 41
1.0
 50
0.0
 71
     0
 42
2.5
  3
ltypeshp.shx
  4

  0
STYLE
  5
32F
330
3
100
AcDbSymbolTableRecord
100
AcDbTextStyleTableRecord
  2
ACJISTS
 70
     0
 40
1.0
 41
1.0
 50
0.0
 71
     0
 42
2.5
  3
isocp.shx
  4
bigfont.shx
  0
STYLE
  5
330
330
3
100
AcDbSymbolTableRecord
100
AcDbTextStyleTableRecord
  2
ACJISGDT
 70
     0
 40
0.0
 41
1.0
 50
0.0
 71
     0
 42
2.5
  3
amgdt.shx
  4

  0
STYLE
  5
224E
330
3
100
AcDbSymbolTableRecord
100
AcDbTextStyleTableRecord
  2
ACISOTS
 70
     0
 40
1.0
 41
1.0
 50
0.0
 71
     0
 42
1.0
  3
isocp.shx
  4
extfont.shx
  0
ENDTAB
  0
TABLE
  2
VIEW
  5
6
330
0
100
AcDbSymbolTable
 70
     6
  0
VIEW
  5
35B
330
6
100
AcDbSymbolTableRecord
100
AcDbViewTableRecord
  2
AM_VIEW1
 70
     0
 40
148.5
 10
114.5810387984981
 20
222.75
 41
229.1620775969963
 11
0.0
 21
0.0
 31
1.0
 12
0.0
 22
0.0
 32
0.0
 42
50.0
 43
0.0
 44
0.0
 50
0.0
 71
     0
281
     0
 72
     0
  0
VIEW
  5
35C
330
6
100
AcDbSymbolTableRecord
100
AcDbViewTableRecord
  2
AM_VIEW2
 70
     0
 40
148.5
 10
305.4189612015019
 20
222.75
 41
229.1620775969963
 11
0.0
 21
0.0
 31
1.0
 12
0.0
 22
0.0
 32
0.0
 42
50.0
 43
0.0
 44
0.0
 50
0.0
 71
     0
281
     0
 72
     0
  0
VIEW
  5
35D
330
6
100
AcDbSymbolTableRecord
100
AcDbViewTableRecord
  2
AM_VIEW3
 70
     0
 40
148.5
 10
114.5810387984981
 20
74.25
 41
229.1620775969963
 11
0.0
 21
0.0
 31
1.0
 12
0.0
 22
0.0
 32
0.0
 42
50.0
 43
0.0
 44
0.0
 50
0.0
 71
     0
281
     0
 72
     0
  0
VIEW
  5
35E
330
6
100
AcDbSymbolTableRecord
100
AcDbViewTableRecord
  2
AM_VIEW4
 70
     0
 40
148.5
 10
305.4189612015019
 20
74.25
 41
229.1620775969963
 11
0.0
 21
0.0
 31
1.0
 12
0.0
 22
0.0
 32
0.0
 42
50.0
 43
0.0
 44
0.0
 50
0.0
 71
     0
281
     0
 72
     0
  0
VIEW
  5
35F
330
6
100
AcDbSymbolTableRecord
100
AcDbViewTableRecord
  2
AM_VIEW5
 70
     0
 40
148.5
 10
210.0
 20
148.5
 41
229.1620775969963
 11
0.0
 21
0.0
 31
1.0
 12
0.0
 22
0.0
 32
0.0
 42
50.0
 43
0.0
 44
0.0
 50
0.0
 71
     0
281
     0
 72
     0
  0
VIEW
  5
360
330
6
100
AcDbSymbolTableRecord
100
AcDbViewTableRecord
  2
AM_VIEW6
 70
     0
 40
296.99703
 10
210.0
 20
148.5
 41
458.3195719524406
 11
0.0
 21
0.0
 31
1.0
 12
0.0
 22
0.0
 32
0.0
 42
50.0
 43
0.0
 44
0.0
 50
0.0
 71
     0
281
     0
 72
     0
  0
ENDTAB
  0
TABLE
  2
UCS
  5
7
330
0
100
AcDbSymbolTable
 70
     0
  0
ENDTAB
  0
TABLE
  2
APPID
  5
9
330
0
100
AcDbSymbolTable
 70
    39
  0
APPID
  5
12
330
9
100
AcDbSymbolTableRecord
100
AcDbRegAppTableRecord
  2
ACAD
 70
     0
  0
APPID
  5
30
330
9
100
AcDbSymbolTableRecord
100
AcDbRegAppTableRecord
  2
MCAD_NO_VIS
 70
     0
  0
APPID
  5
31
330
9
100
AcDbSymbolTableRecord
100
AcDbRegAppTableRecord
  2
ACAD_TEMP_GRAPHIC
 70
     0
  0
APPID
  5
338
330
9
100
AcDbSymbolTableRecord
100
AcDbRegAppTableRecord
  2
GENIUS_GENREC_14
 70
     0
  0
APPID
  5
339
330
9
100
AcDbSymbolTableRecord
100
AcDbRegAppTableRecord
  2
GENIUS_GENODEF_13
 70
     0
  0
APPID
  5
33A
330
9
100
AcDbSymbolTableRecord
100
AcDbRegAppTableRecord
  2
GENIUS_GENOBJ-N-REC_13
 70
     0
  0
APPID
  5
33B
330
9
100
AcDbSymbolTableRecord
100
AcDbRegAppTableRecord
  2
GENIUS_GENOBJ-N-HTC_13
 70
     0
  0
APPID
  5
33C
330
9
100
AcDbSymbolTableRecord
100
AcDbRegAppTableRecord
  2
GENIUS_GENHATCH_13
 70
     0
  0
APPID
  5
3B5
330
9
100
AcDbSymbolTableRecord
100
AcDbRegAppTableRecord
  2
GENIUS_GENCFG_13
 70
     0
  0
APPID
  5
3B6
330
9
100
AcDbSymbolTableRecord
100
AcDbRegAppTableRecord
  2
GENIUS_GENCFG0_13
 70
     0
  0
APPID
  5
3B7
330
9
100
AcDbSymbolTableRecord
100
AcDbRegAppTableRecord
  2
GENIUS_GENCFG1_13
 70
     0
  0
APPID
  5
3B8
330
9
100
AcDbSymbolTableRecord
100
AcDbRegAppTableRecord
  2
GENIUS_GENCFG2_13
 70
     0
  0
APPID
  5
3B9
330
9
100
AcDbSymbolTableRecord
100
AcDbRegAppTableRecord
  2
GENIUS_GENCFG3_13
 70
     0
  0
APPID
  5
3BA
330
9
100
AcDbSymbolTableRecord
100
AcDbRegAppTableRecord
  2
GENIUS_GENCFG4_13
 70
     0
  0
APPID
  5
3BB
330
9
100
AcDbSymbolTableRecord
100
AcDbRegAppTableRecord
  2
GENIUS_GENBLLY_14
 70
     0
  0
APPID
  5
3BC
330
9
100
AcDbSymbolTableRecord
100
AcDbRegAppTableRecord
  2
GENIUS_GENOBJ-N-CEN_13
 70
     0
  0
APPID
  5
3C9
330
9
100
AcDbSymbolTableRecord
100
AcDbRegAppTableRecord
  2
GENIUS_GENTRA_14
 70
     0
  0
APPID
  5
3D3
330
9
100
AcDbSymbolTableRecord
100
AcDbRegAppTableRecord
  2
GENIUS_GENOBJ-N-TIT_13
 70
     0
  0
APPID
  5
3D4
330
9
100
AcDbSymbolTableRecord
100
AcDbRegAppTableRecord
  2
GENIUS_GENTITLE_13
 70
     0
  0
APPID
  5
3D5
330
9
100
AcDbSymbolTableRecord
100
AcDbRegAppTableRecord
  2
GENIUS_GENOENT_13
 70
     0
  0
APPID
  5
3D6
330
9
100
AcDbSymbolTableRecord
100
AcDbRegAppTableRecord
  2
GENIUS_GENOREF_13
 70
     0
  0
APPID
  5
3D7
330
9
100
AcDbSymbolTableRecord
100
AcDbRegAppTableRecord
  2
GENIUS_GENOLIS_13
 70
     0
  0
APPID
  5
3D8
330
9
100
AcDbSymbolTableRecord
100
AcDbRegAppTableRecord
  2
GENIUS_GENZVEED_13
 70
     0
  0
APPID
  5
3D9
330
9
100
AcDbSymbolTableRecord
100
AcDbRegAppTableRecord
  2
GENIUS_GENSCREG_15
 70
     0
  0
APPID
  5
3DA
330
9
100
AcDbSymbolTableRecord
100
AcDbRegAppTableRecord
  2
GENIUS_GENOBJ-N-SDF_13
 70
     0
  0
APPID
  5
534
330
9
100
AcDbSymbolTableRecord
100
AcDbRegAppTableRecord
  2
GENIUS_GENOBJ-N-RSBK_13
 70
     0
  0
APPID
  5
535
330
9
100
AcDbSymbolTableRecord
100
AcDbRegAppTableRecord
  2
GENIUS_GENOBJ-N-LIB_13
 70
     0
  0
APPID
  5
536
330
9
100
AcDbSymbolTableRecord
100
AcDbRegAppTableRecord
  2
GENIUS_GENSCALE_13
 70
     0
  0
APPID
  5
AA3
330
9
100
AcDbSymbolTableRecord
100
AcDbRegAppTableRecord
  2
BASE_TYPE
 70
     0
  0
APPID
  5
AB2
330
9
100
AcDbSymbolTableRecord
100
AcDbRegAppTableRecord
  2
GENIUS_GENOBJ-N-FIL_13
 70
     0
  0
APPID
  5
BDE
330
9
100
AcDbSymbolTableRecord
100
AcDbRegAppTableRecord
  2
GENIUS_GENDTOL_13
 70
     0
  0
APPID
  5
BDF
330
9
100
AcDbSymbolTableRecord
100
AcDbRegAppTableRecord
  2
GENIUS_GENSCREG_13
 70
     0
  0
APPID
  5
20F2
330
9
100
AcDbSymbolTableRecord
100
AcDbRegAppTableRecord
  2
AD_DRAW
 70
     0
  0
APPID
  5
20F5
330
9
100
AcDbSymbolTableRecord
100
AcDbRegAppTableRecord
  2
ACATTRIBSERVICES
 70
     0
  0
APPID
  5
2113
330
9
100
AcDbSymbolTableRecord
100
AcDbRegAppTableRecord
  2
DESIGNERASSEMBLIES
 70
     0
  0
APPID
  5
2128
330
9
100
AcDbSymbolTableRecord
100
AcDbRegAppTableRecord
  2
ACADM_DIM_EDIT
 70
     0
  0
APPID
  5
2129
330
9
100
AcDbSymbolTableRecord
100
AcDbRegAppTableRecord
  2
AMDT_DM_ADJ
 70
     0
  0
APPID
  5
224F
330
9
100
AcDbSymbolTableRecord
100
AcDbRegAppTableRecord
  2
ACAD_PSEXT
 70
     0
  0
APPID
  5
24E5
330
9
100
AcDbSymbolTableRecord
100
AcDbRegAppTableRecord
  2
ACAD_DSTYLE_DIMTEXT_FILL
 70
     0
  0
ENDTAB
  0
TABLE
  2
DIMSTYLE
  5
A
330
0
100
AcDbSymbolTable
 70
    11
100
AcDbDimStyleTable
  0
DIMSTYLE
105
27
330
A
100
AcDbSymbolTableRecord
100
AcDbDimStyleTableRecord
  2
ISO-25
 70
     0
 41
2.5
 42
0.625
 43
3.75
 44
1.25
 73
     0
 74
     0
 77
     1
 78
     8
140
2.5
141
2.5
143
0.03937007874016
147
0.625
171
     3
172
     1
271
     2
272
     2
274
     3
283
     0
284
     8
340
11
  0
DIMSTYLE
105
331
330
A
100
AcDbSymbolTableRecord
100
AcDbDimStyleTableRecord
  2
AM_JIS
 70
     0
  4
"
 41
2.5
 42
0.0
 43
10.0
 44
1.0
 47
0.1
 48
0.1000000001
 73
     0
 74
     0
 77
     3
 78
     1
 79
     2
140
3.8
141
0.0
143
0.0393701
146
0.71
147
1.5
172
     1
176
   256
177
   256
178
     2
179
     1
271
     2
272
     2
275
     1
283
     0
284
     8
340
11
341
59
342
59
371
    -1
372
    -1
  0
DIMSTYLE
105
332
102
{ACAD_REACTORS
330
1CE0
330
1D83
102
}
330
A
100
AcDbSymbolTableRecord
100
AcDbDimStyleTableRecord
  2
AM_JIS$3
 70
     0
  4
"
 41
2.5
 42
0.0
 43
10.0
 44
1.0
 47
0.1
 48
0.1000000001
 73
     0
 77
     3
 78
     1
 79
     2
140
3.8
141
0.0
143
0.0393701
146
0.71
147
1.5
172
     1
176
   256
177
   256
178
     2
179
     1
271
     2
272
     2
275
     1
283
     0
284
     8
288
     1
289
     0
340
11
341
59
342
59
371
    -1
372
    -1
  0
DIMSTYLE
105
333
330
A
100
AcDbSymbolTableRecord
100
AcDbDimStyleTableRecord
  2
AM_JIS$4
 70
     0
  4
"
 41
2.5
 42
0.0
 43
10.0
 44
1.0
 47
0.1
 48
0.1000000001
 73
     0
 77
     3
 78
     1
 79
     2
140
3.8
141
0.0
143
0.0393701
146
0.71
147
1.5
172
     1
176
   256
177
   256
178
     2
179
     1
271
     2
272
     2
275
     1
283
     0
284
     8
288
     1
289
     0
340
11
341
59
342
59
371
    -1
372
    -1
  0
DIMSTYLE
105
334
330
A
100
AcDbSymbolTableRecord
100
AcDbDimStyleTableRecord
  2
AM_JIS$6
 70
     0
  4
"
 41
2.5
 42
0.0
 43
10.0
 44
1.0
 47
0.1
 48
0.1000000001
 73
     0
 74
     0
 78
     1
 79
     2
140
3.8
141
0.0
143
0.0393701
146
0.71
147
1.5
172
     1
176
   256
177
   256
178
     2
179
     1
271
     2
272
     2
275
     1
283
     0
284
     8
340
11
341
59
342
59
371
    -1
372
    -1
  0
DIMSTYLE
105
335
330
A
100
AcDbSymbolTableRecord
100
AcDbDimStyleTableRecord
  2
AM_JIS$7
 70
     0
  4
"
 41
2.5
 42
0.0
 43
10.0
 44
1.0
 47
0.1
 48
0.1000000001
 73
     0
 74
     0
 77
     3
 78
     1
 79
     2
140
5.0
141
0.0
143
0.0393701
146
0.71
147
1.5
172
     1
176
   256
177
   256
178
     2
179
     1
271
     2
272
     2
275
     1
283
     0
284
     8
340
11
341
59
342
59
371
    -1
372
    -1
  0
DIMSTYLE
105
336
330
A
100
AcDbSymbolTableRecord
100
AcDbDimStyleTableRecord
  2
AM_JIS$SF
 70
     0
  4
"
 41
2.5
 42
1.0
 43
10.0
 44
1.0
 47
0.1
 48
0.1
 73
     0
 74
     0
 75
     1
 76
     1
 77
     3
 78
     8
 79
     2
140
3.5
141
0.0
143
0.0393701
146
0.71
147
1.5
176
   256
177
   256
178
     2
271
     2
272
     3
274
     4
340
11
341
59
342
59
343
59
344
59
371
    -1
372
    -1
  0
DIMSTYLE
105
337
330
A
100
AcDbSymbolTableRecord
100
AcDbDimStyleTableRecord
  2
AM_JIS$SH
 70
     0
  4
"
 41
2.5
 42
1.0
 43
10.0
 44
1.0
 47
0.1
 48
0.1
 73
     0
 74
     0
 75
     1
 76
     1
 77
     3
 78
     8
 79
     2
140
3.5
141
0.0
143
0.0393701
144
2.0
146
0.71
147
1.5
173
     1
176
   256
177
   256
178
     2
271
     2
272
     3
274
     4
340
11
341
59
342
59
343
5F
344
59
371
    -1
372
    -1
  0
DIMSTYLE
105
3AD
330
A
100
AcDbSymbolTableRecord
100
AcDbDimStyleTableRecord
  2
STANDARD
 70
     0
340
11
  0
DIMSTYLE
105
532
102
{ACAD_REACTORS
330
1BC5
330
1C86
330
1D85
330
2292
102
}
330
A
100
AcDbSymbolTableRecord
100
AcDbDimStyleTableRecord
  2
AM_JIS$0
 70
     0
  4
"
 41
2.5
 42
0.0
 43
10.0
 44
1.0
 47
0.1
 48
0.1000000001
 73
     0
 74
     0
 77
     3
 78
     1
 79
     2
140
3.8
141
0.0
143
0.0393701
146
0.71
147
1.5
172
     1
176
     3
177
     3
178
     2
271
     3
272
     3
275
     1
283
     0
284
     8
289
     0
340
11
341
59
342
59
371
    13
372
    13
  0
DIMSTYLE
105
533
102
{ACAD_REACTORS
330
1CF4
330
22C0
102
}
330
A
100
AcDbSymbolTableRecord
100
AcDbDimStyleTableRecord
  2
AM_JIS$2
 70
     0
  4
"
 41
2.5
 42
0.0
 43
10.0
 44
1.0
 47
0.1
 48
0.1000000001
 73
     0
 74
     0
 77
     3
 78
     1
 79
     2
140
3.8
141
0.0
143
0.0393701
146
0.71
147
1.5
172
     1
176
     3
177
     3
178
     2
271
     3
272
     3
275
     1
283
     0
284
     8
289
     0
340
11
341
59
342
59
371
    13
372
    13
  0
ENDTAB
  0
TABLE
  2
BLOCK_RECORD
  5
1
330
0
100
AcDbSymbolTable
 70
    13
  0
BLOCK_RECORD
  5
1F
102
{ACAD_XDICTIONARY
360
3DB
102
}
330
1
100
AcDbSymbolTableRecord
100
AcDbBlockTableRecord
  2
*Model_Space
340
22
  0
BLOCK_RECORD
  5
1B
330
1
100
AcDbSymbolTableRecord
100
AcDbBlockTableRecord
  2
*Paper_Space
340
1E
  0
BLOCK_RECORD
  5
23
330
1
100
AcDbSymbolTableRecord
100
AcDbBlockTableRecord
  2
*Paper_Space0
340
26
  0
BLOCK_RECORD
  5
59
330
1
100
AcDbSymbolTableRecord
100
AcDbBlockTableRecord
  2
_Open30
340
0
102
{BLKREFS
331
247C
331
247D
331
2485
331
2486
331
2490
331
2491
331
2499
331
249A
331
24A6
331
24A7
331
24AD
331
24AE
331
2532
331
2533
331
24BF
331
24C0
102
}
  0
BLOCK_RECORD
  5
5F
330
1
100
AcDbSymbolTableRecord
100
AcDbBlockTableRecord
  2
GENAXEH
340
0
  0
BLOCK_RECORD
  5
1DCC
330
1
100
AcDbSymbolTableRecord
100
AcDbBlockTableRecord
  2
*D4
340
0
  0
BLOCK_RECORD
  5
1E1E
330
1
100
AcDbSymbolTableRecord
100
AcDbBlockTableRecord
  2
*D5
340
0
  0
BLOCK_RECORD
  5
1E42
330
1
100
AcDbSymbolTableRecord
100
AcDbBlockTableRecord
  2
*D6
340
0
  0
BLOCK_RECORD
  5
1E6A
330
1
100
AcDbSymbolTableRecord
100
AcDbBlockTableRecord
  2
*D7
340
0
  0
BLOCK_RECORD
  5
1EB0
330
1
100
AcDbSymbolTableRecord
100
AcDbBlockTableRecord
  2
*D8
340
0
  0
BLOCK_RECORD
  5
1EC9
330
1
100
AcDbSymbolTableRecord
100
AcDbBlockTableRecord
  2
*D9
340
0
  0
BLOCK_RECORD
  5
210A
330
1
100
AcDbSymbolTableRecord
100
AcDbBlockTableRecord
  2
*U10
340
0
  0
BLOCK_RECORD
  5
2293
330
1
100
AcDbSymbolTableRecord
100
AcDbBlockTableRecord
  2
*D11
340
0
  0
BLOCK_RECORD
  5
22C1
330
1
100
AcDbSymbolTableRecord
100
AcDbBlockTableRecord
  2
*D12
340
0
  0
ENDTAB
  0
ENDSEC
  0
SECTION
  2
BLOCKS
  0
BLOCK
  5
20
330
1F
100
AcDbEntity
  8
0
100
AcDbBlockBegin
  2
*Model_Space
 70
     0
 71
     0
 10
0.0
 20
0.0
 30
0.0
  3
*Model_Space
  1

  0
ENDBLK
  5
21
330
1F
100
AcDbEntity
  8
0
100
AcDbBlockEnd
  0
BLOCK
  5
1C
330
1B
100
AcDbEntity
 67
     1
  8
0
100
AcDbBlockBegin
  2
*Paper_Space
 70
     0
 71
     0
 10
0.0
 20
0.0
 30
0.0
  3
*Paper_Space
  1

  0
ENDBLK
  5
1D
330
1B
100
AcDbEntity
 67
     1
  8
0
100
AcDbBlockEnd
  0
BLOCK
  5
24
330
23
100
AcDbEntity
  8
0
100
AcDbBlockBegin
  2
*Paper_Space0
 70
     0
 71
     0
 10
0.0
 20
0.0
 30
0.0
  3
*Paper_Space0
  1

  0
ENDBLK
  5
25
330
23
100
AcDbEntity
  8
0
100
AcDbBlockEnd
  0
BLOCK
  5
5D
330
59
100
AcDbEntity
  8
0
100
AcDbBlockBegin
  2
_Open30
 70
     0
 71
     0
 10
0.0
 20
0.0
 30
0.0
  3
_Open30
  1

  0
LINE
  5
5A
330
59
100
AcDbEntity
  8
0
 62
     0
370
    -2
100
AcDbLine
 10
-1.0
 20
0.26794919
 30
0.0
 11
0.0
 21
0.0
 31
0.0
  0
LINE
  5
5B
330
59
100
AcDbEntity
  8
0
 62
     0
370
    -2
100
AcDbLine
 10
0.0
 20
0.0
 30
0.0
 11
-1.0
 21
-0.26794919
 31
0.0
  0
LINE
  5
5C
330
59
100
AcDbEntity
  8
0
 62
     0
370
    -2
100
AcDbLine
 10
0.0
 20
0.0
 30
0.0
 11
-1.0
 21
0.0
 31
0.0
  0
ENDBLK
  5
5E
330
59
100
AcDbEntity
  8
0
100
AcDbBlockEnd
  0
BLOCK
  5
61
330
5F
100
AcDbEntity
  8
0
100
AcDbBlockBegin
  2
GENAXEH
 70
     0
 71
     0
 10
0.0
 20
0.0
 30
0.0
  3
GENAXEH
  1

  0
LINE
  5
60
330
5F
100
AcDbEntity
  8
0
100
AcDbLine
 10
-1.0
 20
0.0
 30
0.0
 11
1.0
 21
0.0
 31
0.0
  0
ENDBLK
  5
62
330
5F
100
AcDbEntity
  8
0
100
AcDbBlockEnd
  0
BLOCK
  5
1DD6
330
1DCC
100
AcDbEntity
  8
0
100
AcDbBlockBegin
  2
*D4
 70
     1
 71
     0
 10
0.0
 20
0.0
 30
0.0
  3
*D4
  1

  0
LINE
  5
2479
330
1DCC
100
AcDbEntity
  8
AM_5
 62
     3
370
    13
100
AcDbLine
 10
0.0000000000000284
 20
-2.248842560575326
 30
0.0
 11
0.0000000000000267
 21
-29.61001833679038
 31
0.0
  0
LINE
  5
247A
330
1DCC
100
AcDbEntity
  8
AM_5
 62
     3
370
    13
100
AcDbLine
 10
149.9999999999997
 20
3.0
 30
0.0
 11
149.9999999999997
 21
-29.61001833679038
 31
0.0
  0
LINE
  5
247B
330
1DCC
100
AcDbEntity
  8
AM_5
 62
     3
370
    13
100
AcDbLine
 10
2.500000000000027
 20
-28.61001833679038
 30
0.0
 11
147.4999999999997
 21
-28.61001833679038
 31
0.0
  0
INSERT
  5
247C
330
1DCC
100
AcDbEntity
  8
AM_5
 62
     3
370
    13
100
AcDbBlockReference
  2
_Open30
 10
0.0000000000000268
 20
-28.61001833679038
 30
0.0
 41
2.5
 42
2.5
 43
2.5
 50
180.0
  0
INSERT
  5
247D
330
1DCC
100
AcDbEntity
  8
AM_5
 62
     3
370
    13
100
AcDbBlockReference
  2
_Open30
 10
149.9999999999997
 20
-28.61001833679038
 30
0.0
 41
2.5
 42
2.5
 43
2.5
  0
MTEXT
  5
247E
330
1DCC
100
AcDbEntity
  8
AM_5
 62
     2
370
    13
100
AcDbMText
 10
73.4108400575619
 20
-25.21001833679038
 30
0.0
 40
3.8
 41
0.0
 71
     5
 72
     1
  1
150
 73
     1
 44
1.0
  0
POINT
  5
247F
330
1DCC
100
AcDbEntity
  8
Defpoints
 62
     0
100
AcDbPoint
 10
0.0000000000000284
 20
-2.248842560575326
 30
0.0
  0
POINT
  5
2480
330
1DCC
100
AcDbEntity
  8
Defpoints
 62
     0
100
AcDbPoint
 10
149.9999999999997
 20
3.0
 30
0.0
  0
POINT
  5
2481
330
1DCC
100
AcDbEntity
  8
Defpoints
 62
     0
100
AcDbPoint
 10
149.9999999999997
 20
-28.61001833679038
 30
0.0
  0
ENDBLK
  5
1DD7
330
1DCC
100
AcDbEntity
  8
0
100
AcDbBlockEnd
  0
BLOCK
  5
1E28
330
1E1E
100
AcDbEntity
  8
0
100
AcDbBlockBegin
  2
*D5
 70
     1
 71
     0
 10
0.0
 20
0.0
 30
0.0
  3
*D5
  1

  0
LINE
  5
2482
330
1E1E
100
AcDbEntity
  8
AM_5
 62
     3
370
    13
100
AcDbLine
 10
29.99999999999977
 20
-82.65398469889345
 30
0.0
 11
29.99999999999977
 21
-100.1425282942609
 31
0.0
  0
LINE
  5
2483
330
1E1E
100
AcDbEntity
  8
AM_5
 62
     3
370
    13
100
AcDbLine
 10
0.0
 20
-74.65398469889351
 30
0.0
 11
-0.0000000000000016
 21
-100.1425282942609
 31
0.0
  0
LINE
  5
2484
330
1E1E
100
AcDbEntity
  8
AM_5
 62
     3
370
    13
100
AcDbLine
 10
27.49999999999977
 20
-99.14252829426093
 30
0.0
 11
2.499999999999999
 21
-99.14252829426093
 31
0.0
  0
INSERT
  5
2485
330
1E1E
100
AcDbEntity
  8
AM_5
 62
     3
370
    13
100
AcDbBlockReference
  2
_Open30
 10
29.99999999999977
 20
-99.14252829426093
 30
0.0
 41
2.5
 42
2.5
 43
2.5
  0
INSERT
  5
2486
330
1E1E
100
AcDbEntity
  8
AM_5
 62
     3
370
    13
100
AcDbBlockReference
  2
_Open30
 10
-0.0000000000000015
 20
-99.14252829426093
 30
0.0
 41
2.5
 42
2.5
 43
2.5
 50
180.0
  0
MTEXT
  5
2487
330
1E1E
100
AcDbEntity
  8
AM_5
 62
     2
370
    13
100
AcDbMText
 10
15.3904720064597
 20
-95.74252829426092
 30
0.0
 40
3.8
 41
0.0
 71
     5
 72
     1
  1
30
 73
     1
 44
1.0
  0
POINT
  5
2488
330
1E1E
100
AcDbEntity
  8
Defpoints
 62
     0
100
AcDbPoint
 10
29.99999999999977
 20
-82.65398469889345
 30
0.0
  0
POINT
  5
2489
330
1E1E
100
AcDbEntity
  8
Defpoints
 62
     0
100
AcDbPoint
 10
0.0
 20
-74.65398469889351
 30
0.0
  0
POINT
  5
248A
330
1E1E
100
AcDbEntity
  8
Defpoints
 62
     0
100
AcDbPoint
 10
-0.0000000000000015
 20
-99.14252829426093
 30
0.0
  0
ENDBLK
  5
1E29
330
1E1E
100
AcDbEntity
  8
0
100
AcDbBlockEnd
  0
BLOCK
  5
1E4C
330
1E42
100
AcDbEntity
  8
0
100
AcDbBlockBegin
  2
*D6
 70
     1
 71
     0
 10
0.0
 20
0.0
 30
0.0
  3
*D6
  1

  0
LINE
  5
248B
330
1E42
100
AcDbEntity
  8
AM_5
100
AcDbLine
 10
-105.0079681639485
 20
28.3400294616685
 30
0.0
 11
-70.25497603796418
 21
28.34002946166849
 31
0.0
  0
LINE
  5
248C
330
1E42
100
AcDbEntity
  8
AM_5
100
AcDbLine
 10
-70.25497603796418
 20
28.34002946166849
 30
0.0
 11
-63.44295881851065
 21
19.86699334543934
 31
0.0
  0
LINE
  5
248D
330
1E42
100
AcDbEntity
  8
AM_5
100
AcDbLine
 10
-47.7785321571337
 20
0.383006654560603
 30
0.0
 11
-46.21208949099601
 21
-1.565392014527276
 31
0.0
  0
MTEXT
  5
248E
330
1E42
100
AcDbEntity
  8
AM_5
 62
     2
370
    13
100
AcDbMText
 10
-89.5214721009564
 20
31.74040347741652
 30
0.0
 40
3.8
 41
0.0
 71
     5
 72
     1
  1
最小加工径\U+220520
 73
     1
 44
1.0
  0
LINE
  5
248F
330
1E42
100
AcDbEntity
  8
AM_5
100
AcDbLine
 10
-49.3449748232714
 20
2.331405323648482
 30
0.0
 11
-61.87651615237295
 21
17.91859467635146
 31
0.0
  0
INSERT
  5
2490
330
1E42
100
AcDbEntity
  8
AM_5
100
AcDbBlockReference
  2
_Open30
 10
-49.3449748232714
 20
2.331405323648482
 30
0.0
 41
2.5
 42
2.5
 43
2.5
 50
128.7980337807726
  0
INSERT
  5
2491
330
1E42
100
AcDbEntity
  8
AM_5
100
AcDbBlockReference
  2
_Open30
 10
-61.87651615237295
 20
17.91859467635146
 30
0.0
 41
2.5
 42
2.5
 43
2.5
 50
308.7980337807725
  0
POINT
  5
2492
330
1E42
100
AcDbEntity
  8
Defpoints
 62
     0
100
AcDbPoint
 10
-61.87651615237295
 20
17.91859467635146
 30
0.0
  0
POINT
  5
2493
330
1E42
100
AcDbEntity
  8
Defpoints
 62
     0
100
AcDbPoint
 10
-49.3449748232714
 20
2.331405323648482
 30
0.0
  0
ENDBLK
  5
1E4D
330
1E42
100
AcDbEntity
  8
0
100
AcDbBlockEnd
  0
BLOCK
  5
1E78
330
1E6A
100
AcDbEntity
  8
0
100
AcDbBlockBegin
  2
*D7
 70
     1
 71
     0
 10
0.0
 20
0.0
 30
0.0
  3
*D7
  1

  0
LINE
  5
2494
330
1E6A
100
AcDbEntity
  8
AM_5
 62
     3
370
    13
100
AcDbLine
 10
-55.87570452141485
 20
-7.462433995552715
 30
0.0
 11
-56.1192109080003
 21
-14.43554455781936
 31
0.0
  0
LINE
  5
2495
330
1E6A
100
AcDbEntity
  8
AM_5
 62
     3
370
    13
100
AcDbLine
 10
-55.61074548782224
 20
-4.105041805582122
 30
0.0
 11
-55.61074548782225
 21
-14.44441985474233
 31
0.0
  0
ARC
  5
2496
330
1E6A
100
AcDbEntity
  8
AM_5
 62
     3
370
    13
100
AcDbCircle
 10
-55.61074548782224
 20
0.1250000000001386
 30
0.0
 40
13.56941985474246
100
AcDbArc
 50
246.8579300242336
 51
257.4289650121166
  0
ARC
  5
2497
330
1E6A
100
AcDbEntity
  8
AM_5
 62
     3
370
    13
100
AcDbCircle
 10
-55.61074548782224
 20
0.1250000000001386
 30
0.0
 40
13.56941985474246
100
AcDbArc
 50
280.571034987883
 51
291.142069975766
  0
ARC
  5
2498
330
1E6A
100
AcDbEntity
  8
AM_5
 62
     3
370
    13
100
AcDbCircle
 10
-55.61074548782224
 20
0.1250000000001386
 30
0.0
 40
13.56941985474246
100
AcDbArc
 50
267.9999999999996
 51
270.0
  0
INSERT
  5
2499
330
1E6A
100
AcDbEntity
  8
AM_5
 62
     3
370
    13
100
AcDbBlockReference
  2
_Open30
 10
-56.08431141129778
 20
-13.43615373080027
 30
0.0
 41
2.5
 42
2.5
 43
2.5
 50
352.7144825060581
  0
INSERT
  5
249A
330
1E6A
100
AcDbEntity
  8
AM_5
 62
     3
370
    13
100
AcDbBlockReference
  2
_Open30
 10
-55.61074548782225
 20
-13.44441985474233
 30
0.0
 41
2.5
 42
2.5
 43
2.5
 50
185.2855174939415
  0
MTEXT
  5
249B
330
1E6A
100
AcDbEntity
  8
AM_5
 62
     2
370
    13
100
AcDbMText
 10
-48.31425765910456
 20
-9.48434504614505
 30
0.0
 40
3.8
 41
0.0
 71
     5
 72
     1
  1
-2°
 73
     1
 44
1.0
  0
POINT
  5
249C
330
1E6A
100
AcDbEntity
  8
Defpoints
 62
     0
100
AcDbPoint
 10
-55.92649172644357
 20
-13.44074581462706
 30
0.0
  0
POINT
  5
249D
330
1E6A
100
AcDbEntity
  8
Defpoints
 62
     0
100
AcDbPoint
 10
-55.61074548782223
 20
22.59843988049294
 30
0.0
  0
POINT
  5
249E
330
1E6A
100
AcDbEntity
  8
Defpoints
 62
     0
100
AcDbPoint
 10
-55.61074548782224
 20
0.1250000000000568
 30
0.0
  0
POINT
  5
249F
330
1E6A
100
AcDbEntity
  8
Defpoints
 62
     0
100
AcDbPoint
 10
-55.87570452141485
 20
-7.462433995552715
 30
0.0
  0
POINT
  5
24A0
330
1E6A
100
AcDbEntity
  8
Defpoints
 62
     0
100
AcDbPoint
 10
-55.61074548782224
 20
-4.105041805582122
 30
0.0
  0
ENDBLK
  5
1E79
330
1E6A
100
AcDbEntity
  8
0
100
AcDbBlockEnd
  0
BLOCK
  5
1EBA
330
1EB0
100
AcDbEntity
  8
0
100
AcDbBlockBegin
  2
*D8
 70
     1
 71
     0
 10
0.0
 20
0.0
 30
0.0
  3
*D8
  1

  0
LINE
  5
24A1
330
1EB0
100
AcDbEntity
  8
AM_5
100
AcDbLine
 10
122.5639373291578
 20
24.4796435227347
 30
0.0
 11
111.8034305299973
 21
24.47964352273471
 31
0.0
  0
LINE
  5
24A2
330
1EB0
100
AcDbEntity
  8
AM_5
100
AcDbLine
 10
111.8034305299973
 20
24.47964352273471
 30
0.0
 11
107.4345311589792
 21
18.4853741428181
 31
0.0
  0
LINE
  5
24A3
330
1EB0
100
AcDbEntity
  8
AM_5
100
AcDbLine
 10
95.06546884101988
 20
1.51462585718172
 30
0.0
 11
93.59296142221518
 21
-0.5057013196797726
 31
0.0
  0
MTEXT
  5
24A4
330
1EB0
100
AcDbEntity
  8
AM_5
 62
     2
370
    13
100
AcDbMText
 10
119.0496853606539
 20
27.8796435227347
 30
0.0
 40
3.8
 41
0.0
 71
     5
 72
     1
  1
\U+220516
 73
     1
 44
1.0
  0
LINE
  5
24A5
330
1EB0
100
AcDbEntity
  8
AM_5
100
AcDbLine
 10
96.53797625982458
 20
3.534953034043213
 30
0.0
 11
105.9620237401745
 21
16.46504696595661
 31
0.0
  0
INSERT
  5
24A6
330
1EB0
100
AcDbEntity
  8
AM_5
100
AcDbBlockReference
  2
_Open30
 10
96.53797625982458
 20
3.534953034043213
 30
0.0
 41
2.5
 42
2.5
 43
2.5
 50
53.91371236779047
  0
INSERT
  5
24A7
330
1EB0
100
AcDbEntity
  8
AM_5
100
AcDbBlockReference
  2
_Open30
 10
105.9620237401745
 20
16.46504696595661
 30
0.0
 41
2.5
 42
2.5
 43
2.5
 50
233.9137123677905
  0
POINT
  5
24A8
330
1EB0
100
AcDbEntity
  8
Defpoints
 62
     0
100
AcDbPoint
 10
105.9620237401745
 20
16.46504696595661
 30
0.0
  0
POINT
  5
24A9
330
1EB0
100
AcDbEntity
  8
Defpoints
 62
     0
100
AcDbPoint
 10
96.53797625982458
 20
3.534953034043213
 30
0.0
  0
ENDBLK
  5
1EBB
330
1EB0
100
AcDbEntity
  8
0
100
AcDbBlockEnd
  0
BLOCK
  5
1ED3
330
1EC9
100
AcDbEntity
  8
0
100
AcDbBlockBegin
  2
*D9
 70
     1
 71
     0
 10
0.0
 20
0.0
 30
0.0
  3
*D9
  1

  0
LINE
  5
24AA
330
1EC9
100
AcDbEntity
  8
AM_5
 62
     3
370
    13
100
AcDbLine
 10
93.74999999999969
 20
7.216117818584962
 30
0.0
 11
93.74999999999969
 21
-14.8103589823647
 31
0.0
  0
LINE
  5
24AB
330
1EC9
100
AcDbEntity
  8
AM_5
 62
     3
370
    13
100
AcDbLine
 10
108.7499999999997
 20
7.216117818584962
 30
0.0
 11
108.7499999999997
 21
-14.8103589823647
 31
0.0
  0
LINE
  5
24AC
330
1EC9
100
AcDbEntity
  8
AM_5
 62
     3
370
    13
100
AcDbLine
 10
96.24999999999969
 20
-13.8103589823647
 30
0.0
 11
106.2499999999997
 21
-13.8103589823647
 31
0.0
  0
INSERT
  5
24AD
330
1EC9
100
AcDbEntity
  8
AM_5
 62
     3
370
    13
100
AcDbBlockReference
  2
_Open30
 10
93.74999999999969
 20
-13.8103589823647
 30
0.0
 41
2.5
 42
2.5
 43
2.5
 50
180.0
  0
INSERT
  5
24AE
330
1EC9
100
AcDbEntity
  8
AM_5
 62
     3
370
    13
100
AcDbBlockReference
  2
_Open30
 10
108.7499999999997
 20
-13.8103589823647
 30
0.0
 41
2.5
 42
2.5
 43
2.5
  0
MTEXT
  5
24AF
330
1EC9
100
AcDbEntity
  8
AM_5
 62
     2
370
    13
100
AcDbMText
 10
101.1406160674935
 20
-10.4103589823647
 30
0.0
 40
3.8
 41
0.0
 71
     5
 72
     1
  1
15
 73
     1
 44
1.0
  0
POINT
  5
24B0
330
1EC9
100
AcDbEntity
  8
Defpoints
 62
     0
100
AcDbPoint
 10
93.74999999999969
 20
7.216117818584962
 30
0.0
  0
POINT
  5
24B1
330
1EC9
100
AcDbEntity
  8
Defpoints
 62
     0
100
AcDbPoint
 10
108.7499999999997
 20
7.216117818584962
 30
0.0
  0
POINT
  5
24B2
330
1EC9
100
AcDbEntity
  8
Defpoints
 62
     0
100
AcDbPoint
 10
108.7499999999997
 20
-13.8103589823647
 30
0.0
  0
ENDBLK
  5
1ED4
330
1EC9
100
AcDbEntity
  8
0
100
AcDbBlockEnd
  0
BLOCK
  5
210B
330
210A
100
AcDbEntity
  8
0
100
AcDbBlockBegin
  2
*U10
 70
     1
 71
     0
 10
0.0
 20
0.0
 30
0.0
  3
*U10
  1

  0
ENDBLK
  5
210C
330
210A
100
AcDbEntity
  8
0
100
AcDbBlockEnd
  0
BLOCK
  5
229D
330
2293
100
AcDbEntity
  8
0
100
AcDbBlockBegin
  2
*D11
 70
     1
 71
     0
 10
0.0
 20
0.0
 30
0.0
  3
*D11
  1

  0
LINE
  5
252F
330
2293
100
AcDbEntity
  8
AM_5
 62
     3
370
    13
100
AcDbLine
 10
-3.415548451966089
 20
10.0
 30
0.0
 11
-9.312643929318595
 21
10.0
 31
0.0
  0
LINE
  5
2530
330
2293
100
AcDbEntity
  8
AM_5
 62
     3
370
    13
100
AcDbLine
 10
-1.731901070541909
 20
0.0
 30
0.0
 11
-9.312643929318597
 21
0.0000000000000021
 31
0.0
  0
LINE
  5
2531
330
2293
100
AcDbEntity
  8
AM_5
 62
     3
370
    13
100
AcDbLine
 10
-8.312643929318595
 20
7.500000000000002
 30
0.0
 11
-8.312643929318597
 21
2.500000000000002
 31
0.0
  0
INSERT
  5
2532
330
2293
100
AcDbEntity
  8
AM_5
 62
     3
370
    13
100
AcDbBlockReference
  2
_Open30
 10
-8.312643929318595
 20
10.0
 30
0.0
 41
2.5
 42
2.5
 43
2.5
 50
90.0
  0
INSERT
  5
2533
330
2293
100
AcDbEntity
  8
AM_5
 62
     3
370
    13
100
AcDbBlockReference
  2
_Open30
 10
-8.312643929318597
 20
0.0000000000000019
 30
0.0
 41
2.5
 42
2.5
 43
2.5
 50
270.0
  0
MTEXT
  5
2534
330
2293
100
AcDbEntity
  8
AM_5
 62
     2
370
    13
100
AcDbMText
 10
-11.7126439293186
 20
5.370235923097766
 30
0.0
 40
3.8
 41
0.0
 71
     5
 72
     1
  1
10.0
 11
6.123031769111886E-17
 21
1.0
 31
0.0
 73
     1
 44
1.0
  0
POINT
  5
2535
330
2293
100
AcDbEntity
  8
Defpoints
 62
     0
100
AcDbPoint
 10
-3.415548451966089
 20
10.0
 30
0.0
  0
POINT
  5
2536
330
2293
100
AcDbEntity
  8
Defpoints
 62
     0
100
AcDbPoint
 10
-1.731901070541909
 20
0.0
 30
0.0
  0
POINT
  5
2537
330
2293
100
AcDbEntity
  8
Defpoints
 62
     0
100
AcDbPoint
 10
-8.312643929318597
 20
0.0000000000000019
 30
0.0
  0
ENDBLK
  5
229E
330
2293
100
AcDbEntity
  8
0
100
AcDbBlockEnd
  0
BLOCK
  5
22CD
330
22C1
100
AcDbEntity
  8
0
100
AcDbBlockBegin
  2
*D12
 70
     1
 71
     0
 10
0.0
 20
0.0
 30
0.0
  3
*D12
  1

  0
LINE
  5
24BC
330
22C1
100
AcDbEntity
  8
AM_5
 62
     3
370
    13
100
AcDbLine
 10
0.5034184515750733
 20
10.01122604228334
 30
0.0
 11
1.039534793703057
 21
20.24093524695501
 31
0.0
  0
LINE
  5
24BD
330
22C1
100
AcDbEntity
  8
AM_5
 62
     3
370
    13
100
AcDbLine
 10
-0.6119779556868537
 20
0.0
 30
0.0
 11
-20.28996048663674
 21
-0.0000000000000018
 31
0.0
  0
ARC
  5
24BE
330
22C1
100
AcDbEntity
  8
AM_5
 62
     3
370
    13
100
AcDbCircle
 10
-0.0212476732014052
 20
0.0
 30
0.0
 40
19.26871281343533
100
AcDbArc
 50
94.43900791436549
 51
172.5609920856354
  0
INSERT
  5
24BF
330
22C1
100
AcDbEntity
  8
AM_5
 62
     3
370
    13
100
AcDbBlockReference
  2
_Open30
 10
0.9871988374601255
 20
19.24230571220044
 30
0.0
 41
2.5
 42
2.5
 43
2.5
 50
0.719503957183148
  0
INSERT
  5
24C0
330
22C1
100
AcDbEntity
  8
AM_5
 62
     3
370
    13
100
AcDbBlockReference
  2
_Open30
 10
-19.28996048663674
 20
-0.0000000000000018
 30
0.0
 41
2.5
 42
2.5
 43
2.5
 50
266.2804960428177
  0
MTEXT
  5
24C1
330
22C1
100
AcDbEntity
  8
AM_5
 62
     2
370
    13
100
AcDbMText
 10
-14.52892427427647
 20
17.41831967374082
 30
0.0
 40
3.8
 41
0.0
 71
     5
 72
     1
  1
93°
 11
0.7683859166197252
 21
0.6399867835670239
 31
0.0
 73
     1
 44
1.0
  0
POINT
  5
24C2
330
22C1
100
AcDbEntity
  8
Defpoints
 62
     0
100
AcDbPoint
 10
-16.53775822349802
 20
9.924120753426349
 30
0.0
  0
POINT
  5
24C3
330
22C1
100
AcDbEntity
  8
Defpoints
 62
     0
100
AcDbPoint
 10
0.0
 20
0.0
 30
0.0
  0
POINT
  5
24C4
330
22C1
100
AcDbEntity
  8
Defpoints
 62
     0
100
AcDbPoint
 10
0.0005497774762091
 20
0.4159201358236828
 30
0.0
  0
POINT
  5
24C5
330
22C1
100
AcDbEntity
  8
Defpoints
 62
     0
100
AcDbPoint
 10
0.5034184515750733
 20
10.01122604228334
 30
0.0
  0
POINT
  5
24C6
330
22C1
100
AcDbEntity
  8
Defpoints
 62
     0
100
AcDbPoint
 10
-0.6119779556868537
 20
0.0
 30
0.0
  0
ENDBLK
  5
22CE
330
22C1
100
AcDbEntity
  8
0
100
AcDbBlockEnd
  0
ENDSEC
  0
SECTION
  2
ENTITIES
  0
LINE
  5
1BC2
330
1F
100
AcDbEntity
  8
AM_7
  6
CENTER
370
    13
100
AcDbLine
 10
153.8140294900854
 20
-74.65398469889351
 30
0.0
 11
-3.793167153318422
 21
-74.65398469889351
 31
0.0
1001
GENIUS_GENODEF_13
1002
{
1000
HIER
1070
     0
1002
}
1002
{
1000
MANEDIT
1070
     0
1002
}
1002
{
1000
NOSEL
1070
     0
1002
}
1002
{
1000
BEHIND
1070
     0
1002
}
1002
{
1000
REACTOR
1002
}
1001
GENIUS_GENOBJ-N-CEN_13
1002
{
1000
OWNER
1000
GEN
1002
}
  0
LINE
  5
1BC4
102
{ACAD_REACTORS
330
23C3
102
}
330
1F
100
AcDbEntity
  8
AM_7
  6
CENTER
370
    13
100
AcDbLine
 10
153.8140294900854
 20
10.0
 30
0.0
 11
-3.415548451966089
 21
10.0
 31
0.0
1001
GENIUS_GENODEF_13
1002
{
1000
HIER
1070
     0
1002
}
1002
{
1000
MANEDIT
1070
     0
1002
}
1002
{
1000
NOSEL
1070
     0
1002
}
1002
{
1000
BEHIND
1070
     0
1002
}
1002
{
1000
REACTOR
1002
}
1001
GENIUS_GENOBJ-N-CEN_13
1002
{
1000
OWNER
1000
GEN
1002
}
  0
DIMENSION
  5
1BC5
330
1F
100
AcDbEntity
  8
AM_5
370
    13
100
AcDbDimension
  2
*D4
 10
149.9999999999997
 20
-28.61001833679038
 30
0.0
 11
73.4108400575619
 21
-28.61001833679038
 31
0.0
 70
   160
  1
<>
 71
     5
 42
149.9999999999997
  3
AM_JIS$0
100
AcDbAlignedDimension
 13
0.0000000000000284
 23
-2.248842560575326
 33
0.0
 14
149.9999999999997
 24
3.0
 34
0.0
100
AcDbRotatedDimension
1001
ACAD
1000
DSTYLE
1002
{
1070
   271
1070
     0
1002
}
  0
LINE
  5
1BCC
330
1F
100
AcDbEntity
  8
AM_0
370
    30
100
AcDbLine
 10
29.9999999999998
 20
-82.15398469889351
 30
0.0
 11
149.4999999999997
 21
-82.15398469889354
 31
0.0
  0
LINE
  5
1BCD
330
1F
100
AcDbEntity
  8
AM_0
370
    30
100
AcDbLine
 10
149.4999999999997
 20
-67.15398469889354
 30
0.0
 11
23.00000000391904
 21
-67.15398469889351
 31
0.0
  0
LINE
  5
1BCE
330
1F
100
AcDbEntity
  8
AM_0
370
    30
100
AcDbLine
 10
22.2499999999998
 20
2.0
 30
0.0
 11
87.49999999999969
 21
2.0
 31
0.0
  0
LINE
  5
1BCF
330
1F
100
AcDbEntity
  8
AM_0
370
    30
100
AcDbLine
 10
22.2499999999998
 20
18.0
 30
0.0
 11
87.49999999999969
 21
18.0
 31
0.0
  0
LINE
  5
1BD0
330
1F
100
AcDbEntity
  8
AM_0
370
    30
100
AcDbLine
 10
87.49999999999969
 20
7.216117818585076
 30
0.0
 11
23.00000000391904
 21
7.216117818585076
 31
0.0
  0
LINE
  5
1BD1
330
1F
100
AcDbEntity
  8
AM_0
370
    30
100
AcDbLine
 10
22.2499999999998
 20
12.78388218141492
 30
0.0
 11
87.49999999999969
 21
12.78388218141487
 31
0.0
  0
SPLINE
  5
1C0F
330
1F
100
AcDbEntity
  8
AM_0
370
    30
100
AcDbSpline
210
0.0
220
0.0
230
1.0
 70
     8
 71
     3
 72
    10
 73
     6
 74
     0
 42
0.0000000001
 43
0.0000000001
 40
12.11408409548856
 40
12.11408409548856
 40
12.11408409548856
 40
12.11408409548856
 40
12.22541633049262
 40
12.22541633049262
 40
14.97921945437197
 40
14.97921945437197
 40
14.97921945437197
 40
14.97921945437197
 10
17.9999999999998
 20
-77.39226488263597
 30
0.0
 10
17.98851920934536
 20
-77.42781339186342
 30
0.0
 10
17.97683528117048
 20
-77.46331696939899
 30
0.0
 10
17.67099080736242
 20
-78.37582140922359
 30
0.0
 10
17.25347093016447
 20
-79.22488532914917
 30
0.0
 10
16.75886735000202
 20
-80.0353030708643
 30
0.0
  0
SPLINE
  5
1C10
330
1F
100
AcDbEntity
  8
AM_0
370
    30
100
AcDbSpline
210
0.0
220
0.0
230
1.0
 70
     8
 71
     3
 72
    39
 73
    35
 74
     0
 42
0.0000000001
 43
0.0000000001
 40
14.88297726670916
 40
14.88297726670916
 40
14.88297726670916
 40
14.88297726670916
 40
15.19328236653021
 40
15.19328236653021
 40
15.6151093843544
 40
15.6151093843544
 40
16.09646252865831
 40
16.09646252865831
 40
16.57781567296222
 40
16.57781567296222
 40
17.07596219240755
 40
17.07596219240755
 40
17.57410871185287
 40
17.57410871185287
 40
18.07225523129819
 40
18.07225523129819
 40
18.57040175074351
 40
18.57040175074351
 40
18.57040175074351
 40
19.06854827018884
 40
19.06854827018884
 40
19.56669478963416
 40
19.56669478963416
 40
20.06484130907948
 40
20.06484130907948
 40
20.5629878285248
 40
20.5629878285248
 40
21.04434097282872
 40
21.04434097282872
 40
21.52569411713263
 40
21.52569411713263
 40
21.94752113495682
 40
21.94752113495682
 40
22.25782623477787
 40
22.25782623477787
 40
22.25782623477787
 40
22.25782623477787
 10
17.9999999999998
 20
-71.91570451515099
 30
0.0
 10
18.10773809372054
 20
-71.94437396361673
 30
0.0
 10
18.21361610931174
 20
-71.97778054034859
 30
0.0
 10
18.45540831178553
 20
-72.06643358412396
 30
0.0
 10
18.58842209741843
 20
-72.12528172025657
 30
0.0
 10
18.85262656981573
 20
-72.26212441625899
 30
0.0
 10
19.00093916761333
 20
-72.35263615353597
 30
0.0
 10
19.27862592288537
 20
-72.55824912188973
 30
0.0
 10
19.4079544949573
 20
-72.67345284164389
 30
0.0
 10
19.62978281789563
 20
-72.90597413091405
 30
0.0
 10
19.73650692456798
 20
-73.03863297857538
 30
0.0
 10
19.92526946216188
 20
-73.32677980000017
 30
0.0
 10
20.0073156366955
 20
-73.48227239292146
 30
0.0
 10
20.13928168108717
 20
-73.80667564184876
 30
0.0
 10
20.18932602520866
 20
-73.97587052984818
 30
0.0
 10
20.25503929954337
 20
-74.3164997191916
 30
0.0
 10
20.27070328828498
 20
-74.48793585907833
 30
0.0
 10
20.27070328828498
 20
-74.65398469889351
 30
0.0
 10
20.27070328828498
 20
-74.82003353870857
 30
0.0
 10
20.25503929954337
 20
-74.99146967859542
 30
0.0
 10
20.18932602520866
 20
-75.33209886793878
 30
0.0
 10
20.13928168108717
 20
-75.50129375593826
 30
0.0
 10
20.0073156366955
 20
-75.82569700486556
 30
0.0
 10
19.92526946216188
 20
-75.98118959778685
 30
0.0
 10
19.73650692456798
 20
-76.26933641921164
 30
0.0
 10
19.62978281789563
 20
-76.40199526687292
 30
0.0
 10
19.4079544949573
 20
-76.63451655614301
 30
0.0
 10
19.27862592288537
 20
-76.74972027589723
 30
0.0
 10
19.00093916761333
 20
-76.95533324425094
 30
0.0
 10
18.85262656981573
 20
-77.04584498152804
 30
0.0
 10
18.58842209741843
 20
-77.18268767753045
 30
0.0
 10
18.45540831178553
 20
-77.24153581366295
 30
0.0
 10
18.21361610931174
 20
-77.33018885743832
 30
0.0
 10
18.10773809372054
 20
-77.36359543417024
 30
0.0
 10
17.9999999999998
 20
-77.39226488263597
 30
0.0
  0
ELLIPSE
  5
1C11
330
1F
100
AcDbEntity
  8
AM_0
370
    30
100
AcDbEllipse
 10
2.86302894356848
 20
-74.65398469889351
 30
0.0
 11
-19.54768656976707
 21
-7.519235408757029
 31
0.0
210
0.0
220
0.0
230
1.0
 40
0.0960279956234413
 41
2.418746228301739
 42
2.896071430826153
  0
SPLINE
  5
1C12
330
1F
100
AcDbEntity
  8
AM_0
370
    30
100
AcDbSpline
210
0.0
220
0.0
230
1.0
 70
     8
 71
     3
 72
     8
 73
     4
 74
     0
 42
0.0000000001
 43
0.0000000001
 40
5.323998262428498
 40
5.323998262428498
 40
5.323998262428498
 40
5.323998262428498
 40
6.583189765624762
 40
6.583189765624762
 40
6.583189765624762
 40
6.583189765624762
 10
17.52135468075906
 20
-70.69487091389635
 30
0.0
 10
17.70547604236279
 20
-71.09506371930138
 30
0.0
 10
17.86666579292731
 20
-71.50285557180564
 30
0.0
 10
17.9999999999998
 20
-71.91570451515099
 30
0.0
  0
SPLINE
  5
1C13
330
1F
100
AcDbEntity
  8
AM_0
370
    30
100
AcDbSpline
210
0.0
220
0.0
230
1.0
 70
    12
 71
     2
 72
     6
 73
     3
 74
     0
 42
0.0000000001
 43
0.0000000001
 40
0.0008870805338752
 40
0.0008870805338752
 40
0.0008870805338752
 40
1.109036425888739
 40
1.109036425888739
 40
1.109036425888739
 10
17.9999999999998
 20
-70.25687560231086
 30
0.0
 41
1.000003120554387
 10
17.78119703343103
 20
-70.46556477448849
 30
0.0
 41
1.001951561992528
 10
17.52135468075906
 20
-70.69487091389635
 30
0.0
 41
1.002222302036531
  0
ELLIPSE
  5
1C14
330
1F
100
AcDbEntity
  8
AM_0
370
    30
100
AcDbEllipse
 10
2.86302894356848
 20
-74.65398469889351
 30
0.0
 11
-20.17825710427569
 21
-7.761791389684676
 31
0.0
210
0.0
220
0.0
230
1.0
 40
0.0960279956234413
 41
2.821343248978078
 42
3.030814171343831
  0
SPLINE
  5
1C15
330
1F
100
AcDbEntity
  8
AM_0
370
    30
100
AcDbSpline
210
0.0
220
0.0
230
1.0
 70
    12
 71
     2
 72
     6
 73
     3
 74
     0
 42
0.0000000001
 43
0.0000000001
 40
0.0
 40
0.0
 40
0.0
 40
0.6865695530899441
 40
0.6865695530899441
 40
0.6865695530899441
 10
22.2499999999998
 20
-67.89681386692939
 30
0.0
 41
1.0
 10
22.10445164819569
 20
-67.86257348089987
 30
0.0
 41
1.001790132773512
 10
21.9999999999998
 20
-67.8165030912719
 30
0.0
 41
1.0
  0
SPLINE
  5
1C16
330
1F
100
AcDbEntity
  8
AM_0
370
    30
100
AcDbSpline
210
0.0
220
0.0
230
1.0
 70
     8
 71
     3
 72
    22
 73
    18
 74
     0
 42
0.0000000001
 43
0.0000000001
 40
12.46263223765811
 40
12.46263223765811
 40
12.46263223765811
 40
12.46263223765811
 40
12.5028187030996
 40
12.5028187030996
 40
13.44228313315162
 40
13.44228313315162
 40
14.38174756320364
 40
14.38174756320364
 40
15.42318737143257
 40
15.42318737143257
 40
16.46462717966151
 40
16.46462717966151
 40
17.50606698789044
 40
17.50606698789044
 40
18.54750679611936
 40
18.54750679611936
 40
19.21009115741749
 40
19.21009115741749
 40
19.21009115741749
 40
19.21009115741749
 10
13.79999999999976
 20
-79.74064712622635
 30
0.0
 10
13.78853933123972
 20
-79.73476776095612
 30
0.0
 10
13.77712572981162
 20
-79.72886273866584
 30
0.0
 10
13.50005211842611
 20
-79.58430540594247
 30
0.0
 10
13.2236029590006
 20
-79.41106848303241
 30
0.0
 10
12.7136696090295
 20
-79.01447175828321
 30
0.0
 10
12.48015256622594
 20
-78.79085668825582
 30
0.0
 10
12.07030416969795
 20
-78.32178894067147
 30
0.0
 10
11.87226047445941
 20
-78.0439999448339
 30
0.0
 10
11.52954534388439
 20
-77.43925210494149
 30
0.0
 10
11.38474014384727
 20
-77.11230791625451
 30
0.0
 10
11.15540053922203
 20
-76.43043751058349
 30
0.0
 10
11.07053864394905
 20
-76.07494293731548
 30
0.0
 10
10.95980244869273
 20
-75.36028914919132
 30
0.0
 10
10.93390570465616
 20
-75.00113130163641
 30
0.0
 10
10.93390570465616
 20
-74.43312324512749
 30
0.0
 10
10.94432120611444
 20
-74.20738556468052
 30
0.0
 10
10.96622897611294
 20
-73.98036993486971
 30
0.0
  0
ELLIPSE
  5
1C17
330
1F
100
AcDbEntity
  8
AM_0
370
    30
100
AcDbEllipse
 10
0.5272913652117097
 20
-74.65398469889351
 30
0.0
 11
0.9603162446495233
 21
-9.249849440798352
 31
0.0
210
0.0
220
0.0
230
1.0
 40
0.0549570576712037
 41
5.059474271887835
 42
6.196309561240256
  0
SPLINE
  5
1C18
330
1F
100
AcDbEntity
  8
AM_0
370
    30
100
AcDbSpline
210
0.0
220
0.0
230
1.0
 70
    11
 71
     3
 72
    58
 73
    54
 74
     0
 42
0.0000000001
 43
0.0000000001
 40
0.0
 40
0.0
 40
0.0
 40
0.0
 40
0.285735439616287
 40
0.285735439616287
 40
0.5714708792325739
 40
0.5714708792325739
 40
0.8572063188488608
 40
0.8572063188488608
 40
1.142941758465148
 40
1.142941758465148
 40
1.452881114608906
 40
1.452881114608906
 40
1.762820470752664
 40
1.762820470752664
 40
2.072759826896422
 40
2.072759826896422
 40
2.38269918304018
 40
2.38269918304018
 40
3.060283277731589
 40
3.060283277731589
 40
3.737867372422997
 40
3.737867372422997
 40
4.359064172787367
 40
4.359064172787367
 40
4.669662572969552
 40
4.669662572969552
 40
4.980260973151736
 40
4.980260973151736
 40
5.259775812456892
 40
5.259775812456892
 40
5.539290651762049
 40
5.539290651762049
 40
6.098320330372362
 40
6.098320330372362
 40
6.794606220162584
 40
6.794606220162584
 40
7.490892109952807
 40
7.490892109952807
 40
7.815600095565342
 40
7.815600095565342
 40
8.140308081177878
 40
8.140308081177878
 40
8.465016066790415
 40
8.465016066790415
 40
8.789724052402951
 40
8.789724052402951
 40
9.072623639011052
 40
9.072623639011052
 40
9.355523225619155
 40
9.355523225619155
 40
9.638422812227258
 40
9.638422812227258
 40
9.921322398835361
 40
9.921322398835361
 40
9.921322398835361
 40
9.921322398835361
 10
2.651118549350287
 20
-83.39961747567162
 30
0.0
 10
2.5558734028115
 20
-83.39961747567162
 30
0.0
 10
2.457621318268508
 20
-83.39644087667557
 30
0.0
 10
2.263159555107706
 20
-83.38285989812584
 30
0.0
 10
2.166948628064944
 20
-83.37245420966178
 30
0.0
 10
1.983854741793749
 20
-83.34432345371658
 30
0.0
 10
1.896788710773791
 20
-83.32655585634785
 30
0.0
 10
1.737512670993539
 20
-83.28438521767009
 30
0.0
 10
1.66530787085199
 20
-83.25996102383999
 30
0.0
 10
1.533979499101434
 20
-83.20428572577418
 30
0.0
 10
1.472083961897425
 20
-83.17079709752153
 30
0.0
 10
1.366762986462874
 20
-83.09554885960984
 30
0.0
 10
1.323325169215337
 20
-83.05377520368342
 30
0.0
 10
1.257138342452237
 20
-82.96396779995263
 30
0.0
 10
1.234323621866707
 20
-82.9158543043805
 30
0.0
 10
1.208376148514418
 20
-82.81647395398682
 30
0.0
 10
1.205233340987348
 20
-82.7652062595788
 30
0.0
 10
1.220210197542002
 20
-82.60389842783172
 30
0.0
 10
1.270812946273537
 20
-82.47823414365087
 30
0.0
 10
1.447112282422069
 20
-82.22799952727848
 30
0.0
 10
1.572584067615054
 20
-82.1036217625437
 30
0.0
 10
1.849232813512828
 20
-81.90116013664158
 30
0.0
 10
2.017487526950532
 20
-81.80566841249811
 30
0.0
 10
2.301962868762445
 20
-81.70292645972336
 30
0.0
 10
2.402107757457117
 20
-81.67531584222547
 30
0.0
 10
2.607020836073644
 20
-81.63793939658837
 30
0.0
 10
2.711800628423049
 20
-81.6282140045389
 30
0.0
 10
2.908505041585528
 20
-81.6282140045389
 30
0.0
 10
3.003457126523955
 20
-81.63613595708603
 30
0.0
 10
3.189150416197009
 20
-81.6682176801055
 30
0.0
 10
3.279898780037257
 20
-81.69235132923325
 30
0.0
 10
3.536231696426995
 20
-81.78401068246296
 30
0.0
 10
3.685804109075804
 20
-81.87149786580346
 30
0.0
 10
3.944626137892129
 20
-82.07309011475104
 30
0.0
 10
4.058973111065853
 20
-82.20559891664647
 30
0.0
 10
4.202797737600491
 20
-82.46956459742921
 30
0.0
 10
4.231950084494457
 20
-82.60084356770193
 30
0.0
 10
4.216465612908252
 20
-82.76761865352808
 30
0.0
 10
4.202826861164255
 20
-82.82084638354093
 30
0.0
 10
4.155340573588006
 20
-82.92321471057988
 30
0.0
 10
4.121488218744076
 20
-82.97235884823033
 30
0.0
 10
4.033802810465801
 20
-83.06345125630668
 30
0.0
 10
3.979897727960207
 20
-83.10547391840271
 30
0.0
 10
3.855107868829265
 20
-83.18067184128887
 30
0.0
 10
3.784210669295163
 20
-83.21386183248063
 30
0.0
 10
3.641443300425095
 20
-83.26721663650073
 30
0.0
 10
3.566603256980699
 20
-83.29008128800274
 30
0.0
 10
3.40372390394171
 20
-83.32976888157879
 30
0.0
 10
3.315686520900073
 20
-83.34660894693673
 30
0.0
 10
3.131871674108908
 20
-83.37340818967886
 30
0.0
 10
3.035941126401696
 20
-83.3834017126934
 30
0.0
 10
2.842715274935841
 20
-83.39650571689037
 30
0.0
 10
2.745418411552947
 20
-83.39961747567162
 30
0.0
 10
2.651118549350287
 20
-83.39961747567162
 30
0.0
  0
ELLIPSE
  5
1C19
330
1F
100
AcDbEntity
  8
AM_0
370
    30
100
AcDbEllipse
 10
3.410541844678647
 20
-74.77577437501486
 30
0.0
 11
-1.49428674424113
 21
0.1307942123537669
 31
0.0
210
0.0
220
0.0
230
1.0
 40
0.0347688607281558
 41
1.192685027912557
 42
7.475870335092142
  0
ELLIPSE
  5
1C1A
330
1F
100
AcDbEntity
  8
AM_0
370
    30
100
AcDbEllipse
 10
-1.707997115291363
 20
-63.94684349230681
 30
0.0
 11
16.5983742919972
 21
-3.658149946829869
 31
0.0
210
0.0
220
0.0
230
1.0
 40
0.5862043413449001
 41
4.975399987215407
 42
5.398108386971463
  0
ELLIPSE
  5
1C1B
330
1F
100
AcDbEntity
  8
AM_0
370
    30
100
AcDbEllipse
 10
3.940155897111282
 20
-74.65398469889351
 30
0.0
 11
105.7430439017831
 21
-9.244449650786544
 31
0.0
210
0.0
220
0.0
230
0.9999999999999999
 40
0.0030299052854036
 41
4.703562131899918
 42
4.720333337396267
  0
ELLIPSE
  5
1C1C
330
1F
100
AcDbEntity
  8
AM_0
370
    30
100
AcDbEllipse
 10
0.3984783104088194
 20
-74.67488636108521
 30
0.0
 11
-0.3984764651309685
 21
0.03487845662767119
 31
0.0
210
0.0
220
0.0
230
1.0
 40
0.0347688607281558
 41
6.233692712483493
 42
8.3280878148767
  0
ELLIPSE
  5
1C1D
330
1F
100
AcDbEntity
  8
AM_0
370
    30
100
AcDbEllipse
 10
0.9013469845076827
 20
-74.38380620361943
 30
0.0
 11
-0.3984764651309685
 21
0.03487845662767119
 31
0.0
210
0.0
220
0.0
230
1.0
 40
0.0347688607281558
 41
4.139297610090379
 42
6.23369271248335
  0
ELLIPSE
  5
1C1E
330
1F
100
AcDbEntity
  8
AM_0
370
    30
100
AcDbEllipse
 10
-32.55141121969731
 20
-74.65398469889351
 30
0.0
 11
105.7430439574385
 21
-9.244449650779021
 31
0.0
210
0.0
220
0.0
230
1.0
 40
0.0030299052858607
 41
5.035612643777869
 42
5.052823205826083
  0
ELLIPSE
  5
1C1F
330
1F
100
AcDbEntity
  8
AM_0
370
    30
100
AcDbEllipse
 10
3.459666769389315
 20
-74.65398469889351
 30
0.0
 11
0.8277233176862612
 21
9.24990996725727
 31
0.0
210
0.0
220
0.0
230
1.0
 40
0.0493060098129833
 41
1.601025410398137
 42
1.950286484338534
  0
ELLIPSE
  5
1C20
330
1F
100
AcDbEntity
  8
AM_0
370
    30
100
AcDbEllipse
 10
-0.4317232924305188
 20
-64.14617550865808
 30
0.0
 11
-0.8323514893491383
 21
10.24792514958369
 31
0.0
210
0.0
220
0.0
230
1.0
 40
0.1062950667300419
 41
3.273554139289794
 42
3.429185616802382
  0
ELLIPSE
  5
1C21
330
1F
100
AcDbEntity
  8
AM_0
370
    30
100
AcDbEllipse
 10
-0.83597112306947
 20
-64.08303895148401
 30
0.0
 11
0.1291729673414706
 21
10.02448852573555
 31
0.0
210
0.0
220
0.0
230
1.0
 40
0.8650298724057898
 41
3.33165723245445
 42
3.618139335844972
  0
ELLIPSE
  5
1C22
330
1F
100
AcDbEntity
  8
AM_0
370
    30
100
AcDbEllipse
 10
5.875476593927971
 20
-65.13125163288726
 30
0.0
 11
4.885377224301399
 21
8.907248798795322
 31
0.0
210
0.0
220
0.0
230
0.9999999999999999
 40
0.8549938137262412
 41
3.517261260062172
 42
3.980210051023213
  0
SPLINE
  5
1C23
330
1F
100
AcDbEntity
  8
AM_0
370
    30
100
AcDbSpline
210
0.0
220
0.0
230
1.0
 70
     8
 71
     3
 72
    14
 73
    10
 74
     0
 42
0.0000000001
 43
0.0000000001
 40
21.23148061055981
 40
21.23148061055981
 40
21.23148061055981
 40
21.23148061055981
 40
21.86536957166902
 40
21.86536957166902
 40
23.80113552888732
 40
23.80113552888732
 40
25.73690148610562
 40
25.73690148610562
 40
26.81251289295856
 40
26.81251289295856
 40
26.81251289295856
 40
26.81251289295856
 10
10.44281779876499
 20
-74.20012549289697
 30
0.0
 10
10.2378579565482
 20
-74.28587700951528
 30
0.0
 10
10.02944027852576
 20
-74.36547842337291
 30
0.0
 10
9.173840533751246
 20
-74.66296690557499
 30
0.0
 10
8.50428320137533
 20
-74.82880948031675
 30
0.0
 10
7.164277176902743
 20
-75.04524777576285
 30
0.0
 10
6.493794580036735
 20
-75.09563326522937
 30
0.0
 10
5.490002125346365
 20
-75.09563326522937
 30
0.0
 10
5.123170127786494
 20
-75.0802291403138
 30
0.0
 10
4.752198630759068
 20
-75.04780643211677
 30
0.0
  0
ELLIPSE
  5
1C24
330
1F
100
AcDbEntity
  8
AM_0
370
    30
100
AcDbEllipse
 10
2.35583022815652
 20
-64.58154341638533
 30
0.0
 11
11.48295148589177
 21
-1.08510202566351
 31
0.0
210
0.0
220
0.0
230
1.0
 40
0.8664645170916814
 41
5.222569863926677
 42
5.241975045073732
  0
ELLIPSE
  5
1C25
330
1F
100
AcDbEntity
  8
AM_0
370
    30
100
AcDbEllipse
 10
3.922675911527136
 20
-64.82625775885902
 30
0.0
 11
11.48295148589206
 21
-1.085102025663605
 31
0.0
210
0.0
220
0.0
230
1.0
 40
0.8664645170916591
 41
5.181325060436457
 42
5.215106776023458
  0
SPLINE
  5
1C26
330
1F
100
AcDbEntity
  8
AM_0
370
    30
100
AcDbSpline
210
0.0
220
0.0
230
1.0
 70
     8
 71
     3
 72
    10
 73
     6
 74
     0
 42
0.0000000001
 43
0.0000000001
 40
1.56790362895285
 40
1.56790362895285
 40
1.56790362895285
 40
1.56790362895285
 40
1.793258861593417
 40
1.793258861593417
 40
1.841266977835703
 40
1.841266977835703
 40
1.841266977835703
 40
1.841266977835703
 10
8.631386498315834
 20
-74.06764233753245
 30
0.0
 10
8.705728377824727
 20
-74.04047304777203
 30
0.0
 10
8.780262951449942
 20
-74.01098979902804
 30
0.0
 10
8.869368526683076
 20
-73.97288684569571
 30
0.0
 10
8.88497107933793
 20
-73.96610734899139
 30
0.0
 10
8.900516224347967
 20
-73.95924451802807
 30
0.0
  0
ELLIPSE
  5
1C27
330
1F
100
AcDbEntity
  8
AM_0
370
    30
100
AcDbEllipse
 10
2.86302894356848
 20
-74.65398469889351
 30
0.0
 11
-23.33110977681878
 21
-8.97457129432291
 31
0.0
210
0.0
220
0.0
230
1.0
 40
0.0960279956234413
 41
1.864524615043957
 42
1.888326784340286
  0
ELLIPSE
  5
1C28
330
1F
100
AcDbEntity
  8
AM_0
370
    30
100
AcDbEllipse
 10
8.747236961379059
 20
-73.5951372558585
 30
0.0
 11
1.553707705147181
 21
0.6877616646808021
 31
0.0
210
0.0
220
0.0
230
1.0
 40
0.2324684448170082
 41
4.708139662450154
 42
7.676964933658414
  0
SPLINE
  5
1C29
330
1F
100
AcDbEntity
  8
AM_0
370
    30
100
AcDbSpline
210
0.0
220
0.0
230
1.0
 70
     8
 71
     3
 72
    10
 73
     6
 74
     0
 42
0.0000000001
 43
0.0000000001
 40
1.09892797740027
 40
1.09892797740027
 40
1.09892797740027
 40
1.09892797740027
 40
1.322584145497738
 40
1.322584145497738
 40
2.562167491255941
 40
2.562167491255941
 40
2.562167491255941
 40
2.562167491255941
 10
13.79999999999976
 20
-83.87352915618635
 30
0.0
 10
13.86983241973147
 20
-83.87046429261375
 30
0.0
 10
13.93999261839829
 20
-83.86715551679981
 30
0.0
 10
14.40084008078159
 20
-83.84389206814416
 30
0.0
 10
14.79986242014255
 20
-83.8164954963022
 30
0.0
 10
15.1994026574578
 20
-83.7815528306578
 30
0.0
  0
ELLIPSE
  5
1C2A
330
1F
100
AcDbEntity
  8
AM_0
370
    30
100
AcDbEllipse
 10
2.86302894356848
 20
-74.65398469889351
 30
0.0
 11
-19.54768656976707
 21
-7.519235408757029
 31
0.0
210
0.0
220
0.0
230
1.0
 40
0.0960279956234413
 41
3.640923427303404
 42
4.518065895091973
  0
ELLIPSE
  5
1C2B
330
1F
100
AcDbEntity
  8
AM_0
370
    30
100
AcDbEllipse
 10
16.99999999999969
 20
-73.79844919196557
 30
0.0
 11
-9.941640208049114
 21
-4.412340070011857
 31
0.0
210
0.0
220
0.0
230
0.9999999999999999
 40
0.2444940690526488
 41
4.552140416117964
 42
5.252028734588304
  0
SPLINE
  5
1C2C
330
1F
100
AcDbEntity
  8
AM_0
370
    30
100
AcDbSpline
210
0.0
220
0.0
230
1.0
 70
     8
 71
     3
 72
    16
 73
    12
 74
     0
 42
0.0000000001
 43
0.0000000001
 40
7.984697035482692
 40
7.984697035482692
 40
7.984697035482692
 40
7.984697035482692
 40
8.433555839398204
 40
8.433555839398204
 40
9.201428481439834
 40
9.201428481439834
 40
9.969301123481465
 40
9.969301123481465
 40
10.7371737655231
 40
10.7371737655231
 40
10.88130512934913
 40
10.88130512934913
 40
10.88130512934913
 40
10.88130512934913
 10
16.75886735000202
 20
-80.0353030708643
 30
0.0
 10
16.60381478151024
 20
-80.05296222950818
 30
0.0
 10
16.45089639226163
 20
-80.06548665799471
 30
0.0
 10
16.04686258710697
 20
-80.08669825586884
 30
0.0
 10
15.78093259649975
 20
-80.08739733817868
 30
0.0
 10
15.24432459986068
 20
-80.0573380653201
 30
0.0
 10
14.97364815379822
 20
-80.02656835703033
 30
0.0
 10
14.44374887040752
 20
-79.93152243714303
 30
0.0
 10
14.18429423384308
 20
-79.86716129546227
 30
0.0
 10
13.89125049259999
 20
-79.77224848845185
 30
0.0
 10
13.84538221702113
 20
-79.75670821921506
 30
0.0
 10
13.79999999999976
 20
-79.74064712622635
 30
0.0
  0
DIMENSION
  5
1C86
330
1F
100
AcDbEntity
  8
AM_5
370
    13
100
AcDbDimension
  2
*D5
 10
-0.0000000000000015
 20
-99.14252829426093
 30
0.0
 11
15.3904720064597
 21
-99.14252829426093
 31
0.0
 70
   160
  1
<>
 71
     5
 42
29.99999999999977
  3
AM_JIS$0
100
AcDbAlignedDimension
 13
29.99999999999977
 23
-82.65398469889345
 33
0.0
 14
0.0
 24
-74.65398469889351
 34
0.0
100
AcDbRotatedDimension
1001
GENIUS_GENDTOL_13
1000

1000
h7
1000

1040
0.0
1001
ACAD
1000
DSTYLE
1002
{
1070
   271
1070
     0
1002
}
  0
LINE
  5
1C87
330
1F
100
AcDbEntity
  8
AM_0
370
    30
100
AcDbLine
 10
21.9999999999998
 20
-82.40398469889345
 30
0.0
 11
21.9999999999998
 21
-67.8165030912719
 31
0.0
  0
LINE
  5
1C88
330
1F
100
AcDbEntity
  8
AM_0
370
    30
100
AcDbLine
 10
22.2499999999998
 20
-82.65398469889345
 30
0.0
 11
22.2499999999998
 21
-67.89681386692939
 31
0.0
  0
LINE
  5
1C8B
330
1F
100
AcDbEntity
  8
AM_0
370
    30
100
AcDbLine
 10
23.99999999999969
 20
-67.15398469889351
 30
0.0
 11
23.99999999999969
 21
-82.65398469889351
 31
0.0
  0
LINE
  5
1C8C
330
1F
100
AcDbEntity
  8
AM_0
370
    30
100
AcDbLine
 10
0.2191526956322889
 20
-76.72363059934003
 30
0.0
 11
0.3581260369742552
 21
-77.84878921250345
 31
0.0
  0
LINE
  5
1C8D
330
1F
100
AcDbEntity
  8
AM_0
370
    30
100
AcDbLine
 10
1.439878668415673
 20
-83.87352915618635
 30
0.0
 11
13.79999999999976
 21
-83.87352915618635
 31
0.0
  0
LINE
  5
1C8E
330
1F
100
AcDbEntity
  8
AM_0
370
    30
100
AcDbLine
 10
0.3581260369742552
 20
-77.84878921250345
 30
0.0
 11
2.731418168482406
 21
-78.01392167181899
 31
0.0
  0
LINE
  5
1C8F
330
1F
100
AcDbEntity
  8
AM_0
370
    30
100
AcDbLine
 10
22.2499999999998
 20
-82.65398469889345
 30
0.0
 11
29.99999999999977
 21
-82.65398469889345
 31
0.0
  0
LINE
  5
1C90
330
1F
100
AcDbEntity
  8
AM_0
370
    30
100
AcDbLine
 10
17.9999999999998
 20
-82.40398469889345
 30
0.0
 11
21.9999999999998
 21
-82.40398469889345
 31
0.0
  0
LINE
  5
1C91
330
1F
100
AcDbEntity
  8
AM_0
370
    30
100
AcDbLine
 10
17.9999999999998
 20
-82.40398469889345
 30
0.0
 11
16.75886735000202
 21
-83.64511734889129
 31
0.0
  0
LINE
  5
1C92
330
1F
100
AcDbEntity
  8
AM_0
370
    30
100
AcDbLine
 10
16.75886735000202
 20
-83.64511734889129
 30
0.0
 11
16.75886735000202
 21
-80.0353030708643
 31
0.0
  0
LINE
  5
1C93
330
1F
100
AcDbEntity
  8
AM_0
370
    30
100
AcDbLine
 10
13.79999999999976
 20
-83.87352915618635
 30
0.0
 11
13.79999999999976
 21
-79.74064712622635
 31
0.0
  0
LINE
  5
1C94
330
1F
100
AcDbEntity
  8
AM_0
370
    30
100
AcDbLine
 10
16.75886735000202
 20
-83.64511734889129
 30
0.0
 11
15.1994026574578
 21
-83.7815528306578
 31
0.0
  0
LINE
  5
1C95
330
1F
100
AcDbEntity
  8
AM_0
370
    30
100
AcDbLine
 10
17.9999999999998
 20
-82.40398469889345
 30
0.0
 11
17.9999999999998
 21
-77.39226488263597
 31
0.0
  0
LINE
  5
1C96
330
1F
100
AcDbEntity
  8
AM_0
370
    30
100
AcDbLine
 10
21.9999999999998
 20
-82.40398469889345
 30
0.0
 11
22.2499999999998
 21
-82.65398469889345
 31
0.0
  0
LINE
  5
1C97
330
1F
100
AcDbEntity
  8
AM_0
370
    30
100
AcDbLine
 10
29.9999999999998
 20
-82.15398469889351
 30
0.0
 11
29.99999999999977
 21
-82.65398469889345
 31
0.0
  0
LINE
  5
1C9A
330
1F
100
AcDbEntity
  8
AM_0
370
    30
100
AcDbLine
 10
4.124931338810285
 20
-74.9498380705063
 30
0.0
 11
0.5793211832140344
 21
-74.70313631938393
 31
0.0
  0
LINE
  5
1C9B
330
1F
100
AcDbEntity
  8
AM_0
370
    30
100
AcDbLine
 10
1.118432644635192
 20
-74.39107741183057
 30
0.0
 11
5.74756940910757
 21
-74.90113242739801
 31
0.0
  0
LINE
  5
1C9C
330
1F
100
AcDbEntity
  8
AM_0
370
    30
100
AcDbLine
 10
3.026972402575808
 20
-73.04189801122789
 30
0.0
 11
5.929267247598574
 21
-71.36020720526756
 31
0.0
  0
LINE
  5
1C9D
330
1F
100
AcDbEntity
  8
AM_0
370
    30
100
AcDbLine
 10
3.01375236400375
 20
-74.87252280359576
 30
0.0
 11
4.124931338740367
 21
-74.94983807151129
 31
0.0
  0
LINE
  5
1C9E
330
1F
100
AcDbEntity
  8
AM_5
100
AcDbLine
 10
-3.448632220920047
 20
-74.35226847489281
 30
0.0
 11
-0.0000000000013358
 21
-74.65398469889351
 31
0.0
  0
LINE
  5
1C9F
330
1F
100
AcDbEntity
  8
AM_0
370
    30
100
AcDbLine
 10
0.2191526956342216
 20
-76.72363059929944
 30
0.0
 11
0.0000027560061255
 21
-74.64010239312108
 31
0.0
  0
LINE
  5
1CA0
330
1F
100
AcDbEntity
  8
AM_0
370
    30
100
AcDbLine
 10
0.0005497774762091
 20
-74.63936519457536
 30
0.0
 11
0.5034184515750724
 21
-74.34828503710958
 31
0.0
  0
LINE
  5
1CA1
330
1F
100
AcDbEntity
  8
AM_0
370
    30
100
AcDbLine
 10
0.5413106877752227
 20
-74.34634823765191
 30
0.0
 11
0.5367208196225022
 21
-74.2933608162507
 31
0.0
  0
LINE
  5
1CA2
330
1F
100
AcDbEntity
  8
AM_0
370
    30
100
AcDbLine
 10
2.978781475720808
 20
-74.8927653285017
 30
0.0
 11
3.01375236400375
 21
-74.87252280359576
 31
0.0
  0
LINE
  5
1CA3
330
1F
100
AcDbEntity
  8
AM_0
370
    30
100
AcDbLine
 10
8.863450608877685
 20
-73.1184828951142
 30
0.0
 11
7.345333512523695
 21
-73.71635173108052
 31
0.0
  0
LINE
  5
1CA4
330
1F
100
AcDbEntity
  8
AM_0
370
    30
100
AcDbLine
 10
7.142885089735415
 20
-73.79399068890155
 30
0.0
 11
6.681441339814711
 21
-74.72981348568385
 31
0.0
  0
LINE
  5
1CA5
330
1F
100
AcDbEntity
  8
AM_0
370
    30
100
AcDbLine
 10
19.67825724801404
 20
-67.15398469889351
 30
0.0
 11
23.00000000391904
 21
-67.15398469889351
 31
0.0
  0
LINE
  5
1CA7
330
1F
100
AcDbEntity
  8
AM_0
370
    30
100
AcDbLine
 10
17.9999999999998
 20
-71.91570451515099
 30
0.0
 11
17.9999999999998
 21
-70.25687560231086
 31
0.0
  0
SPLINE
  5
1CB5
330
1F
100
AcDbEntity
  8
AM_0
370
    30
100
AcDbSpline
210
0.0
220
0.0
230
1.0
 70
    12
 71
     2
 72
     6
 73
     3
 74
     0
 42
0.0000000001
 43
0.0000000001
 40
0.0
 40
0.0
 40
0.0
 40
0.8683077351809081
 40
0.8683077351809081
 40
0.8683077351809081
 10
21.9999999999998
 20
11.95256241897653
 30
0.0
 41
1.0
 10
22.10306055405002
 20
12.36162452430335
 30
0.0
 41
1.0013958980621
 10
22.2499999999998
 20
12.78388218141492
 30
0.0
 41
1.0
  0
SPLINE
  5
1CB6
330
1F
100
AcDbEntity
  8
AM_0
370
    30
100
AcDbSpline
210
0.0
220
0.0
230
1.0
 70
     8
 71
     3
 72
    22
 73
    18
 74
     0
 42
0.0000000001
 43
0.0000000001
 40
14.88297726670916
 40
14.88297726670916
 40
14.88297726670916
 40
14.88297726670916
 40
15.19328236653021
 40
15.19328236653021
 40
15.6151093843544
 40
15.6151093843544
 40
16.09646252865831
 40
16.09646252865831
 40
16.57781567296222
 40
16.57781567296222
 40
17.07596219240755
 40
17.07596219240755
 40
17.57410871185287
 40
17.57410871185287
 40
18.07225523129819
 40
18.07225523129819
 40
18.57040175074351
 40
18.57040175074351
 40
18.57040175074351
 40
18.57040175074351
 10
17.9999999999998
 20
2.749874371066198
 30
0.0
 10
18.10773809372054
 20
2.739046285232917
 30
0.0
 10
18.21361610931174
 20
2.726621949901642
 30
0.0
 10
18.45540831178553
 20
2.694520526466249
 30
0.0
 10
18.58842209741843
 20
2.673834179485766
 30
0.0
 10
18.85262656981573
 20
2.627929610472847
 30
0.0
 10
19.00093916761333
 20
2.598798146027889
 30
0.0
 10
19.27862592288537
 20
2.537970333845692
 30
0.0
 10
19.4079544949573
 20
2.506412450357402
 30
0.0
 10
19.62978281789563
 20
2.448721705970002
 30
0.0
 10
19.73650692456798
 20
2.418794817923185
 30
0.0
 10
19.92526946216188
 20
2.363079129808398
 30
0.0
 10
20.0073156366955
 20
2.33734046549705
 30
0.0
 10
20.13928168108717
 20
2.294720416458063
 30
0.0
 10
20.18932602520866
 20
2.277837524447932
 30
0.0
 10
20.25503929954337
 20
2.255470574274
 30
0.0
 10
20.27070328828498
 20
2.25
 30
0.0
 10
20.27070328828498
 20
2.25
 30
0.0
  0
ELLIPSE
  5
1CB7
330
1F
100
AcDbEntity
  8
AM_0
370
    30
100
AcDbEllipse
 10
2.86302894356848
 20
10.0
 30
0.0
 11
-19.53833618025882
 21
2.509320509312058
 31
0.0
210
0.0
220
0.0
230
1.0
 40
0.3752887285328875
 41
2.503828970763041
 42
2.981154173287459
  0
SPLINE
  5
1CB8
330
1F
100
AcDbEntity
  8
AM_0
370
    30
100
AcDbSpline
210
0.0
220
0.0
230
1.0
 70
     8
 71
     3
 72
     8
 73
     4
 74
     0
 42
0.0000000001
 43
0.0000000001
 40
5.323998262428498
 40
5.323998262428498
 40
5.323998262428498
 40
5.323998262428498
 40
6.583189765624762
 40
6.583189765624762
 40
6.583189765624762
 40
6.583189765624762
 10
17.52135468075906
 20
2.786400217137839
 30
0.0
 10
17.70547604236279
 20
2.776787891213303
 30
0.0
 10
17.86666579292731
 20
2.763274963083745
 30
0.0
 10
17.9999999999998
 20
2.749874371066198
 30
0.0
  0
SPLINE
  5
1CB9
330
1F
100
AcDbEntity
  8
AM_0
370
    30
100
AcDbSpline
210
0.0
220
0.0
230
1.0
 70
    12
 71
     2
 72
     6
 73
     3
 74
     0
 42
0.0000000001
 43
0.0000000001
 40
0.0008870805338752
 40
0.0008870805338752
 40
0.0008870805338752
 40
1.109036425888739
 40
1.109036425888739
 40
1.109036425888739
 10
17.9999999999998
 20
3.618156097744982
 30
0.0
 41
1.000003120554387
 10
17.78119703343103
 20
3.208658139431519
 30
0.0
 41
1.001951561992528
 10
17.52135468075906
 20
2.786400217137839
 30
0.0
 41
1.002222302036531
  0
ELLIPSE
  5
1CBA
330
1F
100
AcDbEntity
  8
AM_0
370
    30
100
AcDbEllipse
 10
2.86302894356848
 20
10.0
 30
0.0
 11
-20.16860508929943
 21
2.59026633219309
 31
0.0
210
0.0
220
0.0
230
1.0
 40
0.3752887285328874
 41
2.906425991439392
 42
3.115896913805146
  0
SPLINE
  5
1CBB
330
1F
100
AcDbEntity
  8
AM_0
370
    30
100
AcDbSpline
210
0.0
220
0.0
230
1.0
 70
    12
 71
     2
 72
     6
 73
     3
 74
     0
 42
0.0000000001
 43
0.0000000001
 40
0.0
 40
0.0
 40
0.0
 40
0.6865695530899441
 40
0.6865695530899441
 40
0.6865695530899441
 10
22.2499999999998
 20
5.717402383172839
 30
0.0
 41
1.0
 10
22.10445164819569
 20
6.043315550149659
 30
0.0
 41
1.001790132773512
 10
21.9999999999998
 20
6.351528365817217
 30
0.0
 41
1.0
  0
SPLINE
  5
1CBC
330
1F
100
AcDbEntity
  8
AM_0
370
    30
100
AcDbSpline
210
0.0
220
0.0
230
1.0
 70
     8
 71
     3
 72
     9
 73
     5
 74
     3
 42
0.0000000001
 43
0.0000000001
 44
0.0000000001
 40
0.0
 40
0.0
 40
0.0
 40
0.0
 40
2.82842712474611
 40
5.656854249492275
 40
5.656854249492275
 40
5.656854249492275
 40
5.656854249492275
 10
23.99999999999969
 20
12.78388218141492
 30
0.0
 10
23.74999999999968
 20
11.85592145427662
 30
0.0
 10
23.24999999999965
 20
9.999999999999982
 30
0.0
 10
23.74999999999967
 20
8.144078545723348
 30
0.0
 10
23.99999999999969
 20
7.216117818585019
 30
0.0
 11
23.99999999999969
 21
12.78388218141492
 31
0.0
 11
23.49999999999966
 21
10.0
 31
0.0
 11
23.99999999999969
 21
7.216117818585019
 31
0.0
  0
ELLIPSE
  5
1CBD
330
1F
100
AcDbEntity
  8
AM_0
370
    30
100
AcDbEllipse
 10
-0.4317232924305188
 20
12.31463199663824
 30
0.0
 11
0.8994686692549025
 21
20.19780178492429
 31
0.0
210
0.0
220
0.0
230
1.0
 40
0.0512222215438433
 41
4.635484897815802
 42
4.797312097188185
  0
ELLIPSE
  5
1CBE
330
1F
100
AcDbEntity
  8
AM_0
370
    30
100
AcDbEllipse
 10
0.9013469845076827
 20
9.991449050403105
 30
0.0
 11
0.1482309230291914
 21
0.371520650109673
 31
0.0
210
0.0
220
0.0
230
1.0
 40
0.9955888461044968
 41
6.088205235767606
 42
8.182600338160578
  0
ELLIPSE
  5
1CBF
330
1F
100
AcDbEntity
  8
AM_0
370
    30
100
AcDbEllipse
 10
3.459666769389315
 20
10.0
 30
0.0
 11
-0.4634024662880994
 21
-9.249907965340755
 31
0.0
210
0.0
220
0.0
230
1.0
 40
0.0890434846329954
 41
5.985485804305887
 42
6.261829193703191
  0
ELLIPSE
  5
1CC0
330
1F
100
AcDbEntity
  8
AM_0
370
    30
100
AcDbEllipse
 10
3.940155897111282
 20
10.0
 30
0.0
 11
105.7430437867627
 21
0.3253264762185076
 31
0.0
210
0.0
220
0.0
230
1.0
 40
0.0874220843538287
 41
4.703028285688057
 42
4.719799491184406
  0
ELLIPSE
  5
1CC1
330
1F
100
AcDbEntity
  8
AM_0
370
    30
100
AcDbEllipse
 10
0.3984783104088194
 20
0.3961431439434477
 30
0.0
 11
0.1482309230291914
 21
0.371520650109673
 31
0.0
210
0.0
220
0.0
230
1.0
 40
0.9955888461044968
 41
1.899415030981135
 42
3.993810133374341
  0
SPLINE
  5
1CC2
330
1F
100
AcDbEntity
  8
AM_0
370
    30
100
AcDbSpline
210
0.0
220
0.0
230
1.0
 70
     8
 71
     3
 72
    14
 73
    10
 74
     0
 42
0.0000000001
 43
0.0000000001
 40
21.23148061055981
 40
21.23148061055981
 40
21.23148061055981
 40
21.23148061055981
 40
21.86536957166902
 40
21.86536957166902
 40
23.80113552888732
 40
23.80113552888732
 40
25.73690148610562
 40
25.73690148610562
 40
26.81251289295856
 40
26.81251289295856
 40
26.81251289295856
 40
26.81251289295856
 10
10.44281779876499
 20
0.7611412056936615
 30
0.0
 10
10.2378579565482
 20
0.7569286599548377
 30
0.0
 10
10.02944027852576
 20
0.7542088842452586
 30
0.0
 10
9.173840533751246
 20
0.74728872431524
 30
0.0
 10
8.50428320137533
 20
0.7510185066456643
 30
0.0
 10
7.164277176902743
 20
0.7576444801286471
 30
0.0
 10
6.493794580036735
 20
0.7605494457812938
 30
0.0
 10
5.490002125346365
 20
0.7605494457812938
 30
0.0
 10
5.123170127786494
 20
0.7597690062883657
 30
0.0
 10
4.752198630759068
 20
0.7583873462235715
 30
0.0
  0
SPLINE
  5
1CC3
330
1F
100
AcDbEntity
  8
AM_0
370
    30
100
AcDbSpline
210
0.0
220
0.0
230
1.0
 70
     8
 71
     3
 72
     8
 73
     4
 74
     0
 42
0.0000000001
 43
0.0000000001
 40
18.54750679611936
 40
18.54750679611936
 40
18.54750679611936
 40
18.54750679611936
 40
19.21009115741749
 40
19.21009115741749
 40
19.21009115741749
 40
19.21009115741749
 10
10.93390570465616
 20
0.75
 30
0.0
 10
10.93390570465616
 20
0.75
 30
0.0
 10
10.94432120611444
 20
0.757983982148744
 30
0.0
 10
10.96622897613364
 20
0.7745600023796442
 30
0.0
  0
ELLIPSE
  5
1CC4
330
1F
100
AcDbEntity
  8
AM_0
370
    30
100
AcDbEllipse
 10
2.86302894356848
 20
10.0
 30
0.0
 11
-23.31994963450249
 21
2.994995446598262
 31
0.0
210
0.0
220
0.0
230
1.0
 40
0.3752887285328874
 41
1.949607357505258
 42
1.973409526801587
  0
ELLIPSE
  5
1CC5
330
1F
100
AcDbEntity
  8
AM_0
370
    30
100
AcDbEllipse
 10
5.875476593927971
 20
-0.2130037830647211
 30
0.0
 11
-8.972397932920602
 21
-4.417241222667829
 31
0.0
210
0.0
220
0.0
230
1.0
 40
0.26410565670089
 41
4.314845176170195
 42
4.777793967131236
  0
ELLIPSE
  5
1CC6
330
1F
100
AcDbEntity
  8
AM_0
370
    30
100
AcDbEllipse
 10
2.35583022815652
 20
6.706099651710417
 30
0.0
 11
11.52136754730247
 21
-0.5960448939646659
 31
0.0
210
0.0
220
0.0
230
1.0
 40
0.0262726359354335
 41
1.124265321100859
 42
1.143670502247915
  0
ELLIPSE
  5
1CC7
330
1F
100
AcDbEntity
  8
AM_0
370
    30
100
AcDbEllipse
 10
8.93180023911944
 20
4.78218745366479
 30
0.0
 11
0.1482309230291914
 21
0.371520650109673
 31
0.0
210
0.0
220
0.0
230
1.0
 40
0.9955888461044968
 41
3.993810133374438
 42
6.088205235767487
  0
ELLIPSE
  5
1CC8
330
1F
100
AcDbEntity
  8
AM_0
370
    30
100
AcDbEllipse
 10
8.32742147681418
 20
5.30932594357904
 30
0.0
 11
0.5558659613594286
 21
1.393202437911176
 31
0.0
210
0.0
220
0.0
230
1.0
 40
0.9955888461044967
 41
3.470211357775806
 42
6.113873224250921
  0
ELLIPSE
  5
1CC9
330
1F
100
AcDbEntity
  8
AM_0
370
    30
100
AcDbEllipse
 10
3.922675911527136
 20
3.625913115073502
 30
0.0
 11
11.52136754730278
 21
-0.5960448939652475
 31
0.0
210
0.0
220
0.0
230
1.0
 40
0.026272635935429
 41
1.151133590151036
 42
1.184915305738037
  0
SPLINE
  5
1CCA
330
1F
100
AcDbEntity
  8
AM_0
370
    30
100
AcDbSpline
210
0.0
220
0.0
230
1.0
 70
     8
 71
     3
 72
    10
 73
     6
 74
     0
 42
0.0000000001
 43
0.0000000001
 40
1.56790362895285
 40
1.56790362895285
 40
1.56790362895285
 40
1.56790362895285
 40
1.793258861593417
 40
1.793258861593417
 40
1.841266977835703
 40
1.841266977835703
 40
1.841266977835703
 40
1.841266977835703
 10
8.631386498315834
 20
3.659483762221669
 30
0.0
 10
8.705728377824727
 20
3.654763470449609
 30
0.0
 10
8.780262951449942
 20
3.65515690576359
 30
0.0
 10
8.869368526683076
 20
3.661557465086446
 30
0.0
 10
8.88497107933793
 20
3.662901930257533
 30
0.0
 10
8.900516224347967
 20
3.664462651325437
 30
0.0
  0
ELLIPSE
  5
1CCB
330
1F
100
AcDbEntity
  8
AM_0
370
    30
100
AcDbEllipse
 10
8.747236961379059
 20
5.141826137684973
 30
0.0
 11
1.558564438635526
 21
0.1075140487920385
 31
0.0
210
0.0
220
0.0
230
1.0
 40
0.9506744819096542
 41
4.745196461799476
 42
7.714021733007735
  0
ELLIPSE
  5
1CCC
330
1F
100
AcDbEntity
  8
AM_0
370
    30
100
AcDbEllipse
 10
-1.707997115291363
 20
14.69498228600861
 30
0.0
 11
16.69528873837538
 21
-11.14117056838781
 31
0.0
210
0.0
220
0.0
230
1.0
 40
0.1051314691789522
 41
4.916595319168945
 42
5.339667309708813
  0
ELLIPSE
  5
1CCD
330
1F
100
AcDbEntity
  8
AM_0
370
    30
100
AcDbEllipse
 10
2.86302894356848
 20
10.0
 30
0.0
 11
-19.53833618025882
 21
2.509320509312058
 31
0.0
210
0.0
220
0.0
230
1.0
 40
0.3752887285328875
 41
3.726006169764707
 42
4.603148637553277
  0
SPLINE
  5
1CCE
330
1F
100
AcDbEntity
  8
AM_0
370
    30
100
AcDbSpline
210
0.0
220
0.0
230
1.0
 70
    28
 71
     2
 72
     6
 73
     3
 74
     0
 42
0.0000000001
 43
0.0000000001
 40
0.0
 40
0.0
 40
0.0
 40
0.8683077351809081
 40
0.8683077351809081
 40
0.8683077351809081
 10
-48.11074548782224
 20
11.95256241897653
 30
0.0
 41
1.0
 10
-48.11074548782224
 20
12.36162452430335
 30
0.0
 41
1.0013958980621
 10
-48.11074548782224
 20
12.78388218141492
 30
0.0
 41
1.0
  0
ELLIPSE
  5
1CCF
330
1F
100
AcDbEntity
  8
AM_0
370
    30
100
AcDbEllipse
 10
-45.10293629758692
 20
12.31463199663824
 30
0.0
 11
2.859639323835417
 21
20.14950623745828
 31
0.0
210
0.0
220
0.0
230
1.0
 40
0.4884116208104968
 41
1.55735948610815
 42
1.719336154200007
  0
ELLIPSE
  5
1CD0
330
1F
100
AcDbEntity
  8
AM_0
370
    30
100
AcDbEllipse
 10
-55.34056699254816
 20
9.994983727343879
 30
0.0
 11
0.01396065374498797
 21
0.3997563009472304
 31
0.0
210
0.0
220
0.0
230
0.9999999999999999
 40
0.0871434210711438
 41
4.764924867629437
 42
6.300189777470573
  0
ELLIPSE
  5
1CD1
330
1F
100
AcDbEntity
  8
AM_0
370
    30
100
AcDbEllipse
 10
-45.03979974041275
 20
13.10932335559846
 30
0.0
 11
10.02510347349346
 21
0.0250106375624326
 31
0.0
210
0.0
220
0.0
230
1.0
 40
0.4994437682975491
 41
2.674946048879866
 42
2.961428152270387
  0
SPLINE
  5
1CD2
330
1F
100
AcDbEntity
  8
AM_0
370
    30
100
AcDbSpline
210
0.0
220
0.0
230
1.0
 70
    12
 71
     2
 72
     6
 73
     3
 74
     0
 42
0.0000000001
 43
0.0000000001
 40
0.0
 40
0.0
 40
0.0
 40
0.6865695530899441
 40
0.6865695530899441
 40
0.6865695530899441
 10
-48.85357465585813
 20
5.717402383172839
 30
0.0
 41
1.0
 10
-48.8193342698286
 20
6.043315550149602
 30
0.0
 41
1.001790132773512
 10
-48.77326388020063
 20
6.351528365817273
 30
0.0
 41
1.0
  0
ELLIPSE
  5
1CD3
330
1F
100
AcDbEntity
  8
AM_0
370
    30
100
AcDbEllipse
 10
-54.75520998089431
 20
-7.199999999999932
 30
0.0
 11
3.394302448099694
 21
9.918534310314378
 31
0.0
210
0.0
220
0.0
230
1.0
 40
0.3752887285328875
 41
0.0755722759675668
 42
0.7754605944379072
  0
ELLIPSE
  5
1CD4
330
1F
100
AcDbEntity
  8
AM_0
370
    30
100
AcDbEllipse
 10
-55.63164715001395
 20
0.3996778208842216
 30
0.0
 11
0.01396065374498797
 21
0.3997563009472304
 31
0.0
210
0.0
220
0.0
230
0.9999999999999999
 40
0.0871434210711438
 41
3.124588183298812
 42
4.764924867629295
  0
SPLINE
  5
1CD5
330
1F
100
AcDbEntity
  8
AM_0
370
    30
100
AcDbSpline
210
0.0
220
0.0
230
1.0
 70
     8
 71
     3
 72
    10
 73
     6
 74
     0
 42
0.0000000001
 43
0.0000000001
 40
21.23148061055981
 40
21.23148061055981
 40
21.23148061055981
 40
21.23148061055981
 40
21.86536957166902
 40
21.86536957166902
 40
22.47428869832509
 40
22.47428869832509
 40
22.47428869832509
 40
22.47428869832509
 10
-55.15688628182571
 20
0.7611412056936615
 30
0.0
 10
-55.24263779844401
 20
0.7569286599548946
 30
0.0
 10
-55.32223921230164
 20
0.7542088842453154
 30
0.0
 10
-55.4661188784236
 20
0.7508619637430911
 30
0.0
 10
-55.5308484688799
 20
0.7501070171198307
 30
0.0
 10
-55.58989235372431
 20
0.7500235056083966
 30
0.0
  0
ELLIPSE
  5
1CD6
330
1F
100
AcDbEntity
  8
AM_0
370
    30
100
AcDbEllipse
 10
-45.53830420531418
 20
6.709634328651248
 30
0.0
 11
-10.00855073721928
 21
0.2884026519857444
 31
0.0
210
0.0
220
0.0
230
1.0
 40
0.0602575720887162
 41
0.4032863805767721
 42
0.4226915617238281
  0
ELLIPSE
  5
1CD7
330
1F
100
AcDbEntity
  8
AM_0
370
    30
100
AcDbEllipse
 10
-46.0880124218161
 20
-0.2094691061239473
 30
0.0
 11
9.76313666607448
 21
-2.884940124442609
 31
0.0
210
0.0
220
0.0
230
1.0
 40
0.4198774739342512
 41
2.864907872287007
 42
2.972483039854978
  0
ELLIPSE
  5
1CD8
330
1F
100
AcDbEntity
  8
AM_0
370
    30
100
AcDbEllipse
 10
-45.78301854778775
 20
3.629447792014275
 30
0.0
 11
10.00855073721929
 21
-0.2884026519856837
 31
0.0
210
0.0
220
0.0
230
1.0
 40
0.0602575720887743
 41
3.503634230676338
 42
3.537415946263339
  0
SPLINE
  5
1CD9
330
1F
100
AcDbEntity
  8
AM_0
370
    30
100
AcDbSpline
210
0.0
220
0.0
230
1.0
 70
     8
 71
     3
 72
    10
 73
     6
 74
     0
 42
0.0000000001
 43
0.0000000001
 40
1.56790362895285
 40
1.56790362895285
 40
1.56790362895285
 40
1.56790362895285
 40
1.793258861593417
 40
1.793258861593417
 40
1.841266977835703
 40
1.841266977835703
 40
1.841266977835703
 40
1.841266977835703
 10
-55.02440312646118
 20
3.663018439162443
 30
0.0
 10
-54.99723383670076
 20
3.658298147390383
 30
0.0
 10
-54.96775058795677
 20
3.658691582704421
 30
0.0
 10
-54.92964763462445
 20
3.66509214202722
 30
0.0
 10
-54.92286813792012
 20
3.666436607198307
 30
0.0
 10
-54.91600530695681
 20
3.66799732826621
 30
0.0
  0
ELLIPSE
  5
1CDA
330
1F
100
AcDbEntity
  8
AM_0
370
    30
100
AcDbEllipse
 10
-54.55189804478724
 20
5.145360814625747
 30
0.0
 11
0.5184544273734836
 21
1.471534241003506
 31
0.0
210
0.0
220
0.0
230
1.0
 40
0.393136296952213
 41
3.384470062912957
 42
6.353295334121216
  0
SPLINE
  5
1CDB
330
1F
100
AcDbEntity
  8
AM_0
370
    30
100
AcDbSpline
210
0.0
220
0.0
230
1.0
 70
     8
 71
     3
 72
     8
 73
     4
 74
     0
 42
0.0000000001
 43
0.0000000001
 40
5.323998262428498
 40
5.323998262428498
 40
5.323998262428498
 40
5.323998262428498
 40
5.873561024996111
 40
5.873561024996111
 40
5.873561024996111
 40
5.873561024996111
 10
-51.65163170282509
 20
2.786400217137839
 30
0.0
 10
-51.82629223947882
 20
2.782205004275966
 30
0.0
 10
-52.00240024810549
 20
2.777266801892438
 30
0.0
 10
-52.17973626085578
 20
2.771915338982808
 30
0.0
  0
SPLINE
  5
1CDC
330
1F
100
AcDbEntity
  8
AM_0
370
    30
100
AcDbSpline
210
0.0
220
0.0
230
1.0
 70
    12
 71
     2
 72
     6
 73
     3
 74
     0
 42
0.0000000001
 43
0.0000000001
 40
0.0008870805338752
 40
0.0008870805338752
 40
0.0008870805338752
 40
1.109036425888739
 40
1.109036425888739
 40
1.109036425888739
 10
-51.21363639123959
 20
3.618156097744982
 30
0.0
 41
1.000003120554387
 10
-51.42232556341733
 20
3.208658139431464
 30
0.0
 41
1.001951561992528
 10
-51.65163170282509
 20
2.786400217137839
 30
0.0
 41
1.002222302036531
  0
ELLIPSE
  5
1CDD
330
1F
100
AcDbEntity
  8
AM_0
370
    30
100
AcDbEllipse
 10
-44.90360428123555
 20
14.69851696294938
 30
0.0
 11
-8.346316383389103
 21
-10.03129526955383
 31
0.0
210
0.0
220
0.0
230
1.0
 40
0.617701650639087
 41
5.547957651430537
 42
5.970666051186593
  0
LINE
  5
1CDF
330
1F
100
AcDbEntity
  8
AM_7
  6
CENTER
370
    13
100
AcDbLine
 10
-68.65720675039236
 20
9.999999999999943
 30
0.0
 11
-42.12672397191253
 21
9.999999999999943
 31
0.0
1001
GENIUS_GENODEF_13
1002
{
1000
HIER
1070
     0
1002
}
1002
{
1000
MANEDIT
1070
     0
1002
}
1002
{
1000
NOSEL
1070
     0
1002
}
1002
{
1000
BEHIND
1070
     0
1002
}
1002
{
1000
REACTOR
1002
}
1001
GENIUS_GENOBJ-N-CEN_13
1002
{
1000
OWNER
1000
GEN
1002
}
  0
DIMENSION
  5
1CE0
330
1F
100
AcDbEntity
  8
AM_5
370
    13
100
AcDbDimension
  2
*D6
 10
-49.3449748232714
 20
2.331405323648482
 30
0.0
 11
-89.5214721009564
 21
28.34002946166849
 31
0.0
 70
   163
  1
最小加工径<>
 71
     5
 42
19.99999999999993
  3
AM_JIS$3
100
AcDbDiametricDimension
 15
-61.87651615237295
 25
17.91859467635146
 35
0.0
 40
0.0
1001
ACAD
1000
DSTYLE
1002
{
1070
   271
1070
     0
1070
   288
1070
     1
1070
   289
1070
     3
1070
   172
1070
     1
1070
    74
1070
     1
1002
}
  0
CIRCLE
  5
1CF2
330
1F
100
AcDbEntity
  8
AM_5
  6
AM_ISO09W050
370
    13
100
AcDbCircle
 10
-55.61074548782224
 20
9.999999999999943
 30
0.0
 40
10.0
  0
LINE
  5
1CF3
330
1F
100
AcDbEntity
  8
AM_7
  6
CENTER
370
    13
100
AcDbLine
 10
-55.61074548782224
 20
22.59843988049295
 30
0.0
 11
-55.61074548782224
 21
-4.105041805582118
 31
0.0
1001
GENIUS_GENODEF_13
1002
{
1000
HIER
1070
     0
1002
}
1002
{
1000
MANEDIT
1070
     0
1002
}
1002
{
1000
NOSEL
1070
     0
1002
}
1002
{
1000
BEHIND
1070
     0
1002
}
1002
{
1000
REACTOR
1002
}
1001
GENIUS_GENOBJ-N-CEN_13
1002
{
1000
OWNER
1000
GEN
1002
}
  0
DIMENSION
  5
1CF4
330
1F
100
AcDbEntity
  8
AM_5
370
    13
100
AcDbDimension
  2
*D7
 10
-55.61074548782224
 20
-4.105041805582118
 30
0.0
 11
-44.42562839600454
 21
-14.60560080958163
 31
0.0
 70
   162
  1
-<>
 71
     5
 42
0.0349065850398942
  3
AM_JIS$2
100
AcDb2LineAngularDimension
 13
-55.61074548782224
 23
0.1250000000000568
 33
0.0
 14
-55.87570452141486
 24
-7.462433995552715
 34
0.0
 15
-55.61074548782224
 25
22.59843988049295
 35
0.0
 16
-55.92649172644357
 26
-13.44074581462706
 36
0.0
1001
GENIUS_GENDTOL_13
1000

1000
h7
1000

1040
0.0
1001
ACAD
1000
DSTYLE
1002
{
1070
   279
1070
     1
1002
}
  0
LINE
  5
1CF5
330
1F
100
AcDbEntity
  8
AM_0
370
    30
100
AcDbLine
 10
-58.53735025303618
 20
9.71764345810368
 30
0.0
 11
-58.80555000143218
 21
0.8765783291676712
 31
0.0
  0
ARC
  5
1CF6
330
1F
100
AcDbEntity
  8
AM_0
370
    30
100
AcDbCircle
 10
-55.61074548782224
 20
10.0
 30
0.0
 40
9.24999999999997
100
AcDbArc
 50
184.6507090048791
 51
249.8576177421786
  0
ARC
  5
1CF7
330
1F
100
AcDbEntity
  8
AM_0
370
    30
100
AcDbCircle
 10
-55.61074548782224
 20
10.0
 30
0.0
 40
7.999999999999972
100
AcDbArc
 50
301.3669461550851
 51
327.6340654114096
  0
ARC
  5
1CF8
330
1F
100
AcDbEntity
  8
AM_0
370
    30
100
AcDbCircle
 10
-55.61074548782224
 20
10.0
 30
0.0
 40
7.749999999999971
100
AcDbArc
 50
304.5669552821189
 51
331.9156748419921
  0
LINE
  5
1CF9
330
1F
100
AcDbEntity
  8
AM_0
370
    30
100
AcDbLine
 10
-55.5961259835041
 20
0.4194548127644566
 30
0.0
 11
-55.30504582603831
 21
10.01476071922417
 31
0.0
  0
LINE
  5
1CFA
330
1F
100
AcDbEntity
  8
AM_0
370
    30
100
AcDbLine
 10
-58.79602237300949
 20
1.190651641737304
 30
0.0
 11
-58.52715561320545
 21
10.0537044546121
 31
0.0
  0
LINE
  5
1CFB
330
1F
100
AcDbEntity
  8
AM_5
100
AcDbLine
 10
-55.61074548782224
 20
0.1250000000000568
 30
0.0
 11
-55.87570452141486
 21
-7.462433995552715
 31
0.0
  0
LINE
  5
1CFC
330
1F
100
AcDbEntity
  8
AM_0
370
    30
100
AcDbLine
 10
-58.80555000143218
 20
0.8765783291676144
 30
0.0
 11
-58.86865178375815
 21
1.342717137178624
 31
0.0
  0
LINE
  5
1CFD
330
1F
100
AcDbEntity
  8
AM_0
370
    30
100
AcDbLine
 10
-57.68039138860686
 20
0.4712259337201772
 30
0.0
 11
-55.64619812685081
 21
0.0000000000000568
 31
0.0
  0
LINE
  5
1CFE
330
1F
100
AcDbEntity
  8
AM_0
370
    30
100
AcDbLine
 10
-57.68039138826876
 20
0.4712259335983617
 30
0.0
 11
-58.80555000143218
 21
0.8765783291676712
 31
0.0
  0
ARC
  5
1CFF
330
1F
100
AcDbEntity
  8
AM_0
370
    30
100
AcDbCircle
 10
-55.61074548782224
 20
10.0
 30
0.0
 40
9.249999999999973
100
AcDbArc
 50
272.812395927512
 51
274.1761597714508
  0
ARC
  5
1D00
330
1F
100
AcDbEntity
  8
AM_0
370
    30
100
AcDbCircle
 10
-55.61074548782224
 20
10.0
 30
0.0
 40
7.999999999999972
100
AcDbArc
 50
287.8519314444117
 51
295.3651698445322
  0
ARC
  5
1D01
330
1F
100
AcDbEntity
  8
AM_0
370
    30
100
AcDbCircle
 10
-55.61074548782224
 20
10.0
 30
0.0
 40
7.999999999999972
100
AcDbArc
 50
20.36413480631646
 51
126.4199137285614
  0
ARC
  5
1D02
330
1F
100
AcDbEntity
  8
AM_0
370
    30
100
AcDbCircle
 10
-55.61074548782224
 20
10.0
 30
0.0
 40
7.749999999999971
100
AcDbArc
 50
14.59255060203122
 51
64.84911203800648
  0
ARC
  5
1D03
330
1F
100
AcDbEntity
  8
AM_0
370
    30
100
AcDbCircle
 10
-55.61074548782224
 20
8.500000000000057
 30
0.0
 40
9.25
100
AcDbArc
 50
90.0
 51
139.8677959426684
  0
LINE
  5
1D04
330
1F
100
AcDbEntity
  8
AM_0
370
    30
100
AcDbLine
 10
-54.90487753648793
 20
13.98192454932797
 30
0.0
 11
-62.68291845395825
 21
14.46211955071817
 31
0.0
  0
ARC
  5
1D05
330
1F
100
AcDbEntity
  8
AM_0
370
    30
100
AcDbCircle
 10
-55.61074548782224
 20
8.500000000000057
 30
0.0
 40
9.25
100
AcDbArc
 50
139.8677959426684
 51
175.3492909951194
  0
LINE
  5
1D06
330
1F
100
AcDbEntity
  8
AM_0
370
    30
100
AcDbLine
 10
-54.75075147783028
 20
6.738221293394361
 30
0.0
 11
-55.40332977691779
 21
6.774881427572154
 31
0.0
  0
LINE
  5
1D07
330
1F
100
AcDbEntity
  8
AM_0
370
    30
100
AcDbLine
 10
-55.14892694696019
 20
3.685549643970546
 30
0.0
 11
-55.49645451715654
 21
3.705072829727271
 31
0.0
  0
LINE
  5
1D08
330
1F
100
AcDbEntity
  8
AM_0
370
    30
100
AcDbLine
 10
-54.07524368404293
 20
6.627558285185103
 30
0.0
 11
-54.67311252000937
 21
6.725256190330242
 31
0.0
  0
LINE
  5
1D09
330
1F
100
AcDbEntity
  8
AM_0
370
    30
100
AcDbLine
 10
-57.38931123076637
 20
10.06653184023946
 30
0.0
 11
-55.32720069854886
 21
10.39470292080148
 31
0.0
  0
LINE
  5
1D0A
330
1F
100
AcDbEntity
  8
AM_0
370
    30
100
AcDbLine
 10
-57.00278271482071
 20
10.18399762846178
 30
0.0
 11
-55.25012160517943
 21
10.71663030662739
 31
0.0
  0
LINE
  5
1D0B
330
1F
100
AcDbEntity
  8
AM_0
370
    30
100
AcDbLine
 10
-57.00278271482048
 20
10.18399762846178
 30
0.0
 11
-57.01255059974713
 21
10.12649077137485
 31
0.0
  0
LINE
  5
1D0C
330
1F
100
AcDbEntity
  8
AM_0
370
    30
100
AcDbLine
 10
-58.52715561320545
 20
10.0537044546121
 30
0.0
 11
-57.00278271482071
 21
10.18399762846178
 31
0.0
  0
LINE
  5
1D0D
330
1F
100
AcDbEntity
  8
AM_0
370
    30
100
AcDbLine
 10
-57.38931123079615
 20
10.0665318402846
 30
0.0
 11
-58.53735025303618
 21
9.717643458103566
 31
0.0
  0
ARC
  5
1D0E
330
1F
100
AcDbEntity
  8
AM_0
370
    30
100
AcDbCircle
 10
-55.61074548782224
 20
10.0
 30
0.0
 40
7.749999999999972
100
AcDbArc
 50
64.84911203800648
 51
90.0
  0
LINE
  5
1D0F
330
1F
100
AcDbEntity
  8
AM_0
370
    30
100
AcDbLine
 10
-53.99865880015662
 20
15.33959483999411
 30
0.0
 11
-52.3169679941964
 21
17.01523555003564
 31
0.0
  0
ARC
  5
1D10
330
1F
100
AcDbEntity
  8
AM_0
370
    30
100
AcDbCircle
 10
-55.61074548782224
 20
10.0
 30
0.0
 40
7.999999999999972
100
AcDbArc
 50
339.635865193682
 51
20.36413480631646
  0
LINE
  5
1D11
330
1F
100
AcDbEntity
  8
AM_0
370
    30
100
AcDbLine
 10
-48.11074548782224
 20
11.95256241897658
 30
0.0
 11
-48.11074548782224
 21
7.216117818585076
 31
0.0
  0
ARC
  5
1D12
330
1F
100
AcDbEntity
  8
AM_0
370
    30
100
AcDbCircle
 10
-55.61074548782224
 20
10.0
 30
0.0
 40
7.999999999999971
100
AcDbArc
 50
327.6340654114096
 51
339.635865193682
  0
ARC
  5
1D27
330
1F
100
AcDbEntity
  8
AM_0
370
    30
100
AcDbCircle
 10
16.99999999999969
 20
-7.199999999999932
 30
0.0
 40
10.0
100
AcDbArc
 50
87.01150282968862
 51
127.1121496085433
  0
LINE
  5
1D28
330
1F
100
AcDbEntity
  8
AM_0
370
    30
100
AcDbLine
 10
17.9999999999998
 20
17.75
 30
0.0
 11
7.201916606532251
 21
17.75
 31
0.0
  0
LINE
  5
1D29
330
1F
100
AcDbEntity
  8
AM_0
370
    30
100
AcDbLine
 10
9.112643111924655
 20
4.426522168302711
 30
0.0
 11
0.5793211832140344
 21
0.0404778585813688
 31
0.0
  0
CIRCLE
  5
1D2A
330
1F
100
AcDbEntity
  8
AM_0
370
    30
100
AcDbCircle
 10
3.410541844678647
 20
5.056593216003819
 30
0.0
 40
2.15
  0
CIRCLE
  5
1D2B
330
1F
100
AcDbEntity
  8
AM_0
370
    30
100
AcDbCircle
 10
3.410541844678647
 20
5.056593216003819
 30
0.0
 40
1.803589838486232
  0
LINE
  5
1D2C
330
1F
100
AcDbEntity
  8
AM_7
  6
CENTER
370
    13
100
AcDbLine
 10
3.410541844678647
 20
1.090256940937536
 30
0.0
 11
3.410541844678647
 21
9.340868576331957
 31
0.0
1001
GENIUS_GENODEF_13
1002
{
1000
HIER
1070
     0
1002
}
1002
{
1000
MANEDIT
1070
     0
1002
}
1002
{
1000
NOSEL
1070
     0
1002
}
1002
{
1000
BEHIND
1070
     0
1002
}
1002
{
1000
REACTOR
1002
}
1001
GENIUS_GENOBJ-N-CEN_13
1002
{
1000
OWNER
1000
GEN
1002
}
  0
LINE
  5
1D2D
330
1F
100
AcDbEntity
  8
AM_0
370
    30
100
AcDbLine
 10
0.0005497774762091
 20
0.4159201358236828
 30
0.0
 11
0.5034184515750724
 21
10.01122604228334
 31
0.0
  0
LINE
  5
1D2E
330
1F
100
AcDbEntity
  8
AM_0
370
    30
100
AcDbLine
 10
3.01375236400375
 20
1.291751760999603
 30
0.0
 11
4.124931338740367
 21
1.862886925019495
 31
0.0
  0
LINE
  5
1D2F
330
1F
100
AcDbEntity
  8
AM_5
100
AcDbLine
 10
0.0
 20
0.5235415730240334
 30
0.0
 11
0.0
 21
-2.253268473082699
 31
0.0
  0
LINE
  5
1D31
330
1F
100
AcDbEntity
  8
AM_0
370
    30
100
AcDbLine
 10
2.978781475720808
 20
0.7530824697673779
 30
0.0
 11
3.006825343275693
 21
1.288191339852688
 31
0.0
  0
LINE
  5
1D32
330
1F
100
AcDbEntity
  8
AM_0
370
    30
100
AcDbLine
 10
9.129430063328556
 20
0.75
 30
0.0
 11
10.93390570465616
 21
0.75
 31
0.0
  0
LINE
  5
1D33
330
1F
100
AcDbEntity
  8
AM_0
370
    30
100
AcDbLine
 10
0.6754184792153239
 20
13.98192454932803
 30
0.0
 11
3.026972402575922
 21
15.33959483999411
 31
0.0
  0
LINE
  5
1D34
330
1F
100
AcDbEntity
  8
AM_7
  6
CENTER
370
    13
100
AcDbLine
 10
6.416802073687819
 20
5.056593216003819
 30
0.0
 11
-0.5000673118914563
 21
5.056593216003819
 31
0.0
1001
GENIUS_GENODEF_13
1002
{
1000
HIER
1070
     0
1002
}
1002
{
1000
MANEDIT
1070
     0
1002
}
1002
{
1000
NOSEL
1070
     0
1002
}
1002
{
1000
BEHIND
1070
     0
1002
}
1002
{
1000
REACTOR
1002
}
1001
GENIUS_GENOBJ-N-CEN_13
1002
{
1000
OWNER
1000
GEN
1002
}
  0
ARC
  5
1D35
330
1F
100
AcDbEntity
  8
AM_0
370
    30
100
AcDbCircle
 10
4.223521306531694
 20
3.648471482564503
 30
0.0
 40
0.6
100
AcDbArc
 50
76.9722150900616
 51
163.0277849099379
  0
ARC
  5
1D36
330
1F
100
AcDbEntity
  8
AM_0
370
    30
100
AcDbCircle
 10
4.223521306531694
 20
6.464714949443135
 30
0.0
 40
0.6
100
AcDbArc
 50
196.9722150900621
 51
283.0277849099351
  0
LINE
  5
1D37
330
1F
100
AcDbEntity
  8
AM_0
370
    30
100
AcDbLine
 10
1.118432644635192
 20
10.32733734388506
 30
0.0
 11
9.148885899246835
 21
5.118075747146634
 31
0.0
  0
ARC
  5
1D38
330
1F
100
AcDbEntity
  8
AM_0
370
    30
100
AcDbCircle
 10
3.410541844678647
 20
6.21659321600356
 30
0.0
 40
0.2499999999998634
100
AcDbArc
 50
16.97221509006814
 51
163.0277849099319
  0
ARC
  5
1D39
330
1F
100
AcDbEntity
  8
AM_0
370
    30
100
AcDbCircle
 10
2.405952376288923
 20
5.636593216003746
 30
0.0
 40
0.2499999999998634
100
AcDbArc
 50
76.97221509006822
 51
223.0277849099414
  0
ARC
  5
1D3A
330
1F
100
AcDbEntity
  8
AM_0
370
    30
100
AcDbCircle
 10
2.597562382825714
 20
6.464714949443135
 30
0.0
 40
0.6
100
AcDbArc
 50
256.9722150900616
 51
343.0277849099379
  0
ARC
  5
1D3B
330
1F
100
AcDbEntity
  8
AM_0
370
    30
100
AcDbCircle
 10
2.405952376288923
 20
4.476593216003892
 30
0.0
 40
0.2499999999998634
100
AcDbArc
 50
136.9722150900635
 51
283.0277849099384
  0
ARC
  5
1D3C
330
1F
100
AcDbEntity
  8
AM_0
370
    30
100
AcDbCircle
 10
3.410541844678704
 20
3.896593216004078
 30
0.0
 40
0.2499999999998634
100
AcDbArc
 50
196.9722150900682
 51
343.0277849099327
  0
ARC
  5
1D3D
330
1F
100
AcDbEntity
  8
AM_0
370
    30
100
AcDbCircle
 10
2.597562382825714
 20
3.648471482564389
 30
0.0
 40
0.6
100
AcDbArc
 50
16.97221509006213
 51
103.0277849099351
  0
ARC
  5
1D3E
330
1F
100
AcDbEntity
  8
AM_0
370
    30
100
AcDbCircle
 10
1.784582920972724
 20
5.056593216003819
 30
0.0
 40
0.6
100
AcDbArc
 50
316.9722150900635
 51
43.0277849099365
  0
LINE
  5
1D3F
330
1F
100
AcDbEntity
  8
AM_0
370
    30
100
AcDbLine
 10
0.6534257768414875
 20
10.30365424565792
 30
0.0
 11
0.5306904788020006
 21
10.71693261101697
 31
0.0
  0
LINE
  5
1D40
330
1F
100
AcDbEntity
  8
AM_0
370
    30
100
AcDbLine
 10
8.863450608877685
 20
6.624023608244272
 30
0.0
 11
7.345333512523695
 21
6.721721513389468
 31
0.0
  0
LINE
  5
1D41
330
1F
100
AcDbEntity
  8
AM_0
370
    30
100
AcDbLine
 10
7.946436933411434
 20
3.827103557829503
 30
0.0
 11
8.248953540501049
 21
3.812068525186817
 31
0.0
  0
LINE
  5
1D42
330
1F
100
AcDbEntity
  8
AM_0
370
    30
100
AcDbLine
 10
8.273544782249502
 20
3.682014967029716
 30
0.0
 11
7.774724950429601
 21
3.738845271998855
 31
0.0
  0
LINE
  5
1D43
330
1F
100
AcDbEntity
  8
AM_0
370
    30
100
AcDbLine
 10
7.142885089735415
 20
6.73468661645353
 30
0.0
 11
6.553195949418097
 21
6.801869618297985
 31
0.0
  0
ARC
  5
1D44
330
1F
100
AcDbEntity
  8
AM_0
370
    30
100
AcDbCircle
 10
4.415131313068429
 20
5.636593216003746
 30
0.0
 40
0.2499999999998634
100
AcDbArc
 50
316.9722150900681
 51
103.0277849099384
  0
ARC
  5
1D45
330
1F
100
AcDbEntity
  8
AM_0
370
    30
100
AcDbCircle
 10
4.415131313068429
 20
4.476593216003892
 30
0.0
 40
0.2499999999998634
100
AcDbArc
 50
256.9722150900616
 51
43.0277849099365
  0
ARC
  5
1D46
330
1F
100
AcDbEntity
  8
AM_0
370
    30
100
AcDbCircle
 10
5.036500768384627
 20
5.056593216003819
 30
0.0
 40
0.6
100
AcDbArc
 50
136.9722150900635
 51
223.0277849099365
  0
LINE
  5
1D47
330
1F
100
AcDbEntity
  8
AM_0
370
    30
100
AcDbLine
 10
3.026972402575808
 20
15.33959483999411
 30
0.0
 11
5.929267247598574
 21
17.01523555003564
 31
0.0
  0
LINE
  5
1D48
330
1F
100
AcDbEntity
  8
AM_0
370
    30
100
AcDbLine
 10
5.929267247598574
 20
17.01523555003564
 30
0.0
 11
7.201916606532251
 21
17.75
 31
0.0
  0
LINE
  5
1D4A
330
1F
100
AcDbEntity
  8
AM_0
370
    30
100
AcDbLine
 10
17.9999999999998
 20
2.749874371066198
 30
0.0
 11
17.9999999999998
 21
3.618156097744986
 31
0.0
  0
LINE
  5
1D4B
330
1F
100
AcDbEntity
  8
AM_0
370
    30
100
AcDbLine
 10
21.9999999999998
 20
2.25
 30
0.0
 11
21.9999999999998
 21
6.351528365817217
 31
0.0
  0
LINE
  5
1D4C
330
1F
100
AcDbEntity
  8
AM_0
370
    30
100
AcDbLine
 10
22.2499999999998
 20
2.0
 30
0.0
 11
22.2499999999998
 21
5.717402383172839
 31
0.0
  0
LINE
  5
1D4E
330
1F
100
AcDbEntity
  8
AM_0
370
    30
100
AcDbLine
 10
23.99999999999969
 20
7.216117818585019
 30
0.0
 11
23.99999999999969
 21
2.0
 31
0.0
  0
LINE
  5
1D52
330
1F
100
AcDbEntity
  8
AM_0
370
    30
100
AcDbLine
 10
20.27070328828498
 20
2.25
 30
0.0
 11
21.9999999999998
 21
2.25
 31
0.0
  0
LINE
  5
1D53
330
1F
100
AcDbEntity
  8
AM_0
370
    30
100
AcDbLine
 10
21.9999999999998
 20
2.25
 30
0.0
 11
22.2499999999998
 21
2.0
 31
0.0
  0
LINE
  5
1D54
330
1F
100
AcDbEntity
  8
AM_0
370
    30
100
AcDbLine
 10
21.9999999999998
 20
11.95256241897641
 30
0.0
 11
21.9999999999998
 21
17.75
 31
0.0
  0
LINE
  5
1D55
330
1F
100
AcDbEntity
  8
AM_0
370
    30
100
AcDbLine
 10
22.2499999999998
 20
12.78388218141481
 30
0.0
 11
22.2499999999998
 21
18.0
 31
0.0
  0
LINE
  5
1D57
330
1F
100
AcDbEntity
  8
AM_0
370
    30
100
AcDbLine
 10
23.99999999999969
 20
18.0
 30
0.0
 11
23.99999999999969
 21
12.78388218141492
 31
0.0
  0
LINE
  5
1D58
330
1F
100
AcDbEntity
  8
AM_0
370
    30
100
AcDbLine
 10
19.67825724801404
 20
11.95256241897653
 30
0.0
 11
21.9999999999998
 21
11.95256241897653
 31
0.0
  0
LINE
  5
1D59
330
1F
100
AcDbEntity
  8
AM_0
370
    30
100
AcDbLine
 10
19.67825724801404
 20
11.95256241897653
 30
0.0
 11
23.00000000391904
 21
7.216117818585076
 31
0.0
  0
LINE
  5
1D5C
330
1F
100
AcDbEntity
  8
AM_0
370
    30
100
AcDbLine
 10
17.9999999999998
 20
17.75
 30
0.0
 11
21.9999999999998
 21
17.75
 31
0.0
  0
LINE
  5
1D5D
330
1F
100
AcDbEntity
  8
AM_0
370
    30
100
AcDbLine
 10
21.9999999999998
 20
17.75
 30
0.0
 11
22.2499999999998
 21
18.0
 31
0.0
  0
SPLINE
  5
1D5F
330
1F
100
AcDbEntity
  8
AM_0
370
    30
100
AcDbSpline
210
0.0
220
0.0
230
1.0
 70
    28
 71
     2
 72
     6
 73
     3
 74
     0
 42
0.0000000001
 43
0.0000000001
 40
0.0
 40
0.0
 40
0.0
 40
2.828427124746073
 40
2.828427124746073
 40
2.828427124746073
 10
148.9999999999997
 20
-82.15398469889351
 30
0.0
 41
1.0
 10
149.4999999999996
 20
-82.15398469889354
 30
0.0
 41
1.033333333333335
 10
149.4999999999997
 20
-82.15398469889351
 30
0.0
 41
1.033333333333335
  0
LINE
  5
1D74
330
1F
100
AcDbEntity
  8
AM_0
370
    30
100
AcDbLine
 10
149.9999999999997
 20
-81.65398469889345
 30
0.0
 11
149.9999999999997
 21
-67.65398469889351
 31
0.0
  0
LINE
  5
1D75
330
1F
100
AcDbEntity
  8
AM_0
370
    30
100
AcDbLine
 10
148.9999999999997
 20
-82.15398469889351
 30
0.0
 11
148.9999999999997
 21
-67.15398469889351
 31
0.0
  0
LINE
  5
1D77
330
1F
100
AcDbEntity
  8
AM_0
370
    30
100
AcDbLine
 10
149.9999999999997
 20
-81.65398469889345
 30
0.0
 11
149.4999999999997
 21
-82.15398469889351
 31
0.0
  0
LINE
  5
1D7B
330
1F
100
AcDbEntity
  8
AM_0
370
    30
100
AcDbLine
 10
149.9999999999997
 20
-67.65398469889351
 30
0.0
 11
149.4999999999996
 21
-67.15398469889351
 31
0.0
  0
SPLINE
  5
1D80
330
1F
100
AcDbEntity
  8
AM_0
370
    30
100
AcDbSpline
210
0.0
220
0.0
230
1.0
 70
    12
 71
     2
 72
     6
 73
     3
 74
     0
 42
0.0000000001
 43
0.0000000001
 40
0.0
 40
0.0
 40
0.0
 40
5.656854249492205
 40
5.656854249492205
 40
5.656854249492205
 10
148.9999999999997
 20
12.78388218141487
 30
0.0
 41
1.0
 10
149.9687499999997
 20
9.999999999999972
 30
0.0
 41
1.066666666666671
 10
148.9999999999997
 20
7.216117818585019
 30
0.0
 41
1.0
  0
DIMENSION
  5
1D83
330
1F
100
AcDbEntity
  8
AM_5
370
    13
100
AcDbDimension
  2
*D8
 10
96.53797625982458
 20
3.534953034043213
 30
0.0
 11
119.0496853606539
 21
24.47964352273471
 31
0.0
 70
   163
  1
<>
 71
     5
 42
15.9999999999998
  3
AM_JIS$3
100
AcDbDiametricDimension
 15
105.9620237401745
 25
16.46504696595661
 35
0.0
 40
0.0
1001
GENIUS_GENDTOL_13
1000

1000
h7
1000

1040
0.0
1001
ACAD
1000
DSTYLE
1002
{
1070
   271
1070
     0
1070
   289
1070
     3
1002
}
  0
DIMENSION
  5
1D85
330
1F
100
AcDbEntity
  8
AM_5
370
    13
100
AcDbDimension
  2
*D9
 10
108.7499999999997
 20
-13.8103589823647
 30
0.0
 11
101.1406160674935
 21
-13.8103589823647
 31
0.0
 70
   160
  1
<>
 71
     5
 42
15.0
  3
AM_JIS$0
100
AcDbAlignedDimension
 13
93.74999999999969
 23
7.216117818584962
 33
0.0
 14
108.7499999999997
 24
7.216117818584962
 34
0.0
100
AcDbRotatedDimension
1001
GENIUS_GENDTOL_13
1000

1000
h7
1000

1040
0.0
1001
ACAD
1000
DSTYLE
1002
{
1070
   271
1070
     0
1002
}
  0
ARC
  5
1D8C
102
{ACAD_REACTORS
330
23C3
102
}
330
1F
100
AcDbEntity
  8
AM_0
370
    30
100
AcDbCircle
 10
101.2499999999997
 20
10.0
 30
0.0
 40
8.0
100
AcDbArc
 50
200.3641348063165
 51
339.6358651936804
  0
LINE
  5
1D8E
102
{ACAD_REACTORS
330
23C3
102
}
330
1F
100
AcDbEntity
  8
AM_7
  6
CENTER
370
    13
100
AcDbLine
 10
101.2499999999997
 20
21.20813857451878
 30
0.0
 11
101.2499999999997
 21
-1.183904590500902
 31
0.0
1001
GENIUS_GENODEF_13
1002
{
1000
HIER
1070
     0
1002
}
1002
{
1000
MANEDIT
1070
     0
1002
}
1002
{
1000
NOSEL
1070
     0
1002
}
1002
{
1000
BEHIND
1070
     0
1002
}
1002
{
1000
REACTOR
1002
}
1001
GENIUS_GENOBJ-N-CEN_13
1002
{
1000
OWNER
1000
GEN
1002
}
  0
ARC
  5
1D91
102
{ACAD_REACTORS
330
23C3
102
}
330
1F
100
AcDbEntity
  8
AM_0
370
    30
100
AcDbCircle
 10
101.2499999999997
 20
10.0
 30
0.0
 40
8.0
100
AcDbArc
 50
20.36413480631646
 51
159.6358651936835
  0
LINE
  5
1D92
102
{ACAD_REACTORS
330
23C3
102
}
330
1F
100
AcDbEntity
  8
AM_0
370
    30
100
AcDbLine
 10
93.74999999999969
 20
12.78388218141498
 30
0.0
 11
93.74999999999969
 21
7.216117818584962
 31
0.0
  0
LINE
  5
1D93
102
{ACAD_REACTORS
330
23C3
102
}
330
1F
100
AcDbEntity
  8
AM_0
370
    30
100
AcDbLine
 10
108.7499999999997
 20
12.78388218141498
 30
0.0
 11
108.7499999999997
 21
7.216117818584962
 31
0.0
  0
LINE
  5
1D94
330
1F
100
AcDbEntity
  8
AM_0
370
    30
100
AcDbLine
 10
113.7499999999997
 20
17.99999999999994
 30
0.0
 11
148.9999999999997
 21
17.99999999999992
 31
0.0
  0
LINE
  5
1D95
330
1F
100
AcDbEntity
  8
AM_0
370
    30
100
AcDbLine
 10
113.7499999999997
 20
12.78388218141487
 30
0.0
 11
148.9999999999996
 21
12.78388218141487
 31
0.0
  0
LINE
  5
1D97
330
1F
100
AcDbEntity
  8
AM_0
370
    30
100
AcDbLine
 10
113.7499999999997
 20
2.0
 30
0.0
 11
148.9999999999997
 21
2.0
 31
0.0
  0
LINE
  5
1D99
330
1F
100
AcDbEntity
  8
AM_0
370
    30
100
AcDbLine
 10
148.9999999999997
 20
2.0
 30
0.0
 11
148.9999999999997
 21
7.216117818585019
 31
0.0
  0
LINE
  5
1D9A
330
1F
100
AcDbEntity
  8
AM_0
370
    30
100
AcDbLine
 10
149.9999999999997
 20
3.0
 30
0.0
 11
149.9999999999997
 21
16.99999999999994
 31
0.0
  0
LINE
  5
1D9B
330
1F
100
AcDbEntity
  8
AM_0
370
    30
100
AcDbLine
 10
149.9999999999997
 20
3.0
 30
0.0
 11
148.9999999999997
 21
2.0
 31
0.0
  0
LINE
  5
1D9C
330
1F
100
AcDbEntity
  8
AM_0
370
    30
100
AcDbLine
 10
148.9999999999997
 20
12.78388218141487
 30
0.0
 11
148.9999999999997
 21
17.99999999999994
 31
0.0
  0
LINE
  5
1D9F
330
1F
100
AcDbEntity
  8
AM_0
370
    30
100
AcDbLine
 10
149.9999999999997
 20
16.99999999999994
 30
0.0
 11
148.9999999999997
 21
17.99999999999994
 31
0.0
  0
LINE
  5
21BE
330
1F
100
AcDbEntity
  8
AM_0
370
    30
100
AcDbLine
 10
148.9999999999997
 20
7.216117818585019
 30
0.0
 11
113.7499999999997
 21
7.216117818585019
 31
0.0
  0
TEXT
  5
225A
330
1F
100
AcDbEntity
  8
AM_6
  6
Continuous
 62
     0
370
    30
100
AcDbText
 10
57.72181783377147
 20
-111.5055351480819
 30
0.0
 40
3.8
  1
WBPT-216RE
  7
ACISOTS
100
AcDbText
  0
LINE
  5
2290
330
1F
100
AcDbEntity
  8
AM_5
370
    13
100
AcDbLine
 10
0.450744057891967
 20
0.0
 30
0.0
 11
-1.731901070541909
 21
0.0
 31
0.0
  0
DIMENSION
  5
2292
330
1F
100
AcDbEntity
  8
AM_5
370
    13
100
AcDbDimension
  2
*D11
 10
-8.312643929318597
 20
0.0000000000000019
 30
0.0
 11
-8.312643929318597
 21
5.370235923097766
 31
0.0
 70
   160
 71
     5
 42
10.0
  3
AM_JIS$0
100
AcDbAlignedDimension
 13
-3.415548451966089
 23
10.0
 33
0.0
 14
-1.731901070541909
 24
0.0
 34
0.0
 50
90.0
100
AcDbRotatedDimension
1001
ACAD
1000
DSTYLE
1002
{
1070
   271
1070
     1
1002
}
  0
LINE
  5
22BF
330
1F
100
AcDbEntity
  8
AM_5
370
    13
100
AcDbLine
 10
0.0
 20
0.0
 30
0.0
 11
-0.6119779556868537
 21
0.0
 31
0.0
  0
DIMENSION
  5
22C0
330
1F
100
AcDbEntity
  8
AM_5
370
    13
100
AcDbDimension
  2
*D12
 10
-0.6119779556868537
 20
0.0
 30
0.0
 11
-12.35296921014859
 21
14.80580755723375
 31
0.0
 70
   162
 71
     5
 42
1.623156204354713
  3
AM_JIS$2
100
AcDb2LineAngularDimension
 13
0.0005497774762091
 23
0.4159201358236828
 33
0.0
 14
0.5034184515750724
 24
10.01122604228334
 34
0.0
 15
0.0
 25
0.0
 35
0.0
 16
-16.53775822349802
 26
9.924120753426349
 36
0.0
1001
ACAD
1000
DSTYLE
1002
{
1070
   271
1070
     0
1002
}
  0
HATCH
  5
23C3
330
1F
100
AcDbEntity
  8
AM_5
370
    13
100
AcDbHatch
 10
0.0
 20
0.0
 30
0.0
210
0.0
220
0.0
230
1.0
  2
LINE
 70
     0
 71
     1
 91
        4
 92
        7
 72
     1
 73
     1
 93
        4
 10
101.2499999999997
 20
18.0
 42
0.3135528725660037
 10
93.74999999999969
 20
12.78388218141503
 42
0.0
 10
93.74999999999969
 20
10.0
 42
0.0
 10
101.2499999999997
 20
10.0
 42
0.0
 97
        4
330
1D91
330
1D92
330
1BC4
330
1D8E
 92
        7
 72
     1
 73
     1
 93
        4
 10
108.7499999999997
 20
10.0
 42
0.0
 10
108.7499999999997
 20
12.78388218141498
 42
0.3135528725660046
 10
101.2499999999997
 20
17.99999999999999
 42
0.0
 10
101.2499999999997
 20
10.0
 42
0.0
 97
        4
330
1D91
330
1D8E
330
1BC4
330
1D93
 92
        7
 72
     1
 73
     1
 93
        4
 10
101.2499999999997
 20
10.0
 42
0.0
 10
93.74999999999969
 20
10.0
 42
0.0
 10
93.74999999999969
 20
7.216117818584962
 42
0.3135528725660038
 10
101.2499999999997
 20
1.999999999999989
 42
0.0
 97
        4
330
1BC4
330
1D92
330
1D8C
330
1D8E
 92
        7
 72
     1
 73
     1
 93
        4
 10
101.2499999999997
 20
1.999999999999998
 42
0.3135528725660037
 10
108.7499999999997
 20
7.216117818584962
 42
0.0
 10
108.7499999999997
 20
10.0
 42
0.0
 10
101.2499999999997
 20
9.999999999999998
 42
0.0
 97
        4
330
1D93
330
1BC4
330
1D8E
330
1D8C
 75
     0
 76
     1
 52
45.0
 41
0.5
 77
     0
 78
     1
 53
45.0
 43
0.0
 44
10.0
 45
-1.122532015133644
 46
1.122532015133644
 79
     0
 47
0.1294057125957015
 98
        4
 10
98.74322402219514
 20
13.29760205892694
 10
103.9218122237398
 20
12.26235743040343
 10
98.22536540683495
 20
6.956723174988838
 10
103.2744889545393
 20
6.180288697372362
  0
ENDSEC
  0
SECTION
  2
OBJECTS
  0
DICTIONARY
  5
C
330
0
100
AcDbDictionary
281
     1
  3
ACAD_COLOR
350
20B9
  3
ACAD_GROUP
350
D
  3
ACAD_LAYOUT
350
1A
  3
ACAD_MATERIAL
350
20B8
  3
ACAD_MLINESTYLE
350
17
  3
ACAD_PLOTSETTINGS
350
19
  3
ACAD_PLOTSTYLENAME
350
E
  3
ACAD_TABLESTYLE
350
20BA
  3
AcAmCatalogState
350
2125
  3
ACDBHEADERROUNDTRIPXREC
350
253B
  3
AcDbVariableDictionary
350
34
  3
ACDMSYSVARMGR
350
20D4
  3
ACGREF_MASTER
350
20CC
  3
ACGREFACAD_MASTER
350
20F6
  3
AcmDictionary
350
43
  3
ACME_BOM_MANAGER_NAME
350
3A
  3
ACME_COMMAND_HISTORY
350
33
  3
ACME_SCOPE_NAME
350
32
  3
ACMESTATEMGR
350
3F
  3
AcmeSysVarManager
350
36
  3
AcmSystemVariableManager
350
2114
  3
AD_APPL
350
2101
  3
ADSYSVARMGR
350
2100
  3
AmdtNamedDwgMgr
350
20F1
  3
AMG
350
2B
  3
AMGSNAPSETTINGS
350
350
  3
AMI_MASTER
350
20F9
  3
AUTOCAD_ASSEMBLIES_PROJECT
350
2109
  3
Designer_Assemblies_SysVars
350
2104
  3
DWGPROPS
350
253E
  3
GREFAM_MODULE
350
20FA
  3
table_dic_data
350
AA4
  0
DICTIONARY
  5
2250
330
2
100
AcDbDictionary
280
     1
281
     1
  3
ACAD_LAYERSTATES
360
2251
  0
DICTIONARY
  5
3DB
330
1F
100
AcDbDictionary
280
     1
281
     1
  3
ACAD_SORTENTS
360
21B5
  0
DICTIONARY
  5
20B9
102
{ACAD_REACTORS
330
C
102
}
330
C
100
AcDbDictionary
281
     1
  0
DICTIONARY
  5
D
102
{ACAD_REACTORS
330
C
102
}
330
C
100
AcDbDictionary
281
     1
  0
DICTIONARY
  5
1A
102
{ACAD_REACTORS
330
C
102
}
330
C
100
AcDbDictionary
281
     1
  3
Model
350
22
  3
ﾚｲｱｳﾄ1
350
1E
  3
ﾚｲｱｳﾄ2
350
26
  0
DICTIONARY
  5
20B8
102
{ACAD_REACTORS
330
C
102
}
330
C
100
AcDbDictionary
281
     1
  0
DICTIONARY
  5
17
102
{ACAD_REACTORS
330
C
102
}
330
C
100
AcDbDictionary
281
     1
  3
Standard
350
18
  0
DICTIONARY
  5
19
102
{ACAD_REACTORS
330
C
102
}
330
C
100
AcDbDictionary
281
     1
  0
ACDBDICTIONARYWDFLT
  5
E
102
{ACAD_REACTORS
330
C
102
}
330
C
100
AcDbDictionary
281
     1
  3
Normal
350
F
100
AcDbDictionaryWithDefault
340
F
  0
DICTIONARY
  5
20BA
102
{ACAD_REACTORS
330
C
102
}
330
C
100
AcDbDictionary
281
     1
  3
Standard
350
20BB
  0
ACAD_PROXY_OBJECT
  5
2125
102
{ACAD_REACTORS
330
C
102
}
330
C
100
AcDbProxyObject
 90
      499
 91
      571
 95
       25
 70
     0
 93
      160
310
3FFFFFFFE00A028140283A19D2E3A32B6B8400AA
  0
DICTIONARY
  5
253B
102
{ACAD_REACTORS
330
C
102
}
330
C
100
AcDbDictionary
281
     1
  3
COLORDICT
350
253C
  3
MATERIALDICT
350
253D
  0
DICTIONARY
  5
34
102
{ACAD_REACTORS
330
C
102
}
330
C
100
AcDbDictionary
281
     1
  3
CTABLESTYLE
350
2130
  3
DIMASSOC
350
2539
  3
HIDETEXT
350
253A
  3
INDEXCTL
350
35
  0
ACAD_PROXY_OBJECT
  5
20D4
102
{ACAD_REACTORS
330
C
102
}
330
C
100
AcDbProxyObject
 90
      499
 91
      508
 95
       25
 70
     0
 93
      240
310
4C51A47A0000000000000000000000000000000000000000000000000000
330
20D5
330
20D6
330
20D7
330
20D8
330
20D9
330
20DA
330
20DB
330
20DC
330
20DD
330
20DE
330
20DF
330
20E0
330
20E1
330
20E2
330
20E3
330
20E4
330
20E5
330
20E6
330
20E7
330
20E8
330
20E9
330
20EA
330
20EB
330
20EC
330
20ED
330
20EE
 94
        0
  0
ACAD_PROXY_OBJECT
  5
20CC
102
{ACAD_REACTORS
330
C
102
}
330
C
100
AcDbProxyObject
 90
      499
 91
      534
 95
       25
 70
     0
 93
       34
310
0400004280
  0
ACAD_PROXY_OBJECT
  5
20F6
102
{ACAD_REACTORS
330
C
102
}
330
C
100
AcDbProxyObject
 90
      499
 91
      540
 95
       25
 70
     0
 93
      114
310
04000041C080000000000000000000
  0
DICTIONARY
  5
43
102
{ACAD_REACTORS
330
C
102
}
330
C
100
AcDbDictionary
281
     1
  3
AcmBOMDATA
350
44
  3
AcmStdDictionary
350
342
  3
AMDTSECTSYM_ARROWCOLOR
350
2119
  0
ACAD_PROXY_OBJECT
  5
3A
102
{ACAD_REACTORS
330
C
102
}
330
C
100
AcDbProxyObject
 90
      499
 91
      511
 95
       25
 70
     0
 93
       50
310
00010040400000
330
0
330
0
330
3B
 94
        0
  0
ACAD_PROXY_OBJECT
  5
33
102
{ACAD_REACTORS
330
C
102
}
330
C
100
AcDbProxyObject
 90
      499
 91
      506
 95
       25
 70
     0
 93
     4342
310
47805045A4F4F4D40405184D5347202D20436F6D6D616E642043414E43454C4C45442E01411353D5916014115539113E014115539113E014115539113E01411353D591601411693D3D36014154155491D1601415454D05591501014B5354D1C80B481414104E88080819195CDADD1BDC0B985C9E08119A5B1955995C9CDA5B
310
DB8E880E4B8C8B8C0B8D005054552415345805054552415345805045A4F4F4D805055153415645404052D4D5347202D205050413A2020206465736B746F702E6172782046696C6556657273696F6E3A20392E322E302E34014390535115149154D15511109353D1102014213880B4815539113C05084E202D20554E444F014
310
115539113E014115539113E0141D3D4151253D394D0101461354D1C80B4810DBDB5B585B990810D05390D1531311510B805054552415345805054552415345805045A4F4F4D805055153415645404052D4D5347202D205050413A2020206465736B746F702E6172782046696C6556657273696F6E3A20392E322E302E34014
310
390535115149154D15511109353D1102014213880B4815539113C05084E202D20554E444F014115539113E014115539113E014115539113E014311D4925417D4D514915510D22014311D4925417D4D514915510D22014311D4925417D4D514915510D2201411693D3D3601415454D05591501014B5354D1C80B481414104E8
310
8080819195CDADD1BDC0B985C9E08119A5B1955995C9CDA5BDB8E880E4B8C8B8C0B8D0
  0
ACAD_PROXY_OBJECT
  5
32
102
{ACAD_REACTORS
330
C
102
}
330
C
100
AcDbProxyObject
 90
      499
 91
      505
 95
       25
 70
     0
 93
      578
310
09000046408000000000000000001334DE000000000000000000000000000000000000000000000000000000000000000000000000000000000000000000000000000000AAA406AA80
360
37
360
38
360
39
360
3B
360
20CD
360
20CE
360
20CF
360
20D0
360
20D1
360
20D2
360
20D5
360
20D6
360
20D7
360
20D8
360
20D9
360
20DA
360
20DB
360
20DC
360
20DD
360
20DE
360
20DF
360
20E0
360
20E1
360
20E2
360
20E3
360
20E4
360
20E5
360
20E6
360
20E7
360
20E8
360
20E9
360
20EA
360
20EB
360
20EC
360
20ED
360
20EE
360
20FC
360
20FD
360
20FE
360
20FF
360
2105
360
2106
360
2107
360
2108
360
210D
360
210E
360
210F
360
2110
360
2111
360
2112
360
2115
 94
        0
  0
ACAD_PROXY_OBJECT
  5
3F
102
{ACAD_REACTORS
330
C
102
}
330
C
100
AcDbProxyObject
 90
      499
 91
      516
 95
       25
 70
     0
 93
       50
310
09000042641280
  0
ACAD_PROXY_OBJECT
  5
36
102
{ACAD_REACTORS
330
C
102
}
330
C
100
AcDbProxyObject
 90
      499
 91
      508
 95
       25
 70
     0
 93
       48
310
903412000000
330
37
330
38
330
39
 94
        0
  0
ACAD_PROXY_OBJECT
  5
2114
102
{ACAD_REACTORS
330
C
102
}
330
C
100
AcDbProxyObject
 90
      499
 91
      508
 95
       25
 70
     0
 93
       32
310
90140A00
330
2115
 94
        0
  0
ACAD_PROXY_OBJECT
  5
2101
102
{ACAD_REACTORS
330
C
102
}
330
C
100
AcDbProxyObject
 90
      499
 91
      550
 95
       25
 70
     0
 93
       42
310
000900004040
330
20FC
 94
        0
  0
ACAD_PROXY_OBJECT
  5
2100
102
{ACAD_REACTORS
330
C
102
}
330
C
100
AcDbProxyObject
 90
      499
 91
      508
 95
       25
 70
     0
 93
        8
310
AA
  0
ACAD_PROXY_OBJECT
  5
20F1
102
{ACAD_REACTORS
330
C
102
}
330
C
100
AcDbProxyObject
 90
      499
 91
      539
 95
       25
 70
     0
 93
       42
310
000100005E80
330
20CD
 94
        0
  0
DICTIONARY
  5
2B
102
{ACAD_REACTORS
330
C
102
}
330
C
100
AcDbDictionary
281
     1
  3
AcMgSettings
350
2C
  3
AMGLAYCFG
350
4A
  0
DICTIONARY
  5
350
102
{ACAD_REACTORS
330
C
102
}
330
C
100
AcDbDictionary
281
     1
  3
DIMENSION
350
355
  3
FEA
350
354
  3
HATCH (1)
350
351
  3
HATCH (2)
350
352
  3
SYMBOLS
350
353
  0
ACAD_PROXY_OBJECT
  5
20F9
102
{ACAD_REACTORS
330
C
102
}
330
C
100
AcDbProxyObject
 90
      499
 91
      543
 95
       25
 70
     0
 93
       34
310
0500004280
  0
ACAD_PROXY_OBJECT
  5
2109
102
{ACAD_REACTORS
330
C
102
}
330
C
100
AcDbProxyObject
 90
      499
 91
      554
 95
       25
 70
     0
 93
       98
310
0900004E400000000000000000
330
2110
330
0
330
2111
330
0
330
0
330
0
330
0
330
0
 94
        0
  0
ACAD_PROXY_OBJECT
  5
2104
102
{ACAD_REACTORS
330
C
102
}
330
C
100
AcDbProxyObject
 90
      499
 91
      508
 95
       25
 70
     0
 93
       56
310
90441600000000
330
2105
330
2106
330
2107
330
2108
 94
        0
  0
XRECORD
  5
253E
102
{ACAD_REACTORS
330
C
102
}
330
C
100
AcDbXrecord
280
     1
  1
DWGPROPS COOKIE
  2

  3

  4

  6

  7

  8

  9

300
AmdtFileType=82
301
=
302
=
303
=
304
=
305
=
306
=
307
=
308
=
309
=
 40
0.0
 41
2453210.004162743
 42
2455468.007816296
  1

 90
        1
  0
ACAD_PROXY_OBJECT
  5
20FA
102
{ACAD_REACTORS
330
C
102
}
330
C
100
AcDbProxyObject
 90
      499
 91
      544
 95
       25
 70
     0
 93
        8
310
05
  0
DICTIONARY
  5
AA4
102
{ACAD_REACTORS
330
C
102
}
330
C
100
AcDbDictionary
281
     1
  3
input_data
350
AA6
  3
table_data
350
AA5
  0
DICTIONARY
  5
2251
102
{ACAD_REACTORS
330
2250
102
}
330
2250
100
AcDbDictionary
281
     1
  0
SORTENTSTABLE
  5
21B5
102
{ACAD_REACTORS
330
3DB
102
}
330
3DB
100
AcDbSortentsTable
330
1F
331
1BC2
  5
1BC2
331
1BC4
  5
1BC5
331
1BC5
  5
1BCC
331
1BCC
  5
1BCD
331
1BCD
  5
1BCE
331
1BCE
  5
1BCF
331
1BCF
  5
1BD0
331
1BD0
  5
1BD1
331
1BD1
  5
1C0F
331
1C0F
  5
1C10
331
1C10
  5
1C11
331
1C11
  5
1C12
331
1C12
  5
1C13
331
1C13
  5
1C14
331
1C14
  5
1C15
331
1C15
  5
1C16
331
1C16
  5
1C17
331
1C17
  5
1C18
331
1C18
  5
1C19
331
1C19
  5
1C1A
331
1C1A
  5
1C1B
331
1C1B
  5
1C1C
331
1C1C
  5
1C1D
331
1C1D
  5
1C1E
331
1C1E
  5
1C1F
331
1C1F
  5
1C20
331
1C20
  5
1C21
331
1C21
  5
1C22
331
1C22
  5
1C23
331
1C23
  5
1C24
331
1C24
  5
1C25
331
1C25
  5
1C26
331
1C26
  5
1C27
331
1C27
  5
1C28
331
1C28
  5
1C29
331
1C29
  5
1C2A
331
1C2A
  5
1C2B
331
1C2B
  5
1C2C
331
1C2C
  5
1C86
331
1C86
  5
1C87
331
1C87
  5
1C88
331
1C88
  5
1C89
331
1C8B
  5
1C8C
331
1C8C
  5
1C8D
331
1C8D
  5
1C8E
331
1C8E
  5
1C8F
331
1C8F
  5
1C90
331
1C90
  5
1C91
331
1C91
  5
1C92
331
1C92
  5
1C93
331
1C93
  5
1C94
331
1C94
  5
1C95
331
1C95
  5
1C96
331
1C96
  5
1C97
331
1C97
  5
1C9A
331
1C9A
  5
1C9B
331
1C9B
  5
1C9C
331
1C9C
  5
1C9D
331
1C9D
  5
1C9E
331
1C9E
  5
1C9F
331
1C9F
  5
1CA0
331
1CA0
  5
1CA1
331
1CA1
  5
1CA2
331
1CA2
  5
1CA3
331
1CA3
  5
1CA4
331
1CA4
  5
1CA5
331
1CA5
  5
1CA6
331
1CA7
  5
1CA8
331
1CB5
  5
1CB6
331
1CB6
  5
1CB7
331
1CB7
  5
1CB8
331
1CB8
  5
1CB9
331
1CB9
  5
1CBA
331
1CBA
  5
1CBB
331
1CBB
  5
1CBC
331
1CBC
  5
1CBD
331
1CBD
  5
1CBE
331
1CBE
  5
1CBF
331
1CBF
  5
1CC0
331
1CC0
  5
1CC1
331
1CC1
  5
1CC2
331
1CC2
  5
1CC3
331
1CC3
  5
1CC4
331
1CC4
  5
1CC5
331
1CC5
  5
1CC6
331
1CC6
  5
1CC7
331
1CC7
  5
1CC8
331
1CC8
  5
1CC9
331
1CC9
  5
1CCA
331
1CCA
  5
1CCB
331
1CCB
  5
1CCC
331
1CCC
  5
1CCD
331
1CCD
  5
1CCE
331
1CCE
  5
1CCF
331
1CCF
  5
1CD0
331
1CD0
  5
1CD1
331
1CD1
  5
1CD2
331
1CD2
  5
1CD3
331
1CD3
  5
1CD4
331
1CD4
  5
1CD5
331
1CD5
  5
1CD6
331
1CD6
  5
1CD7
331
1CD7
  5
1CD8
331
1CD8
  5
1CD9
331
1CD9
  5
1CDA
331
1CDA
  5
1CDB
331
1CDB
  5
1CDC
331
1CDC
  5
1CDD
331
1CDD
  5
1CDF
331
1CDF
  5
1CE0
331
1CE0
  5
1CF2
331
1CF2
  5
1CF3
331
1CF3
  5
1CF4
331
1CF4
  5
1CF5
331
1CF5
  5
1CF6
331
1CF6
  5
1CF7
331
1CF7
  5
1CF8
331
1CF8
  5
1CF9
331
1CF9
  5
1CFA
331
1CFA
  5
1CFB
331
1CFB
  5
1CFC
331
1CFC
  5
1CFD
331
1CFD
  5
1CFE
331
1CFE
  5
1CFF
331
1CFF
  5
1D00
331
1D00
  5
1D01
331
1D01
  5
1D02
331
1D02
  5
1D03
331
1D03
  5
1D04
331
1D04
  5
1D05
331
1D05
  5
1D06
331
1D06
  5
1D07
331
1D07
  5
1D08
331
1D08
  5
1D09
331
1D09
  5
1D0A
331
1D0A
  5
1D0B
331
1D0B
  5
1D0C
331
1D0C
  5
1D0D
331
1D0D
  5
1D0E
331
1D0E
  5
1D0F
331
1D0F
  5
1D10
331
1D10
  5
1D11
331
1D11
  5
1D12
331
1D12
  5
1D27
331
1D27
  5
1D28
331
1D28
  5
1D29
331
1D29
  5
1D2A
331
1D2A
  5
1D2B
331
1D2B
  5
1D2C
331
1D2C
  5
1D2D
331
1D2D
  5
1D2E
331
1D2E
  5
1D2F
331
1D2F
  5
1D31
331
1D31
  5
1D32
331
1D32
  5
1D33
331
1D33
  5
1D34
331
1D34
  5
1D35
331
1D35
  5
1D36
331
1D36
  5
1D37
331
1D37
  5
1D38
331
1D38
  5
1D39
331
1D39
  5
1D3A
331
1D3A
  5
1D3B
331
1D3B
  5
1D3C
331
1D3C
  5
1D3D
331
1D3D
  5
1D3E
331
1D3E
  5
1D3F
331
1D3F
  5
1D40
331
1D40
  5
1D41
331
1D41
  5
1D42
331
1D42
  5
1D43
331
1D43
  5
1D44
331
1D44
  5
1D45
331
1D45
  5
1D46
331
1D46
  5
1D47
331
1D47
  5
1D48
331
1D48
  5
1D4A
331
1D4A
  5
1D4B
331
1D4B
  5
1D4C
331
1D4C
  5
1D4D
331
1D4E
  5
1D52
331
1D52
  5
1D53
331
1D53
  5
1D54
331
1D54
  5
1D55
331
1D55
  5
1D56
331
1D57
  5
1D58
331
1D58
  5
1D59
331
1D59
  5
1D5A
331
1D5C
  5
1D5D
331
1D5D
  5
1D5F
331
1D5F
  5
1D74
331
1D74
  5
1D75
331
1D75
  5
1D77
331
1D77
  5
1D79
331
1D7B
  5
1D80
331
1D80
  5
1D83
331
1D83
  5
1D85
331
1D85
  5
1D8C
331
1D8C
  5
1D8E
331
1D8E
  5
1D91
331
1D91
  5
1D92
331
1D92
  5
1D93
331
1D93
  5
1D94
331
1D94
  5
1D96
331
1D95
  5
1D9A
331
1D97
  5
1D9D
331
1D99
  5
1D9E
331
1D9A
  5
1D9F
331
1D9B
  5
21A7
331
1D9C
  5
21B4
331
1D9F
  5
225A
331
21BE
  5
1D9B
331
225A
  5
2290
331
2290
  5
2292
331
2292
  5
22BF
331
22BF
  5
22C0
331
22C0
  5
23A5
331
23C3
  5
1BC4
  0
LAYOUT
  5
22
102
{ACAD_REACTORS
330
1A
102
}
330
1A
100
AcDbPlotSettings
  1

  2
SII LP-2150 (D-SCAN C2)
  4
User120
  6
AM_VIEW1
 40
3.174999952316284
 41
3.174999952316284
 42
3.17498779296875
 43
3.17498779296875
 44
296.9259948730469
 45
419.9889831542969
 46
0.0
 47
0.0
 48
0.0
 49
0.0
140
420.0
141
297.0
142
1.0
143
1.022107788374329
 70
 11952
 72
     1
 73
     1
 74
     4
  7
sei_cad.ctb
 75
     0
147
0.9783703943695685
148
0.0
149
0.0
100
AcDbLayout
  1
Model
 70
     1
 71
     0
 10
0.0
 20
0.0
 11
12.0
 21
9.0
 12
0.0
 22
0.0
 32
0.0
 14
0.0
 24
0.0
 34
0.0
 15
0.0
 25
0.0
 35
0.0
146
0.0
 13
0.0
 23
0.0
 33
0.0
 16
1.0
 26
0.0
 36
0.0
 17
0.0
 27
1.0
 37
0.0
 76
     0
330
1F
  0
LAYOUT
  5
1E
102
{ACAD_REACTORS
330
1A
102
}
330
1A
100
AcDbPlotSettings
  1

  2
C:\ACADM2000\plotters\DWF Classic.pc3
  4

  6

 40
0.0
 41
0.0
 42
0.0
 43
0.0
 44
0.0
 45
0.0
 46
0.0
 47
0.0
 48
0.0
 49
0.0
140
0.0
141
0.0
142
1.0
143
1.0
 70
   688
 72
     0
 73
     0
 74
     5
  7
sei_cad.ctb
 75
    16
147
1.0
148
0.0
149
0.0
100
AcDbLayout
  1
ﾚｲｱｳﾄ1
 70
     1
 71
     1
 10
0.0
 20
0.0
 11
420.0
 21
297.0
 12
0.0
 22
0.0
 32
0.0
 14
1.000000000000000E+20
 24
1.000000000000000E+20
 34
1.000000000000000E+20
 15
-1.000000000000000E+20
 25
-1.000000000000000E+20
 35
-1.000000000000000E+20
146
0.0
 13
0.0
 23
0.0
 33
0.0
 16
1.0
 26
0.0
 36
0.0
 17
0.0
 27
1.0
 37
0.0
 76
     0
330
1B
  0
LAYOUT
  5
26
102
{ACAD_REACTORS
330
1A
102
}
330
1A
100
AcDbPlotSettings
  1

  2
C:\ACADM2000\plotters\DWF Classic.pc3
  4

  6

 40
0.0
 41
0.0
 42
0.0
 43
0.0
 44
0.0
 45
0.0
 46
0.0
 47
0.0
 48
0.0
 49
0.0
140
0.0
141
0.0
142
1.0
143
1.0
 70
   688
 72
     0
 73
     0
 74
     5
  7
sei_cad.ctb
 75
    16
147
1.0
148
0.0
149
0.0
100
AcDbLayout
  1
ﾚｲｱｳﾄ2
 70
     1
 71
     2
 10
0.0
 20
0.0
 11
12.0
 21
9.0
 12
0.0
 22
0.0
 32
0.0
 14
0.0
 24
0.0
 34
0.0
 15
0.0
 25
0.0
 35
0.0
146
0.0
 13
0.0
 23
0.0
 33
0.0
 16
1.0
 26
0.0
 36
0.0
 17
0.0
 27
1.0
 37
0.0
 76
     0
330
23
  0
MLINESTYLE
  5
18
102
{ACAD_REACTORS
330
17
102
}
330
17
100
AcDbMlineStyle
  2
STANDARD
 70
     0
  3

 62
   256
 51
90.0
 52
90.0
 71
     2
 49
0.5
 62
   256
  6
BYLAYER
 49
-0.5
 62
   256
  6
BYLAYER
  0
ACDBPLACEHOLDER
  5
F
102
{ACAD_REACTORS
330
E
102
}
330
E
  0
TABLESTYLE
  5
20BB
102
{ACAD_REACTORS
330
20BA
102
}
330
20BA
100
AcDbTableStyle
  3
Standard
 70
     0
 71
     8
 40
1.5
 41
1.5
280
     0
281
     0
  7
STANDARD
140
4.5
170
     2
 62
     0
 63
     7
283
     0
274
    -2
284
     1
 64
     0
275
    -2
285
     1
 65
     0
276
    -2
286
     1
 66
     0
277
    -2
287
     1
 67
     0
278
    -2
288
     1
 68
     0
279
    -2
289
     1
 69
     0
  7
STANDARD
140
6.0
170
     5
 62
     0
 63
     7
283
     0
274
    -2
284
     1
 64
     0
275
    -2
285
     1
 65
     0
276
    -2
286
     1
 66
     0
277
    -2
287
     1
 67
     0
278
    -2
288
     1
 68
     0
279
    -2
289
     1
 69
     0
  7
STANDARD
140
4.5
170
     5
 62
     0
 63
     7
283
     0
274
    -2
284
     1
 64
     0
275
    -2
285
     1
 65
     0
276
    -2
286
     1
 66
     0
277
    -2
287
     1
 67
     0
278
    -2
288
     1
 68
     0
279
    -2
289
     1
 69
     0
  0
XRECORD
  5
253C
102
{ACAD_REACTORS
330
253B
102
}
330
253B
100
AcDbXrecord
280
     1
340
20B9
  0
XRECORD
  5
253D
102
{ACAD_REACTORS
330
253B
102
}
330
253B
100
AcDbXrecord
280
     1
340
20B8
  0
DICTIONARYVAR
  5
2130
102
{ACAD_REACTORS
330
34
102
}
330
34
100
DictionaryVariables
280
     0
  1
STANDARD
  0
DICTIONARYVAR
  5
2539
102
{ACAD_REACTORS
330
34
102
}
330
34
100
DictionaryVariables
280
     0
  1
1
  0
DICTIONARYVAR
  5
253A
102
{ACAD_REACTORS
330
34
102
}
330
34
100
DictionaryVariables
280
     0
  1
0
  0
DICTIONARYVAR
  5
35
102
{ACAD_REACTORS
330
34
102
}
330
34
100
DictionaryVariables
280
     0
  1
1
  0
ACAD_PROXY_OBJECT
  5
44
102
{ACAD_REACTORS
330
43
102
}
330
43
100
AcDbProxyObject
 90
      499
 91
      519
 95
       25
 70
     0
 93
      118
310
405010040CA904C415CD5B075DD058
350
45
 94
        0
  0
DICTIONARY
  5
342
102
{ACAD_REACTORS
330
43
102
}
330
43
100
AcDbDictionary
281
     1
  3
JIS
350
343
  0
XRECORD
  5
2119
102
{ACAD_REACTORS
330
43
102
}
330
43
100
AcDbXrecord
280
     1
 90
-1023410169
  0
ACAD_PROXY_OBJECT
  5
37
330
32
100
AcDbProxyObject
 90
      499
 91
      509
 95
       25
 70
     0
 93
      156
310
00010143D050D351505391D5531054925390D490
330
32
 94
        0
  0
ACAD_PROXY_OBJECT
  5
38
330
32
100
AcDbProxyObject
 90
      499
 91
      509
 95
       25
 70
     0
 93
      148
310
000101439050D351531253915054925390D490
330
32
 94
        0
  0
ACAD_PROXY_OBJECT
  5
39
330
32
100
AcDbProxyObject
 90
      499
 91
      510
 95
       25
 70
     0
 93
      156
310
000101439050D35154D6535093D314D256915080
330
32
 94
        0
  0
ACAD_PROXY_OBJECT
  5
3B
330
32
100
AcDbProxyObject
 90
      499
 91
      512
 95
       25
 70
     0
 93
       88
310
000101411093D34C402B00
330
32
330
0
330
0
 94
        0
  0
ACAD_PROXY_OBJECT
  5
20CD
330
32
100
AcDbProxyObject
 90
      499
 91
      535
 95
       25
 70
     0
 93
      478
310
0001014124FEA55D00507392E322E302E32014124FEA55D00507392E322E302E3240501000041131253914182D4454FB21E93F000000000000380FD8
330
32
330
20CE
330
20D4
 94
        0
  0
ACAD_PROXY_OBJECT
  5
20CE
330
32
100
AcDbProxyObject
 90
      499
 91
      536
 95
       25
 70
     0
 93
       56
310
000190240E0000
330
32
330
20CF
330
20D1
 94
        0
  0
ACAD_PROXY_OBJECT
  5
20CF
330
32
100
AcDbProxyObject
 90
      499
 91
      537
 95
       25
 70
     0
 93
       48
310
0001AA000000
330
32
330
1E
330
20D0
330
0
 94
        0
  0
ACAD_PROXY_OBJECT
  5
20D0
330
32
100
AcDbProxyObject
 90
      499
 91
      538
 95
       25
 70
     0
 93
       28
310
0001AAA0
330
32
 94
        0
  0
ACAD_PROXY_OBJECT
  5
20D1
330
32
100
AcDbProxyObject
 90
      499
 91
      537
 95
       25
 70
     0
 93
       48
310
0001AA000000
330
32
330
26
330
20D2
330
0
 94
        0
  0
ACAD_PROXY_OBJECT
  5
20D2
330
32
100
AcDbProxyObject
 90
      499
 91
      538
 95
       25
 70
     0
 93
       28
310
0001AAA0
330
32
 94
        0
  0
ACAD_PROXY_OBJECT
  5
20D5
330
32
100
AcDbProxyObject
 90
      499
 91
      510
 95
       25
 70
     0
 93
      108
310
000101421053521310D05310D010
330
32
 94
        0
  0
ACAD_PROXY_OBJECT
  5
20D6
330
32
100
AcDbProxyObject
 90
      499
 91
      510
 95
       25
 70
     0
 93
      124
310
00010142905354915554D15112535010
330
32
 94
        0
  0
ACAD_PROXY_OBJECT
  5
20D7
330
32
100
AcDbProxyObject
 90
      499
 91
      510
 95
       25
 70
     0
 93
      132
310
00010143105354D150D51253D391125360
330
32
 94
        0
  0
ACAD_PROXY_OBJECT
  5
20D8
330
32
100
AcDbProxyObject
 90
      499
 91
      510
 95
       25
 70
     0
 93
      124
310
00010142905355941093D49111549010
330
32
 94
        0
  0
ACAD_PROXY_OBJECT
  5
20D9
330
32
100
AcDbProxyObject
 90
      499
 91
      510
 95
       25
 70
     0
 93
      116
310
0001014290535115D1D0D3D313D4A0
330
32
 94
        0
  0
ACAD_PROXY_OBJECT
  5
20DA
330
32
100
AcDbProxyObject
 90
      499
 91
      510
 95
       25
 70
     0
 93
      148
310
00010143505355925155D49151949154D21010
330
32
 94
        0
  0
ACAD_PROXY_OBJECT
  5
20DB
330
32
100
AcDbProxyObject
 90
      499
 91
      510
 95
       25
 70
     0
 93
      172
310
00010144105350539393D51154149154D15495915010
330
32
 94
        0
  0
ACAD_PROXY_OBJECT
  5
20DC
330
32
100
AcDbProxyObject
 90
      499
 91
      510
 95
       25
 70
     0
 93
      172
310
00010144105350555513D11253505494905391D15010
330
32
 94
        0
  0
ACAD_PROXY_OBJECT
  5
20DD
330
32
100
AcDbProxyObject
 90
      499
 91
      510
 95
       25
 70
     0
 93
      124
310
00010142D05351561514915191125360
330
32
 94
        0
  0
ACAD_PROXY_OBJECT
  5
20DE
330
32
100
AcDbProxyObject
 90
      499
 91
      510
 95
       25
 70
     0
 93
      132
310
00010142D05355105410539393D5115010
330
32
 94
        0
  0
ACAD_PROXY_OBJECT
  5
20DF
330
32
100
AcDbProxyObject
 90
      499
 91
      510
 95
       25
 70
     0
 93
      108
310
00010142105350555513D0D31010
330
32
 94
        0
  0
ACAD_PROXY_OBJECT
  5
20E0
330
32
100
AcDbProxyObject
 90
      499
 91
      510
 95
       25
 70
     0
 93
      108
310
00010142105350D3119150551050
330
32
 94
        0
  0
ACAD_PROXY_OBJECT
  5
20E1
330
32
100
AcDbProxyObject
 90
      499
 91
      510
 95
       25
 70
     0
 93
      108
310
00010142105350D315925155D3F0
330
32
 94
        0
  0
ACAD_PROXY_OBJECT
  5
20E2
330
32
100
AcDbProxyObject
 90
      499
 91
      510
 95
       25
 70
     0
 93
      148
310
0001014350535212511156915493D112535010
330
32
 94
        0
  0
ACAD_PROXY_OBJECT
  5
20E3
330
32
100
AcDbProxyObject
 90
      499
 91
      510
 95
       25
 70
     0
 93
      124
310
00010142905352105510D21254D3D010
330
32
 94
        0
  0
ACAD_PROXY_OBJECT
  5
20E4
330
32
100
AcDbProxyObject
 90
      499
 91
      510
 95
       25
 70
     0
 93
      148
310
00010143905354D25391D31152105513105660
330
32
 94
        0
  0
ACAD_PROXY_OBJECT
  5
20E5
330
32
100
AcDbProxyObject
 90
      499
 91
      510
 95
       25
 70
     0
 93
      124
310
00010142D0535115D1D193111254D420
330
32
 94
        0
  0
ACAD_PROXY_OBJECT
  5
20E6
330
32
100
AcDbProxyObject
 90
      499
 91
      510
 95
       25
 70
     0
 93
      100
310
00010142105350555513D213A0
330
32
 94
        0
  0
ACAD_PROXY_OBJECT
  5
20E7
330
32
100
AcDbProxyObject
 90
      499
 91
      510
 95
       25
 70
     0
 93
      116
310
000101425053521390D3D553951010
330
32
 94
        0
  0
ACAD_PROXY_OBJECT
  5
20E8
330
32
100
AcDbProxyObject
 90
      499
 91
      510
 95
       25
 70
     0
 93
      108
310
0001014210535213941493D29010
330
32
 94
        0
  0
ACAD_PROXY_OBJECT
  5
20E9
330
32
100
AcDbProxyObject
 90
      499
 91
      510
 95
       25
 70
     0
 93
      108
310
0001014210535213951654115070
330
32
 94
        0
  0
ACAD_PROXY_OBJECT
  5
20EA
330
32
100
AcDbProxyObject
 90
      499
 91
      510
 95
       25
 70
     0
 93
      108
310
000101421053521395925155D0F0
330
32
 94
        0
  0
ACAD_PROXY_OBJECT
  5
20EB
330
32
100
AcDbProxyObject
 90
      499
 91
      510
 95
       25
 70
     0
 93
      140
310
00010143505354D150D51253D390D3D41660
330
32
 94
        0
  0
ACAD_PROXY_OBJECT
  5
20EC
330
32
100
AcDbProxyObject
 90
      499
 91
      510
 95
       25
 70
     0
 93
      108
310
00010142105350D3141493D29030
330
32
 94
        0
  0
ACAD_PROXY_OBJECT
  5
20ED
330
32
100
AcDbProxyObject
 90
      499
 91
      509
 95
       25
 70
     0
 93
      212
310
00010143905350555513D2105510D21493D500000000000002E400
330
32
 94
        0
  0
ACAD_PROXY_OBJECT
  5
20EE
330
32
100
AcDbProxyObject
 90
      499
 91
      510
 95
       25
 70
     0
 93
      156
310
00010143905350555513D2105510D21111551010
330
32
 94
        0
  0
ACAD_PROXY_OBJECT
  5
20FC
330
32
100
AcDbProxyObject
 90
      499
 91
      546
 95
       25
 70
     0
 93
      698
310
0001000000009AA6A9AA4051E547565204175672032342030323A31303A343120323031302028555443290141CE4B8C8B8C0B8C80518547565205365702032382030393A31313A313520323031300141CE4B8C8B8C0B8C80
330
32
330
20FD
330
20FE
330
2100
330
0
 94
        0
  0
ACAD_PROXY_OBJECT
  5
20FD
330
32
100
AcDbProxyObject
 90
      499
 91
      547
 95
       25
 70
     0
 93
       70
310
0001AAA80820000000
330
32
330
20FD
330
20FD
 94
        0
  0
ACAD_PROXY_OBJECT
  5
20FE
330
32
100
AcDbProxyObject
 90
      499
 91
      548
 95
       25
 70
     0
 93
       48
310
000100000000
330
32
330
0
330
20FF
330
0
330
0
 94
        0
  0
ACAD_PROXY_OBJECT
  5
20FF
330
32
100
AcDbProxyObject
 90
      499
 91
      549
 95
       25
 70
     0
 93
       40
310
000100AAAA
330
32
330
0
 94
        0
  0
ACAD_PROXY_OBJECT
  5
2105
330
32
100
AcDbProxyObject
 90
      499
 91
      553
 95
       25
 70
     0
 93
      180
310
00010143105050D3D35411119390535140504434F4D500
330
32
 94
        0
  0
ACAD_PROXY_OBJECT
  5
2106
330
32
100
AcDbProxyObject
 90
      499
 91
      553
 95
       25
 70
     0
 93
      212
310
0001014390505193D311115491119390535140506466F6C6465720
330
32
 94
        0
  0
ACAD_PROXY_OBJECT
  5
2107
330
32
100
AcDbProxyObject
 90
      499
 91
      553
 95
       25
 70
     0
 93
      180
310
00010143105050539393D1119390535140504284156290
330
32
 94
        0
  0
ACAD_PROXY_OBJECT
  5
2108
330
32
100
AcDbProxyObject
 90
      499
 91
      553
 95
       25
 70
     0
 93
      436
310
00010143905050D3D35415925155D31254D50052295BD96CA0A90B396CA0A894591A496CA0A8DB691A496CA0A89BA96CA0A95E28F95310
330
32
 94
        0
  0
ACAD_PROXY_OBJECT
  5
210D
330
32
100
AcDbProxyObject
 90
      499
 91
      555
 95
       25
 70
     0
 93
       32
310
00010000
330
32
340
210A
330
210F
330
210A
 94
        0
  0
ACAD_PROXY_OBJECT
  5
210E
330
32
100
AcDbProxyObject
 90
      499
 91
      556
 95
       25
 70
     0
 93
       18
310
000180
330
32
 94
        0
  0
ACAD_PROXY_OBJECT
  5
210F
330
32
100
AcDbProxyObject
 90
      499
 91
      557
 95
       25
 70
     0
 93
      170
310
0001014295D094150B4C8C4D94915050055401550000
330
32
330
210D
330
210E
 94
        0
  0
ACAD_PROXY_OBJECT
  5
2110
330
32
100
AcDbProxyObject
 90
      499
 91
      558
 95
       25
 70
     0
 93
      178
310
000100AAAAAABFD3AF19BA1BD0D1E01398749E1D69E800
330
32
330
210F
 94
        0
  0
ACAD_PROXY_OBJECT
  5
2111
330
32
100
AcDbProxyObject
 90
      499
 91
      559
 95
       25
 70
     0
 93
      108
310
000190140A000000000000AAAAA0
330
32
330
2112
330
2112
330
2112
330
2112
330
2112
330
0
 94
        0
  0
ACAD_PROXY_OBJECT
  5
2112
330
32
100
AcDbProxyObject
 90
      499
 91
      560
 95
       25
 70
     0
 93
       51
310
00010000AAAA80
330
32
330
2111
330
210F
 94
        0
  0
ACAD_PROXY_OBJECT
  5
2115
330
32
100
AcDbProxyObject
 90
      499
 91
      553
 95
       25
 70
     0
 93
      140
310
00010142105350D55494D511005034A49530
330
32
 94
        0
  0
DICTIONARY
  5
2C
102
{ACAD_REACTORS
330
2B
102
}
330
2B
100
AcDbDictionary
281
     1
  3
DWGSETTINGS
350
2D
  3
FEM
350
24E7
  3
Shaft
350
24E6
  3
TRANSSETTINGS
350
2E
  0
ACAD_PROXY_OBJECT
  5
4A
102
{ACAD_REACTORS
330
2B
102
}
330
2B
100
AcDbProxyObject
 90
      499
 91
      521
 95
       25
 70
     0
 93
    23256
310
41502491013041105357CC201C00030C0132441013141105357CC603800030C0132441013241105357CCA01400030C0132441013341105357CCE01800030C01199013441105357CD200C00030C01199013541105357CD600C00030C01199013641105357CDA00800030C01239013741105357CDE01000030C0119901384110
310
5357CE200400030C01199013941105357CE63F400030C0241102324141505357CC4C201C00030C0132902344141505357CC4C600C00030C0119902495041505357CC4CA01C00030C013240902304E41505357CC13A01C00030C0132902314E41505357CC53A03800030C0132902324E41505357CC93A01400030C013290233
310
4E41505357CCD3A01800030C0119902344E41505357CD13A00C00030C0119902354E41505357CD53A00C00030C0119902364E41505357CD93A00800030C0123902374E41505357CDD3A01000030C0119902384E41505357CE13A00400030C0119902394E41505357CE53A3F400030C024110332414E41905357CC4C13A01C0
310
0030C013290334414E41905357CC4C53A00C00030C011990349504E41905357CC4C93A01C00030C0132409044B4C494E41505357D0D3200400030C011942504494E464F42105357D410549151A01000030C011942D055241484D3541905357D093D4A01C00030C0132425045649455742105357D5925155D4E00400030C011
310
942D06424548494E4441905357D25395A3F400030C0243505545241494C41505357D514A00C00030C01194250348494441905357D21251201C00030C01194250356495341905357D59254E01C00030C01324250650415244494D42505357D41054911253600C00030C01194250652454644494D42505357D49151911253601
310
000030C0119425774110531514901348070000C3004C9034110915312501348000000C0003FFFFFFFD034110921395901398000000C0003FFFFFFFE415092139594D06424548494E448000000C0003FFFFFFFE411093125110234418000000C0003FFFFFFFD03411093D05410234418000000C0003FFFFFFFD03411093D48C
310
9055241484D358010000C300466411093D48CD055241484D358020000C30048E411093D48D5055241484D358000000C0003FFFFFFFE411093D48DD055241484D3581E0000C30051903411094105410234418000000C0003FFFFFFFD03411094115610234418000000C0003FFFFFFFD034110951112501358000000C0003FFF
310
FFFFD034110D0530C901348000000C0003FFFFFFFE4110D0530CD01348020000C30048E4110D0530D501348070000C3004CA4110D0530DD013481E0000C30051A4110D15393901378000000C0003FFFFFFFE4110D15395D01378000000C0003FFFFFFFE4110D312539044B4C494E8000000C0003FFFFFFFE4110D3D38C5013
310
08000000C0003FFFFFFFD034110D3D38C901318000000C0003FFFFFFFD034110D3D38CD01328000000C0003FFFFFFFD034110D3D38D101328000000C0003FFFFFFFD034111115494101348000000C0003FFFFFFFD034111115510501348000000C0003FFFFFFFE4111125051D01358000000C0003FFFFFFFE4111125312501
310
358000000C0003FFFFFFFE411112535410650415244494D8000000C0003FFFFFFFE411112535490652454644494D8000000C0003FFFFFFFE411156135410234418000000C0003FFFFFFFD034111915353901388000000C0003FFFFFFFE415191535413901388030000C3003FFFFFFFE4151915354D410234418000000C0003
310
FFFFFFFE4151915354D510234418030000C300466415191535593901328000000C0003FFFFFFFE415191535595101328030000C3004664111931055101308000000C0003FFFFFFFD03411194905490234418000000C0003FFFFFFFD034111D49312501358000000C0003FFFFFFFD034111D5931250234418000000C0003FFF
310
FFFFD034112105510D01388000000C0003FFFFFFFD014112125113901338000000C0003FFFFFFFD034112125115D01338000000C0003FFFFFFFD034112131253901348000000C0003FFFFFFFD01411213D0D3901378000000C0003FFFFFFFE411213D0D5D01378000000C0003FFFFFFFE4112539193D04494E464F8000000C
310
0003FFFFFFFE4113105112501348000000C0003FFFFFFFD034113115051101358000000C0003FFFFFFFE419397D0921395902394E8000000C0003FFFFFFFE419397D0D3D38C502304E8000000C0003FFFFFFFD03419397D0D3D38C902314E8000000C0003FFFFFFFD03419397D0D3D38CD02324E8000000C0003FFFFFFFD03
310
419397D0D3D38D102324E8000000C0003FFFFFFFD03419397D0D15393902374E8000000C0003FFFFFFFE419397D0D15395D02374E8000000C0003FFFFFFFE419397D1125312502354E8000000C0003FFFFFFFE419397D2105510D02384E8000000C0003FFFFFFFD01419397D2125113902334E8000000C0003FFFFFFFD0341
310
9397D2125115D02334E8000000C0003FFFFFFFD03419397D3115051102354E8000000C0003FFFFFFFE419397D391D25410349504E8000000C0003FFFFFFFE419397D412105390334414E8000000C0003FFFFFFFE419397D510D3D3902304E8000000C0003FFFFFFFD03419397D5121312502344E8000000C0003FFFFFFFD01
310
419397D5131153902304E8000000C0003FFFFFFFD03419397D516150CD02364E8000000C0003FFFFFFFD03419397D594131250332414E8000000C0003FFFFFFFE411391D25410249508000000C0003FFFFFFFE411410530C9055241484D358010000C300466411410530CD055241484D358020000C30048E411410530D5055
310
241484D358000000C0003FFFFFFFE411410530DD055241484D3581E0000C30051903411412105390234418000000C0003FFFFFFFE411413D4D3901368070000C3004CA419413D4D49151901368050000C3004C903411413D4D6101368000000C0003FFFFFFFD03411414D150D0234418000000C0003FFFFFFFD03411490D1D
310
3901378000000C0003FFFFFFFE411490D1D5D01378000000C0003FFFFFFFE4114919112501348000000C0003FFFFFFFD034114945514901348070000C3004C903411494D093D01348000000C0003FFFFFFFD034114D09492D01348000000C0003FFFFFFFD014114D0D153901378000000C0003FFFFFFFD034114D150D51013
310
48000000C0003FFFFFFFD014114D15313901378000000C0003FFFFFFFD034114D15315D01378000000C0003FFFFFFFD034114D4D654D01308000000C0003FFFFFFFD034114D51312501348070000C3004C9034114D6508C501358000000C0003FFFFFFFD034114D6508C901358000000C0003FFFFFFFD034114D6508CD0135
310
8020000C30048E4114D6508D501358070000C3004C9034114D65353901378000000C0003FFFFFFFD034114D65355D01378000000C0003FFFFFFFD03411510D3D3901308000000C0003FFFFFFFD034115121312501348000000C0003FFFFFFFD01411512550C9055241484D358010000C300466411512550CD055241484D358
310
020000C30048E411512550D5055241484D358000000C0003FFFFFFFE411512550DD055241484D3581E0000C300519034115131153901308000000C0003FFFFFFFD03415514905253105545241494C8000000C0003FFFFFFFE41151492D3901378000000C0003FFFFFFFD0341151492D5D01378000000C0003FFFFFFFD03411
310
5149312501348000000C0003FFFFFFFD01411516150C501368030000C300466411516150C901368030000C300466411516150CD01368000000C0003FFFFFFFE411516150D501368070000C3004CA411516150DD013681E0000C30051A4115925155D04564945578000000C0003FFFFFFFE41159151121034849448000000C0
310
003FFFFFFFD0241159151159035649538000000C0003FFFFFFFD02411594131250232418000000C0003FFFFFFFE4116925690501348000000C0003FFFFFFFD01411354D653501358020000C30048EAAA3F400030C01013F90A4393241D3241919415324111940D194092340519479467F6
340
16
340
16
340
16
340
4B
340
16
340
16
340
16
340
4C
340
16
340
16
340
4C
340
4D
340
16
340
16
340
16
340
16
340
4B
340
16
340
16
340
16
340
4C
340
16
340
16
340
4C
340
4D
340
16
340
4E
340
16
340
16
340
16
340
16
340
16
340
4B
340
16
340
16
340
16
340
4F
340
15
340
15
340
15
340
15
340
15
340
15
340
15
340
15
340
15
340
15
340
15
340
15
340
15
340
15
340
15
340
15
340
50
340
15
340
15
340
15
340
15
340
15
340
15
340
15
340
15
340
15
340
15
340
15
340
15
340
15
340
15
340
15
340
16
340
15
340
15
340
15
340
15
340
15
340
15
340
15
340
15
340
4F
340
15
340
15
340
50
340
15
340
15
340
15
340
15
340
15
340
15
340
15
340
15
340
15
340
50
340
15
340
15
340
15
340
4F
340
15
340
15
340
15
340
15
340
15
340
15
340
15
340
15
340
15
340
15
340
15
340
15
340
15
340
15
340
15
340
15
340
15
340
15
340
15
340
50
340
15
340
15
340
50
340
15
340
15
340
16
340
15
340
50
340
15
340
15
340
4F
340
15
340
15
340
16
340
15
340
50
340
15
340
15
340
15
340
15
340
15
340
15
340
15
340
15
340
15
340
50
340
15
340
15
340
15
340
15
340
15
340
15
340
15
340
15
340
15
340
15
340
15
340
53
340
16
 94
        0
  0
ACAD_PROXY_OBJECT
  5
355
102
{ACAD_REACTORS
330
350
102
}
330
350
100
AcDbProxyObject
 90
      499
 91
      529
 95
       25
 70
     0
 93
      253
310
43D1444494D454E53494F4E2C414D44545F2A5F44494D404A9012A404A9012A8
  0
ACAD_PROXY_OBJECT
  5
354
102
{ACAD_REACTORS
330
350
102
}
330
350
100
AcDbProxyObject
 90
      499
 91
      529
 95
       25
 70
     0
 93
      181
310
43D012A42D05357D191504B505357CA9012A404A9012A8
  0
ACAD_PROXY_OBJECT
  5
351
102
{ACAD_REACTORS
330
350
102
}
330
350
100
AcDbProxyObject
 90
      499
 91
      529
 95
       25
 70
     0
 93
      133
310
43D054841544348404A9012A404A9012A8
  0
ACAD_PROXY_OBJECT
  5
352
102
{ACAD_REACTORS
330
350
102
}
330
350
100
AcDbProxyObject
 90
      499
 91
      529
 95
       25
 70
     0
 93
      549
310
43D044C494E4549CE0B0E138B0A8B4E0B0A8B4E138B105357CE0B105357CE138B0A8B505357CE0B0A8B505357CE139012A404A910494E534552542C5354445041525432448
  0
ACAD_PROXY_OBJECT
  5
353
102
{ACAD_REACTORS
330
350
102
}
330
350
100
AcDbProxyObject
 90
      499
 91
      529
 95
       25
 70
     0
 93
      909
310
43D6641434D46434652414D452C41434D444154554D5441524745542C41434D444154554D49442C41434D57454C4453594D2C41434D5355524653594D2C41434D4645415449442C41434D504152545245462C41434D42414C4C4F4F4E2C414D44544544474553594D404A9012A404A9012A8
  0
XRECORD
  5
AA6
102
{ACAD_REACTORS
330
AA4
102
}
330
AA4
100
AcDbXrecord
280
     1
  1
1,,,,,,,,,^M^J2,,,,,,,,,^M^J3,,,,,,,,,^M^J4,,,,,,,,,^M^J5,,,,,,,,,
  0

  0
XRECORD
  5
AA5
102
{ACAD_REACTORS
330
AA4
102
}
330
AA4
100
AcDbXrecord
280
     1
  1
5,10
  0

  0
ACAD_PROXY_OBJECT
  5
45
102
{ACAD_REACTORS
330
44
102
}
330
44
100
AcDbProxyObject
 90
      499
 91
      520
 95
       25
 70
     0
 93
      157
310
057356C1D77406406AA8FFFFFFFF05DD01009010
330
1F
330
0
330
210F
 94
        0
  0
ACAD_PROXY_OBJECT
  5
343
102
{ACAD_REACTORS
330
342
102
}
330
342
100
AcDbProxyObject
 90
      499
 91
      522
 95
       25
 70
     0
 93
     2379
310
5DC33333333333309408000000C00040D29254D01640600800030C0200800030C003333333333330940C8121E8720B1B6A9BAB9332A32BC3A29BA3220480A1282C6DA8C868CA6E8C88120286A0B1B6ABB2B63234B733A9BA3220480A1082C6DA92C8A6E8C88120285A0B1B6A230BA3AB6A9BA3220480A1282C6DA849E9AA6E
310
8C88120286A0B1A0B6B3AA34BA3632A9BA3220480A2082DAC8E888CAE8C2D2D8A6F2DAA6E8C88120288A0B6B23A29B2B1BA34B7B729BCB6A9BA3220480A2282DAC8E886CADCE8CAE498D2DCCAA6E8C88120288A0B6B23A2A343932B0B22634B732A9BA3220480A1682DAC8E89CDEE8CAA6E8C88120285A0B1A0B6B3A630BCA
310
9BA3220480A1682C682DACE88D2DAA6E8C88120288A0B1A0B6B3A437B632A1B430B93A29BA3220480C812020
340
32F
360
344
360
345
360
346
360
347
360
348
360
349
360
2116
360
2117
360
2118
360
211A
360
211B
360
211C
360
2122
360
2123
360
2124
340
0
340
0
 94
        0
  0
ACAD_PROXY_OBJECT
  5
2D
102
{ACAD_REACTORS
330
2C
102
}
330
2C
100
AcDbProxyObject
 90
      499
 91
      503
 95
       25
 70
     0
 93
     2576
310
4050B44574753455454494E4753A0E8482A68AA6A88882A069492A684A1A0A723A0A92920ACA0A8419983E1A1ABE1B1820C868A9C829C8E82A12686AF87260F862666A8321A2A72224A0A50000000000000122020E868A9C889282A682A106260F86460F8666083A1A2A72224A9AA250000000000000042020C868A9C988A9
310
C94000000000000048808321A2A727A32325000000000000012202128698929C82A4A482B282A0462608421A624A722AA2CA820A82AC2624A722A1288AE8EAAA68682988A94283A620A9AA27A12520A80982109A82968AAC928AAE9FA04832829A1A0A622830020000419491559254D2505404C1055343414C4541503313A3
310
14214D510539110549110540D29254D0954494D455354414D504A025EB7401742B734141D5915494D253D3905414C4D4B8C0C1107B44574753455454494E4753454E447D
  0
ACAD_PROXY_OBJECT
  5
24E7
102
{ACAD_REACTORS
330
2C
102
}
330
2C
100
AcDbProxyObject
 90
      499
 91
      503
 95
       25
 70
     0
 93
      411
310
4050346454D21092DCC6E486DECACC942842630BCA3B937BAB820A8320A6AFA322A0A20F688AE8EA68AA8A8929C8EA68A9C88FA0
  0
ACAD_PROXY_OBJECT
  5
24E6
102
{ACAD_REACTORS
330
2C
102
}
330
2C
100
AcDbProxyObject
 90
      499
 91
      503
 95
       25
 70
     0
 93
      513
310
40505536861667421292DCE8CAE4E4EAE0E89FC84A634B3B43A2634B732A7F21A98D2CED0E898D2DCCAACD2CAEE9FC883DA22BA3A9A2AA2A24A723A9A2A7223E80
  0
ACAD_PROXY_OBJECT
  5
2E
102
{ACAD_REACTORS
330
2C
102
}
330
2C
100
AcDbProxyObject
 90
      499
 91
      503
 95
       25
 70
     0
 93
      852
310
4050D5452414E5353455454494E4753A2488A482AE929C8EA8A4829CA69882A8929E9C0C00800050D4F524947494E414C4C595F4F4E0600400028529A7AAA921A2A620A723A0A81A52827212AAA0A48AA68AA4AC8A0C0080001107B44574753455454494E4753454E447D0
  0
ACAD_PROXY_OBJECT
  5
344
330
343
100
AcDbProxyObject
 90
      499
 91
      523
 95
       25
 70
     0
 93
       86
310
5DEA0C80A0280A0280A034
  0
ACAD_PROXY_OBJECT
  5
345
330
343
100
AcDbProxyObject
 90
      499
 91
      524
 95
       25
 70
     0
 93
      282
310
5DD0E4050140501405014050140501405014050141101405014048000000000000001000
340
330
 94
        0
  0
ACAD_PROXY_OBJECT
  5
346
330
343
100
AcDbProxyObject
 90
      499
 91
      525
 95
       25
 70
     0
 93
      323
310
5DCC199999999999E99F91740501405014050140501405014050140501405014050140501405014040
340
0
 94
        0
  0
ACAD_PROXY_OBJECT
  5
347
330
343
100
AcDbProxyObject
 90
      499
 91
      526
 95
       25
 70
     0
 93
       10
310
5DC0
  0
ACAD_PROXY_OBJECT
  5
348
330
343
100
AcDbProxyObject
 90
      499
 91
      527
 95
       25
 70
     0
 93
      257
310
5DE0C16A22A7D90F49F80000000000001081400000000000004204010000618000
340
328
340
329
 94
        0
  0
ACAD_PROXY_OBJECT
  5
349
330
343
100
AcDbProxyObject
 90
      499
 91
      528
 95
       25
 70
     0
 93
     5277
310
5DD06411255115350141236025B6901405014069010000000000000910240690120281A8AA2CA0282484A4BE52028120280A032020000000000001220480D202405044E414D454050496BC914F4051C40640A80000000000004E4090193C3D3C4946284953424C414E4B28504152543A4E414D45292C424C4F434B3A4E414D
310
452C504152543A4E414D45293E3C41435F44455343524950544E3E40480A109A82A88AA492829880A091BBD2F7E80A3A80C81D0E27A15AF46E08A81203480901411393D5115014124A363B7D0147501904A0000000000000F902406428F4F1050D7D393D5114F901202832B22A72227A92028366EF6EE06F582028EA0320B4
310
0000000000001F20480C879E9E20A1AFAB27222FA620A122A61F20240506445020000000000000490201C00030C00010180000000000003E400000000000000F901073D3C4954454D3E4050180000000000003E400000000000000F901073D3C4954454D3E40501800000000000034400000000000000D101073D3C4954454
310
D3E40501800000000000034400000000000000D101073D3C4954454D3E405029010000000000000F9000000000000003E4041CF4F125511534F901418F4F1455164F9014060000000000000F9000000000000003E4041CF4F125511534F901800000000000034400000000000000D101073D3C4954454D3E40640400000000
310
0000003E400000000000000F90288800000000000020810000001800120881A068120480A032208521122080D21480D211480A1485214852050000000000003C2FC000000000000F0BF40600800030C0200400030C00CDCCCCCCCCCCEC3F3373333333333B0FC3333333333330940C80D069014090341504901A1999999999
310
9984A040100006180400800061804010000618008098A02808
340
0
340
0
 94
        0
  0
ACAD_PROXY_OBJECT
  5
2116
330
343
100
AcDbProxyObject
 90
      499
 91
      561
 95
       25
 70
     0
 93
     3042
310
5DD9740D29254D064A49535F413342929254D7D512551311505134A49535F42525F5265766973696F6E6C6973744190F4134522028323937783231306D6D2941D29254D7D04D1490E41312028353934783834316D6D2941929254D7D04C50E41332028323937783432306D6D2941929254D7D04CD0F41344C2028323130783
310
239376D6D2941D29254D7D04D1310E41322028343230783539346D6D2941929254D7D04C90F4130202838343178313138396D6D2941929254D7D04C10243129254C82557247A25E4C81050A4A49535F5449544C454143129254C82557247A25E4C81090A4A49535F5449544C45424110E979A97F0838A835883675F42525F4
310
4D29254D7D09497D4995D9A5CDA5BDB9B1A5CDD10E979A97F0838A835883675F54525F44D29254D7D51497D4995D9A5CDA5BDB9B1A5CDD10E979A97F0838A835883675F424C5F44D29254D7D09317D4995D9A5CDA5BDB9B1A5CDD10E979A97F0838A835883675F544C5F44D29254D7D51317D4995D9A5CDA5BDB9B1A5CDD00
  0
ACAD_PROXY_OBJECT
  5
2117
330
343
100
AcDbProxyObject
 90
      499
 91
      562
 95
       25
 70
     0
 93
      898
310
5DC4000000000000124048CF4F11115510525317D3105091530F880A0F11115510525317D05094D4D0D053114F8A50241C9A9999999999B93F26A666666666724FC000000000000E03F400000000000000400000000000000510000000000000024408070000C300000000000000049000
340
16
340
32F
 94
        0
  0
ACAD_PROXY_OBJECT
  5
2118
330
343
100
AcDbProxyObject
 90
      499
 91
      563
 95
       25
 70
     0
 93
      823
310
5DC0B00000000000002480959E9E29A2A1AA24A7A72FA620A122A62FA324A929AA1F169E29A2A1AA24A7A72FA620A122A62FA620A9AA1F000000000000048803FFFE01C00030C008140380006180000000000000048800000000000000A2000000000000002480
340
39F
340
32F
 94
        0
  0
ACAD_PROXY_OBJECT
  5
211A
330
343
100
AcDbProxyObject
 90
      499
 91
      564
 95
       25
 70
     0
 93
      152
310
5DE8273108AC1C5A0640A3D0A5723F0BD1F200
  0
ACAD_PROXY_OBJECT
  5
211B
330
343
100
AcDbProxyObject
 90
      499
 91
      565
 95
       25
 70
     0
 93
       14
310
5DE0
340
0
 94
        0
  0
ACAD_PROXY_OBJECT
  5
211C
330
343
100
AcDbProxyObject
 90
      499
 91
      566
 95
       25
 70
     0
 93
     6059
310
5DD084050BA4050AA405024050E836583938376838C815B83672031405983D3C486F6C653A6469613E3C696628657175616C28486F6C653A7465726D696E6174696F6E2C223022292C2220905B82B320222C22208368838A838B22293E3C696628657175616C28486F6C653A7465726D696E6174696F6E2C223022292C486F
310
6C653A64657074682C2222293E2C203C486F6C653A63746469613E2082B482AE82E882CC905B82B3203C486F6C653A637464657074683E406901405034050E836583938376838C815B83672031405EF3D3C486F6C653A6374616E676C653E252564202525633C486F6C653A63746469613E208E4D8C8A2C203C69662865717
310
5616C28486F6C653A7461707065642C223022292C22252563222C486F6C653A6E6F6D696E616C202220782022293E3C696628657175616C28486F6C653A7461707065642C223022292C486F6C653A6469612C486F6C653A706974636864657363293E203C696628657175616C28486F6C653A7465726D696E6174696F6E2C2
310
23022292C22905B82B320222C222022293E3C696628657175616C28486F6C653A7465726D696E6174696F6E2C223022292C486F6C653A64657074682C2222293E406901405014050E836583938376838C815B83672031405C73D3C696628657175616C28486F6C653A7461707065642C223022292C22252563222C486F6C65
310
3A6E6F6D696E616C202220782022293E3C696628657175616C28486F6C653A7461707065642C223022292C486F6C653A6469612C486F6C653A706974636864657363293E203C696628657175616C28486F6C653A7465726D696E6174696F6E2C223022292C22905B82B320222C222022293E3C696628657175616C28486F6C
310
653A7465726D696E6174696F6E2C223022292C486F6C653A64657074682C2222293E4069014051E4090E836583938376838C815B83672032405173D3C535444503A444553433E203C535444503A5354443E40690E836583938376838C815B836720314050C3D3C535444503A444553433E40690240515AAABBA120
360
2120
330
2120
360
2121
330
2121
360
211F
330
211F
360
211E
360
211D
330
211E
330
211D
 94
        0
  0
ACAD_PROXY_OBJECT
  5
2122
330
343
100
AcDbProxyObject
 90
      499
 91
      568
 95
       25
 70
     0
 93
       26
310
5DD02A80
340
4A
 94
        0
  0
ACAD_PROXY_OBJECT
  5
2123
330
343
100
AcDbProxyObject
 90
      499
 91
      569
 95
       25
 70
     0
 93
      250
310
5DD020000000000000A1000000000000002440408F0F9023C3E409A0DCFFFF80
340
331
340
532
340
533
340
332
340
333
340
334
340
335
340
336
340
337
340
0
 94
        0
  0
ACAD_PROXY_OBJECT
  5
2124
330
343
100
AcDbProxyObject
 90
      499
 91
      570
 95
       25
 70
     0
 93
    13889
310
5DD1D003FFFFFFFD030300030CCCCCCCCCCCC250200800030C01030300030CCCCCCCCCCCC250200800030C00050C8DC0955782CC838A83588367014ED1D15395149050D3CB1294138B0C0B23702555E0B320E2A0D620D9CB11D15395149055160B095CCB0A11D1539354D1C819D95B991A5B5E880CCC0A78000C0000000000
310
00000000000000000000010CCCCCCCCCCCC250200800030C010CCCCCCCCCCCC250200800030C020143CF4F111959985D5B1D151A5D1B194F8050A8C8A8365815B8375838B014E51D15395149050D3CB1294138B0C0B2322A0D96056E0DD60E2CB11D15395149055160B095CCB0A11D1539354D1C819D95B991A5B5E880CCC4
310
A78000C000000000000000000000000000000010CCCCCCCCCCCC250200800030C010CCCCCCCCCCCC250200800030C020143CF4F111959985D5B1D151A5D1B194F90D44111409034110541D0C4350F4050E44D03449074510F000141232D24D7C053247454E545241434F2C4A504E2C302C8CB4935F2C47454E54524154582C
310
25732C2847454E4D53472067656E64696D7A20312900010104002214000281464500A608E8A9CA8A482869E5894A09C5860591914588E8A9CA8A482A8B0584AE658508E8A9C9AA68E40CECADCC8D2DAF4406452029E9E9E27B934B3B4B71F1E24A31427A91424A9A12620A7259427B934B3B4B7149624A9A12620A7259424B
310
A32B6949496111116111711149F1E24BA32B69F00808200111A000140560052F47454E545241434F2C4A504E2C302C582C47454E54524154582C25732C2847454E4D53472067656E64696D7A20332900010100002054000280AC80A5E8E8A9CA8A482869E5894A09C586058B2588E8A9CA8A482A8B0584AE658508E8A9C9AA
310
68E40CECADCC8D2DAF4406852000202000040E800050152014BD1D15395149050D3CB1294138B0C0B148B11D15395149055160B095CCB0A11D1539354D1C819D95B991A5B5E880D8A400040400008250000A0507A6029823A2A72A2920A1A79625282716181641E99623A2A72A2920AA2C1612B9961423A2A726A9A39033B2
310
B73234B6BD101B948000808180105A000140A0F4C053047454E545241434F2C4A504E2C302C83D32C47454E54524154582C25732C2847454E4D53472067656E64696D7A203829000101010020F400028248704B5F00A668E8A9CA8A482869E5894A09C58605921C12D7C588E8A9CA8A482A8B0584AE658508E8A9C9AA68E40
310
CECADCC8D2DAF440646052000200080043280005048B4B8A69014CD1D15395149050D3CB1294138B0C0B22D2E29A4B11D15395149055160B095CCB0A11D1539354D1C819D95B991A5B5E880C8C4A4000400100086D0000A09196926BE029923A2A72A2920A1A796252827161816465A49AF9623A2A72A2920AA2C1612B9961
310
423A2A726A9A39033B2B73234B6BD10189480A02620202080043E80005048D8096DA014CD1D15395149050D3CB1294138B0C0B236025B68B11D15395149055160B095CCB0A11D1539354D1C819D95B991A5B5E880C4D0A4000404140280D0000A190687072706CD06C5069D06B0029DA3A2A72A2920A1A7962528271618164
310
1A1C1C9C1B341B141A741AC1623A2A72A2920AA2C1612B9961423A2A726A9A39033B2B73234B6BD10189A94800080820050EA000143A322A0D0E0E4E0D9A0D8A0D3A0D60053D47454E545241434F2C4A504E2C302C8C8A8343839383668362834E83582C47454E54524154582C25732C2847454E4D53472067656E64696D7A
310
2031372900010105002274000281464500A628E8A9CA8A482869E5894A09C5860591914588E8A9CA8A482A8B0584AE658508E8A9C9AA68E40CECADCC8D2DAF440626C52000202080044A8000504909497CA014CD1D15395149050D3CB1294138B0C0B242525F28B11D15395149055160B095CCB0A11D1539354D1C819D95B9
310
91A5B5E880C4E4A400040418008A521E000000000000001CA040C00000000000034408080000000000006881010000000000000D102040000000000001A204080000000000003440818000000000000728103000000000000125020600000000004028A040000000000000034408000000000000004881000000000000000D
310
102000000000000001A204000000000000003440818000000000000508143C0000000000000039408180000000000006881030000000000000D102060000000000001A2040C00000000000034408180000000000006881030000000000000E5020600000000000024A040C0000000000805140800000000000000688100000
310
00000000009102000000000000001A2040000000000000034408180000000000006881030000000000000A10284220000000878000002020000008380000020400000081800000208000000828000002028900000000
340
0
340
0
340
0
340
0
340
32F
340
32F
 94
        0
  0
ACAD_PROXY_OBJECT
  5
2120
330
211C
100
AcDbProxyObject
 90
      499
 91
      567
 95
       25
 70
     0
 93
     1376
310
5DE0143A0D960E4E0DDA0E32056E0D9C80C405983D3C486F6C653A6469613E3C696628657175616C28486F6C653A7465726D696E6174696F6E2C223022292C2220905B82B320222C22208368838A838B22293E3C696628657175616C28486F6C653A7465726D696E6174696F6E2C223022292C486F6C653A64657074682C22
310
22293E2C203C486F6C653A63746469613E2082B482AE82E882CC905B82B3203C486F6C653A637464657074683E
  0
ACAD_PROXY_OBJECT
  5
2121
330
211C
100
AcDbProxyObject
 90
      499
 91
      567
 95
       25
 70
     0
 93
     2072
310
5DE0143A0D960E4E0DDA0E32056E0D9C80C405EF3D3C486F6C653A6374616E676C653E252564202525633C486F6C653A63746469613E208E4D8C8A2C203C696628657175616C28486F6C653A7461707065642C223022292C22252563222C486F6C653A6E6F6D696E616C202220782022293E3C696628657175616C28486F6C
310
653A7461707065642C223022292C486F6C653A6469612C486F6C653A706974636864657363293E203C696628657175616C28486F6C653A7465726D696E6174696F6E2C223022292C22905B82B320222C222022293E3C696628657175616C28486F6C653A7465726D696E6174696F6E2C223022292C486F6C653A6465707468
310
2C2222293E
  0
ACAD_PROXY_OBJECT
  5
211F
330
211C
100
AcDbProxyObject
 90
      499
 91
      567
 95
       25
 70
     0
 93
     1752
310
5DE0143A0D960E4E0DDA0E32056E0D9C80C405C73D3C696628657175616C28486F6C653A7461707065642C223022292C22252563222C486F6C653A6E6F6D696E616C202220782022293E3C696628657175616C28486F6C653A7461707065642C223022292C486F6C653A6469612C486F6C653A706974636864657363293E20
310
3C696628657175616C28486F6C653A7465726D696E6174696F6E2C223022292C22905B82B320222C222022293E3C696628657175616C28486F6C653A7465726D696E6174696F6E2C223022292C486F6C653A64657074682C2222293E
  0
ACAD_PROXY_OBJECT
  5
211E
330
211C
100
AcDbProxyObject
 90
      499
 91
      567
 95
       25
 70
     0
 93
      344
310
5DE0143A0D960E4E0DDA0E32056E0D9C80C805173D3C535444503A444553433E203C535444503A5354443E
  0
ACAD_PROXY_OBJECT
  5
211D
330
211C
100
AcDbProxyObject
 90
      499
 91
      567
 95
       25
 70
     0
 93
      256
310
5DE0143A0D960E4E0DDA0E32056E0D9C80C4050C3D3C535444503A444553433E
  0
ENDSEC
  0
EOF
