  0
SECTION
  2
HEADER
  9
$ACADVER
  1
AC1015
  9
$ACADMAINTVER
 70
     6
  9
$DWGCODEPAGE
  3
ANSI_932
  9
$INSBASE
 10
0.0
 20
0.0
 30
0.0
  9
$EXTMIN
 10
-129.8529044467174
 20
-113.1469568376743
 30
-0.0000000000000151
  9
$EXTMAX
 10
153.6996466639681
 20
42.06926003828323
 30
0.0000000000000002
  9
$LIMMIN
 10
0.0
 20
0.0
  9
$LIMMAX
 10
420.0
 20
297.0
  9
$ORTHOMODE
 70
     1
  9
$REGENMODE
 70
     1
  9
$FILLMODE
 70
     1
  9
$QTEXTMODE
 70
     0
  9
$MIRRTEXT
 70
     1
  9
$LTSCALE
 40
1.0
  9
$ATTMODE
 70
     1
  9
$TEXTSIZE
 40
2.5
  9
$TRACEWID
 40
1.0
  9
$TEXTSTYLE
  7
STANDARD
  9
$CLAYER
  8
AM_0
  9
$CELTYPE
  6
ByLayer
  9
$CECOLOR
 62
   256
  9
$CELTSCALE
 40
1.0
  9
$DISPSILH
 70
     0
  9
$DIMSCALE
 40
1.0
  9
$DIMASZ
 40
2.5
  9
$DIMEXO
 40
0.0
  9
$DIMDLI
 40
10.0
  9
$DIMRND
 40
0.0
  9
$DIMDLE
 40
0.0
  9
$DIMEXE
 40
1.0
  9
$DIMTP
 40
0.1
  9
$DIMTM
 40
0.1000000001
  9
$DIMTXT
 40
3.8
  9
$DIMCEN
 40
0.0
  9
$DIMTSZ
 40
0.0
  9
$DIMTOL
 70
     0
  9
$DIMLIM
 70
     0
  9
$DIMTIH
 70
     0
  9
$DIMTOH
 70
     0
  9
$DIMSE1
 70
     0
  9
$DIMSE2
 70
     0
  9
$DIMTAD
 70
     3
  9
$DIMZIN
 70
     1
  9
$DIMBLK
  1
Open30
  9
$DIMASO
 70
     1
  9
$DIMSHO
 70
     1
  9
$DIMPOST
  1

  9
$DIMAPOST
  1
"
  9
$DIMALT
 70
     0
  9
$DIMALTD
 70
     2
  9
$DIMALTF
 40
0.0393701
  9
$DIMLFAC
 40
1.0
  9
$DIMTOFL
 70
     1
  9
$DIMTVP
 40
0.0
  9
$DIMTIX
 70
     0
  9
$DIMSOXD
 70
     0
  9
$DIMSAH
 70
     0
  9
$DIMBLK1
  1

  9
$DIMBLK2
  1

  9
$DIMSTYLE
  2
AM_JIS
  9
$DIMCLRD
 70
   256
  9
$DIMCLRE
 70
   256
  9
$DIMCLRT
 70
     2
  9
$DIMTFAC
 40
0.71
  9
$DIMGAP
 40
1.5
  9
$DIMJUST
 70
     0
  9
$DIMSD1
 70
     0
  9
$DIMSD2
 70
     0
  9
$DIMTOLJ
 70
     0
  9
$DIMTZIN
 70
     8
  9
$DIMALTZ
 70
     0
  9
$DIMALTTZ
 70
     0
  9
$DIMUPT
 70
     0
  9
$DIMDEC
 70
     2
  9
$DIMTDEC
 70
     2
  9
$DIMALTU
 70
     2
  9
$DIMALTTD
 70
     2
  9
$DIMTXSTY
  7
STANDARD
  9
$DIMAUNIT
 70
     1
  9
$DIMADEC
 70
     1
  9
$DIMALTRND
 40
0.0
  9
$DIMAZIN
 70
     2
  9
$DIMDSEP
 70
    46
  9
$DIMATFIT
 70
     3
  9
$DIMFRAC
 70
     0
  9
$DIMLDRBLK
  1
Open30
  9
$DIMLUNIT
 70
     2
  9
$DIMLWD
 70
    -1
  9
$DIMLWE
 70
    -1
  9
$DIMTMOVE
 70
     0
  9
$LUNITS
 70
     2
  9
$LUPREC
 70
     2
  9
$SKETCHINC
 40
1.0
  9
$FILLETRAD
 40
2.5
  9
$AUNITS
 70
     0
  9
$AUPREC
 70
     0
  9
$MENU
  1
.
  9
$ELEVATION
 40
0.0
  9
$PELEVATION
 40
0.0
  9
$THICKNESS
 40
0.0
  9
$LIMCHECK
 70
     0
  9
$CHAMFERA
 40
2.5
  9
$CHAMFERB
 40
2.5
  9
$CHAMFERC
 40
20.0
  9
$CHAMFERD
 40
0.0
  9
$SKPOLY
 70
     0
  9
$TDCREATE
 40
2453210.379162743
  9
$TDUCREATE
 40
2453210.004162743
  9
$TDUPDATE
 40
2455469.419820775
  9
$TDUUPDATE
 40
2455469.044820775
  9
$TDINDWG
 40
0.0485024653
  9
$TDUSRTIMER
 40
0.0485020023
  9
$USRTIMER
 70
     1
  9
$ANGBASE
 50
0.0
  9
$ANGDIR
 70
     0
  9
$PDMODE
 70
     0
  9
$PDSIZE
 40
0.0
  9
$PLINEWID
 40
0.0
  9
$SPLFRAME
 70
     0
  9
$SPLINETYPE
 70
     6
  9
$SPLINESEGS
 70
     8
  9
$HANDSEED
  5
3E7D
  9
$SURFTAB1
 70
     6
  9
$SURFTAB2
 70
     6
  9
$SURFTYPE
 70
     6
  9
$SURFU
 70
     6
  9
$SURFV
 70
     6
  9
$UCSBASE
  2

  9
$UCSNAME
  2

  9
$UCSORG
 10
0.0
 20
0.0
 30
0.0
  9
$UCSXDIR
 10
1.0
 20
0.0
 30
0.0
  9
$UCSYDIR
 10
0.0
 20
1.0
 30
0.0
  9
$UCSORTHOREF
  2

  9
$UCSORTHOVIEW
 70
     0
  9
$UCSORGTOP
 10
0.0
 20
0.0
 30
0.0
  9
$UCSORGBOTTOM
 10
0.0
 20
0.0
 30
0.0
  9
$UCSORGLEFT
 10
0.0
 20
0.0
 30
0.0
  9
$UCSORGRIGHT
 10
0.0
 20
0.0
 30
0.0
  9
$UCSORGFRONT
 10
0.0
 20
0.0
 30
0.0
  9
$UCSORGBACK
 10
0.0
 20
0.0
 30
0.0
  9
$PUCSBASE
  2

  9
$PUCSNAME
  2

  9
$PUCSORG
 10
0.0
 20
0.0
 30
0.0
  9
$PUCSXDIR
 10
1.0
 20
0.0
 30
0.0
  9
$PUCSYDIR
 10
0.0
 20
1.0
 30
0.0
  9
$PUCSORTHOREF
  2

  9
$PUCSORTHOVIEW
 70
     0
  9
$PUCSORGTOP
 10
0.0
 20
0.0
 30
0.0
  9
$PUCSORGBOTTOM
 10
0.0
 20
0.0
 30
0.0
  9
$PUCSORGLEFT
 10
0.0
 20
0.0
 30
0.0
  9
$PUCSORGRIGHT
 10
0.0
 20
0.0
 30
0.0
  9
$PUCSORGFRONT
 10
0.0
 20
0.0
 30
0.0
  9
$PUCSORGBACK
 10
0.0
 20
0.0
 30
0.0
  9
$USERI1
 70
     0
  9
$USERI2
 70
     0
  9
$USERI3
 70
     0
  9
$USERI4
 70
     0
  9
$USERI5
 70
     0
  9
$USERR1
 40
0.0
  9
$USERR2
 40
0.0
  9
$USERR3
 40
0.0
  9
$USERR4
 40
0.0
  9
$USERR5
 40
0.0
  9
$WORLDVIEW
 70
     1
  9
$SHADEDGE
 70
     3
  9
$SHADEDIF
 70
    70
  9
$TILEMODE
 70
     1
  9
$MAXACTVP
 70
    64
  9
$PINSBASE
 10
0.0
 20
0.0
 30
0.0
  9
$PLIMCHECK
 70
     0
  9
$PEXTMIN
 10
1.000000000000000E+20
 20
1.000000000000000E+20
 30
1.000000000000000E+20
  9
$PEXTMAX
 10
-1.000000000000000E+20
 20
-1.000000000000000E+20
 30
-1.000000000000000E+20
  9
$PLIMMIN
 10
0.0
 20
0.0
  9
$PLIMMAX
 10
420.0
 20
297.0
  9
$UNITMODE
 70
     0
  9
$VISRETAIN
 70
     1
  9
$PLINEGEN
 70
     0
  9
$PSLTSCALE
 70
     1
  9
$TREEDEPTH
 70
  3020
  9
$CMLSTYLE
  2
Standard
  9
$CMLJUST
 70
     0
  9
$CMLSCALE
 40
20.0
  9
$PROXYGRAPHICS
 70
     1
  9
$MEASUREMENT
 70
     1
  9
$CELWEIGHT
370
    -1
  9
$ENDCAPS
280
     0
  9
$JOINSTYLE
280
     0
  9
$LWDISPLAY
290
     0
  9
$INSUNITS
 70
     4
  9
$HYPERLINKBASE
  1

  9
$STYLESHEET
  1
sei_cad.ctb
  9
$XEDIT
290
     1
  9
$CEPSNTYPE
380
     0
  9
$PSTYLEMODE
290
     1
  9
$FINGERPRINTGUID
  2
{29CAF1BE-B3FE-466B-B149-E572B19B5D3B}
  9
$VERSIONGUID
  2
{7A5A0C77-6E50-4A74-9851-4241E72A08FD}
  9
$EXTNAMES
290
     1
  9
$PSVPSCALE
 40
0.0
  9
$OLESTARTUP
290
     0
  0
ENDSEC
  0
SECTION
  2
CLASSES
  0
CLASS
  1
ACDBDICTIONARYWDFLT
  2
AcDbDictionaryWithDefault
  3
ObjectDBX Classes
 90
        0
280
     0
281
     0
  0
CLASS
  1
ACDBPLACEHOLDER
  2
AcDbPlaceHolder
  3
ObjectDBX Classes
 90
        0
280
     0
281
     0
  0
CLASS
  1
LAYOUT
  2
AcDbLayout
  3
ObjectDBX Classes
 90
        0
280
     0
281
     0
  0
CLASS
  1
AMGSETTINGSOBJ
  2
AmgSettingsObj
  3
"AcadM|Product Description: AutoCAD Mechanical 2000|Company: Autodesk"
 90
        0
280
     1
281
     0
  0
CLASS
  1
ACME_DOCUMENT
  2
AcMeDbDoc
  3
AcMeServices
 90
        0
280
     1
281
     0
  0
CLASS
  1
ACMESCOPE
  2
AcMeScope
  3
AcMeServices
 90
        0
280
     1
281
     0
  0
CLASS
  1
ACMECOMMANDHISTORY
  2
AcMeCommandHistory
  3
AcMeServices
 90
        0
280
     1
281
     0
  0
CLASS
  1
DICTIONARYVAR
  2
AcDbDictionaryVar
  3
ObjectDBX Classes
 90
        0
280
     0
281
     0
  0
CLASS
  1
ACIMSYSVARMAN
  2
AcImSysVarManager
  3
AcMeServices
 90
        0
280
     1
281
     0
  0
CLASS
  1
ACIMREALSYSVAR
  2
AcImRealSysVar
  3
AcMeServices
 90
        0
280
     1
281
     0
  0
CLASS
  1
ACIMINTSYSVAR
  2
AcImIntSysVar
  3
AcMeServices
 90
        0
280
     1
281
     0
  0
CLASS
  1
ACMEDRAWINGMAN
  2
AcMeDrawingMan
  3
AcMeServices
 90
        0
280
     1
281
     0
  0
CLASS
  1
ACMEVIEW
  2
AcMeView
  3
AcMeServices
 90
        0
280
     1
281
     0
  0
CLASS
  1
ACDBENTITYCACHE
  2
AcMeEntityCache
  3
AcMeServices
 90
        0
280
     1
281
     0
  0
CLASS
  1
GSMANAGER
  2
AcMeGSManager
  3
AcMeServices
 90
        0
280
     1
281
     0
  0
CLASS
  1
AMDTINTERNALREACTOR
  2
AmdtInternalReactor
  3
AcMeServices
 90
        0
280
     1
281
     0
  0
CLASS
  1
ACMESTATEMGR
  2
AcMeStateMgr
  3
AcMeServices
 90
        0
280
     1
281
     0
  0
CLASS
  1
ACME_DATABASE
  2
AcMeDbDatabase
  3
AcMeServices
 90
        0
280
     1
281
     0
  0
CLASS
  1
ACRFINSADJUSTERMGR
  2
AcRfInsAdjusterMgr
  3
AcMeServices
 90
        0
280
     1
281
     0
  0
CLASS
  1
ACMDATADICTIONARY
  2
AcmDataDictionary
  3
"AcmSymBB|Product Description: AutoCAD Mechanical 2004 DX|Company: Autodesk"
 90
        0
280
     1
281
     0
  0
CLASS
  1
ACMDATAENTRYBLOCK
  2
AcmDataEntryBlock
  3
"AcmSymBB|Product Description: AutoCAD Mechanical 2004 DX|Company: Autodesk"
 90
        0
280
     1
281
     0
  0
CLASS
  1
AMGOBJPROPCFG
  2
AmgObjPropCfg
  3
"AmgLay|Product Description: AutoCAD Mechanical 2000|Company: Autodesk"
 90
        1
280
     1
281
     0
  0
CLASS
  1
ACMSTANDARDJIS
  2
AcmStandardJIS
  3
"Amdt_StdImp|Product Description: AutoCAD Mechanical 2004 DX|Company: Autodesk"
 90
        0
280
     1
281
     0
  0
CLASS
  1
ACMSURFSTANDARDJIS
  2
AcmSurfTextStdJIS
  3
"Amdt_StdImp|Product Description: AutoCAD Mechanical 2004 DX|Company: Autodesk"
 90
        0
280
     1
281
     0
  0
CLASS
  1
ACMFCFSTANDARDJIS
  2
AcmFCFStdJIS
  3
"Amdt_StdImp|Product Description: AutoCAD Mechanical 2004 DX|Company: Autodesk"
 90
        0
280
     1
281
     0
  0
CLASS
  1
ACMWELDSTANDARDJIS
  2
AcmWeldingStdJIS
  3
"Amdt_StdImp|Product Description: AutoCAD Mechanical 2004 DX|Company: Autodesk"
 90
        0
280
     1
281
     0
  0
CLASS
  1
ACMIDSTANDARDJIS
  2
AcmIdStdJIS
  3
"Amdt_StdImp|Product Description: AutoCAD Mechanical 2004 DX|Company: Autodesk"
 90
        0
280
     1
281
     0
  0
CLASS
  1
ACMDATUMSTANDARDJIS
  2
AcmDatumStdJIS
  3
"Amdt_StdImp|Product Description: AutoCAD Mechanical 2004 DX|Company: Autodesk"
 90
        0
280
     1
281
     0
  0
CLASS
  1
ACMBOMSTANDARDJIS
  2
AcmBOMStdJIS
  3
"Amdt_StdImp|Product Description: AutoCAD Mechanical 2004 DX|Company: Autodesk"
 90
        0
280
     1
281
     0
  0
CLASS
  1
ACAMGFILTERDAT
  2
AcAmgFilterDat
  3
"AcadM|Product Description: AutoCAD Mechanical 2000|Company: Autodesk"
 90
        0
280
     1
281
     0
  0
CLASS
  1
LAYER_INDEX
  2
AcDbLayerIndex
  3
ObjectDBX Classes
 90
        0
280
     0
281
     0
  0
CLASS
  1
IDBUFFER
  2
AcDbIdBuffer
  3
ObjectDBX Classes
 90
        0
280
     0
281
     0
  0
CLASS
  1
AMDTNOTE
  2
AmdtNote
  3
"AcmSymBB|Product Description: AutoCAD Mechanical 2004 DX|Company: Autodesk"
 90
     1023
280
     1
281
     1
  0
CLASS
  1
TABLESTYLE
  2
AcDbTableStyle
  3
ObjectDBX Classes
 90
     2047
280
     0
281
     0
  0
CLASS
  1
ACGREFMASTER
  2
AcGrefMaster
  3
AcAttribServices
 90
        0
280
     1
281
     0
  0
CLASS
  1
AM_DRAWING_MGR
  2
AcDmDwgMgr
  3
AcMechDwgViewMgmt
 90
        0
280
     1
281
     0
  0
CLASS
  1
AM_DWG_DOCUMENT
  2
AcDmDwgDocument
  3
AcMechDwgViewMgmt
 90
        0
280
     1
281
     0
  0
CLASS
  1
AM_DWG_SHEET
  2
AcDmSheet
  3
AcMechDwgViewMgmt
 90
        0
280
     1
281
     0
  0
CLASS
  1
AM_VIEWDIMPARMAP
  2
AcDmViewDimParMap
  3
AcMechDwgViewMgmt
 90
        0
280
     1
281
     0
  0
CLASS
  1
AM_DWGMGR_NAME
  2
AcDmDwgMgrName
  3
AcMechDwgViewMgmt
 90
        0
280
     1
281
     0
  0
CLASS
  1
ACGREFACADMASTER
  2
AcGrefacadMaster
  3
AcGrefServices
 90
        0
280
     1
281
     0
  0
CLASS
  1
AMDTMENUSTATEMGR
  2
AmdtMenuStateMgr
  3
McadcomServices
 90
        0
280
     1
281
     0
  0
CLASS
  1
AMDTMCOMMENUSTATE
  2
AmdtMcomMenuState
  3
McadcomServices
 90
        0
280
     1
281
     0
  0
CLASS
  1
AMIMASTER
  2
AmiMaster
  3
AmiServices
 90
        0
280
     1
281
     0
  0
CLASS
  1
MAPIAMMOUDLE
  2
MApiAmModule
  3
MApiAmServices
 90
        0
280
     1
281
     0
  0
CLASS
  1
AMDTADMENUSTATE
  2
AmdtAdMenuState
  3
DesignerServices
 90
        0
280
     1
281
     0
  0
CLASS
  1
ADAPPL
  2
AcAdAppl
  3
DesignerServices
 90
        0
280
     1
281
     0
  0
CLASS
  1
DEPMGR
  2
AcAdDepMgr
  3
DesignerServices
 90
        0
280
     1
281
     0
  0
CLASS
  1
PARAMMGR
  2
AcAdParamMgr
  3
DesignerServices
 90
        0
280
     1
281
     0
  0
CLASS
  1
PARAMSCOPE
  2
AcAdParamScope
  3
DesignerServices
 90
        0
280
     1
281
     0
  0
CLASS
  1
NAMEDAPPL
  2
AcAdNamedAppl
  3
DesignerServices
 90
        0
280
     1
281
     0
  0
CLASS
  1
AMDTDMMENUSTATE
  2
AmdtDmMenuState
  3
AcMechDwgViewMgmt
 90
        0
280
     1
281
     0
  0
CLASS
  1
AMDTAMMENUSTATE
  2
AmdtAmMenuState
  3
DesignerAssemblies
 90
        0
280
     1
281
     0
  0
CLASS
  1
ACIMSTRSYSVAR
  2
AcImStrSysVar
  3
AcMeServices
 90
        0
280
     1
281
     0
  0
CLASS
  1
ACAMPROJECT
  2
AcAmProject
  3
DesignerAssemblies
 90
        0
280
     1
281
     0
  0
CLASS
  1
ACAMGRCOMPDEF
  2
AcAmGrCompDef
  3
DesignerAssemblies
 90
        0
280
     1
281
     0
  0
CLASS
  1
ACCMCONTEXT
  2
AcCmContext
  3
DesignerAssemblies
 90
        0
280
     1
281
     0
  0
CLASS
  1
ACAMCOMPDEF
  2
AcAmCompDef
  3
DesignerAssemblies
 90
        0
280
     1
281
     0
  0
CLASS
  1
ACAMCOMPDEFMGR
  2
AcAmCompDefMgr
  3
DesignerAssemblies
 90
        0
280
     1
281
     0
  0
CLASS
  1
AMCONTEXTMGR
  2
AcAmContextMgr
  3
DesignerAssemblies
 90
        0
280
     1
281
     0
  0
CLASS
  1
ACAMCONTEXTMODELER
  2
AcAmContextModeler
  3
DesignerAssemblies
 90
        0
280
     1
281
     0
  0
CLASS
  1
ACAMGTITLESTD
  2
AcAmgTitleStd
  3
"TITLEAPP"
 90
        0
280
     1
281
     0
  0
CLASS
  1
ACMDETAILSTANDARDJIS
  2
AmdtDetailSymStdJIS
  3
"Amdt_StdImp|Product Description: AutoCAD Mechanical 2004 DX|Company: Autodesk"
 90
        0
280
     1
281
     0
  0
CLASS
  1
ACMSECTIONSTANDARDJIS
  2
AmdtSectionSymStdJIS
  3
"Amdt_StdImp|Product Description: AutoCAD Mechanical 2004 DX|Company: Autodesk"
 90
        0
280
     1
281
     0
  0
CLASS
  1
ACMCENTERLINESTANDARDJIS
  2
AmdtCenterLineStdJIS
  3
"Amdt_StdImp|Product Description: AutoCAD Mechanical 2004 DX|Company: Autodesk"
 90
        0
280
     1
281
     0
  0
CLASS
  1
ACMTHREADLINESTANDARDJIS
  2
AmdtThreadLineStdJIS
  3
"Amdt_StdImp|Product Description: AutoCAD Mechanical 2004 DX|Company: Autodesk"
 90
        0
280
     1
281
     0
  0
CLASS
  1
ACMNOTESTANDARDJIS
  2
AmdtNoteStdJIS
  3
"Amdt_StdImp|Product Description: AutoCAD Mechanical 2004 DX|Company: Autodesk"
 90
        0
280
     1
281
     0
  0
CLASS
  1
AMDTNOTETEMPLATEDB
  2
AmdtNoteTemplateDB
  3
AMDT_STDIMP_MODULE_NAME
 90
        0
280
     1
281
     0
  0
CLASS
  1
ACAMGLAYSTD
  2
AcAmgLayStd
  3
"AcAmgLayStd|Product Description: AutoCAD Mechanical 2000|Company: Autodesk"
 90
        0
280
     1
281
     0
  0
CLASS
  1
ACAMGDIMSTD
  2
AcAmgDimStd
  3
"AcAmgDimStd|Product Description: AutoCAD Mechanical 2000|Company: Autodesk"
 90
        0
280
     1
281
     0
  0
CLASS
  1
ACAMGHOLECHARTSTDJIS
  2
AcAmgHoleChartStdJIS
  3
ACMSYMBB_MODULE_NAME
 90
        0
280
     1
281
     0
  0
CLASS
  1
CATALOGSTATE
  2
AcAmCatalogState
  3
DesignerAssemblies
 90
        0
280
     1
281
     0
  0
CLASS
  1
ACAMGRCOMPDEFSET
  2
AcAmGrCompDefSet
  3
DesignerAssemblies
 90
        0
280
     1
281
     0
  0
CLASS
  1
AMDTBROWSERDBTAB
  2
AmdtBrowserDbTab
  3
McadcomServices
 90
        0
280
     1
281
     0
  0
CLASS
  1
CBROWSERAPPOBJECT
  2
CBrowserAppObject
  3
McadcomServices
 90
        0
280
     1
281
     0
  0
CLASS
  1
DM_PLACEHOLDER
  2
AcDmSelsetPlaceholder
  3
AcMechDwgViewMgmt
 90
        0
280
     1
281
     0
  0
CLASS
  1
SORTENTSTABLE
  2
AcDbSortentsTable
  3
ObjectDBX Classes
 90
        0
280
     0
281
     0
  0
ENDSEC
  0
SECTION
  2
TABLES
  0
TABLE
  2
VPORT
  5
8
330
0
100
AcDbSymbolTable
 70
    77
  0
VPORT
  5
3E76
330
8
100
AcDbSymbolTableRecord
100
AcDbViewportTableRecord
  2
*Active
 70
     0
 10
0.0
 20
0.0
 11
1.0
 21
1.0
 12
11.92337110862536
 22
-35.53884839969555
 13
0.0
 23
0.0
 14
2.5
 24
2.5
 15
10.0
 25
10.0
 16
0.0
 26
0.0
 36
1.0
 17
0.0
 27
0.0
 37
0.0
 40
167.9521410714164
 41
1.697058823529412
 42
50.0
 43
0.0
 44
0.0
 50
0.0
 51
0.0
 71
     0
 72
   100
 73
     1
 74
     3
 75
     0
 76
     0
 77
     0
 78
     0
281
     0
 65
     1
110
0.0
120
0.0
130
0.0
111
1.0
121
0.0
131
0.0
112
0.0
122
1.0
132
0.0
 79
     0
146
0.0
  0
ENDTAB
  0
TABLE
  2
LTYPE
  5
5
330
0
100
AcDbSymbolTable
 70
    22
  0
LTYPE
  5
14
330
5
100
AcDbSymbolTableRecord
100
AcDbLinetypeTableRecord
  2
ByBlock
 70
     0
  3

 72
    65
 73
     0
 40
0.0
  0
LTYPE
  5
15
330
5
100
AcDbSymbolTableRecord
100
AcDbLinetypeTableRecord
  2
ByLayer
 70
     0
  3

 72
    65
 73
     0
 40
0.0
  0
LTYPE
  5
16
330
5
100
AcDbSymbolTableRecord
100
AcDbLinetypeTableRecord
  2
Continuous
 70
     0
  3
Solid line
 72
    65
 73
     0
 40
0.0
  0
LTYPE
  5
4B
330
5
100
AcDbSymbolTableRecord
100
AcDbLinetypeTableRecord
  2
AM_ISO02W050
 70
     0
  3
__ __ __ __ __ __ __ __ __ __ __ __ __ __ __
 72
    65
 73
     2
 40
7.5
 49
6.0
 74
     0
 49
-1.5
 74
     0
  0
LTYPE
  5
4C
330
5
100
AcDbSymbolTableRecord
100
AcDbLinetypeTableRecord
  2
AM_ISO08W050
 70
     0
  3
____ . ____ . ____ . ____ . ____ . ____ . ____
 72
    65
 73
     4
 40
18.0
 49
12.0
 74
     0
 49
-1.5
 74
     0
 49
3.0
 74
     0
 49
-1.5
 74
     0
  0
LTYPE
  5
4D
330
5
100
AcDbSymbolTableRecord
100
AcDbLinetypeTableRecord
  2
AM_ISO09W050
 70
     0
  3
_____ . . _____ . . _____ . . ____ .. ____
 72
    65
 73
     6
 40
22.5
 49
12.0
 74
     0
 49
-1.5
 74
     0
 49
3.0
 74
     0
 49
-1.5
 74
     0
 49
3.0
 74
     0
 49
-1.5
 74
     0
  0
LTYPE
  5
4E
330
5
100
AcDbSymbolTableRecord
100
AcDbLinetypeTableRecord
  2
Amconstr
 70
     0
  3
_______________________
 72
    65
 73
     2
 40
9999.0
 49
9999.0
 74
     0
 49
0.0
 74
     0
  0
LTYPE
  5
4F
330
5
100
AcDbSymbolTableRecord
100
AcDbLinetypeTableRecord
  2
AM_ISO02W050x2
 70
     0
  3
 _ _ _ _ _ _ _ _ _ _ _ _
 72
    65
 73
     2
 40
3.75
 49
3.0
 74
     0
 49
-0.75
 74
     0
  0
LTYPE
  5
50
330
5
100
AcDbSymbolTableRecord
100
AcDbLinetypeTableRecord
  2
AM_ISO08W050x2
 70
     0
  3
__ . __ . __ . __ . __ . __
 72
    65
 73
     4
 40
9.0
 49
6.0
 74
     0
 49
-0.75
 74
     0
 49
1.5
 74
     0
 49
-0.75
 74
     0
  0
LTYPE
  5
53
330
5
100
AcDbSymbolTableRecord
100
AcDbLinetypeTableRecord
  2
Amzigzag
 70
     0
  3
/\/-/\/-/\/-/\/-/\/-/\/
 72
    65
 73
     2
 40
11.0001
 49
0.0001
 74
     4
 75
   135
340
52
 46
0.04
 50
0.0
 44
0.0
 45
0.0
 49
-11.0
 74
     0
  0
LTYPE
  5
328
330
5
100
AcDbSymbolTableRecord
100
AcDbLinetypeTableRecord
  2
ACJISTGB
 70
     0
  3
__ . . __ . .
 72
    65
 73
     6
 40
9.0
 49
4.0
 74
     0
 49
-1.0
 74
     0
 49
1.0
 74
     0
 49
-1.0
 74
     0
 49
1.0
 74
     0
 49
-1.0
 74
     0
  0
LTYPE
  5
329
330
5
100
AcDbSymbolTableRecord
100
AcDbLinetypeTableRecord
  2
ACJISTGL
 70
     0
  3
_ _ _ _ _
 72
    65
 73
     2
 40
3.0
 49
2.0
 74
     0
 49
-1.0
 74
     0
  0
LTYPE
  5
39F
330
5
100
AcDbSymbolTableRecord
100
AcDbLinetypeTableRecord
  2
CENTER
 70
     0
  3
____ _ ____ _ ____ _ ____ _ ____ _ ____ _ ____
 72
    65
 73
     4
 40
17.5
 49
13.0
 74
     0
 49
-1.5
 74
     0
 49
1.5
 74
     0
 49
-1.5
 74
     0
  0
LTYPE
  5
3B7D
330
5
100
AcDbSymbolTableRecord
100
AcDbLinetypeTableRecord
  2
HIDDEN
 70
     0
  3
Hidden __ __ __ __ __ __ __ __ __ __ __ __ __ _
 72
    65
 73
     2
 40
9.524999999999999
 49
6.35
 74
     0
 49
-3.175
 74
     0
  0
LTYPE
  5
3B7E
330
5
100
AcDbSymbolTableRecord
100
AcDbLinetypeTableRecord
  2
PHANTOM2
 70
     0
  3
Phantom (.5x) ___ _ _ ___ _ _ ___ _ _ ___ _ _
 72
    65
 73
     6
 40
31.75
 49
15.875
 74
     0
 49
-3.175
 74
     0
 49
3.175
 74
     0
 49
-3.175
 74
     0
 49
3.175
 74
     0
 49
-3.175
 74
     0
  0
ENDTAB
  0
TABLE
  2
LAYER
  5
2
102
{ACAD_XDICTIONARY
360
3D75
102
}
330
0
100
AcDbSymbolTable
 70
    15
  0
LAYER
  5
10
330
2
100
AcDbSymbolTableRecord
100
AcDbLayerTableRecord
  2
0
 70
     0
 62
     7
  6
Continuous
370
    -3
390
F
  0
LAYER
  5
32E
330
2
100
AcDbSymbolTableRecord
100
AcDbLayerTableRecord
  2
AM_0
 70
     0
 62
     7
  6
Continuous
370
    50
390
F
  0
LAYER
  5
52A
330
2
100
AcDbSymbolTableRecord
100
AcDbLayerTableRecord
  2
AM_5
 70
     0
 62
     3
  6
Continuous
370
    25
390
F
  0
LAYER
  5
52B
330
2
100
AcDbSymbolTableRecord
100
AcDbLayerTableRecord
  2
Defpoints
 70
     0
 62
     7
  6
Continuous
290
     0
370
    -3
390
F
  0
LAYER
  5
52E
330
2
100
AcDbSymbolTableRecord
100
AcDbLayerTableRecord
  2
AM_7
 70
     0
 62
     4
  6
AM_ISO08W050
370
    25
390
F
  0
LAYER
  5
530
330
2
100
AcDbSymbolTableRecord
100
AcDbLayerTableRecord
  2
AM_11
 70
     0
 62
     3
  6
AM_ISO09W050
370
    25
390
F
  0
ENDTAB
  0
TABLE
  2
STYLE
  5
3
330
0
100
AcDbSymbolTable
 70
    10
  0
STYLE
  5
11
330
3
100
AcDbSymbolTableRecord
100
AcDbTextStyleTableRecord
  2
STANDARD
 70
     0
 40
0.0
 41
1.0
 50
0.0
 71
     0
 42
2.5
  3
ISOCP.SHX
  4
EXTFONT.SHX
  0
STYLE
  5
52
330
3
100
AcDbSymbolTableRecord
100
AcDbTextStyleTableRecord
  2

 70
     1
 40
0.0
 41
1.0
 50
0.0
 71
     0
 42
2.5
  3
ltypeshp.shx
  4

  0
STYLE
  5
32F
330
3
100
AcDbSymbolTableRecord
100
AcDbTextStyleTableRecord
  2
ACJISTS
 70
     0
 40
1.0
 41
1.0
 50
0.0
 71
     0
 42
2.5
  3
isocp.shx
  4
bigfont.shx
  0
STYLE
  5
330
330
3
100
AcDbSymbolTableRecord
100
AcDbTextStyleTableRecord
  2
ACJISGDT
 70
     0
 40
0.0
 41
1.0
 50
0.0
 71
     0
 42
2.5
  3
amgdt.shx
  4

  0
STYLE
  5
3D74
330
3
100
AcDbSymbolTableRecord
100
AcDbTextStyleTableRecord
  2
ACISOTS
 70
     0
 40
3.8
 41
1.0
 50
0.0
 71
     0
 42
3.8
  3
isocp.shx
  4
extfont.shx
  0
ENDTAB
  0
TABLE
  2
VIEW
  5
6
330
0
100
AcDbSymbolTable
 70
     6
  0
VIEW
  5
35B
330
6
100
AcDbSymbolTableRecord
100
AcDbViewTableRecord
  2
AM_VIEW1
 70
     0
 40
148.5
 10
114.5810387984981
 20
222.75
 41
229.1620775969963
 11
0.0
 21
0.0
 31
1.0
 12
0.0
 22
0.0
 32
0.0
 42
50.0
 43
0.0
 44
0.0
 50
0.0
 71
     0
281
     0
 72
     0
  0
VIEW
  5
35C
330
6
100
AcDbSymbolTableRecord
100
AcDbViewTableRecord
  2
AM_VIEW2
 70
     0
 40
148.5
 10
305.4189612015019
 20
222.75
 41
229.1620775969963
 11
0.0
 21
0.0
 31
1.0
 12
0.0
 22
0.0
 32
0.0
 42
50.0
 43
0.0
 44
0.0
 50
0.0
 71
     0
281
     0
 72
     0
  0
VIEW
  5
35D
330
6
100
AcDbSymbolTableRecord
100
AcDbViewTableRecord
  2
AM_VIEW3
 70
     0
 40
148.5
 10
114.5810387984981
 20
74.25
 41
229.1620775969963
 11
0.0
 21
0.0
 31
1.0
 12
0.0
 22
0.0
 32
0.0
 42
50.0
 43
0.0
 44
0.0
 50
0.0
 71
     0
281
     0
 72
     0
  0
VIEW
  5
35E
330
6
100
AcDbSymbolTableRecord
100
AcDbViewTableRecord
  2
AM_VIEW4
 70
     0
 40
148.5
 10
305.4189612015019
 20
74.25
 41
229.1620775969963
 11
0.0
 21
0.0
 31
1.0
 12
0.0
 22
0.0
 32
0.0
 42
50.0
 43
0.0
 44
0.0
 50
0.0
 71
     0
281
     0
 72
     0
  0
VIEW
  5
35F
330
6
100
AcDbSymbolTableRecord
100
AcDbViewTableRecord
  2
AM_VIEW5
 70
     0
 40
148.5
 10
210.0
 20
148.5
 41
229.1620775969963
 11
0.0
 21
0.0
 31
1.0
 12
0.0
 22
0.0
 32
0.0
 42
50.0
 43
0.0
 44
0.0
 50
0.0
 71
     0
281
     0
 72
     0
  0
VIEW
  5
360
330
6
100
AcDbSymbolTableRecord
100
AcDbViewTableRecord
  2
AM_VIEW6
 70
     0
 40
296.99703
 10
210.0
 20
148.5
 41
458.3195719524406
 11
0.0
 21
0.0
 31
1.0
 12
0.0
 22
0.0
 32
0.0
 42
50.0
 43
0.0
 44
0.0
 50
0.0
 71
     0
281
     0
 72
     0
  0
ENDTAB
  0
TABLE
  2
UCS
  5
7
330
0
100
AcDbSymbolTable
 70
     0
  0
ENDTAB
  0
TABLE
  2
APPID
  5
9
330
0
100
AcDbSymbolTable
 70
    37
  0
APPID
  5
12
330
9
100
AcDbSymbolTableRecord
100
AcDbRegAppTableRecord
  2
ACAD
 70
     0
  0
APPID
  5
30
330
9
100
AcDbSymbolTableRecord
100
AcDbRegAppTableRecord
  2
MCAD_NO_VIS
 70
     0
  0
APPID
  5
31
330
9
100
AcDbSymbolTableRecord
100
AcDbRegAppTableRecord
  2
ACAD_TEMP_GRAPHIC
 70
     0
  0
APPID
  5
338
330
9
100
AcDbSymbolTableRecord
100
AcDbRegAppTableRecord
  2
GENIUS_GENREC_14
 70
     0
  0
APPID
  5
339
330
9
100
AcDbSymbolTableRecord
100
AcDbRegAppTableRecord
  2
GENIUS_GENODEF_13
 70
     0
  0
APPID
  5
33A
330
9
100
AcDbSymbolTableRecord
100
AcDbRegAppTableRecord
  2
GENIUS_GENOBJ-N-REC_13
 70
     0
  0
APPID
  5
33B
330
9
100
AcDbSymbolTableRecord
100
AcDbRegAppTableRecord
  2
GENIUS_GENOBJ-N-HTC_13
 70
     0
  0
APPID
  5
33C
330
9
100
AcDbSymbolTableRecord
100
AcDbRegAppTableRecord
  2
GENIUS_GENHATCH_13
 70
     0
  0
APPID
  5
3B5
330
9
100
AcDbSymbolTableRecord
100
AcDbRegAppTableRecord
  2
GENIUS_GENCFG_13
 70
     0
  0
APPID
  5
3B6
330
9
100
AcDbSymbolTableRecord
100
AcDbRegAppTableRecord
  2
GENIUS_GENCFG0_13
 70
     0
  0
APPID
  5
3B7
330
9
100
AcDbSymbolTableRecord
100
AcDbRegAppTableRecord
  2
GENIUS_GENCFG1_13
 70
     0
  0
APPID
  5
3B8
330
9
100
AcDbSymbolTableRecord
100
AcDbRegAppTableRecord
  2
GENIUS_GENCFG2_13
 70
     0
  0
APPID
  5
3B9
330
9
100
AcDbSymbolTableRecord
100
AcDbRegAppTableRecord
  2
GENIUS_GENCFG3_13
 70
     0
  0
APPID
  5
3BA
330
9
100
AcDbSymbolTableRecord
100
AcDbRegAppTableRecord
  2
GENIUS_GENCFG4_13
 70
     0
  0
APPID
  5
3BB
330
9
100
AcDbSymbolTableRecord
100
AcDbRegAppTableRecord
  2
GENIUS_GENBLLY_14
 70
     0
  0
APPID
  5
3BC
330
9
100
AcDbSymbolTableRecord
100
AcDbRegAppTableRecord
  2
GENIUS_GENOBJ-N-CEN_13
 70
     0
  0
APPID
  5
3C9
330
9
100
AcDbSymbolTableRecord
100
AcDbRegAppTableRecord
  2
GENIUS_GENTRA_14
 70
     0
  0
APPID
  5
3D3
330
9
100
AcDbSymbolTableRecord
100
AcDbRegAppTableRecord
  2
GENIUS_GENOBJ-N-TIT_13
 70
     0
  0
APPID
  5
3D4
330
9
100
AcDbSymbolTableRecord
100
AcDbRegAppTableRecord
  2
GENIUS_GENTITLE_13
 70
     0
  0
APPID
  5
3D5
330
9
100
AcDbSymbolTableRecord
100
AcDbRegAppTableRecord
  2
GENIUS_GENOENT_13
 70
     0
  0
APPID
  5
3D6
330
9
100
AcDbSymbolTableRecord
100
AcDbRegAppTableRecord
  2
GENIUS_GENOREF_13
 70
     0
  0
APPID
  5
3D7
330
9
100
AcDbSymbolTableRecord
100
AcDbRegAppTableRecord
  2
GENIUS_GENOLIS_13
 70
     0
  0
APPID
  5
3D8
330
9
100
AcDbSymbolTableRecord
100
AcDbRegAppTableRecord
  2
GENIUS_GENZVEED_13
 70
     0
  0
APPID
  5
3D9
330
9
100
AcDbSymbolTableRecord
100
AcDbRegAppTableRecord
  2
GENIUS_GENSCREG_15
 70
     0
  0
APPID
  5
3DA
330
9
100
AcDbSymbolTableRecord
100
AcDbRegAppTableRecord
  2
GENIUS_GENOBJ-N-SDF_13
 70
     0
  0
APPID
  5
534
330
9
100
AcDbSymbolTableRecord
100
AcDbRegAppTableRecord
  2
GENIUS_GENOBJ-N-RSBK_13
 70
     0
  0
APPID
  5
535
330
9
100
AcDbSymbolTableRecord
100
AcDbRegAppTableRecord
  2
GENIUS_GENOBJ-N-LIB_13
 70
     0
  0
APPID
  5
536
330
9
100
AcDbSymbolTableRecord
100
AcDbRegAppTableRecord
  2
GENIUS_GENSCALE_13
 70
     0
  0
APPID
  5
AA3
330
9
100
AcDbSymbolTableRecord
100
AcDbRegAppTableRecord
  2
BASE_TYPE
 70
     0
  0
APPID
  5
AB2
330
9
100
AcDbSymbolTableRecord
100
AcDbRegAppTableRecord
  2
GENIUS_GENOBJ-N-FIL_13
 70
     0
  0
APPID
  5
BDE
330
9
100
AcDbSymbolTableRecord
100
AcDbRegAppTableRecord
  2
GENIUS_GENDTOL_13
 70
     0
  0
APPID
  5
BDF
330
9
100
AcDbSymbolTableRecord
100
AcDbRegAppTableRecord
  2
GENIUS_GENSCREG_13
 70
     0
  0
APPID
  5
3B80
330
9
100
AcDbSymbolTableRecord
100
AcDbRegAppTableRecord
  2
AD_DRAW
 70
     0
  0
APPID
  5
3B83
330
9
100
AcDbSymbolTableRecord
100
AcDbRegAppTableRecord
  2
ACATTRIBSERVICES
 70
     0
  0
APPID
  5
3BA1
330
9
100
AcDbSymbolTableRecord
100
AcDbRegAppTableRecord
  2
DESIGNERASSEMBLIES
 70
     0
  0
APPID
  5
3BB6
330
9
100
AcDbSymbolTableRecord
100
AcDbRegAppTableRecord
  2
ACADM_DIM_EDIT
 70
     0
  0
APPID
  5
3BB7
330
9
100
AcDbSymbolTableRecord
100
AcDbRegAppTableRecord
  2
AMDT_DM_ADJ
 70
     0
  0
ENDTAB
  0
TABLE
  2
DIMSTYLE
  5
A
330
0
100
AcDbSymbolTable
 70
    18
100
AcDbDimStyleTable
  0
DIMSTYLE
105
331
330
A
100
AcDbSymbolTableRecord
100
AcDbDimStyleTableRecord
  2
AM_JIS
 70
     0
  4
"
 41
2.5
 42
0.0
 43
10.0
 44
1.0
 47
0.1
 48
0.1000000001
 73
     0
 74
     0
 77
     3
 78
     1
 79
     2
140
3.8
141
0.0
143
0.0393701
146
0.71
147
1.5
172
     1
176
   256
177
   256
178
     2
179
     1
271
     2
272
     2
275
     1
283
     0
284
     8
340
11
341
59
342
59
371
    -1
372
    -1
  0
DIMSTYLE
105
332
102
{ACAD_REACTORS
330
378A
330
383E
102
}
330
A
100
AcDbSymbolTableRecord
100
AcDbDimStyleTableRecord
  2
AM_JIS$3
 70
     0
  4
"
 41
2.5
 42
0.0
 43
10.0
 44
1.0
 47
0.1
 48
0.1000000001
 73
     0
 77
     3
 78
     1
 79
     2
140
3.8
141
0.0
143
0.0393701
146
0.71
147
1.5
172
     1
176
   256
177
   256
178
     2
179
     1
271
     2
272
     2
275
     1
283
     0
284
     8
288
     1
289
     0
340
11
341
59
342
59
371
    -1
372
    -1
  0
DIMSTYLE
105
333
330
A
100
AcDbSymbolTableRecord
100
AcDbDimStyleTableRecord
  2
AM_JIS$4
 70
     0
  4
"
 41
2.5
 42
0.0
 43
10.0
 44
1.0
 47
0.1
 48
0.1000000001
 73
     0
 77
     3
 78
     1
 79
     2
140
3.8
141
0.0
143
0.0393701
146
0.71
147
1.5
172
     1
176
   256
177
   256
178
     2
179
     1
271
     2
272
     2
275
     1
283
     0
284
     8
288
     1
289
     0
340
11
341
59
342
59
371
    -1
372
    -1
  0
DIMSTYLE
105
334
330
A
100
AcDbSymbolTableRecord
100
AcDbDimStyleTableRecord
  2
AM_JIS$6
 70
     0
  4
"
 41
2.5
 42
0.0
 43
10.0
 44
1.0
 47
0.1
 48
0.1000000001
 73
     0
 74
     0
 78
     1
 79
     2
140
3.8
141
0.0
143
0.0393701
146
0.71
147
1.5
172
     1
176
   256
177
   256
178
     2
179
     1
271
     2
272
     2
275
     1
283
     0
284
     8
340
11
341
59
342
59
371
    -1
372
    -1
  0
DIMSTYLE
105
335
330
A
100
AcDbSymbolTableRecord
100
AcDbDimStyleTableRecord
  2
AM_JIS$7
 70
     0
  4
"
 41
2.5
 42
0.0
 43
10.0
 44
1.0
 47
0.1
 48
0.1000000001
 73
     0
 74
     0
 77
     3
 78
     1
 79
     2
140
5.0
141
0.0
143
0.0393701
146
0.71
147
1.5
172
     1
176
   256
177
   256
178
     2
179
     1
271
     2
272
     2
275
     1
283
     0
284
     8
340
11
341
59
342
59
371
    -1
372
    -1
  0
DIMSTYLE
105
336
330
A
100
AcDbSymbolTableRecord
100
AcDbDimStyleTableRecord
  2
AM_JIS$SF
 70
     0
  4
"
 41
2.5
 42
1.0
 43
10.0
 44
1.0
 47
0.1
 48
0.1
 73
     0
 74
     0
 75
     1
 76
     1
 77
     3
 78
     8
 79
     2
140
3.5
141
0.0
143
0.0393701
146
0.71
147
1.5
176
   256
177
   256
178
     2
271
     2
272
     3
274
     4
340
11
341
59
342
59
343
59
344
59
371
    -1
372
    -1
  0
DIMSTYLE
105
337
330
A
100
AcDbSymbolTableRecord
100
AcDbDimStyleTableRecord
  2
AM_JIS$SH
 70
     0
  4
"
 41
2.5
 42
1.0
 43
10.0
 44
1.0
 47
0.1
 48
0.1
 73
     0
 74
     0
 75
     1
 76
     1
 77
     3
 78
     8
 79
     2
140
3.5
141
0.0
143
0.0393701
144
2.0
146
0.71
147
1.5
173
     1
176
   256
177
   256
178
     2
271
     2
272
     3
274
     4
340
11
341
59
342
59
343
5F
344
59
371
    -1
372
    -1
  0
DIMSTYLE
105
3AD
330
A
100
AcDbSymbolTableRecord
100
AcDbDimStyleTableRecord
  2
STANDARD
 70
     0
340
11
  0
DIMSTYLE
105
532
102
{ACAD_REACTORS
330
3654
330
3712
330
3730
330
3793
330
383F
102
}
330
A
100
AcDbSymbolTableRecord
100
AcDbDimStyleTableRecord
  2
AM_JIS$0
 70
     0
  4
"
 41
2.5
 42
0.0
 43
10.0
 44
1.0
 47
0.1
 48
0.1000000001
 73
     0
 74
     0
 77
     3
 78
     1
 79
     2
140
3.8
141
0.0
143
0.0393701
146
0.71
147
1.5
172
     1
176
     3
177
     3
178
     2
271
     3
272
     3
275
     1
283
     0
284
     8
289
     0
340
11
341
59
342
59
371
    13
372
    13
  0
DIMSTYLE
105
533
102
{ACAD_REACTORS
330
3653
330
3795
102
}
330
A
100
AcDbSymbolTableRecord
100
AcDbDimStyleTableRecord
  2
AM_JIS$2
 70
     0
  4
"
 41
2.5
 42
0.0
 43
10.0
 44
1.0
 47
0.1
 48
0.1000000001
 73
     0
 74
     0
 77
     3
 78
     1
 79
     2
140
3.8
141
0.0
143
0.0393701
146
0.71
147
1.5
172
     1
176
     3
177
     3
178
     2
271
     3
272
     3
275
     1
283
     0
284
     8
289
     0
340
11
341
59
342
59
371
    13
372
    13
  0
ENDTAB
  0
TABLE
  2
BLOCK_RECORD
  5
1
330
0
100
AcDbSymbolTable
 70
    45
  0
BLOCK_RECORD
  5
1F
102
{ACAD_XDICTIONARY
360
3DB
102
}
330
1
100
AcDbSymbolTableRecord
100
AcDbBlockTableRecord
  2
*Model_Space
340
22
  0
BLOCK_RECORD
  5
1B
330
1
100
AcDbSymbolTableRecord
100
AcDbBlockTableRecord
  2
*Paper_Space
340
1E
  0
BLOCK_RECORD
  5
23
330
1
100
AcDbSymbolTableRecord
100
AcDbBlockTableRecord
  2
*Paper_Space0
340
26
  0
BLOCK_RECORD
  5
59
330
1
100
AcDbSymbolTableRecord
100
AcDbBlockTableRecord
  2
_Open30
340
0
102
{BLKREFS
331
3E22
331
3E23
331
3E2D
331
3E2E
331
3E36
331
3E37
331
3E3F
331
3E40
331
3E4A
331
3E4B
331
3E51
331
3E52
331
3E5C
331
3E5D
331
3E69
331
3E6A
331
3E70
331
3E71
102
}
  0
BLOCK_RECORD
  5
5F
330
1
100
AcDbSymbolTableRecord
100
AcDbBlockTableRecord
  2
GENAXEH
340
0
  0
BLOCK_RECORD
  5
387A
330
1
100
AcDbSymbolTableRecord
100
AcDbBlockTableRecord
  2
*D15
340
0
  0
BLOCK_RECORD
  5
388A
330
1
100
AcDbSymbolTableRecord
100
AcDbBlockTableRecord
  2
*D16
340
0
  0
BLOCK_RECORD
  5
38CE
330
1
100
AcDbSymbolTableRecord
100
AcDbBlockTableRecord
  2
*D22
340
0
  0
BLOCK_RECORD
  5
38DA
330
1
100
AcDbSymbolTableRecord
100
AcDbBlockTableRecord
  2
*D23
340
0
  0
BLOCK_RECORD
  5
38FE
330
1
100
AcDbSymbolTableRecord
100
AcDbBlockTableRecord
  2
*D26
340
0
  0
BLOCK_RECORD
  5
3918
330
1
100
AcDbSymbolTableRecord
100
AcDbBlockTableRecord
  2
*D28
340
0
  0
BLOCK_RECORD
  5
3926
330
1
100
AcDbSymbolTableRecord
100
AcDbBlockTableRecord
  2
*D29
340
0
  0
BLOCK_RECORD
  5
396B
330
1
100
AcDbSymbolTableRecord
100
AcDbBlockTableRecord
  2
*D35
340
0
  0
BLOCK_RECORD
  5
3977
330
1
100
AcDbSymbolTableRecord
100
AcDbBlockTableRecord
  2
*D36
340
0
  0
BLOCK_RECORD
  5
3B98
330
1
100
AcDbSymbolTableRecord
100
AcDbBlockTableRecord
  2
*U39
340
0
  0
BLOCK_RECORD
  5
3D8A
330
1
100
AcDbSymbolTableRecord
100
AcDbBlockTableRecord
  2
*S1643
340
0
102
{BLKREFS
331
3DA7
102
}
  0
BLOCK_RECORD
  5
3D92
330
1
100
AcDbSymbolTableRecord
100
AcDbBlockTableRecord
  2
*S1744
340
0
102
{BLKREFS
331
3DA8
102
}
  0
ENDTAB
  0
ENDSEC
  0
SECTION
  2
BLOCKS
  0
BLOCK
  5
20
330
1F
100
AcDbEntity
  8
0
100
AcDbBlockBegin
  2
*Model_Space
 70
     0
 71
     0
 10
0.0
 20
0.0
 30
0.0
  3
*Model_Space
  1

  0
ENDBLK
  5
21
330
1F
100
AcDbEntity
  8
0
100
AcDbBlockEnd
  0
BLOCK
  5
1C
330
1B
100
AcDbEntity
 67
     1
  8
0
100
AcDbBlockBegin
  2
*Paper_Space
 70
     0
 71
     0
 10
0.0
 20
0.0
 30
0.0
  3
*Paper_Space
  1

  0
ENDBLK
  5
1D
330
1B
100
AcDbEntity
 67
     1
  8
0
100
AcDbBlockEnd
  0
BLOCK
  5
24
330
23
100
AcDbEntity
  8
0
100
AcDbBlockBegin
  2
*Paper_Space0
 70
     0
 71
     0
 10
0.0
 20
0.0
 30
0.0
  3
*Paper_Space0
  1

  0
ENDBLK
  5
25
330
23
100
AcDbEntity
  8
0
100
AcDbBlockEnd
  0
BLOCK
  5
5D
330
59
100
AcDbEntity
  8
0
100
AcDbBlockBegin
  2
_Open30
 70
     0
 71
     0
 10
0.0
 20
0.0
 30
0.0
  3
_Open30
  1

  0
LINE
  5
5A
330
59
100
AcDbEntity
  8
0
 62
     0
370
    -2
100
AcDbLine
 10
-1.0
 20
0.26794919
 30
0.0
 11
0.0
 21
0.0
 31
0.0
  0
LINE
  5
5B
330
59
100
AcDbEntity
  8
0
 62
     0
370
    -2
100
AcDbLine
 10
0.0
 20
0.0
 30
0.0
 11
-1.0
 21
-0.26794919
 31
0.0
  0
LINE
  5
5C
330
59
100
AcDbEntity
  8
0
 62
     0
370
    -2
100
AcDbLine
 10
0.0
 20
0.0
 30
0.0
 11
-1.0
 21
0.0
 31
0.0
  0
ENDBLK
  5
5E
330
59
100
AcDbEntity
  8
0
100
AcDbBlockEnd
  0
BLOCK
  5
61
330
5F
100
AcDbEntity
  8
0
100
AcDbBlockBegin
  2
GENAXEH
 70
     0
 71
     0
 10
0.0
 20
0.0
 30
0.0
  3
GENAXEH
  1

  0
LINE
  5
60
330
5F
100
AcDbEntity
  8
0
100
AcDbLine
 10
-1.0
 20
0.0
 30
0.0
 11
1.0
 21
0.0
 31
0.0
  0
ENDBLK
  5
62
330
5F
100
AcDbEntity
  8
0
100
AcDbBlockEnd
  0
BLOCK
  5
3888
330
387A
100
AcDbEntity
  8
0
100
AcDbBlockBegin
  2
*D15
 70
     1
 71
     0
 10
0.0
 20
0.0
 30
0.0
  3
*D15
  1

  0
LINE
  5
3E1D
330
387A
100
AcDbEntity
  8
AM_5
 62
     3
370
    13
100
AcDbLine
 10
-3.889138696757406
 20
-71.18506233147448
 30
0.0
 11
-10.62454663867125
 21
-70.5957904923345
 31
0.0
  0
LINE
  5
3E1E
330
387A
100
AcDbEntity
  8
AM_5
 62
     3
370
    13
100
AcDbLine
 10
-1.77385471045255
 20
-71.52531787832075
 30
0.0
 11
-10.6651306808027
 21
-71.52531787832075
 31
0.0
  0
ARC
  5
3E1F
330
387A
100
AcDbEntity
  8
AM_5
 62
     3
370
    13
100
AcDbCircle
 10
0.0000000000000639
 20
-71.52531787832075
 30
0.0
 40
9.665130680802767
100
AcDbArc
 50
145.2762839503047
 51
160.1381419751523
  0
ARC
  5
3E20
330
387A
100
AcDbEntity
  8
AM_5
 62
     3
370
    13
100
AcDbCircle
 10
0.0000000000000639
 20
-71.52531787832075
 30
0.0
 40
9.665130680802767
100
AcDbArc
 50
194.8618580248475
 51
209.723716049695
  0
ARC
  5
3E21
330
387A
100
AcDbEntity
  8
AM_5
 62
     3
370
    13
100
AcDbCircle
 10
0.0000000000000639
 20
-71.52531787832075
 30
0.0
 40
9.665130680802767
100
AcDbArc
 50
174.9999999999998
 51
180.0
  0
INSERT
  5
3E22
330
387A
100
AcDbEntity
  8
AM_5
 62
     3
370
    13
100
AcDbBlockReference
  2
_Open30
 10
-9.62835194057951
 20
-70.68294623508216
 30
0.0
 41
2.5
 42
2.5
 43
2.5
 50
257.569070987576
  0
INSERT
  5
3E23
330
387A
100
AcDbEntity
  8
AM_5
 62
     3
370
    13
100
AcDbBlockReference
  2
_Open30
 10
-9.665130680802704
 20
-71.52531787832075
 30
0.0
 41
2.5
 42
2.5
 43
2.5
 50
97.43092901242376
  0
MTEXT
  5
3E24
330
387A
100
AcDbEntity
  8
AM_5
 62
     2
100
AcDbMText
 10
-11.32706995943809
 20
-66.93956302846422
 30
0.0
 40
3.8
 41
0.0
 71
     5
 72
     1
  1
+5°
 73
     1
 44
1.0
  0
POINT
  5
3E25
330
387A
100
AcDbEntity
  8
Defpoints
 62
     0
100
AcDbPoint
 10
-9.661041848062666
 20
-71.24421027085417
 30
0.0
  0
POINT
  5
3E26
330
387A
100
AcDbEntity
  8
Defpoints
 62
     0
100
AcDbPoint
 10
-1.77385471045255
 20
-71.52531787832075
 30
0.0
  0
POINT
  5
3E27
330
387A
100
AcDbEntity
  8
Defpoints
 62
     0
100
AcDbPoint
 10
0.0000000000000036
 20
-71.52531787832075
 30
0.0
  0
POINT
  5
3E28
330
387A
100
AcDbEntity
  8
Defpoints
 62
     0
100
AcDbPoint
 10
-3.889138696757406
 20
-71.18506233147448
 30
0.0
  0
POINT
  5
3E29
330
387A
100
AcDbEntity
  8
Defpoints
 62
     0
100
AcDbPoint
 10
153.6686900870429
 20
-71.52531787832075
 30
0.0
  0
ENDBLK
  5
3889
330
387A
100
AcDbEntity
  8
0
100
AcDbBlockEnd
  0
BLOCK
  5
3894
330
388A
100
AcDbEntity
  8
0
100
AcDbBlockBegin
  2
*D16
 70
     1
 71
     0
 10
0.0
 20
0.0
 30
0.0
  3
*D16
  1

  0
LINE
  5
3E2A
330
388A
100
AcDbEntity
  8
AM_5
 62
     3
370
    13
100
AcDbLine
 10
0.0
 20
-3.278417165345388
 30
0.0
 11
-0.0000000000000017
 21
-30.96040920031712
 31
0.0
  0
LINE
  5
3E2B
330
388A
100
AcDbEntity
  8
AM_5
 62
     3
370
    13
100
AcDbLine
 10
149.9999999999999
 20
5.499999999996845
 30
0.0
 11
149.9999999999999
 21
-30.96040920031712
 31
0.0
  0
LINE
  5
3E2C
330
388A
100
AcDbEntity
  8
AM_5
 62
     3
370
    13
100
AcDbLine
 10
2.499999999999998
 20
-29.96040920031712
 30
0.0
 11
147.4999999999999
 21
-29.96040920031712
 31
0.0
  0
INSERT
  5
3E2D
330
388A
100
AcDbEntity
  8
AM_5
 62
     3
370
    13
100
AcDbBlockReference
  2
_Open30
 10
-0.0000000000000016
 20
-29.96040920031712
 30
0.0
 41
2.5
 42
2.5
 43
2.5
 50
180.0
  0
INSERT
  5
3E2E
330
388A
100
AcDbEntity
  8
AM_5
 62
     3
370
    13
100
AcDbBlockReference
  2
_Open30
 10
149.9999999999999
 20
-29.96040920031712
 30
0.0
 41
2.5
 42
2.5
 43
2.5
  0
MTEXT
  5
3E2F
330
388A
100
AcDbEntity
  8
AM_5
 62
     2
100
AcDbMText
 10
74.99999999999994
 20
-26.56040920031712
 30
0.0
 40
3.8
 41
0.0
 71
     5
 72
     1
  1
150
 73
     1
 44
1.0
  0
POINT
  5
3E30
330
388A
100
AcDbEntity
  8
Defpoints
 62
     0
100
AcDbPoint
 10
0.0
 20
-3.278417165345388
 30
0.0
  0
POINT
  5
3E31
330
388A
100
AcDbEntity
  8
Defpoints
 62
     0
100
AcDbPoint
 10
149.9999999999999
 20
5.499999999996845
 30
0.0
  0
POINT
  5
3E32
330
388A
100
AcDbEntity
  8
Defpoints
 62
     0
100
AcDbPoint
 10
149.9999999999999
 20
-29.96040920031712
 30
0.0
  0
ENDBLK
  5
3895
330
388A
100
AcDbEntity
  8
0
100
AcDbBlockEnd
  0
BLOCK
  5
38D8
330
38CE
100
AcDbEntity
  8
0
100
AcDbBlockBegin
  2
*D22
 70
     1
 71
     0
 10
0.0
 20
0.0
 30
0.0
  3
*D22
  1

  0
LINE
  5
3E33
330
38CE
100
AcDbEntity
  8
AM_5
 62
     3
370
    13
100
AcDbLine
 10
-1.773854710452554
 20
-71.52531787832075
 30
0.0
 11
-20.38764005544125
 21
-71.52531787832075
 31
0.0
  0
LINE
  5
3E34
330
38CE
100
AcDbEntity
  8
AM_5
 62
     3
370
    13
100
AcDbLine
 10
34.99999999999983
 20
-80.52531787832081
 30
0.0
 11
-20.38764005544125
 21
-80.52531787832079
 31
0.0
  0
LINE
  5
3E35
330
38CE
100
AcDbEntity
  8
AM_5
 62
     3
370
    13
100
AcDbLine
 10
-19.38764005544125
 20
-74.02531787832075
 30
0.0
 11
-19.38764005544125
 21
-78.02531787832079
 31
0.0
  0
INSERT
  5
3E36
330
38CE
100
AcDbEntity
  8
AM_5
 62
     3
370
    13
100
AcDbBlockReference
  2
_Open30
 10
-19.38764005544125
 20
-71.52531787832075
 30
0.0
 41
2.5
 42
2.5
 43
2.5
 50
90.0
  0
INSERT
  5
3E37
330
38CE
100
AcDbEntity
  8
AM_5
 62
     3
370
    13
100
AcDbBlockReference
  2
_Open30
 10
-19.38764005544125
 20
-80.52531787832079
 30
0.0
 41
2.5
 42
2.5
 43
2.5
 50
270.0
  0
MTEXT
  5
3E38
330
38CE
100
AcDbEntity
  8
AM_5
 62
     2
100
AcDbMText
 10
-22.78764005544124
 20
-76.02531787832075
 30
0.0
 40
3.8
 41
0.0
 71
     5
 72
     1
  1
9.0
 11
6.123031769111886E-17
 21
1.0
 31
0.0
 73
     1
 44
1.0
  0
POINT
  5
3E39
330
38CE
100
AcDbEntity
  8
Defpoints
 62
     0
100
AcDbPoint
 10
-1.773854710452554
 20
-71.52531787832075
 30
0.0
  0
POINT
  5
3E3A
330
38CE
100
AcDbEntity
  8
Defpoints
 62
     0
100
AcDbPoint
 10
34.99999999999983
 20
-80.52531787832081
 30
0.0
  0
POINT
  5
3E3B
330
38CE
100
AcDbEntity
  8
Defpoints
 62
     0
100
AcDbPoint
 10
-19.38764005544125
 20
-80.52531787832079
 30
0.0
  0
ENDBLK
  5
38D9
330
38CE
100
AcDbEntity
  8
0
100
AcDbBlockEnd
  0
BLOCK
  5
38E4
330
38DA
100
AcDbEntity
  8
0
100
AcDbBlockBegin
  2
*D23
 70
     1
 71
     0
 10
0.0
 20
0.0
 30
0.0
  3
*D23
  1

  0
LINE
  5
3E3C
330
38DA
100
AcDbEntity
  8
AM_5
 62
     3
370
    13
100
AcDbLine
 10
34.99999999999983
 20
-81.52531787832081
 30
0.0
 11
34.99999999999983
 21
-101.9777914947648
 31
0.0
  0
LINE
  5
3E3D
330
38DA
100
AcDbEntity
  8
AM_5
 62
     3
370
    13
100
AcDbLine
 10
0.0
 20
-71.52531787832075
 30
0.0
 11
-0.0000000000000019
 21
-101.9777914947648
 31
0.0
  0
LINE
  5
3E3E
330
38DA
100
AcDbEntity
  8
AM_5
 62
     3
370
    13
100
AcDbLine
 10
32.49999999999983
 20
-100.9777914947648
 30
0.0
 11
2.499999999999998
 21
-100.9777914947648
 31
0.0
  0
INSERT
  5
3E3F
330
38DA
100
AcDbEntity
  8
AM_5
 62
     3
370
    13
100
AcDbBlockReference
  2
_Open30
 10
34.99999999999983
 20
-100.9777914947648
 30
0.0
 41
2.5
 42
2.5
 43
2.5
  0
INSERT
  5
3E40
330
38DA
100
AcDbEntity
  8
AM_5
 62
     3
370
    13
100
AcDbBlockReference
  2
_Open30
 10
-0.0000000000000018
 20
-100.9777914947648
 30
0.0
 41
2.5
 42
2.5
 43
2.5
 50
180.0
  0
MTEXT
  5
3E41
330
38DA
100
AcDbEntity
  8
AM_5
 62
     2
100
AcDbMText
 10
17.49999999999992
 20
-97.57779149476482
 30
0.0
 40
3.8
 41
0.0
 71
     5
 72
     1
  1
35
 73
     1
 44
1.0
  0
POINT
  5
3E42
330
38DA
100
AcDbEntity
  8
Defpoints
 62
     0
100
AcDbPoint
 10
34.99999999999983
 20
-81.52531787832081
 30
0.0
  0
POINT
  5
3E43
330
38DA
100
AcDbEntity
  8
Defpoints
 62
     0
100
AcDbPoint
 10
0.0
 20
-71.52531787832075
 30
0.0
  0
POINT
  5
3E44
330
38DA
100
AcDbEntity
  8
Defpoints
 62
     0
100
AcDbPoint
 10
-0.0000000000000018
 20
-100.9777914947648
 30
0.0
  0
ENDBLK
  5
38E5
330
38DA
100
AcDbEntity
  8
0
100
AcDbBlockEnd
  0
BLOCK
  5
3908
330
38FE
100
AcDbEntity
  8
0
100
AcDbBlockBegin
  2
*D26
 70
     1
 71
     0
 10
0.0
 20
0.0
 30
0.0
  3
*D26
  1

  0
LINE
  5
3E45
330
38FE
100
AcDbEntity
  8
AM_5
100
AcDbLine
 10
-129.8423646698163
 20
31.08774471494453
 30
0.0
 11
-92.65496351611455
 21
31.08774471494453
 31
0.0
  0
LINE
  5
3E46
330
38FE
100
AcDbEntity
  8
AM_5
100
AcDbLine
 10
-92.65496351611455
 20
31.08774471494453
 30
0.0
 11
-83.91016504477283
 21
22.81102823583604
 31
0.0
  0
LINE
  5
3E47
330
38FE
100
AcDbEntity
  8
AM_5
100
AcDbLine
 10
-62.12184737500053
 20
2.188971764157753
 30
0.0
 11
-60.30615423585284
 21
0.4704670581845605
 31
0.0
  0
MTEXT
  5
3E48
330
38FE
100
AcDbEntity
  8
AM_5
 62
     2
100
AcDbMText
 10
-111.9986640929654
 20
34.48811873069254
 30
0.0
 40
3.8
 41
0.0
 71
     5
 72
     1
  1
最小加工径：\U+220525
 73
     1
 44
1.0
  0
LINE
  5
3E49
330
38FE
100
AcDbEntity
  8
AM_5
100
AcDbLine
 10
-63.93754051414823
 20
3.907476470130941
 30
0.0
 11
-82.09447190562514
 21
21.09252352986285
 31
0.0
  0
INSERT
  5
3E4A
330
38FE
100
AcDbEntity
  8
AM_5
100
AcDbBlockReference
  2
_Open30
 10
-63.93754051414823
 20
3.907476470130941
 30
0.0
 41
2.5
 42
2.5
 43
2.5
 50
136.5752044039731
  0
INSERT
  5
3E4B
330
38FE
100
AcDbEntity
  8
AM_5
100
AcDbBlockReference
  2
_Open30
 10
-82.09447190562514
 20
21.09252352986285
 30
0.0
 41
2.5
 42
2.5
 43
2.5
 50
316.5752044039731
  0
POINT
  5
3E4C
330
38FE
100
AcDbEntity
  8
Defpoints
 62
     0
100
AcDbPoint
 10
-82.09447190562514
 20
21.09252352986285
 30
0.0
  0
POINT
  5
3E4D
330
38FE
100
AcDbEntity
  8
Defpoints
 62
     0
100
AcDbPoint
 10
-63.93754051414823
 20
3.907476470130941
 30
0.0
  0
ENDBLK
  5
3909
330
38FE
100
AcDbEntity
  8
0
100
AcDbBlockEnd
  0
BLOCK
  5
3924
330
3918
100
AcDbEntity
  8
0
100
AcDbBlockBegin
  2
*D28
 70
     1
 71
     0
 10
0.0
 20
0.0
 30
0.0
  3
*D28
  1

  0
LINE
  5
3E4E
330
3918
100
AcDbEntity
  8
AM_5
 62
     3
370
    13
100
AcDbLine
 10
-2.16554845196589
 20
12.49999999999685
 30
0.0
 11
-15.6408758749443
 21
12.49999999999685
 31
0.0
  0
LINE
  5
3E4F
330
3918
100
AcDbEntity
  8
AM_5
 62
     3
370
    13
100
AcDbLine
 10
-3.89017124878859
 20
0.0000000000000284
 30
0.0
 11
-15.6408758749443
 21
0.0000000000000318
 31
0.0
  0
LINE
  5
3E50
330
3918
100
AcDbEntity
  8
AM_5
 62
     3
370
    13
100
AcDbLine
 10
-14.6408758749443
 20
9.999999999996849
 30
0.0
 11
-14.6408758749443
 21
2.500000000000032
 31
0.0
  0
INSERT
  5
3E51
330
3918
100
AcDbEntity
  8
AM_5
 62
     3
370
    13
100
AcDbBlockReference
  2
_Open30
 10
-14.6408758749443
 20
12.49999999999685
 30
0.0
 41
2.5
 42
2.5
 43
2.5
 50
90.0
  0
INSERT
  5
3E52
330
3918
100
AcDbEntity
  8
AM_5
 62
     3
370
    13
100
AcDbBlockReference
  2
_Open30
 10
-14.6408758749443
 20
0.0000000000000315
 30
0.0
 41
2.5
 42
2.5
 43
2.5
 50
270.0
  0
MTEXT
  5
3E53
330
3918
100
AcDbEntity
  8
AM_5
 62
     2
100
AcDbMText
 10
-18.04124989069233
 20
6.602457001872892
 30
0.0
 40
3.8
 41
0.0
 71
     5
 72
     1
  1
12.5
 11
6.123031769111886E-17
 21
1.0
 31
0.0
 73
     1
 44
1.0
  0
POINT
  5
3E54
330
3918
100
AcDbEntity
  8
Defpoints
 62
     0
100
AcDbPoint
 10
-2.16554845196589
 20
12.49999999999685
 30
0.0
  0
POINT
  5
3E55
330
3918
100
AcDbEntity
  8
Defpoints
 62
     0
100
AcDbPoint
 10
-3.89017124878859
 20
0.0000000000000284
 30
0.0
  0
POINT
  5
3E56
330
3918
100
AcDbEntity
  8
Defpoints
 62
     0
100
AcDbPoint
 10
-14.6408758749443
 20
0.0000000000000315
 30
0.0
  0
ENDBLK
  5
3925
330
3918
100
AcDbEntity
  8
0
100
AcDbBlockEnd
  0
BLOCK
  5
3934
330
3926
100
AcDbEntity
  8
0
100
AcDbBlockBegin
  2
*D29
 70
     1
 71
     0
 10
0.0
 20
0.0
 30
0.0
  3
*D29
  1

  0
LINE
  5
3E57
330
3926
100
AcDbEntity
  8
AM_5
 62
     3
370
    13
100
AcDbLine
 10
-73.01600620988671
 20
-0.0400258332965606
 30
0.0
 11
-73.8571676472247
 21
-17.62919510581913
 31
0.0
  0
LINE
  5
3E58
330
3926
100
AcDbEntity
  8
AM_5
 62
     3
370
    13
100
AcDbLine
 10
-73.01600620988671
 20
-3.700659642481298
 30
0.0
 11
-73.01600620988673
 21
-17.6492969215931
 31
0.0
  0
ARC
  5
3E59
330
3926
100
AcDbEntity
  8
AM_5
 62
     3
370
    13
100
AcDbCircle
 10
-73.01600620988671
 20
-0.0400258332965606
 30
0.0
 40
16.60927108829653
100
AcDbArc
 50
249.9975919555552
 51
258.6298197338924
  0
ARC
  5
3E5A
330
3926
100
AcDbEntity
  8
AM_5
 62
     3
370
    13
100
AcDbCircle
 10
-73.01600620988671
 20
-0.0400258332965606
 30
0.0
 40
16.60927108829653
100
AcDbArc
 50
278.6322277783373
 51
287.2644555566745
  0
ARC
  5
3E5B
330
3926
100
AcDbEntity
  8
AM_5
 62
     3
370
    13
100
AcDbCircle
 10
-73.01600620988671
 20
-0.0400258332965606
 30
0.0
 40
16.60927108829653
100
AcDbArc
 50
267.2620475122296
 51
270.0
  0
INSERT
  5
3E5C
330
3926
100
AcDbEntity
  8
AM_5
 62
     3
370
    13
100
AcDbBlockReference
  2
_Open30
 10
-73.80939954636918
 20
-16.6303366531139
 30
0.0
 41
2.5
 42
2.5
 43
2.5
 50
352.945933623061
  0
INSERT
  5
3E5D
330
3926
100
AcDbEntity
  8
AM_5
 62
     3
370
    13
100
AcDbBlockReference
  2
_Open30
 10
-73.01600620988673
 20
-16.64929692159311
 30
0.0
 41
2.5
 42
2.5
 43
2.5
 50
184.3161138891686
  0
MTEXT
  5
3E5E
330
3926
100
AcDbEntity
  8
AM_5
 62
     2
100
AcDbMText
 10
-65.35245615889167
 20
-12.81427215920588
 30
0.0
 40
3.8
 41
0.0
 71
     5
 72
     1
  1
-3°
 73
     1
 44
1.0
  0
POINT
  5
3E5F
330
3926
100
AcDbEntity
  8
Defpoints
 62
     0
100
AcDbPoint
 10
-73.5450469606028
 20
-16.64086924465989
 30
0.0
  0
POINT
  5
3E60
330
3926
100
AcDbEntity
  8
Defpoints
 62
     0
100
AcDbPoint
 10
-73.01600620988671
 20
-3.700659642481298
 30
0.0
  0
POINT
  5
3E61
330
3926
100
AcDbEntity
  8
Defpoints
 62
     0
100
AcDbPoint
 10
-72.99407369675151
 20
0.4185956262506849
 30
0.0
  0
POINT
  5
3E62
330
3926
100
AcDbEntity
  8
Defpoints
 62
     0
100
AcDbPoint
 10
-72.27318236811192
 20
15.49284777773204
 30
0.0
  0
POINT
  5
3E63
330
3926
100
AcDbEntity
  8
Defpoints
 62
     0
100
AcDbPoint
 10
-73.01600620988671
 20
28.85366351642327
 30
0.0
  0
ENDBLK
  5
3935
330
3926
100
AcDbEntity
  8
0
100
AcDbBlockEnd
  0
BLOCK
  5
3975
330
396B
100
AcDbEntity
  8
0
100
AcDbBlockBegin
  2
*D35
 70
     1
 71
     0
 10
0.0
 20
0.0
 30
0.0
  3
*D35
  1

  0
LINE
  5
3E64
330
396B
100
AcDbEntity
  8
AM_5
100
AcDbLine
 10
123.7218992390567
 20
36.75415573207307
 30
0.0
 11
114.6189071130725
 21
36.75415573207306
 31
0.0
  0
LINE
  5
3E65
330
396B
100
AcDbEntity
  8
AM_5
100
AcDbLine
 10
114.6189071130725
 20
36.75415573207306
 30
0.0
 11
107.2840731842512
 21
23.44714395662346
 31
0.0
  0
LINE
  5
3E66
330
396B
100
AcDbEntity
  8
AM_5
100
AcDbLine
 10
95.21592681574882
 20
1.552856043370376
 30
0.0
 11
94.00911217889859
 21
-0.6365727479549079
 31
0.0
  0
MTEXT
  5
3E67
330
396B
100
AcDbEntity
  8
AM_5
 62
     2
100
AcDbMText
 10
119.9204031760646
 20
40.15452974782109
 30
0.0
 40
3.8
 41
0.0
 71
     5
 72
     1
  1
\U+220520
 73
     1
 44
1.0
  0
LINE
  5
3E68
330
396B
100
AcDbEntity
  8
AM_5
100
AcDbLine
 10
96.42274145259904
 20
3.742284834695653
 30
0.0
 11
106.077258547401
 21
21.25771516529817
 31
0.0
  0
INSERT
  5
3E69
330
396B
100
AcDbEntity
  8
AM_5
100
AcDbBlockReference
  2
_Open30
 10
96.42274145259904
 20
3.742284834695653
 30
0.0
 41
2.5
 42
2.5
 43
2.5
 50
61.13641626053511
  0
INSERT
  5
3E6A
330
396B
100
AcDbEntity
  8
AM_5
100
AcDbBlockReference
  2
_Open30
 10
106.077258547401
 20
21.25771516529817
 30
0.0
 41
2.5
 42
2.5
 43
2.5
 50
241.1364162605351
  0
POINT
  5
3E6B
330
396B
100
AcDbEntity
  8
Defpoints
 62
     0
100
AcDbPoint
 10
106.077258547401
 20
21.25771516529817
 30
0.0
  0
POINT
  5
3E6C
330
396B
100
AcDbEntity
  8
Defpoints
 62
     0
100
AcDbPoint
 10
96.42274145259904
 20
3.742284834695653
 30
0.0
  0
ENDBLK
  5
3976
330
396B
100
AcDbEntity
  8
0
100
AcDbBlockEnd
  0
BLOCK
  5
3983
330
3977
100
AcDbEntity
  8
0
100
AcDbBlockBegin
  2
*D36
 70
     1
 71
     0
 10
0.0
 20
0.0
 30
0.0
  3
*D36
  1

  0
LINE
  5
3E6D
330
3977
100
AcDbEntity
  8
AM_5
 62
     3
370
    13
100
AcDbLine
 10
92.24999999999989
 20
8.141101056456165
 30
0.0
 11
92.24999999999989
 21
-12.26029456618466
 31
0.0
  0
LINE
  5
3E6E
330
3977
100
AcDbEntity
  8
AM_5
 62
     3
370
    13
100
AcDbLine
 10
110.2499999999999
 20
8.141101056456165
 30
0.0
 11
110.2499999999999
 21
-12.26029456618466
 31
0.0
  0
LINE
  5
3E6F
330
3977
100
AcDbEntity
  8
AM_5
 62
     3
370
    13
100
AcDbLine
 10
94.74999999999989
 20
-11.26029456618466
 30
0.0
 11
107.7499999999999
 21
-11.26029456618466
 31
0.0
  0
INSERT
  5
3E70
330
3977
100
AcDbEntity
  8
AM_5
 62
     3
370
    13
100
AcDbBlockReference
  2
_Open30
 10
92.24999999999989
 20
-11.26029456618466
 30
0.0
 41
2.5
 42
2.5
 43
2.5
 50
180.0
  0
INSERT
  5
3E71
330
3977
100
AcDbEntity
  8
AM_5
 62
     3
370
    13
100
AcDbBlockReference
  2
_Open30
 10
110.2499999999999
 20
-11.26029456618466
 30
0.0
 41
2.5
 42
2.5
 43
2.5
  0
MTEXT
  5
3E72
330
3977
100
AcDbEntity
  8
AM_5
 62
     2
100
AcDbMText
 10
101.2499999999999
 20
-7.860294566184654
 30
0.0
 40
3.8
 41
0.0
 71
     5
 72
     1
  1
18
 73
     1
 44
1.0
  0
POINT
  5
3E73
330
3977
100
AcDbEntity
  8
Defpoints
 62
     0
100
AcDbPoint
 10
92.24999999999989
 20
8.141101056456165
 30
0.0
  0
POINT
  5
3E74
330
3977
100
AcDbEntity
  8
Defpoints
 62
     0
100
AcDbPoint
 10
110.2499999999999
 20
8.141101056456165
 30
0.0
  0
POINT
  5
3E75
330
3977
100
AcDbEntity
  8
Defpoints
 62
     0
100
AcDbPoint
 10
110.2499999999999
 20
-11.26029456618466
 30
0.0
  0
ENDBLK
  5
3984
330
3977
100
AcDbEntity
  8
0
100
AcDbBlockEnd
  0
BLOCK
  5
3B99
330
3B98
100
AcDbEntity
  8
0
100
AcDbBlockBegin
  2
*U39
 70
     1
 71
     0
 10
0.0
 20
0.0
 30
0.0
  3
*U39
  1

  0
ENDBLK
  5
3B9A
330
3B98
100
AcDbEntity
  8
0
100
AcDbBlockEnd
  0
BLOCK
  5
3D8B
330
3D8A
100
AcDbEntity
  8
0
100
AcDbBlockBegin
  2
*S1643
 70
     1
 71
     0
 10
0.0
 20
0.0
 30
0.0
  3
*S1643
  1

  0
LINE
  5
3D8C
330
3D8A
100
AcDbEntity
  8
AM_5
100
AcDbLine
 10
134.8678000253401
 20
180.1986602587053
 30
0.0
 11
134.8678000253401
 21
188.1164093505113
 31
0.0
  0
LINE
  5
3D8D
330
3D8A
100
AcDbEntity
  8
AM_5
100
AcDbLine
 10
134.8678000253401
 20
188.1164093505113
 30
0.0
 11
134.8678000253401
 21
191.2664093505114
 31
0.0
  0
LINE
  5
3D8E
330
3D8A
100
AcDbEntity
  8
AM_5
100
AcDbLine
 10
135.2825053908901
 20
188.1164093505113
 30
0.0
 11
134.8678000253401
 21
191.2664093505114
 31
0.0
  0
LINE
  5
3D8F
330
3D8A
100
AcDbEntity
  8
AM_5
100
AcDbLine
 10
134.8678000253401
 20
191.2664093505114
 30
0.0
 11
134.4530946597901
 21
188.1164093505113
 31
0.0
  0
MTEXT
  5
3D90
330
3D8A
100
AcDbEntity
  8
AM_5
 62
     2
100
AcDbMText
 10
133.2928000253401
 20
181.7736602587053
 30
0.0
 40
3.149999999999999
 41
0.0
 71
     7
 72
     5
  1

  7
ACJISTS
210
0.0
220
0.0
230
-1.0
 11
-1.0
 21
-4.000000000000000E-16
 31
0.0
 73
     1
 44
1.0
  0
ENDBLK
  5
3D91
330
3D8A
100
AcDbEntity
  8
0
100
AcDbBlockEnd
  0
BLOCK
  5
3D93
330
3D92
100
AcDbEntity
  8
0
100
AcDbBlockBegin
  2
*S1744
 70
     1
 71
     0
 10
0.0
 20
0.0
 30
0.0
  3
*S1744
  1

  0
LINE
  5
3D94
330
3D92
100
AcDbEntity
  8
AM_5
100
AcDbLine
 10
134.8678000253401
 20
180.1986602587053
 30
0.0
 11
142.7855491171461
 21
180.1986602587053
 31
0.0
  0
LINE
  5
3D95
330
3D92
100
AcDbEntity
  8
AM_5
100
AcDbLine
 10
142.7855491171461
 20
180.1986602587053
 30
0.0
 11
145.9355491171461
 21
180.1986602587053
 31
0.0
  0
LINE
  5
3D96
330
3D92
100
AcDbEntity
  8
AM_5
100
AcDbLine
 10
142.7855491171461
 20
179.7839548931553
 30
0.0
 11
145.9355491171461
 21
180.1986602587053
 31
0.0
  0
LINE
  5
3D97
330
3D92
100
AcDbEntity
  8
AM_5
100
AcDbLine
 10
145.9355491171461
 20
180.1986602587053
 30
0.0
 11
142.7855491171461
 21
180.6133656242553
 31
0.0
  0
MTEXT
  5
3D98
330
3D92
100
AcDbEntity
  8
AM_5
 62
     2
100
AcDbMText
 10
136.44280002534
 20
181.7736602587052
 30
0.0
 40
3.149999999999999
 41
0.0
 71
     7
 72
     5
  1

  7
ACJISTS
210
0.0
220
0.0
230
-1.0
 11
0.0
 21
1.0
 31
0.0
 73
     1
 44
1.0
  0
ENDBLK
  5
3D99
330
3D92
100
AcDbEntity
  8
0
100
AcDbBlockEnd
  0
ENDSEC
  0
SECTION
  2
ENTITIES
  0
LINE
  5
364D
330
1F
100
AcDbEntity
  8
AM_0
  6
Continuous
370
    30
100
AcDbLine
 10
34.99999999999983
 20
-80.52531787832081
 30
0.0
 11
149.9999999999998
 21
-80.52531787832058
 31
0.0
  0
LINE
  5
364E
330
1F
100
AcDbEntity
  8
AM_0
  6
Continuous
370
    30
100
AcDbLine
 10
27.99999999634207
 20
-62.52531787832081
 30
0.0
 11
149.9999999999998
 21
-62.52531787832103
 31
0.0
  0
LINE
  5
364F
330
1F
100
AcDbEntity
  8
AM_0
  6
Continuous
370
    30
100
AcDbLine
 10
28.53834841531085
 20
2.499999999999915
 30
0.0
 11
87.24999999999983
 21
2.499999999999915
 31
0.0
  0
LINE
  5
3650
330
1F
100
AcDbEntity
  8
AM_0
  6
Continuous
370
    30
100
AcDbLine
 10
25.25000000000028
 20
22.49999999999992
 30
0.0
 11
87.24999999999983
 21
22.50000000000003
 31
0.0
  0
LINE
  5
3651
330
1F
100
AcDbEntity
  8
AM_0
  6
Continuous
370
    30
100
AcDbLine
 10
87.24999999999983
 20
16.8588989435406
 30
0.0
 11
25.25000000000028
 21
16.8588989435406
 31
0.0
  0
LINE
  5
3652
330
1F
100
AcDbEntity
  8
AM_0
  6
Continuous
370
    30
100
AcDbLine
 10
27.99999999634207
 20
8.141101056459235
 30
0.0
 11
87.24999999999983
 21
8.141101056459348
 31
0.0
  0
DIMENSION
  5
3653
330
1F
100
AcDbEntity
  8
AM_5
100
AcDbDimension
  2
*D15
 10
153.6686900870429
 20
-71.52531787832075
 30
0.0
 11
-4.856180074923366
 21
-69.5592974149439
 31
0.0
 70
   162
  1
+<>
 71
     5
 42
0.0872664625997204
  3
AM_JIS$2
100
AcDb2LineAngularDimension
 13
0.0
 23
-71.52531787832075
 33
0.0
 14
-3.889138696757414
 24
-71.18506233147448
 34
0.0
 15
-1.773854710452554
 25
-71.52531787832075
 35
0.0
 16
-9.661041848062666
 26
-71.24421027085417
 36
0.0
1001
GENIUS_GENDTOL_13
1000

1000
h7
1000

1040
0.0
1001
ACAD
1000
DSTYLE
1002
{
1070
   279
1070
     1
1002
}
  0
DIMENSION
  5
3654
330
1F
100
AcDbEntity
  8
AM_5
100
AcDbDimension
  2
*D16
 10
149.9999999999999
 20
-29.96040920031712
 30
0.0
 11
74.99999999999994
 21
-29.96040920031712
 31
0.0
 70
   160
  1
<>
 71
     5
 42
149.9999999999999
  3
AM_JIS$0
100
AcDbAlignedDimension
 13
0.0
 23
-3.278417165345388
 33
0.0
 14
149.9999999999999
 24
5.499999999996845
 34
0.0
100
AcDbRotatedDimension
1001
ACAD
1000
DSTYLE
1002
{
1070
   271
1070
     0
1002
}
  0
LINE
  5
3655
330
1F
100
AcDbEntity
  8
AM_7
  6
CENTER
370
    13
100
AcDbLine
 10
-1.773854710452554
 20
-71.52531787832075
 30
0.0
 11
153.6686900870429
 21
-71.52531787832075
 31
0.0
1001
GENIUS_GENODEF_13
1002
{
1000
HIER
1070
     0
1002
}
1002
{
1000
MANEDIT
1070
     0
1002
}
1002
{
1000
NOSEL
1070
     0
1002
}
1002
{
1000
BEHIND
1070
     0
1002
}
1002
{
1000
REACTOR
1002
}
1001
GENIUS_GENOBJ-N-CEN_13
1002
{
1000
OWNER
1000
GEN
1002
}
  0
LINE
  5
3656
330
1F
100
AcDbEntity
  8
AM_7
  6
CENTER
370
    13
100
AcDbLine
 10
153.4412382185364
 20
12.49999999999685
 30
0.0
 11
-2.16554845196589
 21
12.49999999999685
 31
0.0
1001
GENIUS_GENODEF_13
1002
{
1000
HIER
1070
     0
1002
}
1002
{
1000
MANEDIT
1070
     0
1002
}
1002
{
1000
NOSEL
1070
     0
1002
}
1002
{
1000
BEHIND
1070
     0
1002
}
1002
{
1000
REACTOR
1002
}
1001
GENIUS_GENOBJ-N-CEN_13
1002
{
1000
OWNER
1000
GEN
1002
}
  0
LINE
  5
3657
330
1F
100
AcDbEntity
  8
AM_5
100
AcDbLine
 10
0.0
 20
-26.47691349536368
 30
0.0
 11
0.0
 21
-72.32124844653106
 31
0.0
  0
SPLINE
  5
368E
330
1F
100
AcDbEntity
  8
AM_0
  6
Continuous
370
    30
100
AcDbSpline
210
0.0
220
0.0
230
1.0
 70
     8
 71
     3
 72
    18
 73
    14
 74
     0
 42
0.0000000001
 43
0.0000000001
 40
23.44012564466058
 40
23.44012564466058
 40
23.44012564466058
 40
23.44012564466058
 40
23.90807422476778
 40
23.90807422476778
 40
24.7010847070456
 40
24.7010847070456
 40
25.49409518932339
 40
25.49409518932339
 40
26.28710567160119
 40
26.28710567160119
 40
27.08011615387899
 40
27.08011615387899
 40
27.6191104327264
 40
27.6191104327264
 40
27.6191104327264
 40
27.6191104327264
 10
20.68189363760149
 20
-66.85384103357737
 30
0.0
 10
20.84795100179605
 20
-66.82700489670683
 30
0.0
 10
21.01438676779077
 20
-66.80553859892038
 30
0.0
 10
21.45942747326086
 20
-66.76166915620851
 30
0.0
 10
21.73566317257388
 20
-66.74907458468564
 30
0.0
 10
22.26433682742578
 20
-66.74907458468564
 30
0.0
 10
22.5405725267388
 20
-66.76166915620851
 30
0.0
 10
23.10034001643118
 20
-66.81684767700253
 30
0.0
 10
23.38387115096731
 20
-66.85943607562044
 30
0.0
 10
23.94228729677894
 20
-66.97560505807527
 30
0.0
 10
24.21732997574469
 20
-67.04924578912582
 30
0.0
 10
24.65987811701126
 20
-67.19648487081972
 30
0.0
 10
24.83363356292676
 20
-67.262503335486
 30
0.0
 10
24.99999999999983
 20
-67.33382560648633
 30
0.0
  0
ELLIPSE
  5
368F
330
1F
100
AcDbEntity
  8
AM_0
  6
Continuous
370
    30
100
AcDbEllipse
 10
3.051363822244923
 20
-71.52531787832081
 30
0.0
 11
-24.58992609774623
 21
-9.422341032889614
 31
0.0
210
0.0
220
0.0
230
1.0
 40
0.101927501380071
 41
2.330439384321851
 42
2.633303374168345
  0
SPLINE
  5
3690
330
1F
100
AcDbEntity
  8
AM_0
  6
Continuous
370
    30
100
AcDbSpline
210
0.0
220
0.0
230
1.0
 70
     8
 71
     3
 72
     8
 73
     4
 74
     0
 42
0.0000000001
 43
0.0000000001
 40
17.97635172800825
 40
17.97635172800825
 40
17.97635172800825
 40
17.97635172800825
 40
18.46585942543078
 40
18.46585942543078
 40
18.46585942543078
 40
18.46585942543078
 10
24.99999999999983
 20
-67.33382560648633
 30
0.0
 10
25.08028692390263
 20
-67.18148641675438
 30
0.0
 10
25.16376024898483
 20
-67.03063614362267
 30
0.0
 10
25.25000000000028
 20
-66.8814317531504
 30
0.0
  0
SPLINE
  5
3691
330
1F
100
AcDbEntity
  8
AM_0
  6
Continuous
370
    30
100
AcDbSpline
210
0.0
220
0.0
230
1.0
 70
     8
 71
     3
 72
    35
 73
    31
 74
     0
 42
0.0000000001
 43
0.0000000001
 40
-5.896705634372176
 40
-5.896705634372176
 40
-5.896705634372176
 40
-5.896705634372176
 40
-5.588962166896391
 40
-5.588962166896391
 40
-4.647150745060365
 40
-4.647150745060365
 40
-3.705339323224344
 40
-3.705339323224344
 40
-2.779004492418252
 40
-2.779004492418252
 40
-1.852669661612168
 40
-1.852669661612168
 40
-0.9263348308060841
 40
-0.9263348308060841
 40
0.0
 40
0.0
 40
0.0
 40
0.9263348308060855
 40
0.9263348308060855
 40
1.852669661612171
 40
1.852669661612171
 40
2.779004492418256
 40
2.779004492418256
 40
3.705339323224342
 40
3.705339323224342
 40
4.647150745060365
 40
4.647150745060365
 40
5.588962166896389
 40
5.588962166896389
 40
5.896705634370028
 40
5.896705634370028
 40
5.896705634370028
 40
5.896705634370028
 10
25.25000000000028
 20
-66.8814317531504
 30
0.0
 10
25.34508658857573
 20
-66.92167785023852
 30
0.0
 10
25.43798725508788
 20
-66.9635242448156
 30
0.0
 10
25.80515620669058
 20
-67.13896097849974
 30
0.0
 10
26.09727448004998
 20
-67.30376870853965
 30
0.0
 10
26.64487858201443
 20
-67.68234519378083
 30
0.0
 10
26.90023569146393
 20
-67.89645902290121
 30
0.0
 10
27.32699935408124
 20
-68.32269677763324
 30
0.0
 10
27.52791288299164
 20
-68.5611365072044
 30
0.0
 10
27.88384098105445
 20
-69.08248085210548
 30
0.0
 10
28.038875894456
 20
-69.36540834008687
 30
0.0
 10
28.28854933137774
 20
-69.958810341663
 30
0.0
 10
28.38347679089867
 20
-70.26987952782528
 30
0.0
 10
28.50837435378736
 20
-70.89874278760371
 30
0.0
 10
28.53834841531085
 20
-71.21653960138551
 30
0.0
 10
28.53834841531085
 20
-71.52531787832081
 30
0.0
 10
28.53834841531085
 20
-71.83409615525611
 30
0.0
 10
28.50837435378736
 20
-72.1518929690379
 30
0.0
 10
28.38347679089867
 20
-72.78075622881633
 30
0.0
 10
28.28854933137774
 20
-73.09182541497862
 30
0.0
 10
28.038875894456
 20
-73.68522741655474
 30
0.0
 10
27.88384098105445
 20
-73.96815490453614
 30
0.0
 10
27.52791288299164
 20
-74.48949924943722
 30
0.0
 10
27.32699935408124
 20
-74.72793897900837
 30
0.0
 10
26.90023569146393
 20
-75.1541767337404
 30
0.0
 10
26.64487858201443
 20
-75.36829056286078
 30
0.0
 10
26.09727448004998
 20
-75.74686704810196
 30
0.0
 10
25.80515620669058
 20
-75.91167477814187
 30
0.0
 10
25.43798725508856
 20
-76.08711151182556
 30
0.0
 10
25.34508658857504
 20
-76.12895790640332
 30
0.0
 10
25.25000000000028
 20
-76.16920400349122
 30
0.0
  0
SPLINE
  5
3692
330
1F
100
AcDbEntity
  8
AM_0
  6
Continuous
370
    30
100
AcDbSpline
210
0.0
220
0.0
230
1.0
 70
     8
 71
     3
 72
     8
 73
     4
 74
     0
 42
0.0000000001
 43
0.0000000001
 40
8.97466130217429
 40
8.97466130217429
 40
8.97466130217429
 40
8.97466130217429
 40
9.464168999604958
 40
9.464168999604958
 40
9.464168999604958
 40
9.464168999604958
 10
25.25000000000028
 20
-76.16920400349122
 30
0.0
 10
25.1637602352626
 20
-76.01999958927794
 30
0.0
 10
25.08028703159454
 20
-75.86914954422568
 30
0.0
 10
24.99999999999983
 20
-75.71681015015528
 30
0.0
  0
ELLIPSE
  5
3693
330
1F
100
AcDbEntity
  8
AM_0
  6
Continuous
370
    30
100
AcDbEllipse
 10
3.051363822244923
 20
-71.52531787832081
 30
0.0
 11
-25.22043702332993
 21
-9.663939520912606
 31
0.0
210
0.0
220
0.0
230
1.0
 40
0.101927501380071
 41
2.606599410171294
 42
2.950550383322695
  0
SPLINE
  5
3694
330
1F
100
AcDbEntity
  8
AM_0
  6
Continuous
370
    30
100
AcDbSpline
210
0.0
220
0.0
230
1.0
 70
    12
 71
     2
 72
     6
 73
     3
 74
     0
 42
0.0000000001
 43
0.0000000001
 40
0.0003223172392989
 40
0.0003223172392989
 40
0.0003223172392989
 40
0.4413759185002915
 40
0.4413759185002915
 40
0.4413759185002915
 10
25.25000000000028
 20
-64.5223116344649
 30
0.0
 41
1.000000458692476
 10
25.12023350939973
 20
-64.5191055766978
 30
0.0
 41
1.000314063141302
 10
24.99999999999983
 20
-64.51398315667831
 30
0.0
 41
1.000000495060994
  0
SPLINE
  5
3695
330
1F
100
AcDbEntity
  8
AM_0
  6
Continuous
370
    30
100
AcDbSpline
210
0.0
220
0.0
230
1.0
 70
     8
 71
     3
 72
    12
 73
     8
 74
     0
 42
0.0000000001
 43
0.0000000001
 40
3.142632610230512
 40
3.142632610230512
 40
3.142632610230512
 40
3.142632610230512
 40
4.598275990062259
 40
4.598275990062259
 40
6.131034653416345
 40
6.131034653416345
 40
7.212585606604373
 40
7.212585606604373
 40
7.212585606604373
 40
7.212585606604373
 10
10.99999999999983
 20
-71.73650132729685
 30
0.0
 10
10.49355977590273
 20
-71.86951023579772
 30
0.0
 10
9.977664707118095
 20
-71.96838617855892
 30
0.0
 10
8.928106899674788
 20
-72.10257917029716
 30
0.0
 10
8.394935347764488
 20
-72.13417126023896
 30
0.0
 10
7.523498808917168
 20
-72.13417126023896
 30
0.0
 10
7.156913725510833
 20
-72.11861854812159
 30
0.0
 10
6.787425938577428
 20
-72.08633554160869
 30
0.0
  0
ELLIPSE
  5
3696
330
1F
100
AcDbEntity
  8
AM_0
  6
Continuous
370
    30
100
AcDbEllipse
 10
7.487002831782149
 20
-62.1053047227409
 30
0.0
 11
-5.099530863996489
 21
-8.781755296399487
 31
0.0
210
0.0
220
0.0
230
1.0
 40
0.8510526398884621
 41
0.4040654068275829
 42
0.9276641824258785
  0
SPLINE
  5
3697
330
1F
100
AcDbEntity
  8
AM_0
  6
Continuous
370
    30
100
AcDbSpline
210
0.0
220
0.0
230
1.0
 70
    11
 71
     3
 72
    70
 73
    66
 74
     0
 42
0.0000000001
 43
0.0000000001
 40
0.0
 40
0.0
 40
0.0
 40
0.0
 40
0.3782469209932
 40
0.3782469209932
 40
0.7564938419864
 40
0.7564938419864
 40
1.1347407629796
 40
1.1347407629796
 40
1.5129876839728
 40
1.5129876839728
 40
1.906643073082657
 40
1.906643073082657
 40
2.300298462192514
 40
2.300298462192514
 40
2.69395385130237
 40
2.69395385130237
 40
3.087609240412228
 40
3.087609240412228
 40
3.506633937500788
 40
3.506633937500788
 40
3.925658634589349
 40
3.925658634589349
 40
4.34468333167791
 40
4.34468333167791
 40
4.763708028766471
 40
4.763708028766471
 40
5.162981507243623
 40
5.162981507243623
 40
5.562254985720776
 40
5.562254985720776
 40
5.961528464197929
 40
5.961528464197929
 40
6.360801942675082
 40
6.360801942675082
 40
6.734023059154611
 40
6.734023059154611
 40
7.10724417563414
 40
7.10724417563414
 40
7.480465292113669
 40
7.480465292113669
 40
7.853686408593198
 40
7.853686408593198
 40
8.276716181479628
 40
8.276716181479628
 40
8.699745954366058
 40
8.699745954366058
 40
9.122775727252488
 40
9.122775727252488
 40
9.54580550013892
 40
9.54580550013892
 40
9.950381751960247
 40
9.950381751960247
 40
10.35495800378157
 40
10.35495800378157
 40
10.7595342556029
 40
10.7595342556029
 40
11.16411050742423
 40
11.16411050742423
 40
11.54193573165804
 40
11.54193573165804
 40
11.91976095589186
 40
11.91976095589186
 40
12.29758618012568
 40
12.29758618012568
 40
12.67541140435949
 40
12.67541140435949
 40
12.67541140435949
 40
12.67541140435949
 10
4.114571570722603
 20
-83.09682910897809
 30
0.0
 10
3.988489263724944
 20
-83.09682910897809
 30
0.0
 10
3.858190740184966
 20
-83.09470824394506
 30
0.0
 10
3.599518766093127
 20
-83.08548882864179
 30
0.0
 10
3.471143449519843
 20
-83.07838828325052
 30
0.0
 10
3.225780119763215
 20
-83.05871512259554
 30
0.0
 10
3.108576336760791
 20
-83.04610864802984
 30
0.0
 10
2.892980012673263
 20
-83.01529010135695
 30
0.0
 10
2.794595970013518
 20
-82.99705138387671
 30
0.0
 10
2.618255192165464
 20
-82.95506209802724
 30
0.0
 10
2.535464193471
 20
-82.92974843085207
 30
0.0
 10
2.392628979865606
 20
-82.87108850578747
 30
0.0
 10
2.332573857913815
 20
-82.83772070066729
 30
0.0
 10
2.239355832144895
 20
-82.76395130199907
 30
0.0
 10
2.20610111764978
 20
-82.72347074628746
 30
0.0
 10
2.166281465735494
 20
-82.63784272126085
 30
0.0
 10
2.159709917464681
 20
-82.59269196624823
 30
0.0
 10
2.169067772571282
 20
-82.4988735884177
 30
0.0
 10
2.186804295001423
 20
-82.44657830989613
 30
0.0
 10
2.249213792353942
 20
-82.33739019111553
 30
0.0
 10
2.293860477438614
 20
-82.28050022060515
 30
0.0
 10
2.407500199284243
 20
-82.16634241517508
 30
0.0
 10
2.476545841312657
 20
-82.10902452229001
 30
0.0
 10
2.633777454252879
 20
-81.99862003313214
 30
0.0
 10
2.721977933266373
 20
-81.94555487612692
 30
0.0
 10
2.905033862967059
 20
-81.85052056997265
 30
0.0
 10
3.005989506206163
 20
-81.80470337800611
 30
0.0
 10
3.226783146607033
 20
-81.72061173817255
 30
0.0
 10
3.346624514744065
 20
-81.68236255964902
 30
0.0
 10
3.598459281804082
 20
-81.6189527535706
 30
0.0
 10
3.730685106322937
 20
-81.59377303654955
 30
0.0
 10
3.999036031405524
 20
-81.56006278963773
 30
0.0
 10
4.135170581105342
 20
-81.55156458922315
 30
0.0
 10
4.392668779424241
 20
-81.55156458922315
 30
0.0
 10
4.52036516094455
 20
-81.5590113486397
 30
0.0
 10
4.771933295647216
 20
-81.58963984134411
 30
0.0
 10
4.895809726115715
 20
-81.61280306233775
 30
0.0
 10
5.130745288308674
 20
-81.67204373995455
 30
0.0
 10
5.242081938320609
 20
-81.70815165719827
 30
0.0
 10
5.445839306235996
 20
-81.78822886250495
 30
0.0
 10
5.538271314625547
 20
-81.83216757508271
 30
0.0
 10
5.711209154157871
 20
-81.92743370576895
 30
0.0
 10
5.795339730130365
 20
-81.98272991756275
 30
0.0
 10
5.941016041845444
 20
-82.09754336856472
 30
0.0
 10
6.002581975090891
 20
-82.15703642787307
 30
0.0
 10
6.099161636999781
 20
-82.27500696255933
 30
0.0
 10
6.134226065752557
 20
-82.33354336657507
 30
0.0
 10
6.176851449760136
 20
-82.44524615516579
 30
0.0
 10
6.184387138807381
 20
-82.49841122971006
 30
0.0
 10
6.174857414385599
 20
-82.5939527054264
 30
0.0
 10
6.158507641391282
 20
-82.64001900354273
 30
0.0
 10
6.099250168612173
 20
-82.72690141740222
 30
0.0
 10
6.056341317296585
 20
-82.7677234477047
 30
0.0
 10
5.94492893192529
 20
-82.84180187062665
 30
0.0
 10
5.876331169112802
 20
-82.87513017311548
 30
0.0
 10
5.718128690040942
 20
-82.93352075138327
 30
0.0
 10
5.628511172515857
 20
-82.95860419619984
 30
0.0
 10
5.443268442840747
 20
-82.99952043288258
 30
0.0
 10
5.342502437388077
 20
-83.0171436582294
 30
0.0
 10
5.123360565600535
 20
-83.04704525884185
 30
0.0
 10
5.004989713362704
 20
-83.05934789731018
 30
0.0
 10
4.75814396062475
 20
-83.0786129711731
 30
0.0
 10
4.629471492878849
 20
-83.0856067533999
 30
0.0
 10
4.370657104435679
 20
-83.09471349973487
 30
0.0
 10
4.240513312133828
 20
-83.09682910897809
 30
0.0
 10
4.114571570722603
 20
-83.09682910897809
 30
0.0
  0
ELLIPSE
  5
3698
330
1F
100
AcDbEntity
  8
AM_0
  6
Continuous
370
    30
100
AcDbEllipse
 10
4.112851868683777
 20
-71.52531787832081
 30
0.0
 11
-1.026483845715636
 21
-11.74999913030527
 31
0.0
210
0.0
220
0.0
230
1.0
 40
0.0044041816606317
 41
1.129853032568423
 42
1.543155694411284
  0
ELLIPSE
  5
3699
330
1F
100
AcDbEntity
  8
AM_0
  6
Continuous
370
    30
100
AcDbEllipse
 10
5.133400650722081
 20
-71.56987762832077
 30
0.0
 11
-1.992371644171783
 21
0.174514273055895
 31
0.0
210
0.0
220
0.0
230
1.0
 40
0.0521422139508189
 41
1.03384697608592
 42
7.317032283265505
  0
ELLIPSE
  5
369A
330
1F
100
AcDbEntity
  8
AM_0
  6
Continuous
370
    30
100
AcDbEllipse
 10
7.405461799846819
 20
-71.52531787832081
 30
0.0
 11
134.3299792967332
 21
-11.73413691323201
 31
0.0
210
0.0
220
0.0
230
1.0
 40
0.0045436848793808
 41
4.688446030488304
 42
4.70818499123657
  0
SPLINE
  5
369B
330
1F
100
AcDbEntity
  8
AM_0
  6
Continuous
370
    30
100
AcDbSpline
210
0.0
220
0.0
230
1.0
 70
     8
 71
     3
 72
    24
 73
    20
 74
     0
 42
0.0000000001
 43
0.0000000001
 40
15.61969800199855
 40
15.61969800199855
 40
15.61969800199855
 40
15.61969800199855
 40
16.12161162099547
 40
16.12161162099547
 40
16.72255060899749
 40
16.72255060899749
 40
17.3234895969995
 40
17.3234895969995
 40
17.92442858500151
 40
17.92442858500151
 40
19.18971922675423
 40
19.18971922675423
 40
20.45500986850694
 40
20.45500986850694
 40
21.72030051025966
 40
21.72030051025966
 40
22.98559115201238
 40
22.98559115201238
 40
23.49844797169434
 40
23.49844797169434
 40
23.49844797169434
 40
23.49844797169434
 10
16.47938398148546
 20
-77.50609618888788
 30
0.0
 10
16.33458403098831
 20
-77.43842190796326
 30
0.0
 10
16.1874971245382
 20
-77.36351877501338
 30
0.0
 10
15.86652974993541
 20
-77.18374608247436
 30
0.0
 10
15.69311538581616
 20
-77.07582931486181
 30
0.0
 10
15.35882493189621
 20
-76.84352443881002
 30
0.0
 10
15.19788601098759
 20
-76.71907701838936
 30
0.0
 10
14.8957937133992
 20
-76.45996442093596
 30
0.0
 10
14.75463254278503
 20
-76.32529551654338
 30
0.0
 10
14.35463021014704
 20
-75.90579158107957
 30
0.0
 10
14.10280809462739
 20
-75.58219389186556
 30
0.0
 10
13.66403906391116
 20
-74.87112783610664
 30
0.0
 10
13.47694793167449
 20
-74.48366988282564
 30
0.0
 10
13.17913808881127
 20
-73.67036209572038
 30
0.0
 10
13.06796699030298
 20
-73.24372376669984
 30
0.0
 10
12.92241359837846
 20
-72.38208295680906
 30
0.0
 10
12.88800154854454
 20
-71.94708142557178
 30
0.0
 10
12.88800154854454
 20
-71.35436560509342
 30
0.0
 10
12.89360034639418
 20
-71.18123080524774
 30
0.0
 10
12.90515627637711
 20
-71.00708671351262
 30
0.0
  0
SPLINE
  5
369C
330
1F
100
AcDbEntity
  8
AM_0
  6
Continuous
370
    30
100
AcDbSpline
210
0.0
220
0.0
230
1.0
 70
     8
 71
     3
 72
    10
 73
     6
 74
     0
 42
0.0000000001
 43
0.0000000001
 40
23.40567502971075
 40
23.40567502971075
 40
23.40567502971075
 40
23.40567502971075
 40
23.56740164024185
 40
23.56740164024185
 40
24.84785100447424
 40
24.84785100447424
 40
24.84785100447424
 40
24.84785100447424
 10
12.41375927504743
 20
-71.22646360170015
 30
0.0
 10
12.36260914436394
 20
-71.24923084080533
 30
0.0
 10
12.31123284024244
 20
-71.27158727328819
 30
0.0
 10
11.85118807090254
 20
-71.46726577952572
 30
0.0
 10
11.42911607473735
 20
-71.61514765535853
 30
0.0
 10
10.99999999999983
 20
-71.73650132729685
 30
0.0
  0
ELLIPSE
  5
369D
330
1F
100
AcDbEntity
  8
AM_0
  6
Continuous
370
    30
100
AcDbEllipse
 10
13.43232196069522
 20
-68.67614339826704
 30
0.0
 11
2.070084788282624
 21
0.9242035608040907
 31
0.0
210
0.0
220
0.0
230
0.9999999999999999
 40
0.2461302988843241
 41
4.598878859014062
 42
7.670097649438096
  0
ELLIPSE
  5
369E
330
1F
100
AcDbEntity
  8
AM_0
  6
Continuous
370
    30
100
AcDbEllipse
 10
-4.24050133763734
 20
-74.28616699568792
 30
0.0
 11
-32.9980834826786
 21
-12.63676173410765
 31
0.0
210
0.0
220
0.0
230
1.0
 40
0.099418793369053
 41
2.061357545910667
 42
2.078679147876706
  0
SPLINE
  5
369F
330
1F
100
AcDbEntity
  8
AM_0
  6
Continuous
370
    30
100
AcDbSpline
210
0.0
220
0.0
230
1.0
 70
     8
 71
     3
 72
    12
 73
     8
 74
     0
 42
0.0000000001
 43
0.0000000001
 40
16.91451100172031
 40
16.91451100172031
 40
16.91451100172031
 40
16.91451100172031
 40
16.91871563144128
 40
16.91871563144128
 40
18.76732656641287
 40
18.76732656641287
 40
19.60449245437394
 40
19.60449245437394
 40
19.60449245437394
 40
19.60449245437394
 10
17.99999999999983
 20
-75.16998766523497
 30
0.0
 10
17.99933907561928
 20
-75.17130199644984
 30
0.0
 10
17.99867788289981
 20
-75.17261620006761
 30
0.0
 10
17.70719546982588
 20
-75.75167686249696
 30
0.0
 10
17.363689545912
 20
-76.30533154444933
 30
0.0
 10
16.82722340073457
 20
-77.05882628925346
 30
0.0
 10
16.65472413079539
 20
-77.28652839541459
 30
0.0
 10
16.47938398148546
 20
-77.50609618888788
 30
0.0
  0
SPLINE
  5
36A0
330
1F
100
AcDbEntity
  8
AM_0
  6
Continuous
370
    30
100
AcDbSpline
210
0.0
220
0.0
230
1.0
 70
     8
 71
     3
 72
    24
 73
    20
 74
     0
 42
0.0000000001
 43
0.0000000001
 40
5.31566917666388
 40
5.31566917666388
 40
5.31566917666388
 40
5.31566917666388
 40
5.854663455515142
 40
5.854663455515142
 40
6.64767393779294
 40
6.64767393779294
 40
7.440684420070737
 40
7.440684420070737
 40
8.233694902348535
 40
8.233694902348535
 40
9.026705384626348
 40
9.026705384626348
 40
9.819715866904161
 40
9.819715866904161
 40
10.61272634918198
 40
10.61272634918198
 40
11.40573683145979
 40
11.40573683145979
 40
12.2614699078984
 40
12.2614699078984
 40
12.2614699078984
 40
12.2614699078984
 10
24.99999999999983
 20
-75.71681015015528
 30
0.0
 10
24.83363356292563
 20
-75.78813242115606
 30
0.0
 10
24.6598781170124
 20
-75.85415088582144
 30
0.0
 10
24.21732997574469
 20
-76.00138996751579
 30
0.0
 10
23.94228729677894
 20
-76.07503069856634
 30
0.0
 10
23.38387115096731
 20
-76.19119968102118
 30
0.0
 10
23.10034001643118
 20
-76.23378807963908
 30
0.0
 10
22.5405725267388
 20
-76.2889666004331
 30
0.0
 10
22.26433682742578
 20
-76.30156117195597
 30
0.0
 10
21.73566317257388
 20
-76.30156117195597
 30
0.0
 10
21.45942747326086
 20
-76.2889666004331
 30
0.0
 10
20.89965998356848
 20
-76.23378807963908
 30
0.0
 10
20.61612884903235
 20
-76.19119968102118
 30
0.0
 10
20.05771270322072
 20
-76.07503069856634
 30
0.0
 10
19.78267002425474
 20
-76.00138996751556
 30
0.0
 10
19.25572699044716
 20
-75.82607207287774
 30
0.0
 10
19.00383519962117
 20
-75.7243522297243
 30
0.0
 10
18.51744181267696
 20
-75.49206582796123
 30
0.0
 10
18.25064607892006
 20
-75.34205964737029
 30
0.0
 10
17.99999999999983
 20
-75.16998766523497
 30
0.0
  0
ELLIPSE
  5
36A1
330
1F
100
AcDbEntity
  8
AM_0
  6
Continuous
370
    30
100
AcDbEllipse
 10
21.99999999999983
 20
-70.91342875797076
 30
0.0
 11
-14.8982763526399
 21
-6.71441501332276
 31
0.0
210
0.0
220
0.0
230
1.0
 40
0.2597322373330218
 41
4.683849356400335
 42
5.247290514632126
  0
ELLIPSE
  5
36A2
330
1F
100
AcDbEntity
  8
AM_0
  6
Continuous
370
    30
100
AcDbEllipse
 10
3.051363822244923
 20
-71.52531787832081
 30
0.0
 11
-24.58992609774623
 21
-9.422341032889614
 31
0.0
210
0.0
220
0.0
230
1.0
 40
0.101927501380071
 41
3.796368314818701
 42
4.501018516344507
  0
ELLIPSE
  5
36A3
330
1F
100
AcDbEntity
  8
AM_0
  6
Continuous
370
    30
100
AcDbEllipse
 10
0.3984784847642118
 20
-71.53924366880378
 30
0.0
 11
-0.3984743288343568
 21
0.03490285461117685
 31
0.0
210
0.0
220
0.0
230
1.0
 40
0.0521422139508189
 41
6.235252378666367
 42
8.329647481059558
  0
ELLIPSE
  5
36A4
330
1F
100
AcDbEntity
  8
AM_0
  6
Continuous
370
    30
100
AcDbEllipse
 10
-0.2423876828367497
 20
-60.63309466214886
 30
0.0
 11
-0.7953992815922686
 21
10.32689670603332
 31
0.0
210
0.0
220
0.0
230
1.0
 40
0.1080762716301075
 41
3.401500249796126
 42
3.457731773104465
  0
ELLIPSE
  5
36A5
330
1F
100
AcDbEntity
  8
AM_0
  6
Continuous
370
    30
100
AcDbEllipse
 10
0.6880281094518637
 20
-71.52531787832081
 30
0.0
 11
1.208563311071087
 21
-11.74980008972622
 31
0.0
210
0.0
220
0.0
230
1.0
 40
0.0567126883775759
 41
5.123032435626308
 42
6.277352008187402
  0
ELLIPSE
  5
36A6
330
1F
100
AcDbEntity
  8
AM_0
  6
Continuous
370
    30
100
AcDbEllipse
 10
-47.22025918435719
 20
-71.52531787832081
 30
0.0
 11
134.3299792680946
 21
-11.73413691323784
 31
0.0
210
0.0
220
0.0
230
1.0
 40
0.0045436848795143
 41
5.078011220035057
 42
5.101748692340593
  0
ELLIPSE
  5
36A7
330
1F
100
AcDbEntity
  8
AM_0
  6
Continuous
370
    30
100
AcDbEllipse
 10
-2.982373606026783
 20
-60.11121200731722
 30
0.0
 11
16.57470470793471
 21
-3.953774491787858
 31
0.0
210
0.0
220
0.0
230
1.0
 40
0.5856806921897114
 41
5.079981555772346
 42
5.427840370555375
  0
ELLIPSE
  5
36A8
330
1F
100
AcDbEntity
  8
AM_0
  6
Continuous
370
    30
100
AcDbEllipse
 10
1.188486564375864
 20
-70.8183523401643
 30
0.0
 11
-0.3984743288343569
 21
0.03490285461117685
 31
0.0
210
0.0
220
0.0
230
1.0
 40
0.0521422139508189
 41
4.14085727627312
 42
6.235252378666441
  0
ELLIPSE
  5
36A9
330
1F
100
AcDbEntity
  8
AM_0
  6
Continuous
370
    30
100
AcDbEllipse
 10
-0.6746854791369401
 20
-60.55075528963548
 30
0.0
 11
0.1544997617296695
 21
10.03652515353207
 31
0.0
210
0.0
220
0.0
230
1.0
 40
0.8639227773954882
 41
3.337381788691581
 42
3.629009080166274
  0
DIMENSION
  5
3712
330
1F
100
AcDbEntity
  8
AM_5
100
AcDbDimension
  2
*D22
 10
-19.38764005544125
 20
-80.52531787832079
 30
0.0
 11
-19.38764005544124
 21
-76.02531787832075
 31
0.0
 70
   160
  1
<>
 71
     5
 42
9.000000000000043
  3
AM_JIS$0
100
AcDbAlignedDimension
 13
-1.773854710452554
 23
-71.52531787832075
 33
0.0
 14
34.99999999999983
 24
-80.52531787832081
 34
0.0
 50
270.0
100
AcDbRotatedDimension
1001
GENIUS_GENDTOL_13
1000

1000
h7
1000

1040
0.0
1001
ACAD
1000
DSTYLE
1002
{
1070
   271
1070
     1
1002
}
  0
LINE
  5
372D
330
1F
100
AcDbEntity
  8
AM_0
  6
Continuous
370
    30
100
AcDbLine
 10
3.895968659665016
 20
-74.50344196527917
 30
0.0
 11
4.136386641051615
 21
-71.78921750321032
 31
0.0
  0
LINE
  5
372E
330
1F
100
AcDbEntity
  8
AM_0
  6
Continuous
370
    30
100
AcDbLine
 10
10.99999999999983
 20
-83.27531787832081
 30
0.0
 11
10.99999999999983
 21
-71.73650132729685
 31
0.0
  0
LINE
  5
372F
330
1F
100
AcDbEntity
  8
AM_0
  6
Continuous
370
    30
100
AcDbLine
 10
0.219163124290219
 20
-73.58642773675987
 30
0.0
 11
0.5537898702553434
 21
-76.27832607201808
 31
0.0
  0
DIMENSION
  5
3730
330
1F
100
AcDbEntity
  8
AM_5
100
AcDbDimension
  2
*D23
 10
-0.0000000000000018
 20
-100.9777914947648
 30
0.0
 11
17.49999999999992
 21
-97.57779149476482
 31
0.0
 70
    32
  1
<>
 71
     5
 42
34.99999999999983
  3
AM_JIS$0
100
AcDbAlignedDimension
 13
34.99999999999983
 23
-81.52531787832081
 33
0.0
 14
0.0
 24
-71.52531787832075
 34
0.0
100
AcDbRotatedDimension
1001
GENIUS_GENDTOL_13
1000

1000
h7
1000

1040
0.0
1001
ACAD
1000
DSTYLE
1002
{
1070
   271
1070
     0
1002
}
  0
LINE
  5
3731
330
1F
100
AcDbEntity
  8
AM_0
  6
Continuous
370
    30
100
AcDbLine
 10
16.47938398148523
 20
-82.79593389683541
 30
0.0
 11
10.99999999999983
 21
-83.27531787832081
 31
0.0
  0
LINE
  5
3732
330
1F
100
AcDbEntity
  8
AM_0
  6
Continuous
370
    30
100
AcDbLine
 10
1.892683787342378
 20
-83.27531787832081
 30
0.0
 11
10.99999999999983
 21
-83.27531787832081
 31
0.0
  0
LINE
  5
3733
330
1F
100
AcDbEntity
  8
AM_0
  6
Continuous
370
    30
100
AcDbLine
 10
3.721691783596555
 20
-76.49310332668719
 30
0.0
 11
3.721555332750143
 21
-76.54422039842129
 31
0.0
  0
LINE
  5
3734
330
1F
100
AcDbEntity
  8
AM_0
  6
Continuous
370
    30
100
AcDbLine
 10
3.721691783596555
 20
-76.49310332668719
 30
0.0
 11
3.895968659665016
 21
-74.50344196527917
 31
0.0
  0
LINE
  5
3735
330
1F
100
AcDbEntity
  8
AM_0
  6
Continuous
370
    30
100
AcDbLine
 10
0.5537898702553434
 20
-76.27832607201808
 30
0.0
 11
3.723681434055663
 21
-76.47038814650759
 31
0.0
  0
LINE
  5
3736
330
1F
100
AcDbEntity
  8
AM_0
  6
Continuous
370
    30
100
AcDbLine
 10
25.25000000000028
 20
-81.52531787832081
 30
0.0
 11
34.99999999999983
 21
-81.52531787832081
 31
0.0
  0
LINE
  5
3738
330
1F
100
AcDbEntity
  8
AM_0
  6
Continuous
370
    30
100
AcDbLine
 10
17.99999999999983
 20
-81.27531787832058
 30
0.0
 11
24.99999999999983
 21
-81.27531787832058
 31
0.0
  0
LINE
  5
3739
330
1F
100
AcDbEntity
  8
AM_0
  6
Continuous
370
    30
100
AcDbLine
 10
16.47938398148523
 20
-82.79593389683541
 30
0.0
 11
16.47938398148523
 21
-77.50609618888788
 31
0.0
  0
LINE
  5
373A
330
1F
100
AcDbEntity
  8
AM_0
  6
Continuous
370
    30
100
AcDbLine
 10
17.99999999999983
 20
-81.27531787832081
 30
0.0
 11
17.99999999999983
 21
-75.16998766523497
 31
0.0
  0
LINE
  5
373B
330
1F
100
AcDbEntity
  8
AM_0
  6
Continuous
370
    30
100
AcDbLine
 10
17.99999999999983
 20
-81.27531787832081
 30
0.0
 11
16.47938398148523
 21
-82.79593389683541
 31
0.0
  0
LINE
  5
373C
330
1F
100
AcDbEntity
  8
AM_0
  6
Continuous
370
    30
100
AcDbLine
 10
25.25000000000028
 20
-81.52531787832081
 30
0.0
 11
25.25000000000028
 21
-76.16920400349122
 31
0.0
  0
LINE
  5
373D
330
1F
100
AcDbEntity
  8
AM_0
  6
Continuous
370
    30
100
AcDbLine
 10
24.99999999999983
 20
-81.27531787832035
 30
0.0
 11
24.99999999999983
 21
-75.71681015015528
 31
0.0
  0
LINE
  5
373E
330
1F
100
AcDbEntity
  8
AM_0
  6
Continuous
370
    30
100
AcDbLine
 10
24.99999999999983
 20
-81.27531787832035
 30
0.0
 11
25.25000000000028
 21
-81.52531787832081
 31
0.0
  0
LINE
  5
373F
330
1F
100
AcDbEntity
  8
AM_0
  6
Continuous
370
    30
100
AcDbLine
 10
34.99999999999983
 20
-80.52531787832081
 30
0.0
 11
34.99999999999983
 21
-81.52531787832081
 31
0.0
  0
LINE
  5
3741
330
1F
100
AcDbEntity
  8
AM_0
  6
Continuous
370
    30
100
AcDbLine
 10
10.40943269889186
 20
-70.84470132114947
 30
0.0
 11
13.4238612709317
 21
-69.28705642678082
 31
0.0
  0
LINE
  5
3742
330
1F
100
AcDbEntity
  8
AM_0
  6
Continuous
370
    30
100
AcDbLine
 10
13.58719633061929
 20
-68.00623257734773
 30
0.0
 11
12.06773966060729
 21
-68.60285563342231
 31
0.0
  0
LINE
  5
3744
330
1F
100
AcDbEntity
  8
AM_0
  6
Continuous
370
    30
100
AcDbLine
 10
3.249722438582296
 20
-69.48099774630541
 30
0.0
 11
7.271310379882664
 21
-67.09790187316534
 31
0.0
  0
LINE
  5
3745
330
1F
100
AcDbEntity
  8
AM_0
  6
Continuous
370
    30
100
AcDbLine
 10
1.405560359950016
 20
-70.81975676237707
 30
0.0
 11
8.26251490487158
 21
-71.65275582107856
 31
0.0
  0
LINE
  5
3746
330
1F
100
AcDbEntity
  8
AM_0
  6
Continuous
370
    30
100
AcDbLine
 10
5.736507028399331
 20
-71.88616796207461
 30
0.0
 11
0.5793341448832621
 21
-71.5736975502094
 31
0.0
  0
LINE
  5
3747
330
1F
100
AcDbEntity
  8
AM_5
100
AcDbLine
 10
0.0
 20
-71.52531787832075
 30
0.0
 11
-3.889138696757414
 21
-71.18506233147448
 31
0.0
  0
LINE
  5
3748
330
1F
100
AcDbEntity
  8
AM_0
  6
Continuous
370
    30
100
AcDbLine
 10
0.2191631242922654
 20
-73.58642773671758
 30
0.0
 11
0.0000062085394461
 21
-71.50455348570935
 31
0.0
  0
LINE
  5
3749
330
1F
100
AcDbEntity
  8
AM_0
  6
Continuous
370
    30
100
AcDbLine
 10
0.0005490290712373
 20
-71.50338536518561
 30
0.0
 11
0.79055710868289
 21
-70.7824940365459
 31
0.0
  0
LINE
  5
374A
330
1F
100
AcDbEntity
  8
AM_0
  6
Continuous
370
    30
100
AcDbLine
 10
0.8131231111383954
 20
-70.59105747739554
 30
0.0
 11
0.8292290760217043
 21
-70.77791304567776
 31
0.0
  0
LINE
  5
374B
330
1F
100
AcDbEntity
  8
AM_0
  6
Continuous
370
    30
100
AcDbLine
 10
12.06773966060729
 20
-68.60285563342231
 30
0.0
 11
6.142093992816456
 21
-70.03190515524815
 31
0.0
  0
LINE
  5
374C
330
1F
100
AcDbEntity
  8
AM_0
  6
Continuous
370
    30
100
AcDbLine
 10
4.136212182380689
 20
-71.85457302560744
 30
0.0
 11
4.136386641051615
 21
-71.78921750321032
 31
0.0
  0
LINE
  5
374D
330
1F
100
AcDbEntity
  8
AM_0
  6
Continuous
370
    30
100
AcDbLine
 10
4.136386641051615
 20
-71.78921750321032
 30
0.0
 11
5.736507028413655
 21
-71.8861679618386
 31
0.0
  0
LINE
  5
374E
330
1F
100
AcDbEntity
  8
AM_0
  6
Continuous
370
    30
100
AcDbLine
 10
11.14996439919429
 20
-70.46204656767722
 30
0.0
 11
12.06773966060729
 21
-68.60285563342231
 31
0.0
  0
LINE
  5
3750
330
1F
100
AcDbEntity
  8
AM_0
  6
Continuous
370
    30
100
AcDbLine
 10
21.97085066165738
 20
-62.52531787832081
 30
0.0
 11
27.99999999634207
 21
-62.52531787832081
 31
0.0
  0
LINE
  5
3751
330
1F
100
AcDbEntity
  8
AM_0
  6
Continuous
370
    30
100
AcDbLine
 10
24.99999999999983
 20
-67.33382560648633
 30
0.0
 11
24.99999999999983
 21
-64.51398315667834
 31
0.0
  0
LINE
  5
3752
330
1F
100
AcDbEntity
  8
AM_0
  6
Continuous
370
    30
100
AcDbLine
 10
25.25000000000028
 20
-66.8814317531504
 30
0.0
 11
25.25000000000028
 21
-64.5223116344649
 31
0.0
  0
SPLINE
  5
3760
330
1F
100
AcDbEntity
  8
AM_0
  6
Continuous
370
    30
100
AcDbSpline
210
0.0
220
0.0
230
1.0
 70
    12
 71
     2
 72
     6
 73
     3
 74
     0
 42
0.0000000001
 43
0.0000000001
 40
0.0
 40
0.0
 40
0.0
 40
0.6582629195159426
 40
0.6582629195159426
 40
0.6582629195159426
 10
25.25000000000028
 20
16.8588989435406
 30
0.0
 41
1.0
 10
25.11561372345687
 20
16.55059568098736
 30
0.0
 41
1.000475593579015
 10
24.99999999999983
 20
16.24999999999901
 30
0.0
 41
1.0
  0
ELLIPSE
  5
3762
330
1F
100
AcDbEntity
  8
AM_0
  6
Continuous
370
    30
100
AcDbEllipse
 10
3.051363822244923
 20
12.49999999999992
 30
0.0
 11
-24.57717108997328
 21
3.339827003800112
 31
0.0
210
0.0
220
0.0
230
1.0
 40
0.3727090479189305
 41
3.886009668208926
 42
4.590659869734732
  0
SPLINE
  5
3763
330
1F
100
AcDbEntity
  8
AM_0
  6
Continuous
370
    30
100
AcDbSpline
210
0.0
220
0.0
230
1.0
 70
     8
 71
     3
 72
    18
 73
    14
 74
     0
 42
0.0000000001
 43
0.0000000001
 40
23.44012564466058
 40
23.44012564466058
 40
23.44012564466058
 40
23.44012564466058
 40
23.90807422476778
 40
23.90807422476778
 40
24.7010847070456
 40
24.7010847070456
 40
25.49409518932339
 40
25.49409518932339
 40
26.28710567160119
 40
26.28710567160119
 40
27.08011615387899
 40
27.08011615387899
 40
27.6191104327264
 40
27.6191104327264
 40
27.6191104327264
 40
27.6191104327264
 10
20.68189363760149
 20
3.941974287761155
 30
0.0
 10
20.84795100179605
 20
3.956623039261473
 30
0.0
 10
21.01438676779077
 20
3.968497761221812
 30
0.0
 10
21.45942747326086
 20
3.99287668593243
 30
0.0
 10
21.73566317257388
 20
3.999999999999915
 30
0.0
 10
22.26433682742578
 20
3.999999999999915
 30
0.0
 10
22.5405725267388
 20
3.99287668593243
 30
0.0
 10
23.10034001643118
 20
3.962213132421681
 30
0.0
 10
23.38387115096731
 20
3.938668927280929
 30
0.0
 10
23.94228729677894
 20
3.876372075214846
 30
0.0
 10
24.21732997574469
 20
3.837614942420629
 30
0.0
 10
24.65987811701126
 20
3.763401324298599
 30
0.0
 10
24.83363356292676
 20
3.73089786346182
 30
0.0
 10
24.99999999999983
 20
3.696938456699087
 30
0.0
  0
ELLIPSE
  5
3764
330
1F
100
AcDbEntity
  8
AM_0
  6
Continuous
370
    30
100
AcDbEllipse
 10
3.051363822244923
 20
12.49999999999992
 30
0.0
 11
-24.57717108997328
 21
3.339827003800112
 31
0.0
210
0.0
220
0.0
230
1.0
 40
0.3727090479189305
 41
2.420080737712077
 42
2.722944727558571
  0
SPLINE
  5
3765
330
1F
100
AcDbEntity
  8
AM_0
  6
Continuous
370
    30
100
AcDbSpline
210
0.0
220
0.0
230
1.0
 70
     8
 71
     3
 72
    20
 73
    16
 74
     0
 42
0.0000000001
 43
0.0000000001
 40
-5.896705634372176
 40
-5.896705634372176
 40
-5.896705634372176
 40
-5.896705634372176
 40
-5.588962166896391
 40
-5.588962166896391
 40
-4.647150745060365
 40
-4.647150745060365
 40
-3.705339323224344
 40
-3.705339323224344
 40
-2.779004492418252
 40
-2.779004492418252
 40
-1.852669661612168
 40
-1.852669661612168
 40
-0.9263348308060841
 40
-0.9263348308060841
 40
0.0
 40
0.0
 40
0.0
 40
0.0
 10
25.25000000000028
 20
3.643684645607351
 30
0.0
 10
25.34508658857573
 20
3.622581253916593
 30
0.0
 10
25.43798725508788
 20
3.600989681633934
 30
0.0
 10
25.80515620669058
 20
3.512127964791404
 30
0.0
 10
26.09727448004998
 20
3.432403362107294
 30
0.0
 10
26.64487858201443
 20
3.26558889936328
 30
0.0
 10
26.90023569146393
 20
3.178860016523373
 30
0.0
 10
27.32699935408124
 20
3.024041916930088
 30
0.0
 10
27.52791288299164
 20
2.945580248634457
 30
0.0
 10
27.88384098105445
 20
2.799182748126128
 30
0.0
 10
28.038875894456
 20
2.731377861717562
 30
0.0
 10
28.28854933137774
 20
2.618843111916391
 30
0.0
 10
28.38347679089867
 20
2.574093237440053
 30
0.0
 10
28.50837435378736
 20
2.514653024859086
 30
0.0
 10
28.53834841531085
 20
2.499999999999915
 30
0.0
 10
28.53834841531085
 20
2.499999999999915
 30
0.0
  0
SPLINE
  5
3766
330
1F
100
AcDbEntity
  8
AM_0
  6
Continuous
370
    30
100
AcDbSpline
210
0.0
220
0.0
230
1.0
 70
     8
 71
     3
 72
     8
 73
     4
 74
     0
 42
0.0000000001
 43
0.0000000001
 40
17.97635172800825
 40
17.97635172800825
 40
17.97635172800825
 40
17.97635172800825
 40
18.46585942543078
 40
18.46585942543078
 40
18.46585942543078
 40
18.46585942543078
 10
24.99999999999983
 20
3.696938456699087
 30
0.0
 10
25.08028692390263
 20
3.680549956984038
 30
0.0
 10
25.16376024898483
 20
3.662824581872116
 30
0.0
 10
25.25000000000028
 20
3.643684645607351
 30
0.0
  0
SPLINE
  5
3767
330
1F
100
AcDbEntity
  8
AM_0
  6
Continuous
370
    30
100
AcDbSpline
210
0.0
220
0.0
230
1.0
 70
    12
 71
     2
 72
     6
 73
     3
 74
     0
 42
0.0000000001
 43
0.0000000001
 40
0.0003223172392989
 40
0.0003223172392989
 40
0.0003223172392989
 40
0.4413759185002915
 40
0.4413759185002915
 40
0.4413759185002915
 10
25.25000000000028
 20
5.361519521038332
 30
0.0
 41
1.000000458692476
 10
25.12023350939973
 20
5.546449206348285
 30
0.0
 41
1.000314063141302
 10
24.99999999999983
 20
5.724774142430221
 30
0.0
 41
1.000000495060994
  0
SPLINE
  5
3768
330
1F
100
AcDbEntity
  8
AM_0
  6
Continuous
370
    30
100
AcDbSpline
210
0.0
220
0.0
230
1.0
 70
     8
 71
     3
 72
    12
 73
     8
 74
     0
 42
0.0000000001
 43
0.0000000001
 40
3.142632610230512
 40
3.142632610230512
 40
3.142632610230512
 40
3.142632610230512
 40
4.598275990062259
 40
4.598275990062259
 40
6.131034653416345
 40
6.131034653416345
 40
7.212585606604373
 40
7.212585606604373
 40
7.212585606604373
 40
7.212585606604373
 10
10.99999999999983
 20
0.7518979596328848
 30
0.0
 10
10.49355977590273
 20
0.7542889228663228
 30
0.0
 10
9.977664707118095
 20
0.7581742862859358
 30
0.0
 10
8.928106899674788
 20
0.7639863851724442
 30
0.0
 10
8.394935347764488
 20
0.7657851749967506
 30
0.0
 10
7.523498808917168
 20
0.7657851749967506
 30
0.0
 10
7.156913725510833
 20
0.7649440184958678
 30
0.0
 10
6.787425938577428
 20
0.7634008681610851
 30
0.0
  0
ELLIPSE
  5
3769
330
1F
100
AcDbEntity
  8
AM_0
  6
Continuous
370
    30
100
AcDbEllipse
 10
7.487002831782149
 20
0.4542068436816464
 30
0.0
 11
-8.962375597276456
 21
-4.437115358953212
 31
0.0
210
0.0
220
0.0
230
0.9999999999999999
 40
0.2794761917945778
 41
4.246000052896752
 42
4.769598828495047
  0
ELLIPSE
  5
376A
330
1F
100
AcDbEntity
  8
AM_0
  6
Continuous
370
    30
100
AcDbEllipse
 10
4.112851868683777
 20
12.49999999999992
 30
0.0
 11
-0.05254505448421951
 21
11.74999910341761
 31
0.0
210
0.0
220
0.0
230
1.0
 40
0.087356892679517
 41
2.740021960526056
 42
3.113176617440848
  0
ELLIPSE
  5
376B
330
1F
100
AcDbEntity
  8
AM_0
  6
Continuous
370
    30
100
AcDbEllipse
 10
7.405461799846819
 20
12.49999999999992
 30
0.0
 11
134.3299789697286
 21
0.6197389921472822
 31
0.0
210
0.0
220
0.0
230
1.0
 40
0.0873494139591776
 41
4.687646134192973
 42
4.70738509494124
  0
SPLINE
  5
376C
330
1F
100
AcDbEntity
  8
AM_0
  6
Continuous
370
    30
100
AcDbSpline
210
0.0
220
0.0
230
1.0
 70
     8
 71
     3
 72
    10
 73
     6
 74
     0
 42
0.0000000001
 43
0.0000000001
 40
23.40567502971075
 40
23.40567502971075
 40
23.40567502971075
 40
23.40567502971075
 40
23.56740164024185
 40
23.56740164024185
 40
24.84785100447424
 40
24.84785100447424
 40
24.84785100447424
 40
24.84785100447424
 10
12.41375927504743
 20
0.877529567834614
 30
0.0
 10
12.36260914436394
 20
0.8724676069156487
 30
0.0
 10
12.31123284024244
 20
0.8674639999398153
 30
0.0
 10
11.85118807090254
 20
0.8233100599119609
 30
0.0
 10
11.42911607473735
 20
0.7872653675880486
 30
0.0
 10
10.99999999999983
 20
0.7518979596328848
 30
0.0
  0
SPLINE
  5
376D
330
1F
100
AcDbEntity
  8
AM_0
  6
Continuous
370
    30
100
AcDbSpline
210
0.0
220
0.0
230
1.0
 70
     8
 71
     3
 72
     8
 73
     4
 74
     0
 42
0.0000000001
 43
0.0000000001
 40
22.98559115201238
 40
22.98559115201238
 40
22.98559115201238
 40
22.98559115201238
 40
23.49844797169434
 40
23.49844797169434
 40
23.49844797169434
 40
23.49844797169434
 10
12.88800154854454
 20
0.9151787322170151
 30
0.0
 10
12.88800154854454
 20
0.9151787322170151
 30
0.0
 10
12.89360034639418
 20
0.9194671240392438
 30
0.0
 10
12.90515627640804
 20
0.9282780669904298
 30
0.0
  0
ELLIPSE
  5
376E
330
1F
100
AcDbEntity
  8
AM_0
  6
Continuous
370
    30
100
AcDbEllipse
 10
-4.24050133763734
 20
13.35107061324689
 30
0.0
 11
-32.98239968753943
 21
4.446488883631981
 31
0.0
210
0.0
220
0.0
230
1.0
 40
0.3635537025842534
 41
2.148384967636328
 42
2.165706569602366
  0
ELLIPSE
  5
376F
330
1F
100
AcDbEntity
  8
AM_0
  6
Continuous
370
    30
100
AcDbEllipse
 10
13.81323690302617
 20
7.310352971800882
 30
0.0
 11
0.2053902087738616
 21
0.3432416963887542
 31
0.0
210
0.0
220
0.0
230
1.0
 40
0.9948306801410284
 41
4.154207851384063
 42
6.24860295377709
  0
ELLIPSE
  5
3770
330
1F
100
AcDbEntity
  8
AM_0
  6
Continuous
370
    30
100
AcDbEllipse
 10
12.58219347479763
 20
8.164484531234308
 30
0.0
 11
2.144809174098657
 21
-2.056812241550629
 31
0.0
210
0.0
220
0.0
230
1.0
 40
0.6513450054079232
 41
5.539644152063687
 42
5.610018015229409
  0
ELLIPSE
  5
3771
330
1F
100
AcDbEntity
  8
AM_0
  6
Continuous
370
    30
100
AcDbEllipse
 10
12.70334898759239
 20
8.091987056921568
 30
0.0
 11
-1.026951043869308
 21
-1.71620848194377
 31
0.0
210
0.0
220
0.0
230
1.0
 40
0.9948306801410283
 41
0.4890164221958254
 42
2.905268210115344
  0
ELLIPSE
  5
3772
330
1F
100
AcDbEntity
  8
AM_0
  6
Continuous
370
    30
100
AcDbEllipse
 10
13.43232196069522
 20
7.655781570492223
 30
0.0
 11
-2.082512190175606
 21
0.01244529150734186
 31
0.0
210
0.0
220
0.0
230
1.0
 40
0.9461592452453379
 41
1.572387925805264
 42
4.643606716229299
  0
ELLIPSE
  5
3773
330
1F
100
AcDbEntity
  8
AM_0
  6
Continuous
370
    30
100
AcDbEllipse
 10
3.051363822244923
 20
12.49999999999992
 30
0.0
 11
-25.20735496407564
 21
3.425463593641206
 31
0.0
210
0.0
220
0.0
230
1.0
 40
0.3727090479189306
 41
2.696240763561517
 42
3.040191736712918
  0
ELLIPSE
  5
3774
330
1F
100
AcDbEntity
  8
AM_0
  6
Continuous
370
    30
100
AcDbEllipse
 10
-0.2423876828367497
 20
15.62565162767592
 30
0.0
 11
0.9077563192211264
 21
20.15885122378145
 31
0.0
210
0.0
220
0.0
230
1.0
 40
0.0509350241461461
 41
4.744619614562304
 42
4.807225174226688
  0
SPLINE
  5
3775
330
1F
100
AcDbEntity
  8
AM_0
  6
Continuous
370
    30
100
AcDbSpline
210
0.0
220
0.0
230
1.0
 70
    28
 71
     2
 72
     6
 73
     3
 74
     0
 42
0.0000000001
 43
0.0000000001
 40
0.0
 40
0.0
 40
0.0
 40
0.6582629195159426
 40
0.6582629195159426
 40
0.6582629195159426
 10
-64.01600620988671
 20
16.8588989435375
 30
0.0
 41
1.0
 10
-64.01600620988671
 20
16.55059568098426
 30
0.0
 41
1.000475593579015
 10
-64.01600620988671
 20
16.24999999999591
 30
0.0
 41
1.0
  0
ELLIPSE
  5
3776
330
1F
100
AcDbEntity
  8
AM_0
  6
Continuous
370
    30
100
AcDbEllipse
 10
-61.60190033888313
 20
21.00376586112725
 30
0.0
 11
-8.520714947729893
 21
-9.882372444272379
 31
0.0
210
0.0
220
0.0
230
1.0
 40
0.617716748044719
 41
5.64233292713573
 42
5.990191741918759
  0
ELLIPSE
  5
3777
330
1F
100
AcDbEntity
  8
AM_0
  6
Continuous
370
    30
100
AcDbEllipse
 10
-72.3090406717302
 20
15.47370801928332
 30
0.0
 11
0.02093652367972844
 21
0.3994517016814528
 31
0.0
210
0.0
220
0.0
230
1.0
 40
0.0871384379848884
 41
4.764889077538435
 42
6.300188797576596
  0
ELLIPSE
  5
3778
330
1F
100
AcDbEntity
  8
AM_0
  6
Continuous
370
    30
100
AcDbEllipse
 10
-62.12378299371477
 20
15.62565162767282
 30
0.0
 11
3.210984517279549
 21
20.09781639347447
 31
0.0
210
0.0
220
0.0
230
1.0
 40
0.488380620268633
 41
1.562497514160791
 42
1.618729037469132
  0
ELLIPSE
  5
3779
330
1F
100
AcDbEntity
  8
AM_0
  6
Continuous
370
    30
100
AcDbEllipse
 10
-62.04144362120138
 20
16.47417676486248
 30
0.0
 11
10.0374014215836
 21
0.03011585319837895
 31
0.0
210
0.0
220
0.0
230
1.0
 40
0.4988126486250565
 41
2.665977836377765
 42
2.957605127852458
  0
ELLIPSE
  5
377A
330
1F
100
AcDbEntity
  8
AM_0
  6
Continuous
370
    30
100
AcDbEllipse
 10
0.3984784847642118
 20
0.39945586780496
 30
0.0
 11
0.2053902087738616
 21
0.3432416963887542
 31
0.0
210
0.0
220
0.0
230
1.0
 40
0.9948306801410284
 41
2.059812748990713
 42
4.154207851383903
  0
SPLINE
  5
377B
330
1F
100
AcDbEntity
  8
AM_0
  6
Continuous
370
    30
100
AcDbSpline
210
0.0
220
0.0
230
1.0
 70
     8
 71
     3
 72
    16
 73
    12
 74
     0
 42
0.0000000001
 43
0.0000000001
 40
-5.896705634372176
 40
-5.896705634372176
 40
-5.896705634372176
 40
-5.896705634372176
 40
-5.588962166896391
 40
-5.588962166896391
 40
-4.647150745060365
 40
-4.647150745060365
 40
-3.705339323224344
 40
-3.705339323224344
 40
-2.779004492418252
 40
-2.779004492418252
 40
-2.460854550623642
 40
-2.460854550623642
 40
-2.460854550623642
 40
-2.460854550623642
 10
-68.37212008471653
 20
3.643684645604253
 30
0.0
 10
-68.41236618180466
 20
3.622581253913495
 30
0.0
 10
-68.45421257638174
 20
3.600989681630836
 30
0.0
 10
-68.62964931006565
 20
3.512127964788306
 30
0.0
 10
-68.79445704010556
 20
3.432403362104196
 30
0.0
 10
-69.17303352534674
 20
3.265588899360182
 30
0.0
 10
-69.38714735446712
 20
3.178860016520275
 30
0.0
 10
-69.81338510919915
 20
3.02404191692699
 30
0.0
 10
-70.05182483877053
 20
2.945580248631359
 30
0.0
 10
-70.40202493755447
 20
2.847241368309369
 30
0.0
 10
-70.49417805825675
 20
2.822737488083703
 30
0.0
 10
-70.58856908756189
 20
2.799095453658993
 30
0.0
  0
ELLIPSE
  5
377C
330
1F
100
AcDbEntity
  8
AM_0
  6
Continuous
370
    30
100
AcDbEllipse
 10
-79.87246703143734
 20
8.16448453123121
 30
0.0
 11
10.06231218285872
 21
-2.338608308299953
 31
0.0
210
0.0
220
0.0
230
1.0
 40
0.0839180024882102
 41
5.78977604195647
 42
5.860149905122192
  0
SPLINE
  5
377D
330
1F
100
AcDbEntity
  8
AM_0
  6
Continuous
370
    30
100
AcDbSpline
210
0.0
220
0.0
230
1.0
 70
     8
 71
     3
 72
     8
 73
     4
 74
     0
 42
0.0000000001
 43
0.0000000001
 40
17.97635172800825
 40
17.97635172800825
 40
17.97635172800825
 40
17.97635172800825
 40
18.46585942543078
 40
18.46585942543078
 40
18.46585942543078
 40
18.46585942543078
 10
-68.82451393805224
 20
3.696938456695989
 30
0.0
 10
-68.67217474832029
 20
3.68054995698094
 30
0.0
 10
-68.52132447518858
 20
3.662824581869018
 30
0.0
 10
-68.37212008471653
 20
3.643684645604253
 30
0.0
  0
SPLINE
  5
377E
330
1F
100
AcDbEntity
  8
AM_0
  6
Continuous
370
    30
100
AcDbSpline
210
0.0
220
0.0
230
1.0
 70
    12
 71
     2
 72
     6
 73
     3
 74
     0
 42
0.0000000001
 43
0.0000000001
 40
0.0003223172392989
 40
0.0003223172392989
 40
0.0003223172392989
 40
0.4413759185002915
 40
0.4413759185002915
 40
0.4413759185002915
 10
-66.0129999660308
 20
5.361519521035234
 30
0.0
 41
1.000000458692476
 10
-66.0097939082637
 20
5.546449206345188
 30
0.0
 41
1.000314063141302
 10
-66.00467148824427
 20
5.724774142427123
 30
0.0
 41
1.000000495060994
  0
ELLIPSE
  5
377F
330
1F
100
AcDbEntity
  8
AM_0
  6
Continuous
370
    30
100
AcDbEllipse
 10
-73.02993200036968
 20
0.399455867801862
 30
0.0
 11
0.02093652367972844
 21
0.3994517016814528
 31
0.0
210
0.0
220
0.0
230
1.0
 40
0.0871384379848884
 41
3.124589163192717
 42
4.764889077538509
  0
SPLINE
  5
3780
330
1F
100
AcDbEntity
  8
AM_0
  6
Continuous
370
    30
100
AcDbSpline
210
0.0
220
0.0
230
1.0
 70
     8
 71
     3
 72
    10
 73
     6
 74
     0
 42
0.0000000001
 43
0.0000000001
 40
23.40567502971075
 40
23.40567502971075
 40
23.40567502971075
 40
23.40567502971075
 40
23.56740164024185
 40
23.56740164024185
 40
24.08168611631814
 40
24.08168611631814
 40
24.08168611631814
 40
24.08168611631814
 10
-72.71715193326605
 20
0.877529567831516
 30
0.0
 10
-72.73991917237123
 20
0.8724676069125508
 30
0.0
 10
-72.7622756048541
 20
0.8674639999367173
 30
0.0
 10
-72.85399869686381
 20
0.8467671130806593
 30
0.0
 10
-72.91960770219436
 20
0.8315310876869262
 30
0.0
 10
-72.98101504972198
 20
0.8166594435847401
 30
0.0
  0
ELLIPSE
  5
3781
330
1F
100
AcDbEntity
  8
AM_0
  6
Continuous
370
    30
100
AcDbEllipse
 10
-75.77685532725383
 20
13.35107061324379
 30
0.0
 11
-12.50280036937933
 21
3.854164253576097
 31
0.0
210
0.0
220
0.0
230
1.0
 40
0.9753149275650225
 41
2.099412031594918
 42
2.116733633560957
  0
ELLIPSE
  5
3782
330
1F
100
AcDbEntity
  8
AM_0
  6
Continuous
370
    30
100
AcDbEllipse
 10
-63.5959930543068
 20
0.5792068436785485
 30
0.0
 11
9.711278461304248
 21
-3.055003079375972
 31
0.0
210
0.0
220
0.0
230
0.9999999999999998
 40
0.4199082135933758
 41
2.804263278957235
 42
2.925972195587621
  0
ELLIPSE
  5
3783
330
1F
100
AcDbEntity
  8
AM_0
  6
Continuous
370
    30
100
AcDbEllipse
 10
-72.40411708953667
 20
-11.00000000000318
 30
0.0
 11
5.41926055237003
 21
14.86339052510198
 31
0.0
210
0.0
220
0.0
230
1.0
 40
0.3727090479189305
 41
0.2230513447435207
 42
0.786492502975311
  0
ELLIPSE
  5
3784
330
1F
100
AcDbEntity
  8
AM_0
  6
Continuous
370
    30
100
AcDbEllipse
 10
-70.16683172983295
 20
7.655781570489125
 30
0.0
 11
0.7254190729628341
 21
1.949679448983147
 31
0.0
210
0.0
220
0.0
230
1.0
 40
0.3931409405476674
 41
3.282114407556889
 42
6.353333197980923
  0
ELLIPSE
  5
3785
330
1F
100
AcDbEntity
  8
AM_0
  6
Continuous
370
    30
100
AcDbEllipse
 10
-2.982373606026783
 20
21.00376586113035
 30
0.0
 11
16.7003874677103
 21
-11.0761751838869
 31
0.0
210
0.0
220
0.0
230
1.0
 40
0.0980786526237104
 41
5.006127261635855
 42
5.353986076418883
  0
ELLIPSE
  5
3786
330
1F
100
AcDbEntity
  8
AM_0
  6
Continuous
370
    30
100
AcDbEllipse
 10
1.188486564375864
 20
15.47370801928642
 30
0.0
 11
0.2053902087738616
 21
0.3432416963887542
 31
0.0
210
0.0
220
0.0
230
1.0
 40
0.9948306801410284
 41
6.248602953777051
 42
8.342998056170373
  0
SPLINE
  5
3787
330
1F
100
AcDbEntity
  8
AM_0
  6
Continuous
370
    30
100
AcDbSpline
210
0.0
220
0.0
230
1.0
 70
     8
 71
     3
 72
    12
 73
     8
 74
     0
 42
0.0000000001
 43
0.0000000001
 40
3.098669585242988
 40
3.098669585242988
 40
3.098669585242988
 40
3.098669585242988
 40
3.380446631232775
 40
3.380446631232775
 40
4.507262174977033
 40
4.507262174977033
 40
5.58917892296384
 40
5.58917892296384
 40
5.58917892296384
 40
5.58917892296384
 10
10.99999999999994
 20
0.7689112307143091
 30
0.0
 10
10.89943721998571
 20
0.7695863896794322
 30
0.0
 10
10.79911169598495
 20
0.7702068321578963
 30
0.0
 10
10.29962273842801
 20
0.7729893816348863
 30
0.0
 10
9.906532163074246
 20
0.7741317359828486
 30
0.0
 10
9.170288065830562
 20
0.7741317359828486
 30
0.0
 10
8.803831053787235
 20
0.7730999728030383
 30
0.0
 10
8.434635093503971
 20
0.771162573073525
 30
0.0
  0
ELLIPSE
  5
3788
330
1F
100
AcDbEntity
  8
AM_0
  6
Continuous
370
    30
100
AcDbEllipse
 10
4.112851868683833
 20
12.4999999999979
 30
0.0
 11
-0.05254505448421951
 21
11.74999910341761
 31
0.0
210
0.0
220
0.0
230
1.0
 40
0.087356892679517
 41
2.740021960525612
 42
3.113176617424706
  0
ARC
  5
3789
330
1F
100
AcDbEntity
  8
AM_0
  6
Continuous
370
    30
100
AcDbCircle
 10
-73.01600620988671
 20
12.49999999999682
 30
0.0
 40
11.75
100
AcDbArc
 50
179.0517996111584
 51
246.1642698092923
  0
DIMENSION
  5
378A
330
1F
100
AcDbEntity
  8
AM_5
100
AcDbDimension
  2
*D26
 10
-63.93754051414823
 20
3.907476470130941
 30
0.0
 11
-111.9986640929654
 21
31.08774471494451
 31
0.0
 70
   163
  1
最小加工径：<>
 71
     5
 42
25.00000000000001
  3
AM_JIS$3
100
AcDbDiametricDimension
 15
-82.09447190562514
 25
21.09252352986285
 35
0.0
 40
0.0
1001
GENIUS_GENDTOL_13
1000

1000
h7
1000

1040
0.0
1001
ACAD
1000
DSTYLE
1002
{
1070
   271
1070
     0
1070
   288
1070
     1
1070
   289
1070
     3
1070
   172
1070
     1
1070
    74
1070
     1
1002
}
  0
LINE
  5
378B
330
1F
100
AcDbEntity
  8
AM_7
  6
CENTER
370
    13
100
AcDbLine
 10
-57.36100641602781
 20
12.49999999999682
 30
0.0
 11
-88.67100600374562
 21
12.49999999999682
 31
0.0
1001
GENIUS_GENODEF_13
1002
{
1000
HIER
1070
     0
1002
}
1002
{
1000
MANEDIT
1070
     0
1002
}
1002
{
1000
NOSEL
1070
     0
1002
}
1002
{
1000
BEHIND
1070
     0
1002
}
1002
{
1000
REACTOR
1002
}
1001
GENIUS_GENOBJ-N-CEN_13
1002
{
1000
OWNER
1000
GEN
1002
}
  0
DIMENSION
  5
3793
330
1F
100
AcDbEntity
  8
AM_5
100
AcDbDimension
  2
*D28
 10
-14.6408758749443
 20
0.0000000000000315
 30
0.0
 11
-14.6408758749443
 21
6.602457001872892
 31
0.0
 70
   160
  1
<>
 71
     5
 42
12.49999999999682
  3
AM_JIS$0
100
AcDbAlignedDimension
 13
-2.16554845196589
 23
12.49999999999685
 33
0.0
 14
-3.89017124878859
 24
0.0000000000000284
 34
0.0
 50
270.0
100
AcDbRotatedDimension
1001
ACAD
1000
DSTYLE
1002
{
1070
   271
1070
     1
1002
}
  0
DIMENSION
  5
3795
330
1F
100
AcDbEntity
  8
AM_5
100
AcDbDimension
  2
*D29
 10
-73.01600620988671
 20
28.85366351642327
 30
0.0
 11
-62.22359525674456
 21
-18.02971925847086
 31
0.0
 70
   162
  1
-<>
 71
     5
 42
0.0477862856747624
  3
AM_JIS$2
100
AcDb2LineAngularDimension
 13
-72.99407369675151
 23
0.418595626250692
 33
0.0
 14
-72.27318236811192
 24
15.49284777773204
 34
0.0
 15
-73.01600620988671
 25
-3.700659642481298
 35
0.0
 16
-73.5450469606028
 26
-16.64086924465989
 36
0.0
1001
GENIUS_GENDTOL_13
1000

1000
h7
1000

1040
0.0
1001
ACAD
1000
DSTYLE
1002
{
1070
   279
1070
     1
1002
}
  0
LINE
  5
3797
330
1F
100
AcDbEntity
  8
AM_0
  6
Continuous
370
    30
100
AcDbLine
 10
-77.13491926201283
 20
14.78929296226124
 30
0.0
 11
-77.76901440358398
 21
1.529998985027987
 31
0.0
  0
LINE
  5
3798
330
1F
100
AcDbEntity
  8
AM_0
  6
Continuous
370
    30
100
AcDbLine
 10
-77.76436680539024
 20
1.627182935352039
 30
0.0
 11
-77.113505381685
 21
15.23706951162239
 31
0.0
  0
LINE
  5
3799
330
1F
100
AcDbEntity
  8
AM_0
  6
Continuous
370
    30
100
AcDbLine
 10
-72.99407369675151
 20
0.4185956262506352
 30
0.0
 11
-72.2731823681118
 21
15.4928477777321
 31
0.0
  0
ARC
  5
379A
330
1F
100
AcDbEntity
  8
AM_0
  6
Continuous
370
    30
100
AcDbCircle
 10
-73.01600620988671
 20
12.49999999999682
 30
0.0
 40
10.0
100
AcDbArc
 50
314.4511281158408
 51
334.1580672368391
  0
LINE
  5
379B
330
1F
100
AcDbEntity
  8
AM_7
  6
CENTER
370
    13
100
AcDbLine
 10
-73.01600620988671
 20
-3.777161579455452
 30
0.0
 11
-73.01600620988671
 21
28.77716157944911
 31
0.0
1001
GENIUS_GENODEF_13
1002
{
1000
HIER
1070
     0
1002
}
1002
{
1000
MANEDIT
1070
     0
1002
}
1002
{
1000
NOSEL
1070
     0
1002
}
1002
{
1000
BEHIND
1070
     0
1002
}
1002
{
1000
REACTOR
1002
}
1001
GENIUS_GENOBJ-N-CEN_13
1002
{
1000
OWNER
1000
GEN
1002
}
  0
CIRCLE
  5
379C
330
1F
100
AcDbEntity
  8
AM_11
  6
ACJISTGB
100
AcDbCircle
 10
-73.01600620988671
 20
12.49999999999682
 30
0.0
 40
12.5
  0
LINE
  5
379D
330
1F
100
AcDbEntity
  8
AM_0
  6
Continuous
370
    30
100
AcDbLine
 10
-75.07711606866184
 20
0.5067552422747212
 30
0.0
 11
-73.05145731968042
 21
0.0000929284692575
 31
0.0
  0
LINE
  5
379E
330
1F
100
AcDbEntity
  8
AM_0
  6
Continuous
370
    30
100
AcDbLine
 10
-75.07711606832578
 20
0.5067552421471646
 30
0.0
 11
-77.76901440358398
 21
1.529998985027987
 31
0.0
  0
LINE
  5
379F
330
1F
100
AcDbEntity
  8
AM_0
  6
Continuous
370
    30
100
AcDbLine
 10
-77.76901440358398
 20
1.654998985027987
 30
0.0
 11
-77.78132739924382
 21
1.759692091828583
 31
0.0
  0
LINE
  5
37A0
330
1F
100
AcDbEntity
  8
AM_0
  6
Continuous
370
    30
100
AcDbLine
 10
-71.10330555542629
 20
5.704879272605922
 30
0.0
 11
-72.73551711175497
 21
5.825162473183355
 31
0.0
  0
LINE
  5
37A1
330
1F
100
AcDbEntity
  8
AM_0
  6
Continuous
370
    30
100
AcDbLine
 10
-72.33538965271538
 20
4.686672877284082
 30
0.0
 11
-70.77774475834673
 21
5.68537609619375
 31
0.0
  0
ARC
  5
37A2
330
1F
100
AcDbEntity
  8
AM_0
  6
Continuous
370
    30
100
AcDbCircle
 10
-73.01600620988671
 20
12.49999999999682
 30
0.0
 40
10.0
100
AcDbArc
 50
297.6706612767713
 51
314.4511281158408
  0
ARC
  5
37A3
330
1F
100
AcDbEntity
  8
AM_0
  6
Continuous
370
    30
100
AcDbCircle
 10
-73.01600620988671
 20
12.49999999999682
 30
0.0
 40
9.749999999999814
100
AcDbArc
 50
298.6283241644427
 51
315.9811525491355
  0
LINE
  5
37A4
330
1F
100
AcDbEntity
  8
AM_0
  6
Continuous
370
    30
100
AcDbLine
 10
-70.97168607787154
 20
18.86493473256769
 30
0.0
 11
-68.58859020473125
 21
21.18679961304702
 31
0.0
  0
LINE
  5
37A5
330
1F
100
AcDbEntity
  8
AM_0
  6
Continuous
370
    30
100
AcDbLine
 10
-69.49692090891341
 20
9.745655276269645
 30
0.0
 11
-70.09354396498821
 21
9.853818747142668
 31
0.0
  0
ARC
  5
37A6
330
1F
100
AcDbEntity
  8
AM_0
  6
Continuous
370
    30
100
AcDbCircle
 10
-73.01600620988671
 20
12.49999999999682
 30
0.0
 40
10.0
100
AcDbArc
 50
25.84193276316089
 51
120.0855610093624
  0
ARC
  5
37A7
330
1F
100
AcDbEntity
  8
AM_0
  6
Continuous
370
    30
100
AcDbCircle
 10
-73.01600620988671
 20
12.49999999999682
 30
0.0
 40
9.749999999999815
100
AcDbArc
 50
62.99334752851063
 51
90.0
  0
LINE
  5
37A8
330
1F
100
AcDbEntity
  8
AM_0
  6
Continuous
370
    30
100
AcDbLine
 10
-71.91218198475423
 20
17.48556633576254
 30
0.0
 11
-82.08500517844578
 21
18.1083241030276
 31
0.0
  0
ARC
  5
37A9
330
1F
100
AcDbEntity
  8
AM_0
  6
Continuous
370
    30
100
AcDbCircle
 10
-73.01600620988671
 20
10.24999999999682
 30
0.0
 40
12.0
100
AcDbArc
 50
139.090938811649
 51
168.2463743831295
  0
LINE
  5
37AA
330
1F
100
AcDbEntity
  8
AM_0
  6
Continuous
370
    30
100
AcDbLine
 10
-70.09354396498821
 20
9.728818747142668
 30
0.0
 11
-71.52259348681383
 21
13.0627140970123
 31
0.0
  0
LINE
  5
37AB
330
1F
100
AcDbEntity
  8
AM_0
  6
Continuous
370
    30
100
AcDbLine
 10
-72.54021117286885
 20
9.909121944587014
 30
0.0
 11
-70.09354396498821
 21
9.728818747142668
 31
0.0
  0
LINE
  5
37AC
330
1F
100
AcDbEntity
  8
AM_0
  6
Continuous
370
    30
100
AcDbLine
 10
-74.35622473964651
 20
15.58100739380916
 30
0.0
 11
-72.28869899667581
 21
15.87313299714515
 31
0.0
  0
LINE
  5
37AD
330
1F
100
AcDbEntity
  8
AM_0
  6
Continuous
370
    30
100
AcDbLine
 10
-72.08174580896167
 20
16.22905912438023
 30
0.0
 11
-75.07828633938067
 21
15.3752753191734
 31
0.0
  0
LINE
  5
37AE
330
1F
100
AcDbEntity
  8
AM_0
  6
Continuous
370
    30
100
AcDbLine
 10
-74.35622473967538
 20
15.58100739385509
 30
0.0
 11
-77.13491926201283
 21
14.78929296226124
 31
0.0
  0
LINE
  5
37AF
330
1F
100
AcDbEntity
  8
AM_0
  6
Continuous
370
    30
100
AcDbLine
 10
-77.113505381685
 20
15.23706951162239
 30
0.0
 11
-75.07828633938067
 21
15.3752753191734
 31
0.0
  0
ARC
  5
37B0
330
1F
100
AcDbEntity
  8
AM_0
  6
Continuous
370
    30
100
AcDbCircle
 10
-73.01600620988671
 20
10.24999999999682
 30
0.0
 40
12.0
100
AcDbArc
 50
90.0
 51
139.090938811649
  0
ARC
  5
37B1
330
1F
100
AcDbEntity
  8
AM_0
  6
Continuous
370
    30
100
AcDbCircle
 10
-73.01600620988671
 20
12.49999999999682
 30
0.0
 40
9.749999999999814
100
AcDbArc
 50
22.61986494804468
 51
62.99334752851063
  0
LINE
  5
37B2
330
1F
100
AcDbEntity
  8
AM_0
  6
Continuous
370
    30
100
AcDbLine
 10
-64.01600620988671
 20
16.24999999999682
 30
0.0
 11
-64.01600620988671
 21
8.141101056456137
 31
0.0
  0
LINE
  5
37C6
330
1F
100
AcDbEntity
  8
AM_0
  6
Continuous
370
    30
100
AcDbLine
 10
13.58719633061929
 20
9.620655276272743
 30
0.0
 11
12.06773966060729
 21
9.728818747145766
 31
0.0
  0
LINE
  5
37C7
330
1F
100
AcDbEntity
  8
AM_0
  6
Continuous
370
    30
100
AcDbLine
 10
9.112827468706485
 20
22.24999999999992
 30
0.0
 11
17.99999999999983
 21
22.24999999999992
 31
0.0
  0
LINE
  5
37C8
330
1F
100
AcDbEntity
  8
AM_0
  6
Continuous
370
    30
100
AcDbLine
 10
12.88800154854454
 20
0.9151787322170151
 30
0.0
 11
11.66408647818622
 21
0.808100038442177
 31
0.0
  0
LINE
  5
37C9
330
1F
100
AcDbEntity
  8
AM_0
  6
Continuous
370
    30
100
AcDbLine
 10
10.40943269889186
 20
4.68667287728718
 30
0.0
 11
13.4238612709317
 21
5.685376096196848
 31
0.0
  0
LINE
  5
37CA
330
1F
100
AcDbEntity
  8
AM_0
  6
Continuous
370
    30
100
AcDbLine
 10
13.25409901064046
 20
5.70487927260902
 30
0.0
 11
11.94605361937585
 21
5.900150829115006
 31
0.0
  0
LINE
  5
37CB
330
1F
100
AcDbEntity
  8
AM_0
  6
Continuous
370
    30
100
AcDbLine
 10
1.405560359950016
 20
15.80967973665761
 30
0.0
 11
14.03031069860009
 21
7.646324689172076
 31
0.0
  0
LINE
  5
37CC
330
1F
100
AcDbEntity
  8
AM_0
  6
Continuous
370
    30
100
AcDbLine
 10
13.99409256314522
 20
6.955241495980687
 30
0.0
 11
0.5793341448832621
 21
0.04434439198522
 31
0.0
  0
LINE
  5
37CD
330
1F
100
AcDbEntity
  8
AM_0
  6
Continuous
370
    30
100
AcDbLine
 10
11.56737159877883
 20
9.803516193357439
 30
0.0
 11
13.51307155415992
 21
9.665010328330084
 31
0.0
  0
LINE
  5
37CE
330
1F
100
AcDbEntity
  8
AM_7
  6
AM_ISO08W050x2
100
AcDbLine
 10
5.133400650722081
 20
12.87783895296414
 30
0.0
 11
5.133400650722081
 21
2.577838952964186
 31
0.0
1001
GENIUS_GENODEF_13
1002
{
1000
HIER
1070
     0
1002
}
1002
{
1000
MANEDIT
1070
     0
1002
}
1002
{
1000
NOSEL
1070
     0
1002
}
1002
{
1000
BEHIND
1070
     0
1002
}
1002
{
1000
REACTOR
1002
}
1001
GENIUS_GENOBJ-N-CEN_13
1002
{
1000
OWNER
1000
GEN
1002
}
  0
CIRCLE
  5
37CF
330
1F
100
AcDbEntity
  8
AM_0
  6
Continuous
370
    30
100
AcDbCircle
 10
5.133400650722081
 20
7.727838952964163
 30
0.0
 40
2.8
  0
CIRCLE
  5
37D0
330
1F
100
AcDbEntity
  8
AM_0
  6
Continuous
370
    30
100
AcDbCircle
 10
5.133400650722081
 20
7.727838952964163
 30
0.0
 40
2.35
  0
LINE
  5
37D1
330
1F
100
AcDbEntity
  8
AM_0
  6
Continuous
370
    30
100
AcDbLine
 10
0.0005490290712373
 20
0.4185956262537331
 30
0.0
 11
0.79055710868289
 21
15.49284777773519
 31
0.0
  0
LINE
  5
37D2
330
1F
100
AcDbEntity
  8
AM_7
  6
CENTER
370
    13
100
AcDbLine
 10
5.133400650722194
 20
12.87783895296201
 30
0.0
 11
5.133400650722194
 21
2.577838952962054
 31
0.0
1001
GENIUS_GENODEF_13
1002
{
1000
HIER
1070
     0
1002
}
1002
{
1000
MANEDIT
1070
     0
1002
}
1002
{
1000
NOSEL
1070
     0
1002
}
1002
{
1000
BEHIND
1070
     0
1002
}
1002
{
1000
REACTOR
1002
}
1001
GENIUS_GENOBJ-N-CEN_13
1002
{
1000
OWNER
1000
GEN
1002
}
  0
CIRCLE
  5
37D3
330
1F
100
AcDbEntity
  8
AM_0
  6
Continuous
370
    30
100
AcDbCircle
 10
5.133400650722194
 20
7.727838952962031
 30
0.0
 40
2.35
  0
CIRCLE
  5
37D4
330
1F
100
AcDbEntity
  8
AM_0
  6
Continuous
370
    30
100
AcDbCircle
 10
5.133400650722194
 20
7.727838952962031
 30
0.0
 40
2.8
  0
LINE
  5
37D5
330
1F
100
AcDbEntity
  8
AM_5
100
AcDbLine
 10
0.0
 20
-3.278417165345388
 30
0.0
 11
0.0
 21
0.522631491832783
 31
0.0
  0
LINE
  5
37D6
330
1F
100
AcDbEntity
  8
AM_5
100
AcDbLine
 10
-3.89017124878859
 20
0.0
 30
0.0
 11
0.3966585726515746
 21
0.0
 31
0.0
  0
LINE
  5
37D7
330
1F
100
AcDbEntity
  8
AM_0
  6
Continuous
370
    30
100
AcDbLine
 10
4.136212182380689
 20
0.7546140528296803
 30
0.0
 11
4.136369155056826
 21
1.876826363270993
 31
0.0
  0
LINE
  5
37D8
330
1F
100
AcDbEntity
  8
AM_0
  6
Continuous
370
    30
100
AcDbLine
 10
4.136386641051615
 20
1.876835371488056
 30
0.0
 11
5.736507028413655
 21
2.701171301075334
 31
0.0
  0
LINE
  5
37D9
330
1F
100
AcDbEntity
  8
AM_0
  6
Continuous
370
    30
100
AcDbLine
 10
4.136369155039432
 20
1.876826363262012
 30
0.0
 11
4.136212182364091
 21
0.7546140528330056
 31
0.0
  0
LINE
  5
37DA
330
1F
100
AcDbEntity
  8
AM_0
  6
Continuous
370
    30
100
AcDbLine
 10
7.044396520476028
 20
3.374958291657265
 30
0.0
 11
4.136386641034108
 21
1.876835371540608
 31
0.0
  0
LINE
  5
37DB
330
1F
100
AcDbEntity
  8
AM_0
  6
Continuous
370
    30
100
AcDbLine
 10
0.8657490859562813
 20
17.4885470756912
 30
0.0
 11
3.249722438582296
 21
18.86493473257079
 31
0.0
  0
ARC
  5
37DC
330
1F
100
AcDbEntity
  8
AM_0
  6
Continuous
370
    30
100
AcDbCircle
 10
4.149695501880103
 20
9.43166625042582
 30
0.0
 40
0.726
100
AcDbArc
 50
256.9722150900682
 51
343.0277849099358
  0
ARC
  5
37DD
330
1F
100
AcDbEntity
  8
AM_0
  6
Continuous
370
    30
100
AcDbCircle
 10
4.149695501880217
 20
6.024011655502505
 30
0.0
 40
0.726
100
AcDbArc
 50
16.97221509006424
 51
103.0277849099318
  0
LINE
  5
37DE
330
1F
100
AcDbEntity
  8
AM_7
  6
CENTER
370
    13
100
AcDbLine
 10
-0.0165993492777829
 20
7.727838952964163
 30
0.0
 11
10.28340065072217
 21
7.727838952964163
 31
0.0
1001
GENIUS_GENODEF_13
1002
{
1000
HIER
1070
     0
1002
}
1002
{
1000
MANEDIT
1070
     0
1002
}
1002
{
1000
NOSEL
1070
     0
1002
}
1002
{
1000
BEHIND
1070
     0
1002
}
1002
{
1000
REACTOR
1002
}
1001
GENIUS_GENOBJ-N-CEN_13
1002
{
1000
OWNER
1000
GEN
1002
}
  0
CIRCLE
  5
37DF
330
1F
100
AcDbEntity
  8
AM_0
  6
Continuous
370
    30
100
AcDbCircle
 10
5.133400650722081
 20
7.727838952964163
 30
0.0
 40
1.706099999999583
  0
ARC
  5
37E0
330
1F
100
AcDbEntity
  8
AM_0
  6
Continuous
370
    30
100
AcDbCircle
 10
4.149695501880217
 20
6.024011655500374
 30
0.0
 40
0.726
100
AcDbArc
 50
16.97221509006174
 51
103.0277849099351
  0
ARC
  5
37E1
330
1F
100
AcDbEntity
  8
AM_0
  6
Continuous
370
    30
100
AcDbCircle
 10
4.14969550188016
 20
9.431666250423689
 30
0.0
 40
0.726
100
AcDbArc
 50
256.9722150900649
 51
343.0277849099383
  0
CIRCLE
  5
37E2
330
1F
100
AcDbEntity
  8
AM_0
  6
Continuous
370
    30
100
AcDbCircle
 10
5.133400650722194
 20
7.727838952962031
 30
0.0
 40
1.706099999999583
  0
LINE
  5
37E3
330
1F
100
AcDbEntity
  8
AM_7
  6
CENTER
370
    13
100
AcDbLine
 10
-0.0165993492777829
 20
7.727838952962031
 30
0.0
 11
10.28340065072223
 21
7.727838952962031
 31
0.0
1001
GENIUS_GENODEF_13
1002
{
1000
HIER
1070
     0
1002
}
1002
{
1000
MANEDIT
1070
     0
1002
}
1002
{
1000
NOSEL
1070
     0
1002
}
1002
{
1000
BEHIND
1070
     0
1002
}
1002
{
1000
REACTOR
1002
}
1001
GENIUS_GENOBJ-N-CEN_13
1002
{
1000
OWNER
1000
GEN
1002
}
  0
ARC
  5
37E4
330
1F
100
AcDbEntity
  8
AM_0
  6
Continuous
370
    30
100
AcDbCircle
 10
3.91784739397059
 20
8.429638952964098
 30
0.0
 40
0.3024999999998347
100
AcDbArc
 50
76.97221509006822
 51
223.0277849099417
  0
ARC
  5
37E5
330
1F
100
AcDbEntity
  8
AM_0
  6
Continuous
370
    30
100
AcDbCircle
 10
3.91784739397059
 20
7.026038952964342
 30
0.0
 40
0.3024999999998347
100
AcDbArc
 50
136.9722150900589
 51
283.0277849099384
  0
ARC
  5
37E6
330
1F
100
AcDbEntity
  8
AM_0
  6
Continuous
370
    30
100
AcDbCircle
 10
3.165990353038012
 20
7.727838952964163
 30
0.0
 40
0.726
100
AcDbArc
 50
316.9722150900675
 51
43.0277849099411
  0
ARC
  5
37E7
330
1F
100
AcDbEntity
  8
AM_0
  6
Continuous
370
    30
100
AcDbCircle
 10
3.165990353038069
 20
7.727838952962031
 30
0.0
 40
0.726
100
AcDbArc
 50
316.9722150900638
 51
43.0277849099371
  0
ARC
  5
37E8
330
1F
100
AcDbEntity
  8
AM_0
  6
Continuous
370
    30
100
AcDbCircle
 10
3.917847393970646
 20
7.02603895296221
 30
0.0
 40
0.3024999999998347
100
AcDbArc
 50
136.9722150900629
 51
283.0277849099384
  0
ARC
  5
37E9
330
1F
100
AcDbEntity
  8
AM_0
  6
Continuous
370
    30
100
AcDbCircle
 10
3.917847393970646
 20
8.429638952961966
 30
0.0
 40
0.3024999999998347
100
AcDbArc
 50
76.97221509006822
 51
223.0277849099417
  0
LINE
  5
37EA
330
1F
100
AcDbEntity
  8
AM_0
  6
Continuous
370
    30
100
AcDbLine
 10
0.8131231111383954
 20
16.22905912438333
 30
0.0
 11
0.9460612509099633
 21
15.78962209486591
 31
0.0
  0
LINE
  5
37EB
330
1F
100
AcDbEntity
  8
AM_0
  6
Continuous
370
    30
100
AcDbLine
 10
12.06773966060729
 20
9.728818747145766
 30
0.0
 11
6.142093992816456
 21
13.0627140970154
 31
0.0
  0
ARC
  5
37EC
330
1F
100
AcDbEntity
  8
AM_0
  6
Continuous
370
    30
100
AcDbCircle
 10
6.348953907473799
 20
8.429638952964098
 30
0.0
 40
0.3024999999998347
100
AcDbArc
 50
316.9722150900678
 51
103.0277849099384
  0
ARC
  5
37ED
330
1F
100
AcDbEntity
  8
AM_0
  6
Continuous
370
    30
100
AcDbCircle
 10
6.348953907473799
 20
7.026038952964342
 30
0.0
 40
0.3024999999998347
100
AcDbArc
 50
256.9722150900616
 51
43.0277849099411
  0
ARC
  5
37EE
330
1F
100
AcDbEntity
  8
AM_0
  6
Continuous
370
    30
100
AcDbCircle
 10
7.100810948406377
 20
7.727838952964163
 30
0.0
 40
0.726
100
AcDbArc
 50
136.9722150900675
 51
223.0277849099325
  0
ARC
  5
37EF
330
1F
100
AcDbEntity
  8
AM_0
  6
Continuous
370
    30
100
AcDbCircle
 10
6.117105799564399
 20
6.024011655502619
 30
0.0
 40
0.726
100
AcDbArc
 50
76.97221509006822
 51
163.0277849099358
  0
ARC
  5
37F0
330
1F
100
AcDbEntity
  8
AM_0
  6
Continuous
370
    30
100
AcDbCircle
 10
6.117105799564399
 20
9.431666250425707
 30
0.0
 40
0.726
100
AcDbArc
 50
196.9722150900643
 51
283.0277849099318
  0
ARC
  5
37F1
330
1F
100
AcDbEntity
  8
AM_0
  6
Continuous
370
    30
100
AcDbCircle
 10
5.133400650722194
 20
6.324238952964464
 30
0.0
 40
0.3024999999998347
100
AcDbArc
 50
196.9722150900666
 51
343.0277849099327
  0
ARC
  5
37F2
330
1F
100
AcDbEntity
  8
AM_0
  6
Continuous
370
    30
100
AcDbCircle
 10
5.133400650722194
 20
9.131438952963919
 30
0.0
 40
0.3024999999998347
100
AcDbArc
 50
16.97221509006658
 51
163.0277849099331
  0
ARC
  5
37F3
330
1F
100
AcDbEntity
  8
AM_0
  6
Continuous
370
    30
100
AcDbCircle
 10
7.100810948406434
 20
7.727838952962031
 30
0.0
 40
0.726
100
AcDbArc
 50
136.9722150900638
 51
223.0277849099362
  0
ARC
  5
37F4
330
1F
100
AcDbEntity
  8
AM_0
  6
Continuous
370
    30
100
AcDbCircle
 10
6.348953907473856
 20
7.02603895296221
 30
0.0
 40
0.3024999999998347
100
AcDbArc
 50
256.9722150900616
 51
43.0277849099371
  0
ARC
  5
37F5
330
1F
100
AcDbEntity
  8
AM_0
  6
Continuous
370
    30
100
AcDbCircle
 10
6.348953907473856
 20
8.429638952961966
 30
0.0
 40
0.3024999999998347
100
AcDbArc
 50
316.9722150900678
 51
103.0277849099418
  0
ARC
  5
37F6
330
1F
100
AcDbEntity
  8
AM_0
  6
Continuous
370
    30
100
AcDbCircle
 10
5.133400650722251
 20
9.131438952961787
 30
0.0
 40
0.3024999999998347
100
AcDbArc
 50
16.97221509006658
 51
163.0277849099331
  0
ARC
  5
37F7
330
1F
100
AcDbEntity
  8
AM_0
  6
Continuous
370
    30
100
AcDbCircle
 10
5.133400650722251
 20
6.324238952962332
 30
0.0
 40
0.3024999999998347
100
AcDbArc
 50
196.9722150900666
 51
343.0277849099327
  0
ARC
  5
37F8
330
1F
100
AcDbEntity
  8
AM_0
  6
Continuous
370
    30
100
AcDbCircle
 10
6.117105799564399
 20
9.431666250423575
 30
0.0
 40
0.726
100
AcDbArc
 50
196.9722150900617
 51
283.0277849099352
  0
ARC
  5
37F9
330
1F
100
AcDbEntity
  8
AM_0
  6
Continuous
370
    30
100
AcDbCircle
 10
6.117105799564399
 20
6.024011655500487
 30
0.0
 40
0.726
100
AcDbArc
 50
76.97221509006495
 51
163.0277849099383
  0
LINE
  5
37FA
330
1F
100
AcDbEntity
  8
AM_0
  6
Continuous
370
    30
100
AcDbLine
 10
10.43207403419939
 20
9.972999090522905
 30
0.0
 11
12.06773966060729
 21
9.728818747145766
 31
0.0
  0
LINE
  5
37FB
330
1F
100
AcDbEntity
  8
AM_0
  6
Continuous
370
    30
100
AcDbLine
 10
8.604425246743915
 20
11.47053336224695
 30
0.0
 11
11.56737159877883
 21
9.803516193357439
 31
0.0
  0
LINE
  5
37FC
330
1F
100
AcDbEntity
  8
AM_0
  6
Continuous
370
    30
100
AcDbLine
 10
10.43207403419939
 20
9.97299909052083
 30
0.0
 11
11.56737159877872
 21
9.803516193357439
 31
0.0
  0
LINE
  5
37FD
330
1F
100
AcDbEntity
  8
AM_0
  6
Continuous
370
    30
100
AcDbLine
 10
3.249722438582296
 20
18.86493473257079
 30
0.0
 11
7.271310379882664
 21
21.18679961305011
 31
0.0
  0
LINE
  5
37FE
330
1F
100
AcDbEntity
  8
AM_0
  6
Continuous
370
    30
100
AcDbLine
 10
7.271310379882664
 20
21.18679961305034
 30
0.0
 11
9.112827468706257
 21
22.24999999999992
 31
0.0
  0
ARC
  5
3805
330
1F
100
AcDbEntity
  8
AM_0
  6
Continuous
370
    30
100
AcDbCircle
 10
21.99999999999983
 20
-11.00000000000009
 30
0.0
 40
15.0
100
AcDbArc
 50
95.04129766567017
 51
127.3240980363155
  0
LINE
  5
3806
330
1F
100
AcDbEntity
  8
AM_0
  6
Continuous
370
    30
100
AcDbLine
 10
25.25000000000028
 20
3.643684645607351
 30
0.0
 11
25.25000000000028
 21
5.361519521038332
 31
0.0
  0
LINE
  5
3807
330
1F
100
AcDbEntity
  8
AM_0
  6
Continuous
370
    30
100
AcDbLine
 10
24.99999999999983
 20
3.696938456699087
 30
0.0
 11
24.99999999999983
 21
5.724774142430221
 31
0.0
  0
LINE
  5
3809
330
1F
100
AcDbEntity
  8
AM_0
  6
Continuous
370
    30
100
AcDbLine
 10
25.25000000000028
 20
16.8588989435406
 30
0.0
 11
25.25000000000028
 21
22.49999999999992
 31
0.0
  0
LINE
  5
380A
330
1F
100
AcDbEntity
  8
AM_0
  6
Continuous
370
    30
100
AcDbLine
 10
24.99999999999983
 20
16.24999999999901
 30
0.0
 11
24.99999999999983
 21
22.24999999999946
 31
0.0
  0
LINE
  5
380B
330
1F
100
AcDbEntity
  8
AM_0
  6
Continuous
370
    30
100
AcDbLine
 10
12.59879623631997
 20
6.097001718815051
 30
0.0
 11
12.35127122845535
 21
6.108907268386162
 31
0.0
  0
LINE
  5
380C
330
1F
100
AcDbEntity
  8
AM_0
  6
Continuous
370
    30
100
AcDbLine
 10
21.97085066165738
 20
16.24999999999992
 30
0.0
 11
27.99999999634207
 21
8.141101056459235
 31
0.0
  0
LINE
  5
380F
330
1F
100
AcDbEntity
  8
AM_0
  6
Continuous
370
    30
100
AcDbLine
 10
24.99999999999983
 20
16.24999999999992
 30
0.0
 11
21.97085066165738
 21
16.24999999999992
 31
0.0
  0
LINE
  5
3810
330
1F
100
AcDbEntity
  8
AM_0
  6
Continuous
370
    30
100
AcDbLine
 10
17.99999999999983
 20
22.24999999999969
 30
0.0
 11
24.99999999999983
 21
22.24999999999969
 31
0.0
  0
LINE
  5
3811
330
1F
100
AcDbEntity
  8
AM_0
  6
Continuous
370
    30
100
AcDbLine
 10
24.99999999999983
 20
22.24999999999946
 30
0.0
 11
25.25000000000028
 21
22.49999999999992
 31
0.0
  0
LINE
  5
3813
330
1F
100
AcDbEntity
  8
AM_5
100
AcDbLine
 10
149.9999999999998
 20
-62.52531787832078
 30
0.0
 11
149.9999999999998
 21
-26.47691349536345
 31
0.0
  0
SPLINE
  5
3814
330
1F
100
AcDbEntity
  8
AM_0
  6
Continuous
370
    30
100
AcDbSpline
210
0.0
220
0.0
230
1.0
 70
    28
 71
     2
 72
     6
 73
     3
 74
     0
 42
0.0000000001
 43
0.0000000001
 40
0.0
 40
0.0
 40
0.0
 40
4.496611670767369
 40
4.496611670767369
 40
4.496611670767369
 10
148.9999999999998
 20
-80.52531787832081
 30
0.0
 41
1.0
 10
149.9999999999997
 20
-80.52531787832086
 30
0.0
 41
1.027402333828149
 10
149.9999999999998
 20
-80.52531787832081
 30
0.0
 41
1.0
  0
SPLINE
  5
3815
330
1F
100
AcDbEntity
  8
AM_0
  6
Continuous
370
    30
100
AcDbSpline
210
0.0
220
0.0
230
1.0
 70
    28
 71
     2
 72
     6
 73
     3
 74
     0
 42
0.0000000001
 43
0.0000000001
 40
0.0
 40
0.0
 40
0.0
 40
4.496611670767331
 40
4.496611670767331
 40
4.496611670767331
 10
148.9999999999998
 20
-62.52531787832081
 30
0.0
 41
1.0
 10
149.9999999999997
 20
-62.52531787832081
 30
0.0
 41
1.027402333828092
 10
149.9999999999998
 20
-62.52531787832081
 30
0.0
 41
1.0
  0
LINE
  5
382A
330
1F
100
AcDbEntity
  8
AM_0
  6
Continuous
370
    30
100
AcDbLine
 10
149.9999999999998
 20
-80.52531787832081
 30
0.0
 11
149.9999999999998
 21
-62.52531787832081
 31
0.0
  0
LINE
  5
382B
330
1F
100
AcDbEntity
  8
AM_0
  6
Continuous
370
    30
100
AcDbLine
 10
148.9999999999998
 20
-80.52531787832081
 30
0.0
 11
148.9999999999998
 21
-62.52531787832081
 31
0.0
  0
SPLINE
  5
383C
330
1F
100
AcDbEntity
  8
AM_0
  6
Continuous
370
    30
100
AcDbSpline
210
0.0
220
0.0
230
1.0
 70
    12
 71
     2
 72
     6
 73
     3
 74
     0
 42
0.0000000001
 43
0.0000000001
 40
4.496611670767331
 40
4.496611670767331
 40
4.496611670767331
 40
8.993223341534662
 40
8.993223341534662
 40
8.993223341534662
 10
149.9999999999999
 20
12.4999999999979
 30
0.0
 41
1.0
 10
149.9999999999998
 20
14.56474160483293
 30
0.0
 41
1.027402333828092
 10
148.9999999999999
 20
16.85889894353858
 30
0.0
 41
1.0
  0
SPLINE
  5
383D
330
1F
100
AcDbEntity
  8
AM_0
  6
Continuous
370
    30
100
AcDbSpline
210
0.0
220
0.0
230
1.0
 70
    12
 71
     2
 72
     6
 73
     3
 74
     0
 42
0.0000000001
 43
0.0000000001
 40
0.0
 40
0.0
 40
0.0
 40
4.496611670767331
 40
4.496611670767331
 40
4.496611670767331
 10
148.9999999999999
 20
8.141101056457273
 30
0.0
 41
1.0
 10
149.9999999999998
 20
10.43525839516292
 30
0.0
 41
1.027402333828092
 10
149.9999999999999
 20
12.4999999999979
 30
0.0
 41
1.0
  0
DIMENSION
  5
383E
330
1F
100
AcDbEntity
  8
AM_5
100
AcDbDimension
  2
*D35
 10
96.42274145259904
 20
3.742284834695653
 30
0.0
 11
119.9204031760646
 21
36.75415573207306
 31
0.0
 70
   163
  1
<>
 71
     5
 42
20.00000000000033
  3
AM_JIS$3
100
AcDbDiametricDimension
 15
106.077258547401
 25
21.25771516529817
 35
0.0
 40
0.0
1001
ACAD
1000
DSTYLE
1002
{
1070
    47
1040
0.0
1070
    48
1040
0.0
1070
   271
1070
     0
1070
   289
1070
     3
1002
}
  0
DIMENSION
  5
383F
330
1F
100
AcDbEntity
  8
AM_5
100
AcDbDimension
  2
*D36
 10
110.2499999999999
 20
-11.26029456618466
 30
0.0
 11
101.2499999999999
 21
-11.26029456618466
 31
0.0
 70
   160
  1
<>
 71
     5
 42
18.0
  3
AM_JIS$0
100
AcDbAlignedDimension
 13
92.24999999999989
 23
8.141101056456165
 33
0.0
 14
110.2499999999999
 24
8.141101056456165
 34
0.0
100
AcDbRotatedDimension
1001
GENIUS_GENDTOL_13
1000

1000
h7
1000

1040
0.0
1001
ACAD
1000
DSTYLE
1002
{
1070
   271
1070
     0
1002
}
  0
LINE
  5
3848
330
1F
100
AcDbEntity
  8
AM_7
  6
CENTER
370
    13
100
AcDbLine
 10
101.2499999999999
 20
25.49999999999685
 30
0.0
 11
101.2499999999999
 21
-0.5000000000031548
 31
0.0
1001
GENIUS_GENODEF_13
1002
{
1000
HIER
1070
     0
1002
}
1002
{
1000
MANEDIT
1070
     0
1002
}
1002
{
1000
NOSEL
1070
     0
1002
}
1002
{
1000
BEHIND
1070
     0
1002
}
1002
{
1000
REACTOR
1002
}
1001
GENIUS_GENOBJ-N-CEN_13
1002
{
1000
OWNER
1000
GEN
1002
}
  0
ARC
  5
3849
330
1F
100
AcDbEntity
  8
AM_0
  6
Continuous
370
    30
100
AcDbCircle
 10
101.2499999999999
 20
12.49999999999685
 30
0.0
 40
10.0
100
AcDbArc
 50
205.8419327631682
 51
334.1580672368318
  0
ARC
  5
384E
330
1F
100
AcDbEntity
  8
AM_0
  6
Continuous
370
    30
100
AcDbCircle
 10
101.2499999999999
 20
12.49999999999685
 30
0.0
 40
10.0
100
AcDbArc
 50
25.84193276316817
 51
154.1580672368318
  0
LINE
  5
384F
330
1F
100
AcDbEntity
  8
AM_0
  6
Continuous
370
    30
100
AcDbLine
 10
92.24999999999989
 20
16.85889894353753
 30
0.0
 11
92.24999999999989
 21
8.141101056456165
 31
0.0
  0
LINE
  5
3850
330
1F
100
AcDbEntity
  8
AM_0
  6
Continuous
370
    30
100
AcDbLine
 10
110.2499999999999
 20
16.85889894353753
 30
0.0
 11
110.2499999999999
 21
8.141101056456165
 31
0.0
  0
LINE
  5
3851
330
1F
100
AcDbEntity
  8
AM_0
  6
Continuous
370
    30
100
AcDbLine
 10
115.2499999999999
 20
22.4999999999979
 30
0.0
 11
148.9999999999998
 21
22.4999999999979
 31
0.0
  0
LINE
  5
3852
330
1F
100
AcDbEntity
  8
AM_0
  6
Continuous
370
    30
100
AcDbLine
 10
115.2499999999999
 20
8.141101056457217
 30
0.0
 11
148.9999999999999
 21
8.141101056457217
 31
0.0
  0
LINE
  5
3853
330
1F
100
AcDbEntity
  8
AM_0
  6
Continuous
370
    30
100
AcDbLine
 10
115.2499999999999
 20
2.499999999997897
 30
0.0
 11
148.9999999999999
 21
2.499999999997897
 31
0.0
  0
LINE
  5
3856
330
1F
100
AcDbEntity
  8
AM_0
  6
Continuous
370
    30
100
AcDbLine
 10
148.9999999999999
 20
2.499999999997897
 30
0.0
 11
148.9999999999999
 21
8.141101056457217
 31
0.0
  0
LINE
  5
3857
330
1F
100
AcDbEntity
  8
AM_0
  6
Continuous
370
    30
100
AcDbLine
 10
149.9999999999999
 20
3.499999999997897
 30
0.0
 11
149.9999999999999
 21
12.4999999999979
 31
0.0
  0
LINE
  5
3858
330
1F
100
AcDbEntity
  8
AM_0
  6
Continuous
370
    30
100
AcDbLine
 10
149.9999999999999
 20
3.499999999997897
 30
0.0
 11
148.9999999999999
 21
2.499999999997897
 31
0.0
  0
LINE
  5
3859
330
1F
100
AcDbEntity
  8
AM_0
  6
Continuous
370
    30
100
AcDbLine
 10
148.9999999999999
 20
16.85889894353858
 30
0.0
 11
148.9999999999999
 21
22.4999999999979
 31
0.0
  0
LINE
  5
385A
330
1F
100
AcDbEntity
  8
AM_0
  6
Continuous
370
    30
100
AcDbLine
 10
149.9999999999999
 20
12.4999999999979
 30
0.0
 11
149.9999999999999
 21
21.4999999999979
 31
0.0
  0
LINE
  5
385D
330
1F
100
AcDbEntity
  8
AM_0
  6
Continuous
370
    30
100
AcDbLine
 10
149.9999999999999
 20
21.4999999999979
 30
0.0
 11
148.9999999999999
 21
22.4999999999979
 31
0.0
  0
LINE
  5
3D3E
330
1F
100
AcDbEntity
  8
AM_0
  6
Continuous
370
    30
100
AcDbLine
 10
148.9999999999999
 20
16.85889894353858
 30
0.0
 11
115.2499999999999
 21
16.85889894353858
 31
0.0
  0
TEXT
  5
3DA5
330
1F
100
AcDbEntity
  8
AM_0
  6
Continuous
370
    30
100
AcDbText
 10
-29.07324033448487
 20
-18.73015064564302
 30
0.0
 40
3.149999999999999
  1
-3%%d
100
AcDbText
  0
TEXT
  5
3DA6
330
1F
100
AcDbEntity
  8
AM_0
  6
Continuous
370
    30
100
AcDbText
 10
-15.76056929606426
 20
-32.78065973984027
 30
0.0
 40
3.149999999999999
  1
+5%%d
100
AcDbText
  0
INSERT
  5
3DA7
330
1F
100
AcDbEntity
  8
AM_5
100
AcDbBlockReference
  2
*S1643
 10
-162.8859374389276
 20
-211.2821563932531
 30
0.0
  0
INSERT
  5
3DA8
330
1F
100
AcDbEntity
  8
AM_5
100
AcDbBlockReference
  2
*S1744
 10
-162.8859374389276
 20
-211.2821563932531
 30
0.0
  0
TEXT
  5
3DB5
330
1F
100
AcDbEntity
  8
AM_0
  6
Continuous
370
    30
100
AcDbText
 10
54.15794103177478
 20
-113.172935003961
 30
0.0
 40
3.8
  1
WBPT-320RE
  7
ACISOTS
100
AcDbText
  0
HATCH
  5
3DC1
330
1F
100
AcDbEntity
  8
AM_5
370
    13
100
AcDbHatch
 10
0.0
 20
0.0
 30
0.0
210
0.0
220
0.0
230
1.0
  2
ANSI31
 70
     0
 71
     0
 91
        1
 92
        1
 93
        4
 72
     2
 10
101.2499999999999
 20
12.49999999999685
 40
10.0
 50
205.8419327631672
 51
334.1580672368318
 73
     1
 72
     1
 10
110.2499999999998
 20
8.141101056455995
 11
110.2499999999998
 21
16.8588989435377
 72
     2
 10
101.2499999999999
 20
12.49999999999685
 40
10.00000000000003
 50
25.84193276316819
 51
154.1580672368318
 73
     1
 72
     1
 10
92.24999999999994
 20
16.8588989435377
 11
92.24999999999989
 21
8.141101056456165
 97
        0
 75
     0
 76
     1
 52
0.0
 41
1.0
 77
     0
 78
     1
 53
45.0
 43
-164.8876100554413
 44
-212.0161161793193
 45
-2.245064030267288
 46
2.245064030267288
 79
     0
 98
        1
 10
-164.8876100554413
 20
-212.0161161793193
1001
GENIUS_GENOBJ-N-HTC_13
1002
{
1000
OWNER
1000
GEN
1002
}
1001
GENIUS_GENODEF_13
1002
{
1000
HIER
1070
     0
1002
}
1002
{
1000
MANEDIT
1070
     0
1002
}
1002
{
1000
NOSEL
1070
     0
1002
}
1002
{
1000
BEHIND
1070
     0
1002
}
1002
{
1000
OTHER
1070
     0
1002
}
1002
{
1000
REACTOR
1002
}
1001
GENIUS_GENHATCH_13
1002
{
1000
DATA
1040
0.0
1042
1.0
1000
ANSI31
1070
     0
1011
97.58490485782971
1021
16.31325104591511
1031
0.0
1002
}
1002
{
1000
UCS
1010
0.0
1020
0.0
1030
0.0
1010
1.0
1020
0.0
1030
0.0
1010
0.0
1020
1.0
1030
0.0
1002
}
  0
ENDSEC
  0
SECTION
  2
OBJECTS
  0
DICTIONARY
  5
C
330
0
100
AcDbDictionary
281
     1
  3
ACAD_COLOR
350
3B47
  3
ACAD_GROUP
350
D
  3
ACAD_LAYOUT
350
1A
  3
ACAD_MATERIAL
350
3B46
  3
ACAD_MLINESTYLE
350
17
  3
ACAD_PLOTSETTINGS
350
19
  3
ACAD_PLOTSTYLENAME
350
E
  3
ACAD_TABLESTYLE
350
3B48
  3
AcAmCatalogState
350
3BB3
  3
ACDBHEADERROUNDTRIPXREC
350
3E79
  3
AcDbVariableDictionary
350
34
  3
ACDMSYSVARMGR
350
3B62
  3
ACGREF_MASTER
350
3B5A
  3
ACGREFACAD_MASTER
350
3B84
  3
AcmDictionary
350
43
  3
ACME_BOM_MANAGER_NAME
350
3A
  3
ACME_COMMAND_HISTORY
350
33
  3
ACME_SCOPE_NAME
350
32
  3
ACMESTATEMGR
350
3F
  3
AcmeSysVarManager
350
36
  3
AcmSystemVariableManager
350
3BA2
  3
AD_APPL
350
3B8F
  3
ADSYSVARMGR
350
3B8E
  3
AmdtNamedDwgMgr
350
3B7F
  3
AMG
350
2B
  3
AMGSNAPSETTINGS
350
350
  3
AMI_MASTER
350
3B87
  3
AUTOCAD_ASSEMBLIES_PROJECT
350
3B97
  3
Designer_Assemblies_SysVars
350
3B92
  3
DWGPROPS
350
3E7C
  3
GREFAM_MODULE
350
3B88
  3
table_dic_data
350
AA4
  0
DICTIONARY
  5
3D75
330
2
100
AcDbDictionary
280
     1
281
     1
  3
ACAD_LAYERSTATES
360
3D76
  0
DICTIONARY
  5
3DB
330
1F
100
AcDbDictionary
280
     1
281
     1
  3
ACAD_SORTENTS
360
3C9E
  0
DICTIONARY
  5
3B47
102
{ACAD_REACTORS
330
C
102
}
330
C
100
AcDbDictionary
281
     1
  0
DICTIONARY
  5
D
102
{ACAD_REACTORS
330
C
102
}
330
C
100
AcDbDictionary
281
     1
  0
DICTIONARY
  5
1A
102
{ACAD_REACTORS
330
C
102
}
330
C
100
AcDbDictionary
281
     1
  3
Model
350
22
  3
ﾚｲｱｳﾄ1
350
1E
  3
ﾚｲｱｳﾄ2
350
26
  0
DICTIONARY
  5
3B46
102
{ACAD_REACTORS
330
C
102
}
330
C
100
AcDbDictionary
281
     1
  0
DICTIONARY
  5
17
102
{ACAD_REACTORS
330
C
102
}
330
C
100
AcDbDictionary
281
     1
  3
Standard
350
18
  0
DICTIONARY
  5
19
102
{ACAD_REACTORS
330
C
102
}
330
C
100
AcDbDictionary
281
     1
  0
ACDBDICTIONARYWDFLT
  5
E
102
{ACAD_REACTORS
330
C
102
}
330
C
100
AcDbDictionary
281
     1
  3
Normal
350
F
100
AcDbDictionaryWithDefault
340
F
  0
DICTIONARY
  5
3B48
102
{ACAD_REACTORS
330
C
102
}
330
C
100
AcDbDictionary
281
     1
  3
Standard
350
3B49
  0
ACAD_PROXY_OBJECT
  5
3BB3
102
{ACAD_REACTORS
330
C
102
}
330
C
100
AcDbProxyObject
 90
      499
 91
      571
 95
       25
 70
     0
 93
      472
310
3FFFFFFFE00A028440297219D2E2237B1BAB6B2B73A399030B7321029B2BA3A34B733B9AE3AB3B49698981AAE41B341AC41A741B3C1B141BB400AA
  0
DICTIONARY
  5
3E79
102
{ACAD_REACTORS
330
C
102
}
330
C
100
AcDbDictionary
281
     1
  3
COLORDICT
350
3E7A
  3
MATERIALDICT
350
3E7B
  0
DICTIONARY
  5
34
102
{ACAD_REACTORS
330
C
102
}
330
C
100
AcDbDictionary
281
     1
  3
CTABLESTYLE
350
3D61
  3
DIMASSOC
350
3E77
  3
HIDETEXT
350
3E78
  3
INDEXCTL
350
35
  0
ACAD_PROXY_OBJECT
  5
3B62
102
{ACAD_REACTORS
330
C
102
}
330
C
100
AcDbProxyObject
 90
      499
 91
      508
 95
       25
 70
     0
 93
      240
310
4C51A4820000000000000000000000000000000000000000000000000000
330
3B63
330
3B64
330
3B65
330
3B66
330
3B67
330
3B68
330
3B69
330
3B6A
330
3B6B
330
3B6C
330
3B6D
330
3B6E
330
3B6F
330
3B70
330
3B71
330
3B72
330
3B73
330
3B74
330
3B75
330
3B76
330
3B77
330
3B78
330
3B79
330
3B7A
330
3B7B
330
3B7C
 94
        0
  0
ACAD_PROXY_OBJECT
  5
3B5A
102
{ACAD_REACTORS
330
C
102
}
330
C
100
AcDbProxyObject
 90
      499
 91
      534
 95
       25
 70
     0
 93
       34
310
0400004280
  0
ACAD_PROXY_OBJECT
  5
3B84
102
{ACAD_REACTORS
330
C
102
}
330
C
100
AcDbProxyObject
 90
      499
 91
      540
 95
       25
 70
     0
 93
      114
310
04000041C080000000000000000000
  0
DICTIONARY
  5
43
102
{ACAD_REACTORS
330
C
102
}
330
C
100
AcDbDictionary
281
     1
  3
AcmBOMDATA
350
44
  3
AcmStdDictionary
350
342
  3
AMDTSECTSYM_ARROWCOLOR
350
3BA7
  0
ACAD_PROXY_OBJECT
  5
3A
102
{ACAD_REACTORS
330
C
102
}
330
C
100
AcDbProxyObject
 90
      499
 91
      511
 95
       25
 70
     0
 93
       50
310
00010040400000
330
0
330
0
330
3B
 94
        0
  0
ACAD_PROXY_OBJECT
  5
33
102
{ACAD_REACTORS
330
C
102
}
330
C
100
AcDbProxyObject
 90
      499
 91
      506
 95
       25
 70
     0
 93
     2678
310
47805095041535445434C495080508434F5059434C4950805095041535445434C49508050644444544495480506444445444954805054552415345805044D4F5645805044D4F564580505455241534580508434F5059434C4950805095041535445434C495080505455241534580506444445444954805044D4F5645805045
310
54E444F80504554E444F805054841544348805054552415345805045A4F4F4D805055055524745805055055524745805045A4F4F4D805055153415645404052D4D5347202D205050413A2020206465736B746F702E6172782046696C6556657273696F6E3A20392E322E302E340142149151D153905313201411353D591601
310
4115539113E014115539113E01411353D591601411693D3D3601415454D05591501014B5354D1C80B481414104E88080819195CDADD1BDC0B985C9E08119A5B1955995C9CDA5BDB8E880E4B8C8B8C0B8D0
  0
ACAD_PROXY_OBJECT
  5
32
102
{ACAD_REACTORS
330
C
102
}
330
C
100
AcDbProxyObject
 90
      499
 91
      505
 95
       25
 70
     0
 93
      578
310
0900004640800000000000000000133542000000000000000000000000000000000000000000000000000000000000000000000000000000000000000000000000000000AAA406AA80
360
37
360
38
360
39
360
3B
360
3B5B
360
3B5C
360
3B5D
360
3B5E
360
3B5F
360
3B60
360
3B63
360
3B64
360
3B65
360
3B66
360
3B67
360
3B68
360
3B69
360
3B6A
360
3B6B
360
3B6C
360
3B6D
360
3B6E
360
3B6F
360
3B70
360
3B71
360
3B72
360
3B73
360
3B74
360
3B75
360
3B76
360
3B77
360
3B78
360
3B79
360
3B7A
360
3B7B
360
3B7C
360
3B8A
360
3B8B
360
3B8C
360
3B8D
360
3B93
360
3B94
360
3B95
360
3B96
360
3B9B
360
3B9C
360
3B9D
360
3B9E
360
3B9F
360
3BA0
360
3BA3
 94
        0
  0
ACAD_PROXY_OBJECT
  5
3F
102
{ACAD_REACTORS
330
C
102
}
330
C
100
AcDbProxyObject
 90
      499
 91
      516
 95
       25
 70
     0
 93
       50
310
09000042641280
  0
ACAD_PROXY_OBJECT
  5
36
102
{ACAD_REACTORS
330
C
102
}
330
C
100
AcDbProxyObject
 90
      499
 91
      508
 95
       25
 70
     0
 93
       48
310
903412000000
330
37
330
38
330
39
 94
        0
  0
ACAD_PROXY_OBJECT
  5
3BA2
102
{ACAD_REACTORS
330
C
102
}
330
C
100
AcDbProxyObject
 90
      499
 91
      508
 95
       25
 70
     0
 93
       32
310
90142200
330
3BA3
 94
        0
  0
ACAD_PROXY_OBJECT
  5
3B8F
102
{ACAD_REACTORS
330
C
102
}
330
C
100
AcDbProxyObject
 90
      499
 91
      550
 95
       25
 70
     0
 93
       42
310
000900004040
330
3B8A
 94
        0
  0
ACAD_PROXY_OBJECT
  5
3B8E
102
{ACAD_REACTORS
330
C
102
}
330
C
100
AcDbProxyObject
 90
      499
 91
      508
 95
       25
 70
     0
 93
        8
310
AA
  0
ACAD_PROXY_OBJECT
  5
3B7F
102
{ACAD_REACTORS
330
C
102
}
330
C
100
AcDbProxyObject
 90
      499
 91
      539
 95
       25
 70
     0
 93
       42
310
000100005E80
330
3B5B
 94
        0
  0
DICTIONARY
  5
2B
102
{ACAD_REACTORS
330
C
102
}
330
C
100
AcDbDictionary
281
     1
  3
AcMgSettings
350
2C
  3
AMGLAYCFG
350
4A
  0
DICTIONARY
  5
350
102
{ACAD_REACTORS
330
C
102
}
330
C
100
AcDbDictionary
281
     1
  3
DIMENSION
350
355
  3
FEA
350
354
  3
HATCH (1)
350
351
  3
HATCH (2)
350
352
  3
SYMBOLS
350
353
  0
ACAD_PROXY_OBJECT
  5
3B87
102
{ACAD_REACTORS
330
C
102
}
330
C
100
AcDbProxyObject
 90
      499
 91
      543
 95
       25
 70
     0
 93
       34
310
0500004280
  0
ACAD_PROXY_OBJECT
  5
3B97
102
{ACAD_REACTORS
330
C
102
}
330
C
100
AcDbProxyObject
 90
      499
 91
      554
 95
       25
 70
     0
 93
       98
310
0900004E400000000000000000
330
3B9E
330
0
330
3B9F
330
0
330
0
330
0
330
0
330
0
 94
        0
  0
ACAD_PROXY_OBJECT
  5
3B92
102
{ACAD_REACTORS
330
C
102
}
330
C
100
AcDbProxyObject
 90
      499
 91
      508
 95
       25
 70
     0
 93
       56
310
90442200000000
330
3B93
330
3B94
330
3B95
330
3B96
 94
        0
  0
XRECORD
  5
3E7C
102
{ACAD_REACTORS
330
C
102
}
330
C
100
AcDbXrecord
280
     1
  1
DWGPROPS COOKIE
  2

  3

  4

  6

  7

  8

  9

300
AmdtFileType=82
301
=
302
=
303
=
304
=
305
=
306
=
307
=
308
=
309
=
 40
0.0
 41
2453210.004162743
 42
2455469.044820775
  1

 90
        1
  0
ACAD_PROXY_OBJECT
  5
3B88
102
{ACAD_REACTORS
330
C
102
}
330
C
100
AcDbProxyObject
 90
      499
 91
      544
 95
       25
 70
     0
 93
        8
310
05
  0
DICTIONARY
  5
AA4
102
{ACAD_REACTORS
330
C
102
}
330
C
100
AcDbDictionary
281
     1
  3
input_data
350
AA6
  3
table_data
350
AA5
  0
DICTIONARY
  5
3D76
102
{ACAD_REACTORS
330
3D75
102
}
330
3D75
100
AcDbDictionary
281
     1
  0
SORTENTSTABLE
  5
3C9E
102
{ACAD_REACTORS
330
3DB
102
}
330
3DB
100
AcDbSortentsTable
330
1F
331
0
  5
3DC1
331
364D
  5
364D
331
364E
  5
364E
331
364F
  5
364F
331
3650
  5
3650
331
3651
  5
3651
331
3652
  5
3652
331
3653
  5
3653
331
3654
  5
3654
331
3655
  5
3655
331
3656
  5
3656
331
3657
  5
3657
331
368E
  5
368E
331
368F
  5
368F
331
3690
  5
3690
331
3691
  5
3691
331
3692
  5
3692
331
3693
  5
3693
331
3694
  5
3694
331
3695
  5
3695
331
3696
  5
3696
331
3697
  5
3697
331
3698
  5
3698
331
3699
  5
3699
331
369A
  5
369A
331
369B
  5
369B
331
369C
  5
369C
331
369D
  5
369D
331
369E
  5
369E
331
369F
  5
369F
331
36A0
  5
36A0
331
36A1
  5
36A1
331
36A2
  5
36A2
331
36A3
  5
36A3
331
36A4
  5
36A4
331
36A5
  5
36A5
331
36A6
  5
36A6
331
36A7
  5
36A7
331
36A8
  5
36A8
331
36A9
  5
36A9
331
3712
  5
3712
331
372D
  5
372D
331
372E
  5
372E
331
372F
  5
372F
331
3730
  5
3730
331
3731
  5
3731
331
3732
  5
3732
331
3733
  5
3733
331
3734
  5
3734
331
3735
  5
3735
331
3736
  5
3736
331
3738
  5
3738
331
3739
  5
3739
331
373A
  5
373A
331
373B
  5
373B
331
373C
  5
373C
331
373D
  5
373D
331
373E
  5
373E
331
373F
  5
373F
331
3741
  5
3741
331
3742
  5
3742
331
3744
  5
3744
331
3745
  5
3745
331
3746
  5
3746
331
3747
  5
3747
331
3748
  5
3748
331
3749
  5
3749
331
374A
  5
374A
331
374B
  5
374B
331
374C
  5
374C
331
374D
  5
374D
331
374E
  5
374E
331
3750
  5
3750
331
3751
  5
3751
331
3752
  5
3752
331
3760
  5
3760
331
3762
  5
3762
331
3763
  5
3763
331
3764
  5
3764
331
3765
  5
3765
331
3766
  5
3766
331
3767
  5
3767
331
3768
  5
3768
331
3769
  5
3769
331
376A
  5
376A
331
376B
  5
376B
331
376C
  5
376C
331
376D
  5
376D
331
376E
  5
376E
331
376F
  5
376F
331
3770
  5
3770
331
3771
  5
3771
331
3772
  5
3772
331
3773
  5
3773
331
3774
  5
3774
331
3775
  5
3775
331
3776
  5
3776
331
3777
  5
3777
331
3778
  5
3778
331
3779
  5
3779
331
377A
  5
377A
331
377B
  5
377B
331
377C
  5
377C
331
377D
  5
377D
331
377E
  5
377E
331
377F
  5
377F
331
3780
  5
3780
331
3781
  5
3781
331
3782
  5
3782
331
3783
  5
3783
331
3784
  5
3784
331
3785
  5
3785
331
3786
  5
3786
331
3787
  5
3787
331
3788
  5
3788
331
3789
  5
3789
331
378A
  5
378A
331
378B
  5
378B
331
3793
  5
3793
331
3795
  5
3795
331
3797
  5
3797
331
3798
  5
3798
331
3799
  5
3799
331
379A
  5
379A
331
379B
  5
379B
331
379C
  5
379C
331
379D
  5
379D
331
379E
  5
379E
331
379F
  5
379F
331
37A0
  5
37A0
331
37A1
  5
37A1
331
37A2
  5
37A2
331
37A3
  5
37A3
331
37A4
  5
37A4
331
37A5
  5
37A5
331
37A6
  5
37A6
331
37A7
  5
37A7
331
37A8
  5
37A8
331
37A9
  5
37A9
331
37AA
  5
37AA
331
37AB
  5
37AB
331
37AC
  5
37AC
331
37AD
  5
37AD
331
37AE
  5
37AE
331
37AF
  5
37AF
331
37B0
  5
37B0
331
37B1
  5
37B1
331
37B2
  5
37B2
331
37C6
  5
37C6
331
37C7
  5
37C7
331
37C8
  5
37C8
331
37C9
  5
37C9
331
37CA
  5
37CA
331
37CB
  5
37CB
331
37CC
  5
37CC
331
37CD
  5
37CD
331
37CE
  5
37CE
331
37CF
  5
37CF
331
37D0
  5
37D0
331
37D1
  5
37D1
331
37D2
  5
37D2
331
37D3
  5
37D3
331
37D4
  5
37D4
331
37D5
  5
37D5
331
37D6
  5
37D6
331
37D7
  5
37D7
331
37D8
  5
37D8
331
37D9
  5
37D9
331
37DA
  5
37DA
331
37DB
  5
37DB
331
37DC
  5
37DC
331
37DD
  5
37DD
331
37DE
  5
37DE
331
37DF
  5
37DF
331
37E0
  5
37E0
331
37E1
  5
37E1
331
37E2
  5
37E2
331
37E3
  5
37E3
331
37E4
  5
37E4
331
37E5
  5
37E5
331
37E6
  5
37E6
331
37E7
  5
37E7
331
37E8
  5
37E8
331
37E9
  5
37E9
331
37EA
  5
37EA
331
37EB
  5
37EB
331
37EC
  5
37EC
331
37ED
  5
37ED
331
37EE
  5
37EE
331
37EF
  5
37EF
331
37F0
  5
37F0
331
37F1
  5
37F1
331
37F2
  5
37F2
331
37F3
  5
37F3
331
37F4
  5
37F4
331
37F5
  5
37F5
331
37F6
  5
37F6
331
37F7
  5
37F7
331
37F8
  5
37F8
331
37F9
  5
37F9
331
37FA
  5
37FA
331
37FB
  5
37FB
331
37FC
  5
37FC
331
37FD
  5
37FD
331
37FE
  5
37FE
331
3805
  5
3805
331
3806
  5
3806
331
3807
  5
3807
331
3809
  5
3809
331
380A
  5
380A
331
380B
  5
380B
331
380C
  5
380C
331
380F
  5
380F
331
3810
  5
3810
331
3811
  5
3811
331
3813
  5
3813
331
3814
  5
3814
331
3815
  5
3815
331
382A
  5
382A
331
382B
  5
382B
331
383C
  5
383C
331
383D
  5
383D
331
383E
  5
383E
331
383F
  5
383F
331
3848
  5
3848
331
3849
  5
3849
331
384E
  5
384E
331
384F
  5
384F
331
3850
  5
3850
331
3851
  5
3851
331
3852
  5
3852
331
3853
  5
3854
331
3856
  5
3858
331
3857
  5
3859
331
3858
  5
385A
331
3859
  5
385D
331
385A
  5
3D3E
331
385D
  5
3D3F
331
3D3E
  5
3857
331
3DA5
  5
3DA5
331
3DA6
  5
3DA6
331
3DA7
  5
3DA7
331
3DA8
  5
3DA8
331
3DB5
  5
3DB5
331
3DC1
  5
3DBF
  0
LAYOUT
  5
22
102
{ACAD_REACTORS
330
1A
102
}
330
1A
100
AcDbPlotSettings
  1

  2
SII LP-2150 (D-SCAN C2)
  4
User120
  6
AM_VIEW1
 40
3.174999952316284
 41
3.174999952316284
 42
3.17498779296875
 43
3.17498779296875
 44
296.9259948730469
 45
419.9889831542969
 46
0.0
 47
0.0
 48
0.0
 49
0.0
140
420.0
141
297.0
142
1.0
143
1.022107788374329
 70
 11952
 72
     1
 73
     1
 74
     4
  7
sei_cad.ctb
 75
     0
147
0.9783703943695685
148
0.0
149
0.0
100
AcDbLayout
  1
Model
 70
     1
 71
     0
 10
0.0
 20
0.0
 11
12.0
 21
9.0
 12
0.0
 22
0.0
 32
0.0
 14
0.0
 24
0.0
 34
0.0
 15
0.0
 25
0.0
 35
0.0
146
0.0
 13
0.0
 23
0.0
 33
0.0
 16
1.0
 26
0.0
 36
0.0
 17
0.0
 27
1.0
 37
0.0
 76
     0
330
1F
  0
LAYOUT
  5
1E
102
{ACAD_REACTORS
330
1A
102
}
330
1A
100
AcDbPlotSettings
  1

  2
C:\ACADM2000\plotters\DWF Classic.pc3
  4

  6

 40
0.0
 41
0.0
 42
0.0
 43
0.0
 44
0.0
 45
0.0
 46
0.0
 47
0.0
 48
0.0
 49
0.0
140
0.0
141
0.0
142
1.0
143
1.0
 70
   688
 72
     0
 73
     0
 74
     5
  7
sei_cad.ctb
 75
    16
147
1.0
148
0.0
149
0.0
100
AcDbLayout
  1
ﾚｲｱｳﾄ1
 70
     1
 71
     1
 10
0.0
 20
0.0
 11
420.0
 21
297.0
 12
0.0
 22
0.0
 32
0.0
 14
1.000000000000000E+20
 24
1.000000000000000E+20
 34
1.000000000000000E+20
 15
-1.000000000000000E+20
 25
-1.000000000000000E+20
 35
-1.000000000000000E+20
146
0.0
 13
0.0
 23
0.0
 33
0.0
 16
1.0
 26
0.0
 36
0.0
 17
0.0
 27
1.0
 37
0.0
 76
     0
330
1B
  0
LAYOUT
  5
26
102
{ACAD_REACTORS
330
1A
102
}
330
1A
100
AcDbPlotSettings
  1

  2
C:\ACADM2000\plotters\DWF Classic.pc3
  4

  6

 40
0.0
 41
0.0
 42
0.0
 43
0.0
 44
0.0
 45
0.0
 46
0.0
 47
0.0
 48
0.0
 49
0.0
140
0.0
141
0.0
142
1.0
143
1.0
 70
   688
 72
     0
 73
     0
 74
     5
  7
sei_cad.ctb
 75
    16
147
1.0
148
0.0
149
0.0
100
AcDbLayout
  1
ﾚｲｱｳﾄ2
 70
     1
 71
     2
 10
0.0
 20
0.0
 11
12.0
 21
9.0
 12
0.0
 22
0.0
 32
0.0
 14
0.0
 24
0.0
 34
0.0
 15
0.0
 25
0.0
 35
0.0
146
0.0
 13
0.0
 23
0.0
 33
0.0
 16
1.0
 26
0.0
 36
0.0
 17
0.0
 27
1.0
 37
0.0
 76
     0
330
23
  0
MLINESTYLE
  5
18
102
{ACAD_REACTORS
330
17
102
}
330
17
100
AcDbMlineStyle
  2
STANDARD
 70
     0
  3

 62
   256
 51
90.0
 52
90.0
 71
     2
 49
0.5
 62
   256
  6
BYLAYER
 49
-0.5
 62
   256
  6
BYLAYER
  0
ACDBPLACEHOLDER
  5
F
102
{ACAD_REACTORS
330
E
102
}
330
E
  0
TABLESTYLE
  5
3B49
102
{ACAD_REACTORS
330
3B48
102
}
330
3B48
100
AcDbTableStyle
  3
Standard
 70
     0
 71
     8
 40
1.5
 41
1.5
280
     0
281
     0
  7
STANDARD
140
4.5
170
     2
 62
     0
 63
     7
283
     0
274
    -2
284
     1
 64
     0
275
    -2
285
     1
 65
     0
276
    -2
286
     1
 66
     0
277
    -2
287
     1
 67
     0
278
    -2
288
     1
 68
     0
279
    -2
289
     1
 69
     0
  7
STANDARD
140
6.0
170
     5
 62
     0
 63
     7
283
     0
274
    -2
284
     1
 64
     0
275
    -2
285
     1
 65
     0
276
    -2
286
     1
 66
     0
277
    -2
287
     1
 67
     0
278
    -2
288
     1
 68
     0
279
    -2
289
     1
 69
     0
  7
STANDARD
140
4.5
170
     5
 62
     0
 63
     7
283
     0
274
    -2
284
     1
 64
     0
275
    -2
285
     1
 65
     0
276
    -2
286
     1
 66
     0
277
    -2
287
     1
 67
     0
278
    -2
288
     1
 68
     0
279
    -2
289
     1
 69
     0
  0
XRECORD
  5
3E7A
102
{ACAD_REACTORS
330
3E79
102
}
330
3E79
100
AcDbXrecord
280
     1
340
3B47
  0
XRECORD
  5
3E7B
102
{ACAD_REACTORS
330
3E79
102
}
330
3E79
100
AcDbXrecord
280
     1
340
3B46
  0
DICTIONARYVAR
  5
3D61
102
{ACAD_REACTORS
330
34
102
}
330
34
100
DictionaryVariables
280
     0
  1
STANDARD
  0
DICTIONARYVAR
  5
3E77
102
{ACAD_REACTORS
330
34
102
}
330
34
100
DictionaryVariables
280
     0
  1
1
  0
DICTIONARYVAR
  5
3E78
102
{ACAD_REACTORS
330
34
102
}
330
34
100
DictionaryVariables
280
     0
  1
0
  0
DICTIONARYVAR
  5
35
102
{ACAD_REACTORS
330
34
102
}
330
34
100
DictionaryVariables
280
     0
  1
1
  0
ACAD_PROXY_OBJECT
  5
44
102
{ACAD_REACTORS
330
43
102
}
330
43
100
AcDbProxyObject
 90
      499
 91
      519
 95
       25
 70
     0
 93
      118
310
405010040CA904C415CD5B075DD078
350
45
 94
        0
  0
DICTIONARY
  5
342
102
{ACAD_REACTORS
330
43
102
}
330
43
100
AcDbDictionary
281
     1
  3
JIS
350
343
  0
XRECORD
  5
3BA7
102
{ACAD_REACTORS
330
43
102
}
330
43
100
AcDbXrecord
280
     1
 90
-1023410169
  0
ACAD_PROXY_OBJECT
  5
37
330
32
100
AcDbProxyObject
 90
      499
 91
      509
 95
       25
 70
     0
 93
      156
310
00010143D050D351505391D5531054925390D490
330
32
 94
        0
  0
ACAD_PROXY_OBJECT
  5
38
330
32
100
AcDbProxyObject
 90
      499
 91
      509
 95
       25
 70
     0
 93
      148
310
000101439050D351531253915054925390D490
330
32
 94
        0
  0
ACAD_PROXY_OBJECT
  5
39
330
32
100
AcDbProxyObject
 90
      499
 91
      510
 95
       25
 70
     0
 93
      156
310
000101439050D35154D6535093D314D256915080
330
32
 94
        0
  0
ACAD_PROXY_OBJECT
  5
3B
330
32
100
AcDbProxyObject
 90
      499
 91
      512
 95
       25
 70
     0
 93
       88
310
000101411093D34C402B00
330
32
330
0
330
0
 94
        0
  0
ACAD_PROXY_OBJECT
  5
3B5B
330
32
100
AcDbProxyObject
 90
      499
 91
      535
 95
       25
 70
     0
 93
      366
310
0001014124FEA55D00507392E322E302E32014124FEA55D00507392E322E302E3240501000041905394D24CCC658
330
32
330
3B5C
330
3B62
 94
        0
  0
ACAD_PROXY_OBJECT
  5
3B5C
330
32
100
AcDbProxyObject
 90
      499
 91
      536
 95
       25
 70
     0
 93
       56
310
00019024220000
330
32
330
3B5D
330
3B5F
 94
        0
  0
ACAD_PROXY_OBJECT
  5
3B5D
330
32
100
AcDbProxyObject
 90
      499
 91
      537
 95
       25
 70
     0
 93
       48
310
0001AA000000
330
32
330
1E
330
3B5E
330
0
 94
        0
  0
ACAD_PROXY_OBJECT
  5
3B5E
330
32
100
AcDbProxyObject
 90
      499
 91
      538
 95
       25
 70
     0
 93
       28
310
0001AAA0
330
32
 94
        0
  0
ACAD_PROXY_OBJECT
  5
3B5F
330
32
100
AcDbProxyObject
 90
      499
 91
      537
 95
       25
 70
     0
 93
       48
310
0001AA000000
330
32
330
26
330
3B60
330
0
 94
        0
  0
ACAD_PROXY_OBJECT
  5
3B60
330
32
100
AcDbProxyObject
 90
      499
 91
      538
 95
       25
 70
     0
 93
       28
310
0001AAA0
330
32
 94
        0
  0
ACAD_PROXY_OBJECT
  5
3B63
330
32
100
AcDbProxyObject
 90
      499
 91
      510
 95
       25
 70
     0
 93
      108
310
000101421053521310D05310D010
330
32
 94
        0
  0
ACAD_PROXY_OBJECT
  5
3B64
330
32
100
AcDbProxyObject
 90
      499
 91
      510
 95
       25
 70
     0
 93
      124
310
00010142905354915554D15112535010
330
32
 94
        0
  0
ACAD_PROXY_OBJECT
  5
3B65
330
32
100
AcDbProxyObject
 90
      499
 91
      510
 95
       25
 70
     0
 93
      132
310
00010143105354D150D51253D391125360
330
32
 94
        0
  0
ACAD_PROXY_OBJECT
  5
3B66
330
32
100
AcDbProxyObject
 90
      499
 91
      510
 95
       25
 70
     0
 93
      124
310
00010142905355941093D49111549010
330
32
 94
        0
  0
ACAD_PROXY_OBJECT
  5
3B67
330
32
100
AcDbProxyObject
 90
      499
 91
      510
 95
       25
 70
     0
 93
      116
310
0001014290535115D1D0D3D313D4A0
330
32
 94
        0
  0
ACAD_PROXY_OBJECT
  5
3B68
330
32
100
AcDbProxyObject
 90
      499
 91
      510
 95
       25
 70
     0
 93
      148
310
00010143505355925155D49151949154D21010
330
32
 94
        0
  0
ACAD_PROXY_OBJECT
  5
3B69
330
32
100
AcDbProxyObject
 90
      499
 91
      510
 95
       25
 70
     0
 93
      172
310
00010144105350539393D51154149154D15495915010
330
32
 94
        0
  0
ACAD_PROXY_OBJECT
  5
3B6A
330
32
100
AcDbProxyObject
 90
      499
 91
      510
 95
       25
 70
     0
 93
      172
310
00010144105350555513D11253505494905391D15010
330
32
 94
        0
  0
ACAD_PROXY_OBJECT
  5
3B6B
330
32
100
AcDbProxyObject
 90
      499
 91
      510
 95
       25
 70
     0
 93
      124
310
00010142D05351561514915191125360
330
32
 94
        0
  0
ACAD_PROXY_OBJECT
  5
3B6C
330
32
100
AcDbProxyObject
 90
      499
 91
      510
 95
       25
 70
     0
 93
      132
310
00010142D05355105410539393D5115010
330
32
 94
        0
  0
ACAD_PROXY_OBJECT
  5
3B6D
330
32
100
AcDbProxyObject
 90
      499
 91
      510
 95
       25
 70
     0
 93
      108
310
00010142105350555513D0D31010
330
32
 94
        0
  0
ACAD_PROXY_OBJECT
  5
3B6E
330
32
100
AcDbProxyObject
 90
      499
 91
      510
 95
       25
 70
     0
 93
      108
310
00010142105350D3119150551050
330
32
 94
        0
  0
ACAD_PROXY_OBJECT
  5
3B6F
330
32
100
AcDbProxyObject
 90
      499
 91
      510
 95
       25
 70
     0
 93
      108
310
00010142105350D315925155D3F0
330
32
 94
        0
  0
ACAD_PROXY_OBJECT
  5
3B70
330
32
100
AcDbProxyObject
 90
      499
 91
      510
 95
       25
 70
     0
 93
      148
310
0001014350535212511156915493D112535010
330
32
 94
        0
  0
ACAD_PROXY_OBJECT
  5
3B71
330
32
100
AcDbProxyObject
 90
      499
 91
      510
 95
       25
 70
     0
 93
      124
310
00010142905352105510D21254D3D010
330
32
 94
        0
  0
ACAD_PROXY_OBJECT
  5
3B72
330
32
100
AcDbProxyObject
 90
      499
 91
      510
 95
       25
 70
     0
 93
      148
310
00010143905354D25391D31152105513105660
330
32
 94
        0
  0
ACAD_PROXY_OBJECT
  5
3B73
330
32
100
AcDbProxyObject
 90
      499
 91
      510
 95
       25
 70
     0
 93
      124
310
00010142D0535115D1D193111254D420
330
32
 94
        0
  0
ACAD_PROXY_OBJECT
  5
3B74
330
32
100
AcDbProxyObject
 90
      499
 91
      510
 95
       25
 70
     0
 93
      100
310
00010142105350555513D213A0
330
32
 94
        0
  0
ACAD_PROXY_OBJECT
  5
3B75
330
32
100
AcDbProxyObject
 90
      499
 91
      510
 95
       25
 70
     0
 93
      116
310
000101425053521390D3D553951010
330
32
 94
        0
  0
ACAD_PROXY_OBJECT
  5
3B76
330
32
100
AcDbProxyObject
 90
      499
 91
      510
 95
       25
 70
     0
 93
      108
310
0001014210535213941493D29010
330
32
 94
        0
  0
ACAD_PROXY_OBJECT
  5
3B77
330
32
100
AcDbProxyObject
 90
      499
 91
      510
 95
       25
 70
     0
 93
      108
310
0001014210535213951654115070
330
32
 94
        0
  0
ACAD_PROXY_OBJECT
  5
3B78
330
32
100
AcDbProxyObject
 90
      499
 91
      510
 95
       25
 70
     0
 93
      108
310
000101421053521395925155D0F0
330
32
 94
        0
  0
ACAD_PROXY_OBJECT
  5
3B79
330
32
100
AcDbProxyObject
 90
      499
 91
      510
 95
       25
 70
     0
 93
      140
310
00010143505354D150D51253D390D3D41660
330
32
 94
        0
  0
ACAD_PROXY_OBJECT
  5
3B7A
330
32
100
AcDbProxyObject
 90
      499
 91
      510
 95
       25
 70
     0
 93
      108
310
00010142105350D3141493D29030
330
32
 94
        0
  0
ACAD_PROXY_OBJECT
  5
3B7B
330
32
100
AcDbProxyObject
 90
      499
 91
      509
 95
       25
 70
     0
 93
      212
310
00010143905350555513D2105510D21493D500000000000002E400
330
32
 94
        0
  0
ACAD_PROXY_OBJECT
  5
3B7C
330
32
100
AcDbProxyObject
 90
      499
 91
      510
 95
       25
 70
     0
 93
      156
310
00010143905350555513D2105510D21111551010
330
32
 94
        0
  0
ACAD_PROXY_OBJECT
  5
3B8A
330
32
100
AcDbProxyObject
 90
      499
 91
      546
 95
       25
 70
     0
 93
      698
310
0001000000009AA6A9AA4051E576564205365702032392030303A35313A323720323031302028555443290141CE4B8C8B8C0B8C80518576564205365702032392031303A30343A333220323031300141CE4B8C8B8C0B8C80
330
32
330
3B8B
330
3B8C
330
3B8E
330
0
 94
        0
  0
ACAD_PROXY_OBJECT
  5
3B8B
330
32
100
AcDbProxyObject
 90
      499
 91
      547
 95
       25
 70
     0
 93
       70
310
0001AAA80820000000
330
32
330
3B8B
330
3B8B
 94
        0
  0
ACAD_PROXY_OBJECT
  5
3B8C
330
32
100
AcDbProxyObject
 90
      499
 91
      548
 95
       25
 70
     0
 93
       48
310
000100000000
330
32
330
0
330
3B8D
330
0
330
0
 94
        0
  0
ACAD_PROXY_OBJECT
  5
3B8D
330
32
100
AcDbProxyObject
 90
      499
 91
      549
 95
       25
 70
     0
 93
       40
310
000100AAAA
330
32
330
0
 94
        0
  0
ACAD_PROXY_OBJECT
  5
3B93
330
32
100
AcDbProxyObject
 90
      499
 91
      553
 95
       25
 70
     0
 93
      180
310
00010143105050D3D35411119390535140504434F4D500
330
32
 94
        0
  0
ACAD_PROXY_OBJECT
  5
3B94
330
32
100
AcDbProxyObject
 90
      499
 91
      553
 95
       25
 70
     0
 93
      212
310
0001014390505193D311115491119390535140506466F6C6465720
330
32
 94
        0
  0
ACAD_PROXY_OBJECT
  5
3B95
330
32
100
AcDbProxyObject
 90
      499
 91
      553
 95
       25
 70
     0
 93
      180
310
00010143105050539393D1119390535140504284156290
330
32
 94
        0
  0
ACAD_PROXY_OBJECT
  5
3B96
330
32
100
AcDbProxyObject
 90
      499
 91
      553
 95
       25
 70
     0
 93
      436
310
00010143905050D3D35415925155D31254D50052295BD96CA0A90B396CA0A894591A496CA0A8DB691A496CA0A89BA96CA0A95E28F95310
330
32
 94
        0
  0
ACAD_PROXY_OBJECT
  5
3B9B
330
32
100
AcDbProxyObject
 90
      499
 91
      555
 95
       25
 70
     0
 93
       32
310
00010000
330
32
340
3B98
330
3B9D
330
3B98
 94
        0
  0
ACAD_PROXY_OBJECT
  5
3B9C
330
32
100
AcDbProxyObject
 90
      499
 91
      556
 95
       25
 70
     0
 93
       18
310
000180
330
32
 94
        0
  0
ACAD_PROXY_OBJECT
  5
3B9D
330
32
100
AcDbProxyObject
 90
      499
 91
      557
 95
       25
 70
     0
 93
      130
310
000101414DCC8C0D8E1050055401550000
330
32
330
3B9B
330
3B9C
 94
        0
  0
ACAD_PROXY_OBJECT
  5
3B9E
330
32
100
AcDbProxyObject
 90
      499
 91
      558
 95
       25
 70
     0
 93
      178
310
000100AAAAAABC537D8B87D77853E3589B6B40C15F1F40
330
32
330
3B9D
 94
        0
  0
ACAD_PROXY_OBJECT
  5
3B9F
330
32
100
AcDbProxyObject
 90
      499
 91
      559
 95
       25
 70
     0
 93
      108
310
0001901422000000000000AAAAA0
330
32
330
3BA0
330
3BA0
330
3BA0
330
3BA0
330
3BA0
330
0
 94
        0
  0
ACAD_PROXY_OBJECT
  5
3BA0
330
32
100
AcDbProxyObject
 90
      499
 91
      560
 95
       25
 70
     0
 93
       51
310
00010000AAAA80
330
32
330
3B9F
330
3B9D
 94
        0
  0
ACAD_PROXY_OBJECT
  5
3BA3
330
32
100
AcDbProxyObject
 90
      499
 91
      553
 95
       25
 70
     0
 93
      140
310
00010142105350D55494D511005034A49530
330
32
 94
        0
  0
DICTIONARY
  5
2C
102
{ACAD_REACTORS
330
2B
102
}
330
2B
100
AcDbDictionary
281
     1
  3
DWGSETTINGS
350
2D
  3
TRANSSETTINGS
350
2E
  0
ACAD_PROXY_OBJECT
  5
4A
102
{ACAD_REACTORS
330
2B
102
}
330
2B
100
AcDbProxyObject
 90
      499
 91
      521
 95
       25
 70
     0
 93
    23256
310
41502491013041105357CC201C00030C0132441013141105357CC603800030C0132441013241105357CCA01400030C0132441013341105357CCE01800030C01199013441105357CD200C00030C01199013541105357CD600C00030C01199013641105357CDA00800030C01239013741105357CDE01000030C0119901384110
310
5357CE200400030C01199013941105357CE63F400030C0241102324141505357CC4C201C00030C0132902344141505357CC4C600C00030C0119902495041505357CC4CA01C00030C013240902304E41505357CC13A01C00030C0132902314E41505357CC53A03800030C0132902324E41505357CC93A01400030C013290233
310
4E41505357CCD3A01800030C0119902344E41505357CD13A00C00030C0119902354E41505357CD53A00C00030C0119902364E41505357CD93A00800030C0123902374E41505357CDD3A01000030C0119902384E41505357CE13A00400030C0119902394E41505357CE53A3F400030C024110332414E41905357CC4C13A01C0
310
0030C013290334414E41905357CC4C53A00C00030C011990349504E41905357CC4C93A01C00030C0132409044B4C494E41505357D0D3200400030C011942504494E464F42105357D410549151A01000030C011942D055241484D3541905357D093D4A01C00030C0132425045649455742105357D5925155D4E00400030C011
310
942D06424548494E4441905357D25395A3F400030C0243505545241494C41505357D514A00C00030C01194250348494441905357D21251201C00030C01194250356495341905357D59254E01C00030C01324250650415244494D42505357D41054911253600C00030C01194250652454644494D42505357D49151911253601
310
000030C0119425774110531514901348070000C3004C9034110915312501348000000C0003FFFFFFFD034110921395901398000000C0003FFFFFFFE415092139594D06424548494E448000000C0003FFFFFFFE411093125110234418000000C0003FFFFFFFD03411093D05410234418000000C0003FFFFFFFD03411093D48C
310
9055241484D358010000C300466411093D48CD055241484D358020000C30048E411093D48D5055241484D358000000C0003FFFFFFFE411093D48DD055241484D3581E0000C30051903411094105410234418000000C0003FFFFFFFD03411094115610234418000000C0003FFFFFFFD034110951112501358000000C0003FFF
310
FFFFD034110D0530C901348000000C0003FFFFFFFE4110D0530CD01348020000C30048E4110D0530D501348070000C3004CA4110D0530DD013481E0000C30051A4110D15393901378000000C0003FFFFFFFE4110D15395D01378000000C0003FFFFFFFE4110D312539044B4C494E8000000C0003FFFFFFFE4110D3D38C5013
310
08000000C0003FFFFFFFD034110D3D38C901318000000C0003FFFFFFFD034110D3D38CD01328000000C0003FFFFFFFD034110D3D38D101328000000C0003FFFFFFFD034111115494101348000000C0003FFFFFFFD034111115510501348000000C0003FFFFFFFE4111125051D01358000000C0003FFFFFFFE4111125312501
310
358000000C0003FFFFFFFE411112535410650415244494D8000000C0003FFFFFFFE411112535490652454644494D8000000C0003FFFFFFFE411156135410234418000000C0003FFFFFFFD034111915353901388000000C0003FFFFFFFE415191535413901388030000C3003FFFFFFFE4151915354D410234418000000C0003
310
FFFFFFFE4151915354D510234418030000C300466415191535593901328000000C0003FFFFFFFE415191535595101328030000C3004664111931055101308000000C0003FFFFFFFD03411194905490234418000000C0003FFFFFFFD034111D49312501358000000C0003FFFFFFFD034111D5931250234418000000C0003FFF
310
FFFFD034112105510D01388000000C0003FFFFFFFD014112125113901338000000C0003FFFFFFFD034112125115D01338000000C0003FFFFFFFD034112131253901348000000C0003FFFFFFFD01411213D0D3901378000000C0003FFFFFFFE411213D0D5D01378000000C0003FFFFFFFE4112539193D04494E464F8000000C
310
0003FFFFFFFE4113105112501348000000C0003FFFFFFFD034113115051101358000000C0003FFFFFFFE419397D0921395902394E8000000C0003FFFFFFFE419397D0D3D38C502304E8000000C0003FFFFFFFD03419397D0D3D38C902314E8000000C0003FFFFFFFD03419397D0D3D38CD02324E8000000C0003FFFFFFFD03
310
419397D0D3D38D102324E8000000C0003FFFFFFFD03419397D0D15393902374E8000000C0003FFFFFFFE419397D0D15395D02374E8000000C0003FFFFFFFE419397D1125312502354E8000000C0003FFFFFFFE419397D2105510D02384E8000000C0003FFFFFFFD01419397D2125113902334E8000000C0003FFFFFFFD0341
310
9397D2125115D02334E8000000C0003FFFFFFFD03419397D3115051102354E8000000C0003FFFFFFFE419397D391D25410349504E8000000C0003FFFFFFFE419397D412105390334414E8000000C0003FFFFFFFE419397D510D3D3902304E8000000C0003FFFFFFFD03419397D5121312502344E8000000C0003FFFFFFFD01
310
419397D5131153902304E8000000C0003FFFFFFFD03419397D516150CD02364E8000000C0003FFFFFFFD03419397D594131250332414E8000000C0003FFFFFFFE411391D25410249508000000C0003FFFFFFFE411410530C9055241484D358010000C300466411410530CD055241484D358020000C30048E411410530D5055
310
241484D358000000C0003FFFFFFFE411410530DD055241484D3581E0000C30051903411412105390234418000000C0003FFFFFFFE411413D4D3901368070000C3004CA419413D4D49151901368050000C3004C903411413D4D6101368000000C0003FFFFFFFD03411414D150D0234418000000C0003FFFFFFFD03411490D1D
310
3901378000000C0003FFFFFFFE411490D1D5D01378000000C0003FFFFFFFE4114919112501348000000C0003FFFFFFFD034114945514901348070000C3004C903411494D093D01348000000C0003FFFFFFFD034114D09492D01348000000C0003FFFFFFFD014114D0D153901378000000C0003FFFFFFFD034114D150D51013
310
48000000C0003FFFFFFFD014114D15313901378000000C0003FFFFFFFD034114D15315D01378000000C0003FFFFFFFD034114D4D654D01308000000C0003FFFFFFFD034114D51312501348070000C3004C9034114D6508C501358000000C0003FFFFFFFD034114D6508C901358000000C0003FFFFFFFD034114D6508CD0135
310
8020000C30048E4114D6508D501358070000C3004C9034114D65353901378000000C0003FFFFFFFD034114D65355D01378000000C0003FFFFFFFD03411510D3D3901308000000C0003FFFFFFFD034115121312501348000000C0003FFFFFFFD01411512550C9055241484D358010000C300466411512550CD055241484D358
310
020000C30048E411512550D5055241484D358000000C0003FFFFFFFE411512550DD055241484D3581E0000C300519034115131153901308000000C0003FFFFFFFD03415514905253105545241494C8000000C0003FFFFFFFE41151492D3901378000000C0003FFFFFFFD0341151492D5D01378000000C0003FFFFFFFD03411
310
5149312501348000000C0003FFFFFFFD01411516150C501368030000C300466411516150C901368030000C300466411516150CD01368000000C0003FFFFFFFE411516150D501368070000C3004CA411516150DD013681E0000C30051A4115925155D04564945578000000C0003FFFFFFFE41159151121034849448000000C0
310
003FFFFFFFD0241159151159035649538000000C0003FFFFFFFD02411594131250232418000000C0003FFFFFFFE4116925690501348000000C0003FFFFFFFD01411354D653501358020000C30048EAAA3F400030C01013F90A4393241D3241919415324111940D194092340519479467F6
340
16
340
16
340
16
340
4B
340
16
340
16
340
16
340
4C
340
16
340
16
340
4C
340
4D
340
16
340
16
340
16
340
16
340
4B
340
16
340
16
340
16
340
4C
340
16
340
16
340
4C
340
4D
340
16
340
4E
340
16
340
16
340
16
340
16
340
16
340
4B
340
16
340
16
340
16
340
4F
340
15
340
15
340
15
340
15
340
15
340
15
340
15
340
15
340
15
340
15
340
15
340
15
340
15
340
15
340
15
340
15
340
50
340
15
340
15
340
15
340
15
340
15
340
15
340
15
340
15
340
15
340
15
340
15
340
15
340
15
340
15
340
15
340
16
340
15
340
15
340
15
340
15
340
15
340
15
340
15
340
15
340
4F
340
15
340
15
340
50
340
15
340
15
340
15
340
15
340
15
340
15
340
15
340
15
340
15
340
50
340
15
340
15
340
15
340
4F
340
15
340
15
340
15
340
15
340
15
340
15
340
15
340
15
340
15
340
15
340
15
340
15
340
15
340
15
340
15
340
15
340
15
340
15
340
15
340
50
340
15
340
15
340
50
340
15
340
15
340
16
340
15
340
50
340
15
340
15
340
4F
340
15
340
15
340
16
340
15
340
50
340
15
340
15
340
15
340
15
340
15
340
15
340
15
340
15
340
15
340
50
340
15
340
15
340
15
340
15
340
15
340
15
340
15
340
15
340
15
340
15
340
15
340
53
340
16
 94
        0
  0
ACAD_PROXY_OBJECT
  5
355
102
{ACAD_REACTORS
330
350
102
}
330
350
100
AcDbProxyObject
 90
      499
 91
      529
 95
       25
 70
     0
 93
      253
310
43D1444494D454E53494F4E2C414D44545F2A5F44494D404A9012A404A9012A8
  0
ACAD_PROXY_OBJECT
  5
354
102
{ACAD_REACTORS
330
350
102
}
330
350
100
AcDbProxyObject
 90
      499
 91
      529
 95
       25
 70
     0
 93
      181
310
43D012A42D05357D191504B505357CA9012A404A9012A8
  0
ACAD_PROXY_OBJECT
  5
351
102
{ACAD_REACTORS
330
350
102
}
330
350
100
AcDbProxyObject
 90
      499
 91
      529
 95
       25
 70
     0
 93
      133
310
43D054841544348404A9012A404A9012A8
  0
ACAD_PROXY_OBJECT
  5
352
102
{ACAD_REACTORS
330
350
102
}
330
350
100
AcDbProxyObject
 90
      499
 91
      529
 95
       25
 70
     0
 93
      549
310
43D044C494E4549CE0B0E138B0A8B4E0B0A8B4E138B105357CE0B105357CE138B0A8B505357CE0B0A8B505357CE139012A404A910494E534552542C5354445041525432448
  0
ACAD_PROXY_OBJECT
  5
353
102
{ACAD_REACTORS
330
350
102
}
330
350
100
AcDbProxyObject
 90
      499
 91
      529
 95
       25
 70
     0
 93
      909
310
43D6641434D46434652414D452C41434D444154554D5441524745542C41434D444154554D49442C41434D57454C4453594D2C41434D5355524653594D2C41434D4645415449442C41434D504152545245462C41434D42414C4C4F4F4E2C414D44544544474553594D404A9012A404A9012A8
  0
XRECORD
  5
AA6
102
{ACAD_REACTORS
330
AA4
102
}
330
AA4
100
AcDbXrecord
280
     1
  1
1,,,,,,,,,^M^J2,,,,,,,,,^M^J3,,,,,,,,,^M^J4,,,,,,,,,^M^J5,,,,,,,,,
  0

  0
XRECORD
  5
AA5
102
{ACAD_REACTORS
330
AA4
102
}
330
AA4
100
AcDbXrecord
280
     1
  1
5,10
  0

  0
ACAD_PROXY_OBJECT
  5
45
102
{ACAD_REACTORS
330
44
102
}
330
44
100
AcDbProxyObject
 90
      499
 91
      520
 95
       25
 70
     0
 93
      157
310
057356C1D77406406AA8FFFFFFFF05DD01009010
330
1F
330
0
330
3B9D
 94
        0
  0
ACAD_PROXY_OBJECT
  5
343
102
{ACAD_REACTORS
330
342
102
}
330
342
100
AcDbProxyObject
 90
      499
 91
      522
 95
       25
 70
     0
 93
     2379
310
5DC33333333333309408000000C00040D29254D01640600800030C0200800030C003333333333330940C8121E8720B1B6A9BAB9332A32BC3A29BA3220480A1282C6DA8C868CA6E8C88120286A0B1B6ABB2B63234B733A9BA3220480A1082C6DA92C8A6E8C88120285A0B1B6A230BA3AB6A9BA3220480A1282C6DA849E9AA6E
310
8C88120286A0B1A0B6B3AA34BA3632A9BA3220480A2082DAC8E888CAE8C2D2D8A6F2DAA6E8C88120288A0B6B23A29B2B1BA34B7B729BCB6A9BA3220480A2282DAC8E886CADCE8CAE498D2DCCAA6E8C88120288A0B6B23A2A343932B0B22634B732A9BA3220480A1682DAC8E89CDEE8CAA6E8C88120285A0B1A0B6B3A630BCA
310
9BA3220480A1682C682DACE88D2DAA6E8C88120288A0B1A0B6B3A437B632A1B430B93A29BA3220480C812020
340
32F
360
344
360
345
360
346
360
347
360
348
360
349
360
3BA4
360
3BA5
360
3BA6
360
3BA8
360
3BA9
360
3BAA
360
3BB0
360
3BB1
360
3BB2
340
0
340
0
 94
        0
  0
ACAD_PROXY_OBJECT
  5
2D
102
{ACAD_REACTORS
330
2C
102
}
330
2C
100
AcDbProxyObject
 90
      499
 91
      503
 95
       25
 70
     0
 93
     2592
310
4050B44574753455454494E4753A0E8482A68AA6A88882A069492A684A1A0A723A0A92920ACA0A8419983E1A1ABE1B1820C868A9C829C8E82A12686AF87260F862666A8321A2A72224A0A50000000000000122020E868A9C889282A682A106260F86460F8666083A1A2A72224A9AA250000000000000042020C868A9C988A9
310
C94000000000000048808321A2A727A32325000000000000012202128698929C82A4A482B282A0862645C6A8421A624A722AA2CA820A82AC2624A722A1288AE8EAAA68682988A94283A620A9AA27A12520A80982109A82968AAC928AAE9FA04832829A1A0A622830020000419491559254D2505404C1055343414C45415033
310
13A314214D510539110549110540D29254D0954494D455354414D504A027A48511742B734141D5915494D253D3905414C4D4B8C0C1107B44574753455454494E4753454E447D
  0
ACAD_PROXY_OBJECT
  5
2E
102
{ACAD_REACTORS
330
2C
102
}
330
2C
100
AcDbProxyObject
 90
      499
 91
      503
 95
       25
 70
     0
 93
      852
310
4050D5452414E5353455454494E4753A2488A482AE929C8EA8A4829CA69882A8929E9C0C00800050D4F524947494E414C4C595F4F4E0600400028529A7AAA921A2A620A723A0A81A52827212AAA0A48AA68AA4AC8A0C0080001107B44574753455454494E4753454E447D0
  0
ACAD_PROXY_OBJECT
  5
344
330
343
100
AcDbProxyObject
 90
      499
 91
      523
 95
       25
 70
     0
 93
       86
310
5DEA0C80A0280A0280A034
  0
ACAD_PROXY_OBJECT
  5
345
330
343
100
AcDbProxyObject
 90
      499
 91
      524
 95
       25
 70
     0
 93
      282
310
5DD0E4050140501405014050140501405014050141101405014048000000000000001000
340
330
 94
        0
  0
ACAD_PROXY_OBJECT
  5
346
330
343
100
AcDbProxyObject
 90
      499
 91
      525
 95
       25
 70
     0
 93
      323
310
5DCC199999999999E99F91740501405014050140501405014050140501405014050140501405014040
340
0
 94
        0
  0
ACAD_PROXY_OBJECT
  5
347
330
343
100
AcDbProxyObject
 90
      499
 91
      526
 95
       25
 70
     0
 93
       10
310
5DC0
  0
ACAD_PROXY_OBJECT
  5
348
330
343
100
AcDbProxyObject
 90
      499
 91
      527
 95
       25
 70
     0
 93
      257
310
5DE0C16A22A7D90F49F80000000000001081400000000000004204010000618000
340
328
340
329
 94
        0
  0
ACAD_PROXY_OBJECT
  5
349
330
343
100
AcDbProxyObject
 90
      499
 91
      528
 95
       25
 70
     0
 93
     5277
310
5DD06411255115350141236025B6901405014069010000000000000910240690120281A8AA2CA0282484A4BE52028120280A032020000000000001220480D202405044E414D454050496BC914F4051C40640A80000000000004E4090193C3D3C4946284953424C414E4B28504152543A4E414D45292C424C4F434B3A4E414D
310
452C504152543A4E414D45293E3C41435F44455343524950544E3E40480A109A82A88AA492829880A091BBD2F7E80A3A80C81D0E27A15AF46E08A81203480901411393D5115014124A363B7D0147501904A0000000000000F902406428F4F1050D7D393D5114F901202832B22A72227A92028366EF6EE06F582028EA0320B4
310
0000000000001F20480C879E9E20A1AFAB27222FA620A122A61F20240506445020000000000000490201C00030C00010180000000000003E400000000000000F901073D3C4954454D3E4050180000000000003E400000000000000F901073D3C4954454D3E40501800000000000034400000000000000D101073D3C4954454
310
D3E40501800000000000034400000000000000D101073D3C4954454D3E405029010000000000000F9000000000000003E4041CF4F125511534F901418F4F1455164F9014060000000000000F9000000000000003E4041CF4F125511534F901800000000000034400000000000000D101073D3C4954454D3E40640400000000
310
0000003E400000000000000F90288800000000000020810000001800120881A068120480A032208521122080D21480D211480A1485214852050000000000003C2FC000000000000F0BF40600800030C0200400030C00CDCCCCCCCCCCEC3F3373333333333B0FC3333333333330940C80D069014090341504901A1999999999
310
9984A040100006180400800061804010000618008098A02808
340
0
340
0
 94
        0
  0
ACAD_PROXY_OBJECT
  5
3BA4
330
343
100
AcDbProxyObject
 90
      499
 91
      561
 95
       25
 70
     0
 93
     3042
310
5DD9740D29254D064A49535F413342929254D7D512551311505134A49535F42525F5265766973696F6E6C6973744190F4134522028323937783231306D6D2941D29254D7D04D1490E41312028353934783834316D6D2941929254D7D04C50F41344C2028323130783239376D6D2941D29254D7D04D1310E413320283239377
310
83432306D6D2941929254D7D04CD0E41322028343230783539346D6D2941929254D7D04C90F4130202838343178313138396D6D2941929254D7D04C10243129254C82557247A25E4C81050A4A49535F5449544C454143129254C82557247A25E4C81090A4A49535F5449544C45424110E979A97F0838A835883675F42525F4
310
4D29254D7D09497D4995D9A5CDA5BDB9B1A5CDD10E979A97F0838A835883675F54525F44D29254D7D51497D4995D9A5CDA5BDB9B1A5CDD10E979A97F0838A835883675F424C5F44D29254D7D09317D4995D9A5CDA5BDB9B1A5CDD10E979A97F0838A835883675F544C5F44D29254D7D51317D4995D9A5CDA5BDB9B1A5CDD00
  0
ACAD_PROXY_OBJECT
  5
3BA5
330
343
100
AcDbProxyObject
 90
      499
 91
      562
 95
       25
 70
     0
 93
      898
310
5DC4000000000000124048CF4F11115510525317D3105091530F880A0F11115510525317D05094D4D0D053114F8A50241C9A9999999999B93F26A666666666724FC000000000000E03F400000000000000400000000000000510000000000000024408070000C300000000000000049000
340
16
340
32F
 94
        0
  0
ACAD_PROXY_OBJECT
  5
3BA6
330
343
100
AcDbProxyObject
 90
      499
 91
      563
 95
       25
 70
     0
 93
      823
310
5DC0B00000000000002480959E9E29A2A1AA24A7A72FA620A122A62FA324A929AA1F169E29A2A1AA24A7A72FA620A122A62FA620A9AA1F000000000000048803FFFE01C00030C008140380006180000000000000048800000000000000A2000000000000002480
340
39F
340
32F
 94
        0
  0
ACAD_PROXY_OBJECT
  5
3BA8
330
343
100
AcDbProxyObject
 90
      499
 91
      564
 95
       25
 70
     0
 93
      152
310
5DE8273108AC1C5A0640A3D0A5723F0BD1F200
  0
ACAD_PROXY_OBJECT
  5
3BA9
330
343
100
AcDbProxyObject
 90
      499
 91
      565
 95
       25
 70
     0
 93
       14
310
5DE0
340
0
 94
        0
  0
ACAD_PROXY_OBJECT
  5
3BAA
330
343
100
AcDbProxyObject
 90
      499
 91
      566
 95
       25
 70
     0
 93
     6059
310
5DD084050BA4050AA405024050E836583938376838C815B83672031405983D3C486F6C653A6469613E3C696628657175616C28486F6C653A7465726D696E6174696F6E2C223022292C2220905B82B320222C22208368838A838B22293E3C696628657175616C28486F6C653A7465726D696E6174696F6E2C223022292C486F
310
6C653A64657074682C2222293E2C203C486F6C653A63746469613E2082B482AE82E882CC905B82B3203C486F6C653A637464657074683E406901405034050E836583938376838C815B83672031405EF3D3C486F6C653A6374616E676C653E252564202525633C486F6C653A63746469613E208E4D8C8A2C203C69662865717
310
5616C28486F6C653A7461707065642C223022292C22252563222C486F6C653A6E6F6D696E616C202220782022293E3C696628657175616C28486F6C653A7461707065642C223022292C486F6C653A6469612C486F6C653A706974636864657363293E203C696628657175616C28486F6C653A7465726D696E6174696F6E2C2
310
23022292C22905B82B320222C222022293E3C696628657175616C28486F6C653A7465726D696E6174696F6E2C223022292C486F6C653A64657074682C2222293E406901405014050E836583938376838C815B83672031405C73D3C696628657175616C28486F6C653A7461707065642C223022292C22252563222C486F6C65
310
3A6E6F6D696E616C202220782022293E3C696628657175616C28486F6C653A7461707065642C223022292C486F6C653A6469612C486F6C653A706974636864657363293E203C696628657175616C28486F6C653A7465726D696E6174696F6E2C223022292C22905B82B320222C222022293E3C696628657175616C28486F6C
310
653A7465726D696E6174696F6E2C223022292C486F6C653A64657074682C2222293E4069014051E4090E836583938376838C815B83672032405173D3C535444503A444553433E203C535444503A5354443E40690E836583938376838C815B836720314050C3D3C535444503A444553433E40690240515AAABBA120
360
3BAE
330
3BAE
360
3BAF
330
3BAF
360
3BAD
330
3BAD
360
3BAC
360
3BAB
330
3BAC
330
3BAB
 94
        0
  0
ACAD_PROXY_OBJECT
  5
3BB0
330
343
100
AcDbProxyObject
 90
      499
 91
      568
 95
       25
 70
     0
 93
       26
310
5DD02A80
340
4A
 94
        0
  0
ACAD_PROXY_OBJECT
  5
3BB1
330
343
100
AcDbProxyObject
 90
      499
 91
      569
 95
       25
 70
     0
 93
      250
310
5DD020000000000000A1000000000000002440408F0F9023C3E409A0DCFFFF80
340
331
340
532
340
533
340
332
340
333
340
334
340
335
340
336
340
337
340
0
 94
        0
  0
ACAD_PROXY_OBJECT
  5
3BB2
330
343
100
AcDbProxyObject
 90
      499
 91
      570
 95
       25
 70
     0
 93
    13857
310
5DD1D009030300030CCCCCCCCCCCC250200800030C01030300030CCCCCCCCCCCC250200800030C00050C8DC0955782CC838A83588367014ED1D15395149050D3CB1294138B0C0B23702555E0B320E2A0D620D9CB11D15395149055160B095CCB0A11D1539354D1C819D95B991A5B5E880CCC0A78000C000000000000000000
310
000000000000010CCCCCCCCCCCC250200800030C010CCCCCCCCCCCC250200800030C020143CF4F111959985D5B1D151A5D1B194F8050A8C8A8365815B8375838B014E51D15395149050D3CB1294138B0C0B2322A0D96056E0DD60E2CB11D15395149055160B095CCB0A11D1539354D1C819D95B991A5B5E880CCC4A78000C0
310
00000000000000000000000000000010CCCCCCCCCCCC250200800030C010CCCCCCCCCCCC250200800030C020143CF4F111959985D5B1D151A5D1B194F90D44111409034110541D0C4350F4050E44D03449074510F000141232D24D7C053247454E545241434F2C4A504E2C302C8CB4935F2C47454E54524154582C25732C28
310
47454E4D53472067656E64696D7A20312900010104002214000281464500A608E8A9CA8A482869E5894A09C5860591914588E8A9CA8A482A8B0584AE658508E8A9C9AA68E40CECADCC8D2DAF4406452029E9E9E27B934B3B4B71F1E24A31427A91424A9A12620A7259427B934B3B4B7149624A9A12620A7259424BA32B6949
310
496111116111711149F1E24BA32B69F00808200111A000140560052F47454E545241434F2C4A504E2C302C582C47454E54524154582C25732C2847454E4D53472067656E64696D7A20332900010100002054000280AC80A5E8E8A9CA8A482869E5894A09C586058B2588E8A9CA8A482A8B0584AE658508E8A9C9AA68E40CEC
310
ADCC8D2DAF4406852000202000040E800050152014BD1D15395149050D3CB1294138B0C0B148B11D15395149055160B095CCB0A11D1539354D1C819D95B991A5B5E880D8A400040400008250000A0507A6029823A2A72A2920A1A79625282716181641E99623A2A72A2920AA2C1612B9961423A2A726A9A39033B2B73234B6
310
BD101B948000808180105A000140A0F4C053047454E545241434F2C4A504E2C302C83D32C47454E54524154582C25732C2847454E4D53472067656E64696D7A203829000101010020F400028248704B5F00A668E8A9CA8A482869E5894A09C58605921C12D7C588E8A9CA8A482A8B0584AE658508E8A9C9AA68E40CECADCC8
310
D2DAF440646052000200080043280005048B4B8A69014CD1D15395149050D3CB1294138B0C0B22D2E29A4B11D15395149055160B095CCB0A11D1539354D1C819D95B991A5B5E880C8C4A4000400100086D0000A09196926BE029923A2A72A2920A1A796252827161816465A49AF9623A2A72A2920AA2C1612B9961423A2A72
310
6A9A39033B2B73234B6BD10189480A02620202080043E80005048D8096DA014CD1D15395149050D3CB1294138B0C0B236025B68B11D15395149055160B095CCB0A11D1539354D1C819D95B991A5B5E880C4D0A4000404140280D0000A190687072706CD06C5069D06B0029DA3A2A72A2920A1A79625282716181641A1C1C9C
310
1B341B141A741AC1623A2A72A2920AA2C1612B9961423A2A726A9A39033B2B73234B6BD10189A94800080820050EA000143A322A0D0E0E4E0D9A0D8A0D3A0D60053D47454E545241434F2C4A504E2C302C8C8A8343839383668362834E83582C47454E54524154582C25732C2847454E4D53472067656E64696D7A20313729
310
00010105002274000281464500A628E8A9CA8A482869E5894A09C5860591914588E8A9CA8A482A8B0584AE658508E8A9C9AA68E40CECADCC8D2DAF440626C52000202080044A8000504909497CA014CD1D15395149050D3CB1294138B0C0B242525F28B11D15395149055160B095CCB0A11D1539354D1C819D95B991A5B5E8
310
80C4E4A400040418008A521E000000000000001CA040C00000000000034408080000000000006881010000000000000D102040000000000001A204080000000000003440818000000000000728103000000000000125020600000000004028A040000000000000034408000000000000004881000000000000000D10200000
310
0000000001A204000000000000003440818000000000000508143C0000000000000039408180000000000006881030000000000000D102060000000000001A2040C00000000000034408180000000000006881030000000000000E5020600000000000024A040C000000000080514080000000000000068810000000000000
310
009102000000000000001A2040000000000000034408180000000000006881030000000000000A10284220000000878000002020000008380000020400000081800000208000000828000002028900000000
340
0
340
0
340
0
340
0
340
32F
340
32F
 94
        0
  0
ACAD_PROXY_OBJECT
  5
3BAE
330
3BAA
100
AcDbProxyObject
 90
      499
 91
      567
 95
       25
 70
     0
 93
     1376
310
5DE0143A0D960E4E0DDA0E32056E0D9C80C405983D3C486F6C653A6469613E3C696628657175616C28486F6C653A7465726D696E6174696F6E2C223022292C2220905B82B320222C22208368838A838B22293E3C696628657175616C28486F6C653A7465726D696E6174696F6E2C223022292C486F6C653A64657074682C22
310
22293E2C203C486F6C653A63746469613E2082B482AE82E882CC905B82B3203C486F6C653A637464657074683E
  0
ACAD_PROXY_OBJECT
  5
3BAF
330
3BAA
100
AcDbProxyObject
 90
      499
 91
      567
 95
       25
 70
     0
 93
     2072
310
5DE0143A0D960E4E0DDA0E32056E0D9C80C405EF3D3C486F6C653A6374616E676C653E252564202525633C486F6C653A63746469613E208E4D8C8A2C203C696628657175616C28486F6C653A7461707065642C223022292C22252563222C486F6C653A6E6F6D696E616C202220782022293E3C696628657175616C28486F6C
310
653A7461707065642C223022292C486F6C653A6469612C486F6C653A706974636864657363293E203C696628657175616C28486F6C653A7465726D696E6174696F6E2C223022292C22905B82B320222C222022293E3C696628657175616C28486F6C653A7465726D696E6174696F6E2C223022292C486F6C653A6465707468
310
2C2222293E
  0
ACAD_PROXY_OBJECT
  5
3BAD
330
3BAA
100
AcDbProxyObject
 90
      499
 91
      567
 95
       25
 70
     0
 93
     1752
310
5DE0143A0D960E4E0DDA0E32056E0D9C80C405C73D3C696628657175616C28486F6C653A7461707065642C223022292C22252563222C486F6C653A6E6F6D696E616C202220782022293E3C696628657175616C28486F6C653A7461707065642C223022292C486F6C653A6469612C486F6C653A706974636864657363293E20
310
3C696628657175616C28486F6C653A7465726D696E6174696F6E2C223022292C22905B82B320222C222022293E3C696628657175616C28486F6C653A7465726D696E6174696F6E2C223022292C486F6C653A64657074682C2222293E
  0
ACAD_PROXY_OBJECT
  5
3BAC
330
3BAA
100
AcDbProxyObject
 90
      499
 91
      567
 95
       25
 70
     0
 93
      344
310
5DE0143A0D960E4E0DDA0E32056E0D9C80C805173D3C535444503A444553433E203C535444503A5354443E
  0
ACAD_PROXY_OBJECT
  5
3BAB
330
3BAA
100
AcDbProxyObject
 90
      499
 91
      567
 95
       25
 70
     0
 93
      256
310
5DE0143A0D960E4E0DDA0E32056E0D9C80C4050C3D3C535444503A444553433E
  0
ENDSEC
  0
EOF
