  0
SECTION
  2
HEADER
  9
$ACADVER
  1
AC1015
  9
$ACADMAINTVER
 70
     6
  9
$DWGCODEPAGE
  3
ANSI_932
  9
$INSBASE
 10
0.0
 20
0.0
 30
0.0
  9
$EXTMIN
 10
-90.87625157057937
 20
-139.2866244914632
 30
-0.0000000000000153
  9
$EXTMAX
 10
209.2815115222525
 20
33.5992069790334
 30
0.0000000000000152
  9
$LIMMIN
 10
0.0
 20
0.0
  9
$LIMMAX
 10
420.0
 20
297.0
  9
$ORTHOMODE
 70
     0
  9
$REGENMODE
 70
     1
  9
$FILLMODE
 70
     1
  9
$QTEXTMODE
 70
     0
  9
$MIRRTEXT
 70
     1
  9
$LTSCALE
 40
1.0
  9
$ATTMODE
 70
     1
  9
$TEXTSIZE
 40
4.0
  9
$TRACEWID
 40
1.0
  9
$TEXTSTYLE
  7
STANDARD
  9
$CLAYER
  8
AM_0
  9
$CELTYPE
  6
ByLayer
  9
$CECOLOR
 62
   256
  9
$CELTSCALE
 40
1.0
  9
$DISPSILH
 70
     0
  9
$DIMSCALE
 40
1.0
  9
$DIMASZ
 40
2.5
  9
$DIMEXO
 40
0.0
  9
$DIMDLI
 40
10.0
  9
$DIMRND
 40
0.0
  9
$DIMDLE
 40
0.0
  9
$DIMEXE
 40
1.0
  9
$DIMTP
 40
0.1
  9
$DIMTM
 40
0.1000000001
  9
$DIMTXT
 40
3.8
  9
$DIMCEN
 40
0.0
  9
$DIMTSZ
 40
0.0
  9
$DIMTOL
 70
     0
  9
$DIMLIM
 70
     0
  9
$DIMTIH
 70
     0
  9
$DIMTOH
 70
     0
  9
$DIMSE1
 70
     0
  9
$DIMSE2
 70
     0
  9
$DIMTAD
 70
     3
  9
$DIMZIN
 70
     1
  9
$DIMBLK
  1
Open30
  9
$DIMASO
 70
     1
  9
$DIMSHO
 70
     1
  9
$DIMPOST
  1

  9
$DIMAPOST
  1
"
  9
$DIMALT
 70
     0
  9
$DIMALTD
 70
     2
  9
$DIMALTF
 40
0.0393701
  9
$DIMLFAC
 40
1.0
  9
$DIMTOFL
 70
     1
  9
$DIMTVP
 40
0.0
  9
$DIMTIX
 70
     0
  9
$DIMSOXD
 70
     0
  9
$DIMSAH
 70
     0
  9
$DIMBLK1
  1

  9
$DIMBLK2
  1

  9
$DIMSTYLE
  2
AM_JIS
  9
$DIMCLRD
 70
   256
  9
$DIMCLRE
 70
   256
  9
$DIMCLRT
 70
     2
  9
$DIMTFAC
 40
0.71
  9
$DIMGAP
 40
1.5
  9
$DIMJUST
 70
     0
  9
$DIMSD1
 70
     0
  9
$DIMSD2
 70
     0
  9
$DIMTOLJ
 70
     0
  9
$DIMTZIN
 70
     8
  9
$DIMALTZ
 70
     0
  9
$DIMALTTZ
 70
     0
  9
$DIMUPT
 70
     0
  9
$DIMDEC
 70
     0
  9
$DIMTDEC
 70
     3
  9
$DIMALTU
 70
     2
  9
$DIMALTTD
 70
     2
  9
$DIMTXSTY
  7
STANDARD
  9
$DIMAUNIT
 70
     1
  9
$DIMADEC
 70
     0
  9
$DIMALTRND
 40
0.0
  9
$DIMAZIN
 70
     2
  9
$DIMDSEP
 70
    46
  9
$DIMATFIT
 70
     3
  9
$DIMFRAC
 70
     0
  9
$DIMLDRBLK
  1
Open30
  9
$DIMLUNIT
 70
     2
  9
$DIMLWD
 70
    -1
  9
$DIMLWE
 70
    -1
  9
$DIMTMOVE
 70
     0
  9
$LUNITS
 70
     2
  9
$LUPREC
 70
     4
  9
$SKETCHINC
 40
1.0
  9
$FILLETRAD
 40
0.8
  9
$AUNITS
 70
     0
  9
$AUPREC
 70
     4
  9
$MENU
  1
.
  9
$ELEVATION
 40
0.0
  9
$PELEVATION
 40
0.0
  9
$THICKNESS
 40
0.0
  9
$LIMCHECK
 70
     0
  9
$CHAMFERA
 40
2.0
  9
$CHAMFERB
 40
2.0
  9
$CHAMFERC
 40
20.0
  9
$CHAMFERD
 40
0.0
  9
$SKPOLY
 70
     0
  9
$TDCREATE
 40
2451943.610431667
  9
$TDUCREATE
 40
2451943.235431667
  9
$TDUPDATE
 40
2455441.615532581
  9
$TDUUPDATE
 40
2455441.240532581
  9
$TDINDWG
 40
1.7296907176
  9
$TDUSRTIMER
 40
1.729690544
  9
$USRTIMER
 70
     1
  9
$ANGBASE
 50
0.0
  9
$ANGDIR
 70
     0
  9
$PDMODE
 70
     0
  9
$PDSIZE
 40
0.0
  9
$PLINEWID
 40
0.0
  9
$SPLFRAME
 70
     0
  9
$SPLINETYPE
 70
     6
  9
$SPLINESEGS
 70
     8
  9
$HANDSEED
  5
1CC2D
  9
$SURFTAB1
 70
     6
  9
$SURFTAB2
 70
     6
  9
$SURFTYPE
 70
     6
  9
$SURFU
 70
     6
  9
$SURFV
 70
     6
  9
$UCSBASE
  2

  9
$UCSNAME
  2

  9
$UCSORG
 10
0.0
 20
0.0
 30
0.0
  9
$UCSXDIR
 10
1.0
 20
0.0
 30
0.0
  9
$UCSYDIR
 10
0.0
 20
1.0
 30
0.0
  9
$UCSORTHOREF
  2

  9
$UCSORTHOVIEW
 70
     0
  9
$UCSORGTOP
 10
0.0
 20
0.0
 30
0.0
  9
$UCSORGBOTTOM
 10
0.0
 20
0.0
 30
0.0
  9
$UCSORGLEFT
 10
0.0
 20
0.0
 30
0.0
  9
$UCSORGRIGHT
 10
0.0
 20
0.0
 30
0.0
  9
$UCSORGFRONT
 10
0.0
 20
0.0
 30
0.0
  9
$UCSORGBACK
 10
0.0
 20
0.0
 30
0.0
  9
$PUCSBASE
  2

  9
$PUCSNAME
  2

  9
$PUCSORG
 10
0.0
 20
0.0
 30
0.0
  9
$PUCSXDIR
 10
1.0
 20
0.0
 30
0.0
  9
$PUCSYDIR
 10
0.0
 20
1.0
 30
0.0
  9
$PUCSORTHOREF
  2

  9
$PUCSORTHOVIEW
 70
     0
  9
$PUCSORGTOP
 10
0.0
 20
0.0
 30
0.0
  9
$PUCSORGBOTTOM
 10
0.0
 20
0.0
 30
0.0
  9
$PUCSORGLEFT
 10
0.0
 20
0.0
 30
0.0
  9
$PUCSORGRIGHT
 10
0.0
 20
0.0
 30
0.0
  9
$PUCSORGFRONT
 10
0.0
 20
0.0
 30
0.0
  9
$PUCSORGBACK
 10
0.0
 20
0.0
 30
0.0
  9
$USERI1
 70
     0
  9
$USERI2
 70
     0
  9
$USERI3
 70
     0
  9
$USERI4
 70
     0
  9
$USERI5
 70
     0
  9
$USERR1
 40
0.0
  9
$USERR2
 40
0.0
  9
$USERR3
 40
0.0
  9
$USERR4
 40
0.0
  9
$USERR5
 40
0.0
  9
$WORLDVIEW
 70
     1
  9
$SHADEDGE
 70
     3
  9
$SHADEDIF
 70
    70
  9
$TILEMODE
 70
     1
  9
$MAXACTVP
 70
    64
  9
$PINSBASE
 10
0.0
 20
0.0
 30
0.0
  9
$PLIMCHECK
 70
     0
  9
$PEXTMIN
 10
1.000000000000000E+20
 20
1.000000000000000E+20
 30
1.000000000000000E+20
  9
$PEXTMAX
 10
-1.000000000000000E+20
 20
-1.000000000000000E+20
 30
-1.000000000000000E+20
  9
$PLIMMIN
 10
0.0
 20
0.0
  9
$PLIMMAX
 10
420.0
 20
297.0
  9
$UNITMODE
 70
     0
  9
$VISRETAIN
 70
     1
  9
$PLINEGEN
 70
     0
  9
$PSLTSCALE
 70
     1
  9
$TREEDEPTH
 70
  3020
  9
$CMLSTYLE
  2
Standard
  9
$CMLJUST
 70
     0
  9
$CMLSCALE
 40
20.0
  9
$PROXYGRAPHICS
 70
     1
  9
$MEASUREMENT
 70
     1
  9
$CELWEIGHT
370
    -1
  9
$ENDCAPS
280
     0
  9
$JOINSTYLE
280
     0
  9
$LWDISPLAY
290
     0
  9
$INSUNITS
 70
     4
  9
$HYPERLINKBASE
  1

  9
$STYLESHEET
  1
sei_cad.ctb
  9
$XEDIT
290
     1
  9
$CEPSNTYPE
380
     0
  9
$PSTYLEMODE
290
     1
  9
$FINGERPRINTGUID
  2
{C77AB3BE-9CA2-11D3-BAF3-006094EB760E}
  9
$VERSIONGUID
  2
{90D46E99-5C52-4F01-A629-EE3F6590AA98}
  9
$EXTNAMES
290
     1
  9
$PSVPSCALE
 40
0.0
  9
$OLESTARTUP
290
     0
  0
ENDSEC
  0
SECTION
  2
CLASSES
  0
CLASS
  1
ACDBDICTIONARYWDFLT
  2
AcDbDictionaryWithDefault
  3
ObjectDBX Classes
 90
        0
280
     0
281
     0
  0
CLASS
  1
ACDBPLACEHOLDER
  2
AcDbPlaceHolder
  3
ObjectDBX Classes
 90
        0
280
     0
281
     0
  0
CLASS
  1
LAYOUT
  2
AcDbLayout
  3
ObjectDBX Classes
 90
        0
280
     0
281
     0
  0
CLASS
  1
ACME_DOCUMENT
  2
AcMeDbDoc
  3
AcMeServices
 90
        0
280
     1
281
     0
  0
CLASS
  1
ACMESCOPE
  2
AcMeScope
  3
AcMeServices
 90
        0
280
     1
281
     0
  0
CLASS
  1
ACMECOMMANDHISTORY
  2
AcMeCommandHistory
  3
AcMeServices
 90
        0
280
     1
281
     0
  0
CLASS
  1
DICTIONARYVAR
  2
AcDbDictionaryVar
  3
ObjectDBX Classes
 90
        0
280
     0
281
     0
  0
CLASS
  1
ACIMSYSVARMAN
  2
AcImSysVarManager
  3
AcMeServices
 90
        0
280
     1
281
     0
  0
CLASS
  1
ACIMREALSYSVAR
  2
AcImRealSysVar
  3
AcMeServices
 90
        0
280
     1
281
     0
  0
CLASS
  1
ACIMINTSYSVAR
  2
AcImIntSysVar
  3
AcMeServices
 90
        0
280
     1
281
     0
  0
CLASS
  1
ACMEDRAWINGMAN
  2
AcMeDrawingMan
  3
AcMeServices
 90
        0
280
     1
281
     0
  0
CLASS
  1
ACMEVIEW
  2
AcMeView
  3
AcMeServices
 90
        0
280
     1
281
     0
  0
CLASS
  1
ACDBENTITYCACHE
  2
AcMeEntityCache
  3
AcMeServices
 90
        0
280
     1
281
     0
  0
CLASS
  1
GSMANAGER
  2
AcMeGSManager
  3
AcMeServices
 90
        0
280
     1
281
     0
  0
CLASS
  1
AMDTINTERNALREACTOR
  2
AmdtInternalReactor
  3
AcMeServices
 90
        0
280
     1
281
     0
  0
CLASS
  1
ACMESTATEMGR
  2
AcMeStateMgr
  3
AcMeServices
 90
        0
280
     1
281
     0
  0
CLASS
  1
ACME_DATABASE
  2
AcMeDbDatabase
  3
AcMeServices
 90
        0
280
     1
281
     0
  0
CLASS
  1
ACRFINSADJUSTERMGR
  2
AcRfInsAdjusterMgr
  3
AcMeServices
 90
        0
280
     1
281
     0
  0
CLASS
  1
AMGSETTINGSOBJ
  2
AmgSettingsObj
  3
"AcadM|Product Description: AutoCAD Mechanical 2000|Company: Autodesk"
 90
        0
280
     1
281
     0
  0
CLASS
  1
AMGOBJPROPCFG
  2
AmgObjPropCfg
  3
"AmgLay|Product Description: AutoCAD Mechanical 2000|Company: Autodesk"
 90
        1
280
     1
281
     0
  0
CLASS
  1
ACMDATADICTIONARY
  2
AcmDataDictionary
  3
"AcmSymBB|Product Description: AutoCAD Mechanical 2004 DX|Company: Autodesk"
 90
        0
280
     1
281
     0
  0
CLASS
  1
ACMDATAENTRYBLOCK
  2
AcmDataEntryBlock
  3
"AcmSymBB|Product Description: AutoCAD Mechanical 2004 DX|Company: Autodesk"
 90
        0
280
     1
281
     0
  0
CLASS
  1
ACIMSTRSYSVAR
  2
AcImStrSysVar
  3
AcMeServices
 90
        0
280
     1
281
     0
  0
CLASS
  1
ACAMGFILTERDAT
  2
AcAmgFilterDat
  3
"AcadM|Product Description: AutoCAD Mechanical 2000|Company: Autodesk"
 90
        0
280
     1
281
     0
  0
CLASS
  1
LAYER_INDEX
  2
AcDbLayerIndex
  3
ObjectDBX Classes
 90
        0
280
     0
281
     0
  0
CLASS
  1
IDBUFFER
  2
AcDbIdBuffer
  3
ObjectDBX Classes
 90
        0
280
     0
281
     0
  0
CLASS
  1
ACMSTANDARDJIS
  2
AcmStandardJIS
  3
"Amdt_StdImp|Product Description: AutoCAD Mechanical 2004 DX|Company: Autodesk"
 90
        0
280
     1
281
     0
  0
CLASS
  1
ACMSURFSTANDARDJIS
  2
AcmSurfTextStdJIS
  3
"Amdt_StdImp|Product Description: AutoCAD Mechanical 2004 DX|Company: Autodesk"
 90
        0
280
     1
281
     0
  0
CLASS
  1
ACMFCFSTANDARDJIS
  2
AcmFCFStdJIS
  3
"Amdt_StdImp|Product Description: AutoCAD Mechanical 2004 DX|Company: Autodesk"
 90
        0
280
     1
281
     0
  0
CLASS
  1
ACMWELDSTANDARDJIS
  2
AcmWeldingStdJIS
  3
"Amdt_StdImp|Product Description: AutoCAD Mechanical 2004 DX|Company: Autodesk"
 90
        0
280
     1
281
     0
  0
CLASS
  1
ACMIDSTANDARDJIS
  2
AcmIdStdJIS
  3
"Amdt_StdImp|Product Description: AutoCAD Mechanical 2004 DX|Company: Autodesk"
 90
        0
280
     1
281
     0
  0
CLASS
  1
ACMDATUMSTANDARDJIS
  2
AcmDatumStdJIS
  3
"Amdt_StdImp|Product Description: AutoCAD Mechanical 2004 DX|Company: Autodesk"
 90
        0
280
     1
281
     0
  0
CLASS
  1
ACMBOMSTANDARDJIS
  2
AcmBOMStdJIS
  3
"Amdt_StdImp|Product Description: AutoCAD Mechanical 2004 DX|Company: Autodesk"
 90
        0
280
     1
281
     0
  0
CLASS
  1
AMDTNOTE
  2
AmdtNote
  3
"AcmSymBB|Product Description: AutoCAD Mechanical 2004 DX|Company: Autodesk"
 90
     1023
280
     1
281
     1
  0
CLASS
  1
TABLESTYLE
  2
AcDbTableStyle
  3
ObjectDBX Classes
 90
     2047
280
     0
281
     0
  0
CLASS
  1
ACGREFMASTER
  2
AcGrefMaster
  3
AcAttribServices
 90
        0
280
     1
281
     0
  0
CLASS
  1
AM_DRAWING_MGR
  2
AcDmDwgMgr
  3
AcMechDwgViewMgmt
 90
        0
280
     1
281
     0
  0
CLASS
  1
AM_DWG_DOCUMENT
  2
AcDmDwgDocument
  3
AcMechDwgViewMgmt
 90
        0
280
     1
281
     0
  0
CLASS
  1
AM_DWG_SHEET
  2
AcDmSheet
  3
AcMechDwgViewMgmt
 90
        0
280
     1
281
     0
  0
CLASS
  1
AM_VIEWDIMPARMAP
  2
AcDmViewDimParMap
  3
AcMechDwgViewMgmt
 90
        0
280
     1
281
     0
  0
CLASS
  1
AM_DWGMGR_NAME
  2
AcDmDwgMgrName
  3
AcMechDwgViewMgmt
 90
        0
280
     1
281
     0
  0
CLASS
  1
ACGREFACADMASTER
  2
AcGrefacadMaster
  3
AcGrefServices
 90
        0
280
     1
281
     0
  0
CLASS
  1
AMDTMENUSTATEMGR
  2
AmdtMenuStateMgr
  3
McadcomServices
 90
        0
280
     1
281
     0
  0
CLASS
  1
AMDTMCOMMENUSTATE
  2
AmdtMcomMenuState
  3
McadcomServices
 90
        0
280
     1
281
     0
  0
CLASS
  1
AMIMASTER
  2
AmiMaster
  3
AmiServices
 90
        0
280
     1
281
     0
  0
CLASS
  1
MAPIAMMOUDLE
  2
MApiAmModule
  3
MApiAmServices
 90
        0
280
     1
281
     0
  0
CLASS
  1
AMDTADMENUSTATE
  2
AmdtAdMenuState
  3
DesignerServices
 90
        0
280
     1
281
     0
  0
CLASS
  1
ADAPPL
  2
AcAdAppl
  3
DesignerServices
 90
        0
280
     1
281
     0
  0
CLASS
  1
DEPMGR
  2
AcAdDepMgr
  3
DesignerServices
 90
        0
280
     1
281
     0
  0
CLASS
  1
PARAMMGR
  2
AcAdParamMgr
  3
DesignerServices
 90
        0
280
     1
281
     0
  0
CLASS
  1
PARAMSCOPE
  2
AcAdParamScope
  3
DesignerServices
 90
        0
280
     1
281
     0
  0
CLASS
  1
NAMEDAPPL
  2
AcAdNamedAppl
  3
DesignerServices
 90
        0
280
     1
281
     0
  0
CLASS
  1
AMDTDMMENUSTATE
  2
AmdtDmMenuState
  3
AcMechDwgViewMgmt
 90
        0
280
     1
281
     0
  0
CLASS
  1
AMDTAMMENUSTATE
  2
AmdtAmMenuState
  3
DesignerAssemblies
 90
        0
280
     1
281
     0
  0
CLASS
  1
ACAMPROJECT
  2
AcAmProject
  3
DesignerAssemblies
 90
        0
280
     1
281
     0
  0
CLASS
  1
ACAMGRCOMPDEF
  2
AcAmGrCompDef
  3
DesignerAssemblies
 90
        0
280
     1
281
     0
  0
CLASS
  1
ACCMCONTEXT
  2
AcCmContext
  3
DesignerAssemblies
 90
        0
280
     1
281
     0
  0
CLASS
  1
ACAMCOMPDEF
  2
AcAmCompDef
  3
DesignerAssemblies
 90
        0
280
     1
281
     0
  0
CLASS
  1
ACAMCOMPDEFMGR
  2
AcAmCompDefMgr
  3
DesignerAssemblies
 90
        0
280
     1
281
     0
  0
CLASS
  1
AMCONTEXTMGR
  2
AcAmContextMgr
  3
DesignerAssemblies
 90
        0
280
     1
281
     0
  0
CLASS
  1
ACAMCONTEXTMODELER
  2
AcAmContextModeler
  3
DesignerAssemblies
 90
        0
280
     1
281
     0
  0
CLASS
  1
ACAMGTITLESTD
  2
AcAmgTitleStd
  3
"TITLEAPP"
 90
        0
280
     1
281
     0
  0
CLASS
  1
ACMDETAILSTANDARDJIS
  2
AmdtDetailSymStdJIS
  3
"Amdt_StdImp|Product Description: AutoCAD Mechanical 2004 DX|Company: Autodesk"
 90
        0
280
     1
281
     0
  0
CLASS
  1
ACMSECTIONSTANDARDJIS
  2
AmdtSectionSymStdJIS
  3
"Amdt_StdImp|Product Description: AutoCAD Mechanical 2004 DX|Company: Autodesk"
 90
        0
280
     1
281
     0
  0
CLASS
  1
ACMCENTERLINESTANDARDJIS
  2
AmdtCenterLineStdJIS
  3
"Amdt_StdImp|Product Description: AutoCAD Mechanical 2004 DX|Company: Autodesk"
 90
        0
280
     1
281
     0
  0
CLASS
  1
ACMTHREADLINESTANDARDJIS
  2
AmdtThreadLineStdJIS
  3
"Amdt_StdImp|Product Description: AutoCAD Mechanical 2004 DX|Company: Autodesk"
 90
        0
280
     1
281
     0
  0
CLASS
  1
ACMNOTESTANDARDJIS
  2
AmdtNoteStdJIS
  3
"Amdt_StdImp|Product Description: AutoCAD Mechanical 2004 DX|Company: Autodesk"
 90
        0
280
     1
281
     0
  0
CLASS
  1
AMDTNOTETEMPLATEDB
  2
AmdtNoteTemplateDB
  3
AMDT_STDIMP_MODULE_NAME
 90
        0
280
     1
281
     0
  0
CLASS
  1
ACAMGLAYSTD
  2
AcAmgLayStd
  3
"AcAmgLayStd|Product Description: AutoCAD Mechanical 2000|Company: Autodesk"
 90
        0
280
     1
281
     0
  0
CLASS
  1
ACAMGDIMSTD
  2
AcAmgDimStd
  3
"AcAmgDimStd|Product Description: AutoCAD Mechanical 2000|Company: Autodesk"
 90
        0
280
     1
281
     0
  0
CLASS
  1
ACAMGHOLECHARTSTDJIS
  2
AcAmgHoleChartStdJIS
  3
ACMSYMBB_MODULE_NAME
 90
        0
280
     1
281
     0
  0
CLASS
  1
CATALOGSTATE
  2
AcAmCatalogState
  3
DesignerAssemblies
 90
        0
280
     1
281
     0
  0
CLASS
  1
ACAMGRCOMPDEFSET
  2
AcAmGrCompDefSet
  3
DesignerAssemblies
 90
        0
280
     1
281
     0
  0
CLASS
  1
AMDTBROWSERDBTAB
  2
AmdtBrowserDbTab
  3
McadcomServices
 90
        0
280
     1
281
     0
  0
CLASS
  1
CBROWSERAPPOBJECT
  2
CBrowserAppObject
  3
McadcomServices
 90
        0
280
     1
281
     0
  0
CLASS
  1
DM_PLACEHOLDER
  2
AcDmSelsetPlaceholder
  3
AcMechDwgViewMgmt
 90
        0
280
     1
281
     0
  0
CLASS
  1
SORTENTSTABLE
  2
AcDbSortentsTable
  3
ObjectDBX Classes
 90
        0
280
     0
281
     0
  0
CLASS
  1
ACMSTANDARDISO
  2
AcmStandardISO
  3
"Amdt_StdImp|Product Description: AutoCAD Mechanical 2004 DX|Company: Autodesk"
 90
        0
280
     1
281
     0
  0
CLASS
  1
AMDTEDGESTANDARDISO13715
  2
AmdtEdgeStdISO13715
  3
"Amdt_StdImp|Product Description: AutoCAD Mechanical 2004 DX|Company: Autodesk"
 90
        0
280
     1
281
     0
  0
CLASS
  1
ACMSURFSTANDARDISO
  2
AcmSurfTextStdISO
  3
"Amdt_StdImp|Product Description: AutoCAD Mechanical 2004 DX|Company: Autodesk"
 90
        0
280
     1
281
     0
  0
CLASS
  1
ACMFCFSTANDARDISO
  2
AcmFCFStdISO
  3
"Amdt_StdImp|Product Description: AutoCAD Mechanical 2004 DX|Company: Autodesk"
 90
        0
280
     1
281
     0
  0
CLASS
  1
ACMWELDSTANDARDISO
  2
AcmWeldingStdISO
  3
"Amdt_StdImp|Product Description: AutoCAD Mechanical 2004 DX|Company: Autodesk"
 90
        0
280
     1
281
     0
  0
CLASS
  1
ACMIDSTANDARDISO
  2
AcmIdStdISO
  3
"Amdt_StdImp|Product Description: AutoCAD Mechanical 2004 DX|Company: Autodesk"
 90
        0
280
     1
281
     0
  0
CLASS
  1
ACMDATUMSTANDARDISO
  2
AcmDatumStdISO
  3
"Amdt_StdImp|Product Description: AutoCAD Mechanical 2004 DX|Company: Autodesk"
 90
        0
280
     1
281
     0
  0
CLASS
  1
ACMBOMSTANDARDISO
  2
AcmBOMStdISO
  3
"Amdt_StdImp|Product Description: AutoCAD Mechanical 2004 DX|Company: Autodesk"
 90
        0
280
     1
281
     0
  0
CLASS
  1
ACMDETAILSTANDARDISO
  2
AmdtDetailSymStdISO
  3
"Amdt_StdImp|Product Description: AutoCAD Mechanical 2004 DX|Company: Autodesk"
 90
        0
280
     1
281
     0
  0
CLASS
  1
ACMSECTIONSTANDARDISO
  2
AmdtSectionSymStdISO
  3
"Amdt_StdImp|Product Description: AutoCAD Mechanical 2004 DX|Company: Autodesk"
 90
        0
280
     1
281
     0
  0
CLASS
  1
ACMCENTERLINESTANDARDISO
  2
AmdtCenterLineStdISO
  3
"Amdt_StdImp|Product Description: AutoCAD Mechanical 2004 DX|Company: Autodesk"
 90
        0
280
     1
281
     0
  0
CLASS
  1
ACMTHREADLINESTANDARDISO
  2
AmdtThreadLineStdISO
  3
"Amdt_StdImp|Product Description: AutoCAD Mechanical 2004 DX|Company: Autodesk"
 90
        0
280
     1
281
     0
  0
CLASS
  1
ACMNOTESTANDARDISO
  2
AmdtNoteStdISO
  3
"Amdt_StdImp|Product Description: AutoCAD Mechanical 2004 DX|Company: Autodesk"
 90
        0
280
     1
281
     0
  0
CLASS
  1
ACAMGHOLECHARTSTDISO
  2
AcAmgHoleChartStdISO
  3
ACMSYMBB_MODULE_NAME
 90
        0
280
     1
281
     0
  0
ENDSEC
  0
SECTION
  2
TABLES
  0
TABLE
  2
VPORT
  5
8
330
0
100
AcDbSymbolTable
 70
     5
  0
VPORT
  5
1CC25
330
8
100
AcDbSymbolTableRecord
100
AcDbViewportTableRecord
  2
*Active
 70
     0
 10
0.0
 20
0.0
 11
1.0
 21
1.0
 12
59.20262997583653
 22
-52.84370875621488
 13
0.0
 23
0.0
 14
2.5
 24
2.5
 15
10.0
 25
10.0
 16
0.0
 26
0.0
 36
1.0
 17
0.0
 27
0.0
 37
0.0
 40
219.8452228541881
 41
1.372924648786718
 42
50.0
 43
0.0
 44
0.0
 50
0.0
 51
0.0
 71
    16
 72
  2000
 73
     1
 74
     3
 75
     0
 76
     0
 77
     0
 78
     0
281
     0
 65
     1
110
0.0
120
0.0
130
0.0
111
1.0
121
0.0
131
0.0
112
0.0
122
1.0
132
0.0
 79
     0
146
0.0
  0
ENDTAB
  0
TABLE
  2
LTYPE
  5
5
330
0
100
AcDbSymbolTable
 70
    16
  0
LTYPE
  5
14
330
5
100
AcDbSymbolTableRecord
100
AcDbLinetypeTableRecord
  2
ByBlock
 70
     0
  3

 72
    65
 73
     0
 40
0.0
  0
LTYPE
  5
15
330
5
100
AcDbSymbolTableRecord
100
AcDbLinetypeTableRecord
  2
ByLayer
 70
     0
  3

 72
    65
 73
     0
 40
0.0
  0
LTYPE
  5
16
330
5
100
AcDbSymbolTableRecord
100
AcDbLinetypeTableRecord
  2
Continuous
 70
     0
  3
Solid line
 72
    65
 73
     0
 40
0.0
  0
LTYPE
  5
43
330
5
100
AcDbSymbolTableRecord
100
AcDbLinetypeTableRecord
  2
AM_ISO02W050
 70
     0
  3
__ __ __ __ __ __ __ __ __ __ __ __ __ __ __
 72
    65
 73
     2
 40
7.5
 49
6.0
 74
     0
 49
-1.5
 74
     0
  0
LTYPE
  5
44
330
5
100
AcDbSymbolTableRecord
100
AcDbLinetypeTableRecord
  2
AM_ISO08W050
 70
     0
  3
____ . ____ . ____ . ____ . ____ . ____ . ____
 72
    65
 73
     4
 40
18.0
 49
12.0
 74
     0
 49
-1.5
 74
     0
 49
3.0
 74
     0
 49
-1.5
 74
     0
  0
LTYPE
  5
45
330
5
100
AcDbSymbolTableRecord
100
AcDbLinetypeTableRecord
  2
AM_ISO09W050
 70
     0
  3
_____ . . _____ . . _____ . . ____ .. ____
 72
    65
 73
     6
 40
22.5
 49
12.0
 74
     0
 49
-1.5
 74
     0
 49
3.0
 74
     0
 49
-1.5
 74
     0
 49
3.0
 74
     0
 49
-1.5
 74
     0
  0
LTYPE
  5
46
330
5
100
AcDbSymbolTableRecord
100
AcDbLinetypeTableRecord
  2
Amconstr
 70
     0
  3
_______________________
 72
    65
 73
     2
 40
9999.0
 49
9999.0
 74
     0
 49
0.0
 74
     0
  0
LTYPE
  5
47
330
5
100
AcDbSymbolTableRecord
100
AcDbLinetypeTableRecord
  2
AM_ISO02W050x2
 70
     0
  3
 _ _ _ _ _ _ _ _ _ _ _ _
 72
    65
 73
     2
 40
3.75
 49
3.0
 74
     0
 49
-0.75
 74
     0
  0
LTYPE
  5
48
330
5
100
AcDbSymbolTableRecord
100
AcDbLinetypeTableRecord
  2
AM_ISO08W050x2
 70
     0
  3
__ . __ . __ . __ . __ . __
 72
    65
 73
     4
 40
9.0
 49
6.0
 74
     0
 49
-0.75
 74
     0
 49
1.5
 74
     0
 49
-0.75
 74
     0
  0
LTYPE
  5
4B
330
5
100
AcDbSymbolTableRecord
100
AcDbLinetypeTableRecord
  2
Amzigzag
 70
     0
  3
/\/-/\/-/\/-/\/-/\/-/\/
 72
    65
 73
     2
 40
11.0001
 49
0.0001
 74
     4
 75
   135
340
4A
 46
0.04
 50
0.0
 44
0.0
 45
0.0
 49
-11.0
 74
     0
  0
LTYPE
  5
188
330
5
100
AcDbSymbolTableRecord
100
AcDbLinetypeTableRecord
  2
ACJISTGB
 70
     0
  3
__ . . __ . .
 72
    65
 73
     6
 40
9.0
 49
4.0
 74
     0
 49
-1.0
 74
     0
 49
1.0
 74
     0
 49
-1.0
 74
     0
 49
1.0
 74
     0
 49
-1.0
 74
     0
  0
LTYPE
  5
189
330
5
100
AcDbSymbolTableRecord
100
AcDbLinetypeTableRecord
  2
ACJISTGL
 70
     0
  3
_ _ _ _ _
 72
    65
 73
     2
 40
3.0
 49
2.0
 74
     0
 49
-1.0
 74
     0
  0
LTYPE
  5
652
330
5
100
AcDbSymbolTableRecord
100
AcDbLinetypeTableRecord
  2
CENTER
 70
     0
  3
____ _ ____ _ ____ _ ____ _ ____ _ ____ _ ____
 72
    65
 73
     4
 40
17.5
 49
13.0
 74
     0
 49
-1.5
 74
     0
 49
1.5
 74
     0
 49
-1.5
 74
     0
  0
LTYPE
  5
12AB
330
5
100
AcDbSymbolTableRecord
100
AcDbLinetypeTableRecord
  2
HIDDEN
 70
     0
  3
Hidden __ __ __ __ __ __ __ __ __ __ __ __ __ _
 72
    65
 73
     2
 40
0.375
 49
0.25
 74
     0
 49
-0.125
 74
     0
  0
LTYPE
  5
12AC
330
5
100
AcDbSymbolTableRecord
100
AcDbLinetypeTableRecord
  2
PHANTOM2
 70
     0
  3
Phantom (.5x) ___ _ _ ___ _ _ ___ _ _ ___ _ _
 72
    65
 73
     6
 40
1.25
 49
0.625
 74
     0
 49
-0.125
 74
     0
 49
0.125
 74
     0
 49
-0.125
 74
     0
 49
0.125
 74
     0
 49
-0.125
 74
     0
  0
LTYPE
  5
1ABBE
330
5
100
AcDbSymbolTableRecord
100
AcDbLinetypeTableRecord
  2
ACISOWELD
 70
     0
  3
_ _ _ _ _
 72
    65
 73
     2
 40
2.0
 49
2.0
 74
     0
 49
-1.0
 74
     0
  0
LTYPE
  5
1ABBF
330
5
100
AcDbSymbolTableRecord
100
AcDbLinetypeTableRecord
  2
ACISOTGB
 70
     0
  3
__ . . __ . .
 72
    65
 73
     6
 40
9.0
 49
4.0
 74
     0
 49
-1.0
 74
     0
 49
1.0
 74
     0
 49
-1.0
 74
     0
 49
1.0
 74
     0
 49
-1.0
 74
     0
  0
LTYPE
  5
1ABC0
330
5
100
AcDbSymbolTableRecord
100
AcDbLinetypeTableRecord
  2
ACISOTGL
 70
     0
  3
_ _ _ _ _
 72
    65
 73
     2
 40
3.0
 49
2.0
 74
     0
 49
-1.0
 74
     0
  0
ENDTAB
  0
TABLE
  2
LAYER
  5
2
102
{ACAD_XDICTIONARY
360
1A8DF
102
}
330
0
100
AcDbSymbolTable
 70
     7
  0
LAYER
  5
10
330
2
100
AcDbSymbolTableRecord
100
AcDbLayerTableRecord
  2
0
 70
     0
 62
     7
  6
Continuous
370
    -3
390
F
  0
LAYER
  5
7D
330
2
100
AcDbSymbolTableRecord
100
AcDbLayerTableRecord
  2
AM_5
 70
     0
 62
     3
  6
Continuous
370
    13
390
F
  0
LAYER
  5
7F
330
2
100
AcDbSymbolTableRecord
100
AcDbLayerTableRecord
  2
Defpoints
 70
     0
 62
     7
  6
Continuous
290
     0
370
    -3
390
F
  0
LAYER
  5
12B1
330
2
100
AcDbSymbolTableRecord
100
AcDbLayerTableRecord
  2
AM_0
 70
     0
 62
     7
  6
Continuous
370
    30
390
F
  0
LAYER
  5
1AFF
330
2
100
AcDbSymbolTableRecord
100
AcDbLayerTableRecord
  2
AM_7
 70
     0
 62
     4
  6
AM_ISO08W050
370
    13
390
F
  0
LAYER
  5
2953
330
2
100
AcDbSymbolTableRecord
100
AcDbLayerTableRecord
  2
AM_6
 70
     0
 62
     2
  6
Continuous
370
    30
390
F
  0
LAYER
  5
361D
330
2
100
AcDbSymbolTableRecord
100
AcDbLayerTableRecord
  2
AM_11
 70
     0
 62
     3
  6
AM_ISO09W050
370
    13
390
F
  0
ENDTAB
  0
TABLE
  2
STYLE
  5
3
330
0
100
AcDbSymbolTable
 70
     6
  0
STYLE
  5
11
330
3
100
AcDbSymbolTableRecord
100
AcDbTextStyleTableRecord
  2
STANDARD
 70
     0
 40
0.0
 41
1.0
 50
0.0
 71
     0
 42
4.0
  3
ISOCP.SHX
  4
EXTFONT.SHX
  0
STYLE
  5
4A
330
3
100
AcDbSymbolTableRecord
100
AcDbTextStyleTableRecord
  2

 70
     1
 40
0.0
 41
1.0
 50
0.0
 71
     0
 42
2.5
  3
ltypeshp.shx
  4

  0
STYLE
  5
180
330
3
100
AcDbSymbolTableRecord
100
AcDbTextStyleTableRecord
  2
ACJISTS
 70
     0
 40
1.0
 41
1.0
 50
0.0
 71
     0
 42
2.5
  3
isocp.shx
  4
bigfont.shx
  0
STYLE
  5
187
330
3
100
AcDbSymbolTableRecord
100
AcDbTextStyleTableRecord
  2
ACJISGDT
 70
     0
 40
0.0
 41
1.0
 50
0.0
 71
     0
 42
2.5
  3
amgdt.shx
  4

  0
STYLE
  5
1ABC2
330
3
100
AcDbSymbolTableRecord
100
AcDbTextStyleTableRecord
  2
ACISOTS
 70
     0
 40
3.8
 41
1.0
 50
0.0
 71
     0
 42
3.8
  3
isocp.shx
  4
extfont.shx
  0
STYLE
  5
1ABC3
330
3
100
AcDbSymbolTableRecord
100
AcDbTextStyleTableRecord
  2
ACISOGDT
 70
     0
 40
0.0
 41
1.0
 50
0.0
 71
     0
 42
2.5
  3
amgdt.shx
  4
extfont.shx
  0
ENDTAB
  0
TABLE
  2
VIEW
  5
6
330
0
100
AcDbSymbolTable
 70
     6
  0
VIEW
  5
A30
330
6
100
AcDbSymbolTableRecord
100
AcDbViewTableRecord
  2
AM_VIEW1
 70
     0
 40
148.5
 10
108.6929657794677
 20
222.75
 41
217.3859315589354
 11
0.0
 21
0.0
 31
1.0
 12
0.0
 22
0.0
 32
0.0
 42
50.0
 43
0.0
 44
0.0
 50
0.0
 71
    16
281
     0
 72
     0
  0
VIEW
  5
A31
330
6
100
AcDbSymbolTableRecord
100
AcDbViewTableRecord
  2
AM_VIEW2
 70
     0
 40
148.5
 10
311.3070342205323
 20
222.75
 41
217.3859315589354
 11
0.0
 21
0.0
 31
1.0
 12
0.0
 22
0.0
 32
0.0
 42
50.0
 43
0.0
 44
0.0
 50
0.0
 71
    16
281
     0
 72
     0
  0
VIEW
  5
A32
330
6
100
AcDbSymbolTableRecord
100
AcDbViewTableRecord
  2
AM_VIEW3
 70
     0
 40
148.5
 10
108.6929657794677
 20
74.25
 41
217.3859315589354
 11
0.0
 21
0.0
 31
1.0
 12
0.0
 22
0.0
 32
0.0
 42
50.0
 43
0.0
 44
0.0
 50
0.0
 71
    16
281
     0
 72
     0
  0
VIEW
  5
A33
330
6
100
AcDbSymbolTableRecord
100
AcDbViewTableRecord
  2
AM_VIEW4
 70
     0
 40
148.5
 10
311.3070342205323
 20
74.25
 41
217.3859315589354
 11
0.0
 21
0.0
 31
1.0
 12
0.0
 22
0.0
 32
0.0
 42
50.0
 43
0.0
 44
0.0
 50
0.0
 71
    16
281
     0
 72
     0
  0
VIEW
  5
A34
330
6
100
AcDbSymbolTableRecord
100
AcDbViewTableRecord
  2
AM_VIEW5
 70
     0
 40
148.5
 10
210.0
 20
148.5
 41
217.3859315589353
 11
0.0
 21
0.0
 31
1.0
 12
0.0
 22
0.0
 32
0.0
 42
50.0
 43
0.0
 44
0.0
 50
0.0
 71
    16
281
     0
 72
     0
  0
VIEW
  5
A35
330
6
100
AcDbSymbolTableRecord
100
AcDbViewTableRecord
  2
AM_VIEW6
 70
     0
 40
296.99703
 10
210.0
 20
148.5
 41
434.7675153992395
 11
0.0
 21
0.0
 31
1.0
 12
0.0
 22
0.0
 32
0.0
 42
50.0
 43
0.0
 44
0.0
 50
0.0
 71
    16
281
     0
 72
     0
  0
ENDTAB
  0
TABLE
  2
UCS
  5
7
330
0
100
AcDbSymbolTable
 70
     0
  0
ENDTAB
  0
TABLE
  2
APPID
  5
9
330
0
100
AcDbSymbolTable
 70
    43
  0
APPID
  5
12
330
9
100
AcDbSymbolTableRecord
100
AcDbRegAppTableRecord
  2
ACAD
 70
     0
  0
APPID
  5
2C
330
9
100
AcDbSymbolTableRecord
100
AcDbRegAppTableRecord
  2
MCAD_NO_VIS
 70
     0
  0
APPID
  5
2D
330
9
100
AcDbSymbolTableRecord
100
AcDbRegAppTableRecord
  2
ACAD_TEMP_GRAPHIC
 70
     0
  0
APPID
  5
B9
330
9
100
AcDbSymbolTableRecord
100
AcDbRegAppTableRecord
  2
GENIUS_GENDTOL_13
 70
     0
  0
APPID
  5
359
330
9
100
AcDbSymbolTableRecord
100
AcDbRegAppTableRecord
  2
GENIUS_GENREC_14
 70
     0
  0
APPID
  5
35A
330
9
100
AcDbSymbolTableRecord
100
AcDbRegAppTableRecord
  2
GENIUS_GENODEF_13
 70
     0
  0
APPID
  5
35B
330
9
100
AcDbSymbolTableRecord
100
AcDbRegAppTableRecord
  2
GENIUS_GENOBJ-N-REC_13
 70
     0
  0
APPID
  5
667
330
9
100
AcDbSymbolTableRecord
100
AcDbRegAppTableRecord
  2
GENIUS_GENCFG_13
 70
     0
  0
APPID
  5
668
330
9
100
AcDbSymbolTableRecord
100
AcDbRegAppTableRecord
  2
GENIUS_GENCFG0_13
 70
     0
  0
APPID
  5
669
330
9
100
AcDbSymbolTableRecord
100
AcDbRegAppTableRecord
  2
GENIUS_GENCFG1_13
 70
     0
  0
APPID
  5
66A
330
9
100
AcDbSymbolTableRecord
100
AcDbRegAppTableRecord
  2
GENIUS_GENCFG2_13
 70
     0
  0
APPID
  5
66B
330
9
100
AcDbSymbolTableRecord
100
AcDbRegAppTableRecord
  2
GENIUS_GENCFG3_13
 70
     0
  0
APPID
  5
66C
330
9
100
AcDbSymbolTableRecord
100
AcDbRegAppTableRecord
  2
GENIUS_GENCFG4_13
 70
     0
  0
APPID
  5
A76
330
9
100
AcDbSymbolTableRecord
100
AcDbRegAppTableRecord
  2
GENIUS_GENBLLY_14
 70
     0
  0
APPID
  5
A77
330
9
100
AcDbSymbolTableRecord
100
AcDbRegAppTableRecord
  2
GENIUS_GENOBJ-N-CEN_13
 70
     0
  0
APPID
  5
A83
330
9
100
AcDbSymbolTableRecord
100
AcDbRegAppTableRecord
  2
GENIUS_GENTRA_14
 70
     0
  0
APPID
  5
A8D
330
9
100
AcDbSymbolTableRecord
100
AcDbRegAppTableRecord
  2
GENIUS_GENOBJ-N-TIT_13
 70
     0
  0
APPID
  5
A8E
330
9
100
AcDbSymbolTableRecord
100
AcDbRegAppTableRecord
  2
GENIUS_GENTITLE_13
 70
     0
  0
APPID
  5
A8F
330
9
100
AcDbSymbolTableRecord
100
AcDbRegAppTableRecord
  2
GENIUS_GENOENT_13
 70
     0
  0
APPID
  5
A90
330
9
100
AcDbSymbolTableRecord
100
AcDbRegAppTableRecord
  2
GENIUS_GENOREF_13
 70
     0
  0
APPID
  5
A91
330
9
100
AcDbSymbolTableRecord
100
AcDbRegAppTableRecord
  2
GENIUS_GENOLIS_13
 70
     0
  0
APPID
  5
A92
330
9
100
AcDbSymbolTableRecord
100
AcDbRegAppTableRecord
  2
GENIUS_GENZVEED_13
 70
     0
  0
APPID
  5
A93
330
9
100
AcDbSymbolTableRecord
100
AcDbRegAppTableRecord
  2
GENIUS_GENSCREG_15
 70
     0
  0
APPID
  5
A94
330
9
100
AcDbSymbolTableRecord
100
AcDbRegAppTableRecord
  2
GENIUS_GENOBJ-N-SDF_13
 70
     0
  0
APPID
  5
12B5
330
9
100
AcDbSymbolTableRecord
100
AcDbRegAppTableRecord
  2
GENIUS_GENOBJ-N-RSBK_13
 70
     0
  0
APPID
  5
12B6
330
9
100
AcDbSymbolTableRecord
100
AcDbRegAppTableRecord
  2
GENIUS_GENOBJ-N-LIB_13
 70
     0
  0
APPID
  5
12B7
330
9
100
AcDbSymbolTableRecord
100
AcDbRegAppTableRecord
  2
GENIUS_GENSCALE_13
 70
     0
  0
APPID
  5
12B8
330
9
100
AcDbSymbolTableRecord
100
AcDbRegAppTableRecord
  2
GENIUS_GENOBJ-N-HTC_13
 70
     0
  0
APPID
  5
12B9
330
9
100
AcDbSymbolTableRecord
100
AcDbRegAppTableRecord
  2
GENIUS_GENHATCH_13
 70
     0
  0
APPID
  5
1687
330
9
100
AcDbSymbolTableRecord
100
AcDbRegAppTableRecord
  2
BASE_TYPE
 70
     0
  0
APPID
  5
1ABF
330
9
100
AcDbSymbolTableRecord
100
AcDbRegAppTableRecord
  2
GENIUS_GENFIL_13
 70
     0
  0
APPID
  5
1AC0
330
9
100
AcDbSymbolTableRecord
100
AcDbRegAppTableRecord
  2
GENIUS_GENOBJ-N-CHA_13
 70
     0
  0
APPID
  5
1AE7
330
9
100
AcDbSymbolTableRecord
100
AcDbRegAppTableRecord
  2
GENIUS_GENOBJ-N-FIL_13
 70
     0
  0
APPID
  5
20E9
330
9
100
AcDbSymbolTableRecord
100
AcDbRegAppTableRecord
  2
GENIUS_GENDIMSH_14
 70
     0
  0
APPID
  5
19EDE
330
9
100
AcDbSymbolTableRecord
100
AcDbRegAppTableRecord
  2
AD_DRAW
 70
     0
  0
APPID
  5
19EE1
330
9
100
AcDbSymbolTableRecord
100
AcDbRegAppTableRecord
  2
ACATTRIBSERVICES
 70
     0
  0
APPID
  5
19EFF
330
9
100
AcDbSymbolTableRecord
100
AcDbRegAppTableRecord
  2
DESIGNERASSEMBLIES
 70
     0
  0
APPID
  5
19F12
330
9
100
AcDbSymbolTableRecord
100
AcDbRegAppTableRecord
  2
ACADM_DIM_EDIT
 70
     0
  0
APPID
  5
19F13
330
9
100
AcDbSymbolTableRecord
100
AcDbRegAppTableRecord
  2
AMDT_DM_ADJ
 70
     0
  0
APPID
  5
1ABCB
330
9
100
AcDbSymbolTableRecord
100
AcDbRegAppTableRecord
  2
ACAD_DSTYLE_DIMTEXT_FILL
 70
     0
  0
APPID
  5
1ABCC
330
9
100
AcDbSymbolTableRecord
100
AcDbRegAppTableRecord
  2
ACAD_PSEXT
 70
     0
  0
APPID
  5
1B1F3
330
9
100
AcDbSymbolTableRecord
100
AcDbRegAppTableRecord
  2
GENIUS_GENCEN_19
 70
     0
  0
APPID
  5
1C6F2
330
9
100
AcDbSymbolTableRecord
100
AcDbRegAppTableRecord
  2
DCO15
 70
     0
  0
ENDTAB
  0
TABLE
  2
DIMSTYLE
  5
A
330
0
100
AcDbSymbolTable
 70
    17
100
AcDbDimStyleTable
  0
DIMSTYLE
105
58
330
A
100
AcDbSymbolTableRecord
100
AcDbDimStyleTableRecord
  2
AM_JIS
 70
     0
  4
"
 41
2.5
 42
0.0
 43
10.0
 44
1.0
 47
0.1
 48
0.1000000001
 73
     0
 74
     0
 77
     3
 78
     1
 79
     2
140
3.8
141
0.0
143
0.0393701
146
0.71
147
1.5
172
     1
176
   256
177
   256
178
     2
179
     2
271
     3
272
     3
275
     1
283
     0
284
     8
340
11
341
59
342
59
371
    -1
372
    -1
  0
DIMSTYLE
105
5F
102
{ACAD_REACTORS
330
1A3CC
330
1A601
102
}
330
A
100
AcDbSymbolTableRecord
100
AcDbDimStyleTableRecord
  2
AM_JIS$3
 70
     0
  4
"
 41
2.5
 42
0.0
 43
10.0
 44
1.0
 47
0.1
 48
0.1000000001
 73
     0
 77
     3
 78
     1
 79
     2
140
3.8
141
0.0
143
0.0393701
146
0.71
147
1.5
172
     1
176
   256
177
   256
178
     2
179
     2
271
     3
272
     3
275
     1
283
     0
284
     8
288
     1
289
     0
340
11
341
59
342
59
371
    -1
372
    -1
  0
DIMSTYLE
105
60
330
A
100
AcDbSymbolTableRecord
100
AcDbDimStyleTableRecord
  2
AM_JIS$4
 70
     0
  4
"
 41
2.5
 42
0.0
 43
10.0
 44
1.0
 47
0.1
 48
0.1000000001
 73
     0
 77
     3
 78
     1
 79
     2
140
3.8
141
0.0
143
0.0393701
146
0.71
147
1.5
172
     1
176
   256
177
   256
178
     2
179
     2
271
     3
272
     3
275
     1
283
     0
284
     8
288
     1
289
     0
340
11
341
59
342
59
371
    -1
372
    -1
  0
DIMSTYLE
105
61
330
A
100
AcDbSymbolTableRecord
100
AcDbDimStyleTableRecord
  2
AM_JIS$6
 70
     0
  4
"
 41
2.5
 42
0.0
 43
10.0
 44
1.0
 47
0.1
 48
0.1000000001
 73
     0
 74
     0
 78
     1
 79
     2
140
3.8
141
0.0
143
0.0393701
146
0.71
147
1.5
172
     1
176
   256
177
   256
178
     2
179
     2
271
     3
272
     3
275
     1
283
     0
284
     8
340
11
341
59
342
59
371
    -1
372
    -1
  0
DIMSTYLE
105
62
330
A
100
AcDbSymbolTableRecord
100
AcDbDimStyleTableRecord
  2
AM_JIS$7
 70
     0
  4
"
 41
2.5
 42
0.0
 43
10.0
 44
1.0
 47
0.1
 48
0.1000000001
 73
     0
 74
     0
 77
     3
 78
     1
 79
     2
140
5.0
141
0.0
143
0.0393701
146
0.71
147
1.5
172
     1
176
   256
177
   256
178
     2
179
     2
271
     3
272
     3
275
     1
283
     0
284
     8
340
11
341
59
342
59
371
    -1
372
    -1
  0
DIMSTYLE
105
63
330
A
100
AcDbSymbolTableRecord
100
AcDbDimStyleTableRecord
  2
AM_JIS$SF
 70
     0
  4
"
 41
2.5
 42
1.0
 43
10.0
 44
1.0
 47
0.1
 48
0.1
 73
     0
 74
     0
 75
     1
 76
     1
 77
     3
 78
     8
 79
     2
140
3.5
141
0.0
143
0.0393701
146
0.71
147
1.5
176
   256
177
   256
178
     2
271
     2
272
     3
274
     4
340
11
341
59
342
59
343
59
344
59
371
    -1
372
    -1
  0
DIMSTYLE
105
68
330
A
100
AcDbSymbolTableRecord
100
AcDbDimStyleTableRecord
  2
AM_JIS$SH
 70
     0
  4
"
 41
2.5
 42
1.0
 43
10.0
 44
1.0
 47
0.1
 48
0.1
 73
     0
 74
     0
 75
     1
 76
     1
 77
     3
 78
     8
 79
     2
140
3.5
141
0.0
143
0.0393701
144
2.0
146
0.71
147
1.5
173
     1
176
   256
177
   256
178
     2
271
     2
272
     3
274
     4
340
11
341
59
342
59
343
64
344
59
371
    -1
372
    -1
  0
DIMSTYLE
105
65F
330
A
100
AcDbSymbolTableRecord
100
AcDbDimStyleTableRecord
  2
STANDARD
 70
     0
340
11
  0
DIMSTYLE
105
1B97
102
{ACAD_REACTORS
330
1A3C7
330
1A3E4
330
1C8A1
330
1C998
102
}
330
A
100
AcDbSymbolTableRecord
100
AcDbDimStyleTableRecord
  2
AM_JIS$0
 70
     0
  4
"
 41
2.5
 42
0.0
 43
10.0
 44
1.0
 47
0.1
 48
0.1000000001
 73
     0
 74
     0
 77
     3
 78
     1
 79
     2
140
3.8
141
0.0
143
0.0393701
146
0.71
147
1.5
172
     1
176
     3
177
     3
178
     2
271
     3
272
     3
275
     1
283
     0
284
     8
289
     0
340
11
341
59
342
59
371
    13
372
    13
  0
DIMSTYLE
105
1B98
102
{ACAD_REACTORS
330
1C5E4
330
1C8D9
102
}
330
A
100
AcDbSymbolTableRecord
100
AcDbDimStyleTableRecord
  2
AM_JIS$2
 70
     0
  4
"
 41
2.5
 42
0.0
 43
10.0
 44
1.0
 47
0.1
 48
0.1000000001
 73
     0
 74
     0
 77
     3
 78
     1
 79
     2
140
3.8
141
0.0
143
0.0393701
146
0.71
147
1.5
172
     1
176
     3
177
     3
178
     2
271
     3
272
     3
275
     1
283
     0
284
     8
289
     0
340
11
341
59
342
59
371
    13
372
    13
  0
DIMSTYLE
105
1ABC4
330
A
100
AcDbSymbolTableRecord
100
AcDbDimStyleTableRecord
  2
AM_ISO
 70
     0
  4
"
 41
2.5
 42
1.0
 43
10.0
 44
1.0
 47
0.1
 48
0.1
 73
     0
 74
     0
 77
     1
 78
     8
 79
     2
140
3.5
141
0.0
143
0.0393701
146
0.71
147
1.5
172
     1
176
   256
177
   256
178
     2
271
     2
272
     3
274
     4
283
     0
284
     8
340
11
371
    -1
372
    -1
  0
DIMSTYLE
105
1ABC5
330
A
100
AcDbSymbolTableRecord
100
AcDbDimStyleTableRecord
  2
AM_ISO$3
 70
     0
  4
"
 41
2.5
 42
1.0
 43
10.0
 44
1.0
 47
0.1
 48
0.1
 73
     0
 77
     1
 78
     8
 79
     2
140
3.5
141
0.0
143
0.0393701
146
0.71
147
1.5
176
   256
177
   256
178
     2
271
     2
272
     3
274
     4
283
     0
284
     8
288
     1
289
     0
340
11
371
    -1
372
    -1
  0
DIMSTYLE
105
1ABC6
330
A
100
AcDbSymbolTableRecord
100
AcDbDimStyleTableRecord
  2
AM_ISO$4
 70
     0
  4
"
 41
2.5
 42
1.0
 43
10.0
 44
1.0
 47
0.1
 48
0.1
 73
     0
 77
     1
 78
     8
 79
     2
140
3.5
141
0.0
143
0.0393701
146
0.71
147
1.5
176
   256
177
   256
178
     2
271
     2
272
     3
274
     4
283
     0
284
     8
288
     1
289
     0
340
11
371
    -1
372
    -1
  0
DIMSTYLE
105
1ABC7
330
A
100
AcDbSymbolTableRecord
100
AcDbDimStyleTableRecord
  2
AM_ISO$6
 70
     0
  4
"
 41
2.5
 42
1.0
 43
10.0
 44
1.0
 47
0.1
 48
0.1
 73
     0
 74
     0
 78
     8
 79
     2
140
3.5
141
0.0
143
0.0393701
146
0.71
147
1.5
172
     1
176
   256
177
   256
178
     2
271
     2
272
     3
274
     4
283
     0
284
     8
340
11
371
    -1
372
    -1
  0
DIMSTYLE
105
1ABC8
330
A
100
AcDbSymbolTableRecord
100
AcDbDimStyleTableRecord
  2
AM_ISO$7
 70
     0
  4
"
 41
2.5
 42
1.0
 43
10.0
 44
1.0
 47
0.1
 48
0.1
 73
     0
 74
     0
 77
     1
 78
     8
 79
     2
140
5.0
141
0.0
143
0.0393701
146
0.71
147
1.5
172
     1
176
   256
177
   256
178
     2
271
     2
272
     3
274
     4
283
     0
284
     8
340
11
371
    -1
372
    -1
  0
DIMSTYLE
105
1ABC9
330
A
100
AcDbSymbolTableRecord
100
AcDbDimStyleTableRecord
  2
AM_ISO$SF
 70
     0
  4
"
 41
2.5
 42
1.0
 43
10.0
 44
1.0
 47
0.1
 48
0.1
 73
     0
 74
     0
 75
     1
 76
     1
 77
     1
 78
     8
 79
     2
140
3.5
141
0.0
143
0.0393701
146
0.71
147
1.5
172
     1
176
   256
177
   256
178
     2
271
     2
272
     3
274
     4
283
     0
284
     8
340
11
371
    -1
372
    -1
  0
DIMSTYLE
105
1ABCA
330
A
100
AcDbSymbolTableRecord
100
AcDbDimStyleTableRecord
  2
AM_ISO$SH
 70
     0
  4
"
 41
2.5
 42
1.0
 43
10.0
 44
1.0
 47
0.1
 48
0.1
 73
     0
 74
     0
 75
     1
 76
     1
 77
     1
 78
     8
 79
     2
140
3.5
141
0.0
143
0.0393701
144
2.0
146
0.71
147
1.5
172
     1
173
     1
176
   256
177
   256
178
     2
271
     2
272
     3
274
     4
283
     0
284
     8
340
11
343
64
371
    -1
372
    -1
  0
ENDTAB
  0
TABLE
  2
BLOCK_RECORD
  5
1
330
0
100
AcDbSymbolTable
 70
    12
  0
BLOCK_RECORD
  5
1F
102
{ACAD_XDICTIONARY
360
165
102
}
330
1
100
AcDbSymbolTableRecord
100
AcDbBlockTableRecord
  2
*Model_Space
340
22
  0
BLOCK_RECORD
  5
1B
330
1
100
AcDbSymbolTableRecord
100
AcDbBlockTableRecord
  2
*Paper_Space
340
1E
  0
BLOCK_RECORD
  5
23
330
1
100
AcDbSymbolTableRecord
100
AcDbBlockTableRecord
  2
*Paper_Space0
340
26
  0
BLOCK_RECORD
  5
59
330
1
100
AcDbSymbolTableRecord
100
AcDbBlockTableRecord
  2
_Open30
340
0
102
{BLKREFS
331
1CBDA
331
1CBDB
331
1CBE5
331
1CBE6
331
1CBEC
331
1CBED
331
1CBF7
331
1CBF8
331
1CC00
331
1CC01
331
1CC0B
331
1CC0C
331
1CC14
331
1CC15
331
1CC1F
331
1CC20
102
}
  0
BLOCK_RECORD
  5
64
330
1
100
AcDbSymbolTableRecord
100
AcDbBlockTableRecord
  2
GENAXEH
340
0
  0
BLOCK_RECORD
  5
19EF6
330
1
100
AcDbSymbolTableRecord
100
AcDbBlockTableRecord
  2
*U3
340
0
  0
BLOCK_RECORD
  5
1A696
330
1
100
AcDbSymbolTableRecord
100
AcDbBlockTableRecord
  2
*D4
340
0
  0
BLOCK_RECORD
  5
1A6B8
330
1
100
AcDbSymbolTableRecord
100
AcDbBlockTableRecord
  2
*D5
340
0
  0
BLOCK_RECORD
  5
1A71C
330
1
100
AcDbSymbolTableRecord
100
AcDbBlockTableRecord
  2
*D6
340
0
  0
BLOCK_RECORD
  5
1A747
330
1
100
AcDbSymbolTableRecord
100
AcDbBlockTableRecord
  2
*D7
340
0
  0
BLOCK_RECORD
  5
1C5E5
330
1
100
AcDbSymbolTableRecord
100
AcDbBlockTableRecord
  2
*D8
340
0
  0
BLOCK_RECORD
  5
1C8A2
330
1
100
AcDbSymbolTableRecord
100
AcDbBlockTableRecord
  2
*D9
340
0
  0
BLOCK_RECORD
  5
1C8DA
330
1
100
AcDbSymbolTableRecord
100
AcDbBlockTableRecord
  2
*D10
340
0
  0
BLOCK_RECORD
  5
1C999
330
1
100
AcDbSymbolTableRecord
100
AcDbBlockTableRecord
  2
*D11
340
0
  0
ENDTAB
  0
ENDSEC
  0
SECTION
  2
BLOCKS
  0
BLOCK
  5
20
330
1F
100
AcDbEntity
  8
0
100
AcDbBlockBegin
  2
*Model_Space
 70
     0
 71
     0
 10
0.0
 20
0.0
 30
0.0
  3
*Model_Space
  1

  0
ENDBLK
  5
21
330
1F
100
AcDbEntity
  8
0
100
AcDbBlockEnd
  0
BLOCK
  5
1C
330
1B
100
AcDbEntity
 67
     1
  8
0
100
AcDbBlockBegin
  2
*Paper_Space
 70
     0
 71
     0
 10
0.0
 20
0.0
 30
0.0
  3
*Paper_Space
  1

  0
ENDBLK
  5
1D
330
1B
100
AcDbEntity
 67
     1
  8
0
100
AcDbBlockEnd
  0
BLOCK
  5
24
330
23
100
AcDbEntity
  8
0
100
AcDbBlockBegin
  2
*Paper_Space0
 70
     0
 71
     0
 10
0.0
 20
0.0
 30
0.0
  3
*Paper_Space0
  1

  0
ENDBLK
  5
25
330
23
100
AcDbEntity
  8
0
100
AcDbBlockEnd
  0
BLOCK
  5
5D
330
59
100
AcDbEntity
  8
0
100
AcDbBlockBegin
  2
_Open30
 70
     0
 71
     0
 10
0.0
 20
0.0
 30
0.0
  3
_Open30
  1

  0
LINE
  5
5A
330
59
100
AcDbEntity
  8
0
 62
     0
370
    -2
100
AcDbLine
 10
-1.0
 20
0.26794919
 30
0.0
 11
0.0
 21
0.0
 31
0.0
  0
LINE
  5
5B
330
59
100
AcDbEntity
  8
0
 62
     0
370
    -2
100
AcDbLine
 10
0.0
 20
0.0
 30
0.0
 11
-1.0
 21
-0.26794919
 31
0.0
  0
LINE
  5
5C
330
59
100
AcDbEntity
  8
0
 62
     0
370
    -2
100
AcDbLine
 10
0.0
 20
0.0
 30
0.0
 11
-1.0
 21
0.0
 31
0.0
  0
ENDBLK
  5
5E
330
59
100
AcDbEntity
  8
0
100
AcDbBlockEnd
  0
BLOCK
  5
66
330
64
100
AcDbEntity
  8
0
100
AcDbBlockBegin
  2
GENAXEH
 70
     0
 71
     0
 10
0.0
 20
0.0
 30
0.0
  3
GENAXEH
  1

  0
LINE
  5
65
330
64
100
AcDbEntity
  8
0
100
AcDbLine
 10
-1.0
 20
0.0
 30
0.0
 11
1.0
 21
0.0
 31
0.0
  0
ENDBLK
  5
67
330
64
100
AcDbEntity
  8
0
100
AcDbBlockEnd
  0
BLOCK
  5
19EF7
330
19EF6
100
AcDbEntity
  8
0
100
AcDbBlockBegin
  2
*U3
 70
     1
 71
     0
 10
0.0
 20
0.0
 30
0.0
  3
*U3
  1

  0
ENDBLK
  5
19EF8
330
19EF6
100
AcDbEntity
  8
0
100
AcDbBlockEnd
  0
BLOCK
  5
1A8A4
330
1A696
100
AcDbEntity
  8
0
100
AcDbBlockBegin
  2
*D4
 70
     1
 71
     0
 10
0.0
 20
0.0
 30
0.0
  3
*D4
  1

  0
LINE
  5
1CBD7
330
1A696
100
AcDbEntity
  8
AM_5
 62
     3
370
    13
100
AcDbLine
 10
93.74999999999977
 20
6.216117818584962
 30
0.0
 11
93.74999999999977
 21
-12.76503889931774
 31
0.0
  0
LINE
  5
1CBD8
330
1A696
100
AcDbEntity
  8
AM_5
 62
     3
370
    13
100
AcDbLine
 10
108.7499999999998
 20
6.216117818584934
 30
0.0
 11
108.7499999999998
 21
-12.76503889931774
 31
0.0
  0
LINE
  5
1CBD9
330
1A696
100
AcDbEntity
  8
AM_5
 62
     3
370
    13
100
AcDbLine
 10
96.24999999999977
 20
-11.76503889931774
 30
0.0
 11
106.2499999999998
 21
-11.76503889931774
 31
0.0
  0
INSERT
  5
1CBDA
330
1A696
100
AcDbEntity
  8
AM_5
 62
     3
370
    13
100
AcDbBlockReference
  2
_Open30
 10
93.74999999999977
 20
-11.76503889931774
 30
0.0
 41
2.5
 42
2.5
 43
2.5
 50
180.0
  0
INSERT
  5
1CBDB
330
1A696
100
AcDbEntity
  8
AM_5
 62
     3
370
    13
100
AcDbBlockReference
  2
_Open30
 10
108.7499999999998
 20
-11.76503889931774
 30
0.0
 41
2.5
 42
2.5
 43
2.5
  0
MTEXT
  5
1CBDC
330
1A696
100
AcDbEntity
  8
AM_5
 62
     2
100
AcDbMText
 10
101.1268639916094
 20
-8.365038899317744
 30
0.0
 40
3.8
 41
0.0
 71
     5
 72
     1
  1
15
 73
     1
 44
1.0
  0
POINT
  5
1CBDD
330
1A696
100
AcDbEntity
  8
Defpoints
 62
     0
100
AcDbPoint
 10
93.74999999999977
 20
6.216117818584962
 30
0.0
  0
POINT
  5
1CBDE
330
1A696
100
AcDbEntity
  8
Defpoints
 62
     0
100
AcDbPoint
 10
108.7499999999998
 20
6.216117818584934
 30
0.0
  0
POINT
  5
1CBDF
330
1A696
100
AcDbEntity
  8
Defpoints
 62
     0
100
AcDbPoint
 10
108.7499999999998
 20
-11.76503889931774
 30
0.0
  0
ENDBLK
  5
1A8A5
330
1A696
100
AcDbEntity
  8
0
100
AcDbBlockEnd
  0
BLOCK
  5
1A8AA
330
1A6B8
100
AcDbEntity
  8
0
100
AcDbBlockBegin
  2
*D5
 70
     1
 71
     0
 10
0.0
 20
0.0
 30
0.0
  3
*D5
  1

  0
LINE
  5
1CBE0
330
1A6B8
100
AcDbEntity
  8
AM_5
100
AcDbLine
 10
117.4989300401805
 20
28.45863762243483
 30
0.0
 11
108.9704261031724
 21
28.45863762243484
 31
0.0
  0
LINE
  5
1CBE1
330
1A6B8
100
AcDbEntity
  8
AM_5
100
AcDbLine
 10
108.9704261031724
 20
28.45863762243484
 30
0.0
 11
105.1223339107857
 21
18.75986834354714
 31
0.0
  0
LINE
  5
1CBE2
330
1A6B8
100
AcDbEntity
  8
AM_5
100
AcDbLine
 10
97.3776660892137
 20
-0.7598683435472466
 30
0.0
 11
96.45568182474084
 21
-3.083646520582317
 31
0.0
  0
MTEXT
  5
1CBE3
330
1A6B8
100
AcDbEntity
  8
AM_5
 62
     2
100
AcDbMText
 10
113.9846780716766
 20
31.85863762243485
 30
0.0
 40
3.8
 41
0.0
 71
     5
 72
     1
  1
\U+220516
 73
     1
 44
1.0
  0
LINE
  5
1CBE4
330
1A6B8
100
AcDbEntity
  8
AM_5
100
AcDbLine
 10
98.29965035368656
 20
1.56390983348782
 30
0.0
 11
104.2003496463128
 21
16.43609016651207
 31
0.0
  0
INSERT
  5
1CBE5
330
1A6B8
100
AcDbEntity
  8
AM_5
100
AcDbBlockReference
  2
_Open30
 10
98.29965035368656
 20
1.56390983348782
 30
0.0
 41
2.5
 42
2.5
 43
2.5
 50
68.3587587806776
  0
INSERT
  5
1CBE6
330
1A6B8
100
AcDbEntity
  8
AM_5
100
AcDbBlockReference
  2
_Open30
 10
104.2003496463128
 20
16.43609016651207
 30
0.0
 41
2.5
 42
2.5
 43
2.5
 50
248.3587587806776
  0
POINT
  5
1CBE7
330
1A6B8
100
AcDbEntity
  8
Defpoints
 62
     0
100
AcDbPoint
 10
104.2003496463128
 20
16.43609016651207
 30
0.0
  0
POINT
  5
1CBE8
330
1A6B8
100
AcDbEntity
  8
Defpoints
 62
     0
100
AcDbPoint
 10
98.29965035368656
 20
1.56390983348782
 30
0.0
  0
ENDBLK
  5
1A8AB
330
1A6B8
100
AcDbEntity
  8
0
100
AcDbBlockEnd
  0
BLOCK
  5
1A8BE
330
1A71C
100
AcDbEntity
  8
0
100
AcDbBlockBegin
  2
*D6
 70
     1
 71
     0
 10
0.0
 20
0.0
 30
0.0
  3
*D6
  1

  0
LINE
  5
1CBE9
330
1A71C
100
AcDbEntity
  8
AM_5
 62
     3
370
    13
100
AcDbLine
 10
17.99999999999977
 20
-99.00393550969463
 30
0.0
 11
17.99999999999977
 21
-116.3185241203499
 31
0.0
  0
LINE
  5
1CBEA
330
1A71C
100
AcDbEntity
  8
AM_5
 62
     3
370
    13
100
AcDbLine
 10
-0.0000000000001137
 20
-91.2539355096946
 30
0.0
 11
-0.0000000000001152
 21
-116.3185241203499
 31
0.0
  0
LINE
  5
1CBEB
330
1A71C
100
AcDbEntity
  8
AM_5
 62
     3
370
    13
100
AcDbLine
 10
15.49999999999977
 20
-115.3185241203499
 30
0.0
 11
2.499999999999885
 21
-115.3185241203499
 31
0.0
  0
INSERT
  5
1CBEC
330
1A71C
100
AcDbEntity
  8
AM_5
 62
     3
370
    13
100
AcDbBlockReference
  2
_Open30
 10
17.99999999999977
 20
-115.3185241203499
 30
0.0
 41
2.5
 42
2.5
 43
2.5
  0
INSERT
  5
1CBED
330
1A71C
100
AcDbEntity
  8
AM_5
 62
     3
370
    13
100
AcDbBlockReference
  2
_Open30
 10
-0.0000000000001152
 20
-115.3185241203499
 30
0.0
 41
2.5
 42
2.5
 43
2.5
 50
180.0
  0
MTEXT
  5
1CBEE
330
1A71C
100
AcDbEntity
  8
AM_5
 62
     2
100
AcDbMText
 10
8.99999999999983
 20
-111.9185241203499
 30
0.0
 40
3.8
 41
0.0
 71
     5
 72
     1
  1
18
 73
     1
 44
1.0
  0
POINT
  5
1CBEF
330
1A71C
100
AcDbEntity
  8
Defpoints
 62
     0
100
AcDbPoint
 10
17.99999999999977
 20
-99.00393550969463
 30
0.0
  0
POINT
  5
1CBF0
330
1A71C
100
AcDbEntity
  8
Defpoints
 62
     0
100
AcDbPoint
 10
-0.0000000000001137
 20
-91.2539355096946
 30
0.0
  0
POINT
  5
1CBF1
330
1A71C
100
AcDbEntity
  8
Defpoints
 62
     0
100
AcDbPoint
 10
-0.0000000000001152
 20
-115.3185241203499
 30
0.0
  0
ENDBLK
  5
1A8BF
330
1A71C
100
AcDbEntity
  8
0
100
AcDbBlockEnd
  0
BLOCK
  5
1A8C6
330
1A747
100
AcDbEntity
  8
0
100
AcDbBlockBegin
  2
*D7
 70
     1
 71
     0
 10
0.0
 20
0.0
 30
0.0
  3
*D7
  1

  0
LINE
  5
1CBF2
330
1A747
100
AcDbEntity
  8
AM_5
100
AcDbLine
 10
-90.86324682075556
 20
19.18876747223281
 30
0.0
 11
-66.99552081126652
 21
19.18876747223281
 31
0.0
  0
LINE
  5
1CBF3
330
1A747
100
AcDbEntity
  8
AM_5
100
AcDbLine
 10
-66.99552081126652
 20
19.18876747223281
 30
0.0
 11
-65.25758329968588
 21
17.39166613790553
 31
0.0
  0
LINE
  5
1CBF4
330
1A747
100
AcDbEntity
  8
AM_5
100
AcDbLine
 10
-49.26855819314395
 20
0.8583338620945149
 30
0.0
 11
-47.53062068156331
 21
-0.9387674722327652
 31
0.0
  0
MTEXT
  5
1CBF5
330
1A747
100
AcDbEntity
  8
AM_5
 62
     2
100
AcDbMText
 10
-79.67938381601104
 20
25.75543413889948
 30
0.0
 40
3.8
 41
0.0
 71
     5
 72
     1
  1
最小加工径\P\U+220518
 73
     1
 44
1.0
  0
LINE
  5
1CBF6
330
1A747
100
AcDbEntity
  8
AM_5
100
AcDbLine
 10
-51.00649570472459
 20
2.655435196421795
 30
0.0
 11
-63.51964578810524
 21
15.59456480357825
 31
0.0
  0
INSERT
  5
1CBF7
330
1A747
100
AcDbEntity
  8
AM_5
100
AcDbBlockReference
  2
_Open30
 10
-51.00649570472459
 20
2.655435196421795
 30
0.0
 41
2.5
 42
2.5
 43
2.5
 50
134.041164457204
  0
INSERT
  5
1CBF8
330
1A747
100
AcDbEntity
  8
AM_5
100
AcDbBlockReference
  2
_Open30
 10
-63.51964578810524
 20
15.59456480357825
 30
0.0
 41
2.5
 42
2.5
 43
2.5
 50
314.0411644572039
  0
POINT
  5
1CBF9
330
1A747
100
AcDbEntity
  8
Defpoints
 62
     0
100
AcDbPoint
 10
-63.51964578810524
 20
15.59456480357825
 30
0.0
  0
POINT
  5
1CBFA
330
1A747
100
AcDbEntity
  8
Defpoints
 62
     0
100
AcDbPoint
 10
-51.00649570472459
 20
2.655435196421795
 30
0.0
  0
ENDBLK
  5
1A8C7
330
1A747
100
AcDbEntity
  8
0
100
AcDbBlockEnd
  0
BLOCK
  5
1C640
330
1C5E5
100
AcDbEntity
  8
0
100
AcDbBlockBegin
  2
*D8
 70
     1
 71
     0
 10
0.0
 20
0.0
 30
0.0
  3
*D8
  1

  0
LINE
  5
1CBFB
330
1C5E5
100
AcDbEntity
  8
AM_5
 62
     3
370
    13
100
AcDbLine
 10
-8.038635261219724
 20
-90.52266601831374
 30
0.0
 11
-12.04976530024497
 21
-90.17173761197074
 31
0.0
  0
LINE
  5
1CBFC
330
1C5E5
100
AcDbEntity
  8
AM_5
 62
     3
370
    13
100
AcDbLine
 10
-1.773854710452724
 20
-91.2539355096946
 30
0.0
 11
-12.0970150808732
 21
-91.2539355096946
 31
0.0
  0
ARC
  5
1CBFD
330
1C5E5
100
AcDbEntity
  8
AM_5
 62
     3
370
    13
100
AcDbCircle
 10
0.3198132726772526
 20
-91.2539355096946
 30
0.0
 40
11.41682835355045
100
AcDbArc
 50
149.8569077156916
 51
162.4284538578458
  0
ARC
  5
1CBFE
330
1C5E5
100
AcDbEntity
  8
AM_5
 62
     3
370
    13
100
AcDbCircle
 10
0.3198132726772526
 20
-91.2539355096946
 30
0.0
 40
11.41682835355045
100
AcDbArc
 50
192.5715461421542
 51
205.1430922843084
  0
ARC
  5
1CBFF
330
1C5E5
100
AcDbEntity
  8
AM_5
 62
     3
370
    13
100
AcDbCircle
 10
0.3198132726772526
 20
-91.2539355096946
 30
0.0
 40
11.41682835355045
100
AcDbArc
 50
175.0
 51
180.0
  0
INSERT
  5
1CC00
330
1C5E5
100
AcDbEntity
  8
AM_5
 62
     3
370
    13
100
AcDbBlockReference
  2
_Open30
 10
-11.05357060215322
 20
-90.2588933547184
 30
0.0
 41
2.5
 42
2.5
 43
2.5
 50
258.7142269289229
  0
INSERT
  5
1CC01
330
1C5E5
100
AcDbEntity
  8
AM_5
 62
     3
370
    13
100
AcDbBlockReference
  2
_Open30
 10
-11.0970150808732
 20
-91.2539355096946
 30
0.0
 41
2.5
 42
2.5
 43
2.5
 50
96.2857730710771
  0
MTEXT
  5
1CC02
330
1C5E5
100
AcDbEntity
  8
AM_5
 62
     2
100
AcDbMText
 10
-16.92201508087319
 20
-91.25393550969457
 30
0.0
 40
3.8
 41
0.0
 71
     5
 72
     1
  1
5°
 73
     1
 44
1.0
  0
POINT
  5
1CC03
330
1C5E5
100
AcDbEntity
  8
Defpoints
 62
     0
100
AcDbPoint
 10
-11.0776996142549
 20
-90.59010597837714
 30
0.0
  0
POINT
  5
1CC04
330
1C5E5
100
AcDbEntity
  8
Defpoints
 62
     0
100
AcDbPoint
 10
-1.773854710452724
 20
-91.2539355096946
 30
0.0
  0
POINT
  5
1CC05
330
1C5E5
100
AcDbEntity
  8
Defpoints
 62
     0
100
AcDbPoint
 10
0.0000073976090107
 20
-91.22595612109714
 30
0.0
  0
POINT
  5
1CC06
330
1C5E5
100
AcDbEntity
  8
Defpoints
 62
     0
100
AcDbPoint
 10
-8.038635261219724
 20
-90.52266601831374
 30
0.0
  0
POINT
  5
1CC07
330
1C5E5
100
AcDbEntity
  8
Defpoints
 62
     0
100
AcDbPoint
 10
153.6686900870427
 20
-91.25393550969466
 30
0.0
  0
ENDBLK
  5
1C641
330
1C5E5
100
AcDbEntity
  8
0
100
AcDbBlockEnd
  0
BLOCK
  5
1C8C4
330
1C8A2
100
AcDbEntity
  8
0
100
AcDbBlockBegin
  2
*D9
 70
     1
 71
     0
 10
0.0
 20
0.0
 30
0.0
  3
*D9
  1

  0
LINE
  5
1CC08
330
1C8A2
100
AcDbEntity
  8
AM_5
 62
     3
370
    13
100
AcDbLine
 10
-2.570757848202675
 20
0.0
 30
0.0
 11
-9.203858857571165
 21
0.0000000000000019
 31
0.0
  0
LINE
  5
1CC09
330
1C8A2
100
AcDbEntity
  8
AM_5
 62
     3
370
    13
100
AcDbLine
 10
-2.16554845196606
 20
9.0
 30
0.0
 11
-9.203858857571163
 21
9.000000000000002
 31
0.0
  0
LINE
  5
1CC0A
330
1C8A2
100
AcDbEntity
  8
AM_5
 62
     3
370
    13
100
AcDbLine
 10
-8.203858857571165
 20
2.500000000000001
 30
0.0
 11
-8.203858857571163
 21
6.500000000000002
 31
0.0
  0
INSERT
  5
1CC0B
330
1C8A2
100
AcDbEntity
  8
AM_5
 62
     3
370
    13
100
AcDbBlockReference
  2
_Open30
 10
-8.203858857571165
 20
0.0000000000000016
 30
0.0
 41
2.5
 42
2.5
 43
2.5
 50
270.0
  0
INSERT
  5
1CC0C
330
1C8A2
100
AcDbEntity
  8
AM_5
 62
     3
370
    13
100
AcDbBlockReference
  2
_Open30
 10
-8.203858857571163
 20
9.000000000000002
 30
0.0
 41
2.5
 42
2.5
 43
2.5
 50
90.0
  0
MTEXT
  5
1CC0D
330
1C8A2
100
AcDbEntity
  8
AM_5
 62
     2
100
AcDbMText
 10
-11.60385885757117
 20
4.500000000000001
 30
0.0
 40
3.8
 41
0.0
 71
     5
 72
     1
  1
9
 11
6.123031769111886E-17
 21
1.0
 31
0.0
 73
     1
 44
1.0
  0
POINT
  5
1CC0E
330
1C8A2
100
AcDbEntity
  8
Defpoints
 62
     0
100
AcDbPoint
 10
-2.570757848202675
 20
0.0
 30
0.0
  0
POINT
  5
1CC0F
330
1C8A2
100
AcDbEntity
  8
Defpoints
 62
     0
100
AcDbPoint
 10
-2.16554845196606
 20
9.0
 30
0.0
  0
POINT
  5
1CC10
330
1C8A2
100
AcDbEntity
  8
Defpoints
 62
     0
100
AcDbPoint
 10
-8.203858857571163
 20
9.000000000000002
 30
0.0
  0
ENDBLK
  5
1C8C5
330
1C8A2
100
AcDbEntity
  8
0
100
AcDbBlockEnd
  0
BLOCK
  5
1C905
330
1C8DA
100
AcDbEntity
  8
0
100
AcDbBlockBegin
  2
*D10
 70
     1
 71
     0
 10
0.0
 20
0.0
 30
0.0
  3
*D10
  1

  0
LINE
  5
1CC11
330
1C8DA
100
AcDbEntity
  8
AM_5
 62
     3
370
    13
100
AcDbLine
 10
0.8014021413591772
 20
9.574124424439873
 30
0.0
 11
1.774402998066707
 21
20.69557510723769
 31
0.0
  0
LINE
  5
1CC12
330
1C8DA
100
AcDbEntity
  8
AM_5
 62
     3
370
    13
100
AcDbLine
 10
-2.570757848202675
 20
0.0
 30
0.0
 11
-20.81085405097954
 21
-0.0000000000000195
 31
0.0
  0
ARC
  5
1CC13
330
1C8DA
100
AcDbEntity
  8
AM_5
 62
     3
370
    13
100
AcDbCircle
 10
-0.0362252089660415
 20
0.0000000000000004
 30
0.0
 40
19.77462884201349
100
AcDbArc
 50
92.24843001979829
 51
172.7515699802014
  0
INSERT
  5
1CC14
330
1C8DA
100
AcDbEntity
  8
AM_5
 62
     3
370
    13
100
AcDbBlockReference
  2
_Open30
 10
1.687247255319042
 20
19.69938040914595
 30
0.0
 41
2.5
 42
2.5
 43
2.5
 50
358.624215009899
  0
INSERT
  5
1CC15
330
1C8DA
100
AcDbEntity
  8
AM_5
 62
     3
370
    13
100
AcDbBlockReference
  2
_Open30
 10
-19.81085405097954
 20
-0.0000000000000195
 30
0.0
 41
2.5
 42
2.5
 43
2.5
 50
266.3757849901007
  0
MTEXT
  5
1CC16
330
1C8DA
100
AcDbEntity
  8
AM_5
 62
     2
100
AcDbMText
 10
-15.69277751975775
 20
17.08612863420284
 30
0.0
 40
3.8
 41
0.0
 71
     5
 72
     1
  1
95°
 11
0.7372773368101268
 21
0.6755902076156573
 31
0.0
 73
     1
 44
1.0
  0
POINT
  5
1CC17
330
1C8DA
100
AcDbEntity
  8
Defpoints
 62
     0
100
AcDbPoint
 10
-8.911062422030039
 20
17.67125378350406
 30
0.0
  0
POINT
  5
1CC18
330
1C8DA
100
AcDbEntity
  8
Defpoints
 62
     0
100
AcDbPoint
 10
0.0015220838046162
 20
0.4314535306562278
 30
0.0
  0
POINT
  5
1CC19
330
1C8DA
100
AcDbEntity
  8
Defpoints
 62
     0
100
AcDbPoint
 10
-2.570757848202675
 20
0.0
 30
0.0
  0
POINT
  5
1CC1A
330
1C8DA
100
AcDbEntity
  8
Defpoints
 62
     0
100
AcDbPoint
 10
0.3960510210162057
 20
0.0
 30
0.0
  0
POINT
  5
1CC1B
330
1C8DA
100
AcDbEntity
  8
Defpoints
 62
     0
100
AcDbPoint
 10
0.8014021413591772
 20
9.574124424439873
 30
0.0
  0
ENDBLK
  5
1C906
330
1C8DA
100
AcDbEntity
  8
0
100
AcDbBlockEnd
  0
BLOCK
  5
1C9AF
330
1C999
100
AcDbEntity
  8
0
100
AcDbBlockBegin
  2
*D11
 70
     1
 71
     0
 10
0.0
 20
0.0
 30
0.0
  3
*D11
  1

  0
LINE
  5
1CC1C
330
1C999
100
AcDbEntity
  8
AM_5
 62
     3
370
    13
100
AcDbLine
 10
0.0
 20
-3.141916874376904
 30
0.0
 11
-0.0000000000000025
 21
-44.70154348178417
 31
0.0
  0
LINE
  5
1CC1D
330
1C999
100
AcDbEntity
  8
AM_5
 62
     3
370
    13
100
AcDbLine
 10
200.0000000000001
 20
1.999999999999972
 30
0.0
 11
200.0000000000001
 21
-44.70154348178417
 31
0.0
  0
LINE
  5
1CC1E
330
1C999
100
AcDbEntity
  8
AM_5
 62
     3
370
    13
100
AcDbLine
 10
2.499999999999997
 20
-43.70154348178417
 30
0.0
 11
197.5000000000001
 21
-43.70154348178417
 31
0.0
  0
INSERT
  5
1CC1F
330
1C999
100
AcDbEntity
  8
AM_5
 62
     3
370
    13
100
AcDbBlockReference
  2
_Open30
 10
-0.0000000000000025
 20
-43.70154348178417
 30
0.0
 41
2.5
 42
2.5
 43
2.5
 50
180.0
  0
INSERT
  5
1CC20
330
1C999
100
AcDbEntity
  8
AM_5
 62
     3
370
    13
100
AcDbBlockReference
  2
_Open30
 10
200.0000000000001
 20
-43.70154348178417
 30
0.0
 41
2.5
 42
2.5
 43
2.5
  0
MTEXT
  5
1CC21
330
1C999
100
AcDbEntity
  8
AM_5
 62
     2
100
AcDbMText
 10
100.0
 20
-40.30116946603614
 30
0.0
 40
3.8
 41
0.0
 71
     5
 72
     1
  1
200
 73
     1
 44
1.0
  0
POINT
  5
1CC22
330
1C999
100
AcDbEntity
  8
Defpoints
 62
     0
100
AcDbPoint
 10
0.0
 20
-3.141916874376904
 30
0.0
  0
POINT
  5
1CC23
330
1C999
100
AcDbEntity
  8
Defpoints
 62
     0
100
AcDbPoint
 10
200.0000000000001
 20
1.999999999999972
 30
0.0
  0
POINT
  5
1CC24
330
1C999
100
AcDbEntity
  8
Defpoints
 62
     0
100
AcDbPoint
 10
200.0000000000001
 20
-43.70154348178417
 30
0.0
  0
ENDBLK
  5
1C9B0
330
1C999
100
AcDbEntity
  8
0
100
AcDbBlockEnd
  0
ENDSEC
  0
SECTION
  2
ENTITIES
  0
TEXT
  5
17EF0
330
1F
100
AcDbEntity
  8
AM_6
100
AcDbText
 10
226.4154275679451
 20
-5.637846558609795
 30
0.0
 40
3.5
  1

100
AcDbText
  0
TEXT
  5
17EFF
330
1F
100
AcDbEntity
  8
AM_6
100
AcDbText
 10
226.4154275679451
 20
-12.6378465586098
 30
0.0
 40
3.5
  1

100
AcDbText
  0
TEXT
  5
19B64
330
1F
100
AcDbEntity
  8
AM_6
100
AcDbText
 10
366.5081539097329
 20
84.56754878298034
 30
0.0
 40
3.0
  1

100
AcDbText
  0
TEXT
  5
19B6A
330
1F
100
AcDbEntity
  8
AM_6
100
AcDbText
 10
306.8977523248765
 20
-7.913592181427021
 30
0.0
 40
3.0
  1

100
AcDbText
  0
LINE
  5
1A3AA
330
1F
100
AcDbEntity
  8
AM_0
100
AcDbLine
 10
199.0000000000001
 20
6.216117818584991
 30
0.0
 11
113.7499999999998
 21
6.216117818584991
 31
0.0
  0
LINE
  5
1A3AB
330
1F
100
AcDbEntity
  8
AM_0
100
AcDbLine
 10
200.0000000000001
 20
1.999999999999972
 30
0.0
 11
200.0000000000001
 21
15.9999999999999
 31
0.0
  0
SPLINE
  5
1A3AC
330
1F
100
AcDbEntity
  8
AM_0
100
AcDbSpline
210
0.0
220
0.0
230
1.0
 70
    12
 71
     2
 72
     6
 73
     3
 74
     0
 42
0.0000000001
 43
0.0000000001
 40
0.0
 40
0.0
 40
0.0
 40
5.656854249492205
 40
5.656854249492205
 40
5.656854249492205
 10
199.0000000000001
 20
11.78388218141484
 30
0.0
 41
1.0
 10
199.96875
 20
8.999999999999915
 30
0.0
 41
1.066666666666671
 10
199.0000000000001
 20
6.216117818584991
 30
0.0
 41
1.0
  0
LINE
  5
1A3AD
330
1F
100
AcDbEntity
  8
AM_0
100
AcDbLine
 10
199.0000000000001
 20
0.9999999999999716
 30
0.0
 11
199.0000000000001
 21
6.216117818584991
 31
0.0
  0
LINE
  5
1A3AE
330
1F
100
AcDbEntity
  8
AM_0
100
AcDbLine
 10
200.0000000000001
 20
1.999999999999972
 30
0.0
 11
199.0000000000001
 21
0.9999999999999716
 31
0.0
  0
LINE
  5
1A3AF
330
1F
100
AcDbEntity
  8
AM_0
100
AcDbLine
 10
199.0000000000001
 20
11.78388218141484
 30
0.0
 11
199.0000000000001
 21
16.9999999999999
 31
0.0
  0
LINE
  5
1A3B0
330
1F
100
AcDbEntity
  8
AM_0
100
AcDbLine
 10
200.0000000000001
 20
15.9999999999999
 30
0.0
 11
199.0000000000001
 21
16.9999999999999
 31
0.0
  0
LINE
  5
1A3B2
330
1F
100
AcDbEntity
  8
AM_0
100
AcDbLine
 10
200.0
 20
-98.25393550969469
 30
0.0
 11
200.0
 21
-84.25393550969471
 31
0.0
  0
LINE
  5
1A3B3
330
1F
100
AcDbEntity
  8
AM_0
100
AcDbLine
 10
199.0
 20
-98.75393550969477
 30
0.0
 11
199.0
 21
-83.75393550969471
 31
0.0
  0
LINE
  5
1A3B4
330
1F
100
AcDbEntity
  8
AM_0
100
AcDbLine
 10
200.0
 20
-98.25393550969469
 30
0.0
 11
199.5
 21
-98.75393550969471
 31
0.0
  0
SPLINE
  5
1A3B5
330
1F
100
AcDbEntity
  8
AM_0
100
AcDbSpline
210
0.0
220
0.0
230
1.0
 70
    28
 71
     2
 72
     6
 73
     3
 74
     0
 42
0.0000000001
 43
0.0000000001
 40
0.0
 40
0.0
 40
0.0
 40
2.828427124746073
 40
2.828427124746073
 40
2.828427124746073
 10
199.0
 20
-98.75393550969471
 30
0.0
 41
1.0
 10
199.4999999999998
 20
-98.75393550969469
 30
0.0
 41
1.033333333333335
 10
199.5
 20
-98.75393550969469
 30
0.0
 41
1.033333333333335
  0
LINE
  5
1A3B6
330
1F
100
AcDbEntity
  8
AM_0
100
AcDbLine
 10
200.0
 20
-84.25393550969471
 30
0.0
 11
199.5
 21
-83.75393550969471
 31
0.0
  0
SPLINE
  5
1A3B7
330
1F
100
AcDbEntity
  8
AM_0
100
AcDbSpline
210
0.0
220
0.0
230
1.0
 70
    28
 71
     2
 72
     6
 73
     3
 74
     0
 42
0.0000000001
 43
0.0000000001
 40
2.828427124746073
 40
2.828427124746073
 40
2.828427124746073
 40
5.656854249492205
 40
5.656854249492205
 40
5.656854249492205
 10
199.5
 20
-83.75393550969471
 30
0.0
 41
1.033333333333335
 10
199.4999999999997
 20
-83.75393550969474
 30
0.0
 41
1.033333333333336
 10
199.0
 20
-83.75393550969471
 30
0.0
 41
1.0
  0
LINE
  5
1A3B8
330
1F
100
AcDbEntity
  8
AM_7
100
AcDbLine
 10
209.2798787302152
 20
8.999999999999915
 30
0.0
 11
-2.16554845196606
 21
9.0
 31
0.0
1001
GENIUS_GENODEF_13
1002
{
1000
HIER
1070
     0
1002
}
1002
{
1000
MANEDIT
1070
     0
1002
}
1002
{
1000
NOSEL
1070
     0
1002
}
1002
{
1000
BEHIND
1070
     0
1002
}
1002
{
1000
REACTOR
1002
}
1001
GENIUS_GENOBJ-N-CEN_13
1002
{
1000
OWNER
1000
GEN
1002
}
  0
ARC
  5
1A3B9
330
1F
100
AcDbEntity
  8
AM_0
100
AcDbCircle
 10
101.2499999999998
 20
9.0
 30
0.0
 40
8.0
100
AcDbArc
 50
200.3641348063164
 51
339.6358651936835
  0
ARC
  5
1A3BA
330
1F
100
AcDbEntity
  8
AM_0
100
AcDbCircle
 10
101.2499999999998
 20
9.0
 30
0.0
 40
8.0
100
AcDbArc
 50
20.3641348063165
 51
159.6358651936835
  0
LINE
  5
1A3BB
330
1F
100
AcDbEntity
  8
AM_0
100
AcDbLine
 10
113.7499999999998
 20
16.99999999999993
 30
0.0
 11
199.0000000000001
 21
16.9999999999999
 31
0.0
  0
LINE
  5
1A3BC
330
1F
100
AcDbEntity
  8
AM_0
100
AcDbLine
 10
113.7499999999998
 20
11.78388218141484
 30
0.0
 11
199.0000000000001
 21
11.78388218141484
 31
0.0
  0
LINE
  5
1A3BD
330
1F
100
AcDbEntity
  8
AM_0
100
AcDbLine
 10
113.7499999999998
 20
0.9999999999999716
 30
0.0
 11
199.0000000000001
 21
0.9999999999999716
 31
0.0
  0
LINE
  5
1A3BE
330
1F
100
AcDbEntity
  8
AM_0
100
AcDbLine
 10
108.7499999999998
 20
11.78388218141495
 30
0.0
 11
108.7499999999998
 21
6.216117818584934
 31
0.0
  0
LINE
  5
1A3BF
330
1F
100
AcDbEntity
  8
AM_0
100
AcDbLine
 10
93.74999999999977
 20
11.78388218141498
 30
0.0
 11
93.74999999999977
 21
6.216117818584962
 31
0.0
  0
LINE
  5
1A3C0
330
1F
100
AcDbEntity
  8
AM_7
  6
AM_ISO08W050x2
100
AcDbLine
 10
101.2499999999998
 20
20.20813857451878
 30
0.0
 11
101.2499999999998
 21
-2.18390459050093
 31
0.0
1001
GENIUS_GENODEF_13
1002
{
1000
HIER
1070
     0
1002
}
1002
{
1000
MANEDIT
1070
     0
1002
}
1002
{
1000
NOSEL
1070
     0
1002
}
1002
{
1000
BEHIND
1070
     0
1002
}
1002
{
1000
REACTOR
1002
}
1001
GENIUS_GENOBJ-N-CEN_13
1002
{
1000
OWNER
1000
GEN
1002
}
  0
LINE
  5
1A3C3
330
1F
100
AcDbEntity
  8
AM_7
100
AcDbLine
 10
-1.773854710452724
 20
-91.2539355096946
 30
0.0
 11
209.2798787302152
 21
-91.25393550969466
 31
0.0
1001
GENIUS_GENODEF_13
1002
{
1000
HIER
1070
     0
1002
}
1002
{
1000
MANEDIT
1070
     0
1002
}
1002
{
1000
NOSEL
1070
     0
1002
}
1002
{
1000
BEHIND
1070
     0
1002
}
1002
{
1000
REACTOR
1002
}
1001
GENIUS_GENOBJ-N-CEN_13
1002
{
1000
OWNER
1000
GEN
1002
}
  0
LINE
  5
1A3C5
330
1F
100
AcDbEntity
  8
AM_7
  6
AM_ISO08W050x2
100
AcDbLine
 10
-57.263070746415
 20
21.59843988049295
 30
0.0
 11
-57.263070746415
 21
-5.105041805582147
 31
0.0
1001
GENIUS_GENODEF_13
1002
{
1000
HIER
1070
     0
1002
}
1002
{
1000
MANEDIT
1070
     0
1002
}
1002
{
1000
NOSEL
1070
     0
1002
}
1002
{
1000
BEHIND
1070
     0
1002
}
1002
{
1000
REACTOR
1002
}
1001
GENIUS_GENOBJ-N-CEN_13
1002
{
1000
OWNER
1000
GEN
1002
}
  0
LINE
  5
1A3C6
330
1F
100
AcDbEntity
  8
AM_7
  6
AM_ISO08W050x2
100
AcDbLine
 10
-70.30953200898512
 20
8.999999999999972
 30
0.0
 11
-43.77904923050528
 21
8.999999999999972
 31
0.0
1001
GENIUS_GENODEF_13
1002
{
1000
HIER
1070
     0
1002
}
1002
{
1000
MANEDIT
1070
     0
1002
}
1002
{
1000
NOSEL
1070
     0
1002
}
1002
{
1000
BEHIND
1070
     0
1002
}
1002
{
1000
REACTOR
1002
}
1001
GENIUS_GENOBJ-N-CEN_13
1002
{
1000
OWNER
1000
GEN
1002
}
  0
DIMENSION
  5
1A3C7
330
1F
100
AcDbEntity
  8
AM_5
100
AcDbDimension
  2
*D4
 10
108.7499999999998
 20
-11.76503889931774
 30
0.0
 11
101.1268639916094
 21
-11.76503889931774
 31
0.0
 70
   160
  1
<>
 71
     5
 42
15.0
  3
AM_JIS$0
100
AcDbAlignedDimension
 13
93.74999999999977
 23
6.216117818584962
 33
0.0
 14
108.7499999999998
 24
6.216117818584934
 34
0.0
100
AcDbRotatedDimension
1001
GENIUS_GENDTOL_13
1000

1000
h7
1000

1040
0.0
1001
ACAD
1000
DSTYLE
1002
{
1070
   271
1070
     0
1002
}
  0
DIMENSION
  5
1A3CC
330
1F
100
AcDbEntity
  8
AM_5
100
AcDbDimension
  2
*D5
 10
98.29965035368656
 20
1.56390983348782
 30
0.0
 11
113.9846780716766
 21
28.45863762243485
 31
0.0
 70
   163
  1
<>
 71
     5
 42
15.99999999999979
  3
AM_JIS$3
100
AcDbDiametricDimension
 15
104.2003496463128
 25
16.43609016651207
 35
0.0
 40
0.0
1001
GENIUS_GENDTOL_13
1000

1000
h7
1000

1040
0.0
1001
ACAD
1000
DSTYLE
1002
{
1070
   271
1070
     0
1070
   289
1070
     3
1002
}
  0
DIMENSION
  5
1A3E4
330
1F
100
AcDbEntity
  8
AM_5
100
AcDbDimension
  2
*D6
 10
-0.0000000000001152
 20
-115.3185241203499
 30
0.0
 11
8.99999999999983
 21
-111.9185241203499
 31
0.0
 70
    32
  1
<>
 71
     5
 42
17.99999999999989
  3
AM_JIS$0
100
AcDbAlignedDimension
 13
17.99999999999977
 23
-99.00393550969463
 33
0.0
 14
-0.0000000000001137
 24
-91.2539355096946
 34
0.0
100
AcDbRotatedDimension
1001
ACAD
1000
DSTYLE
1002
{
1070
   271
1070
     0
1002
}
1001
GENIUS_GENDTOL_13
1000

1000
h7
1000

1040
0.0
  0
TEXT
  5
1A487
330
1F
100
AcDbEntity
  8
AM_6
100
AcDbText
 10
271.8025229403801
 20
-49.61079141818027
 30
0.0
 40
3.5
  1

100
AcDbText
  0
TEXT
  5
1A497
330
1F
100
AcDbEntity
  8
AM_6
100
AcDbText
 10
271.8025229403801
 20
-56.61079141818027
 30
0.0
 40
3.5
  1

100
AcDbText
  0
LINE
  5
1A498
330
1F
100
AcDbEntity
  8
AM_0
100
AcDbLine
 10
27.24999999999977
 20
-98.75393550969463
 30
0.0
 11
198.9999999999999
 21
-98.75393550969469
 31
0.0
  0
LINE
  5
1A499
330
1F
100
AcDbEntity
  8
AM_0
100
AcDbLine
 10
30.00268129851111
 20
-83.75393550969463
 30
0.0
 11
199.0
 21
-83.75393550969474
 31
0.0
  0
LINE
  5
1A49A
330
1F
100
AcDbEntity
  8
AM_0
100
AcDbLine
 10
58.61903250530622
 20
16.99999999999997
 30
0.0
 11
88.74999999999977
 21
16.99999999999997
 31
0.0
  0
LINE
  5
1A49B
330
1F
100
AcDbEntity
  8
AM_0
100
AcDbLine
 10
27.24999999999977
 20
1.0
 30
0.0
 11
88.74999999999977
 21
1.0
 31
0.0
  0
LINE
  5
1A49C
330
1F
100
AcDbEntity
  8
AM_0
100
AcDbLine
 10
88.74999999999977
 20
11.78388218141498
 30
0.0
 11
27.24999999999977
 21
11.78388218141498
 31
0.0
  0
LINE
  5
1A49D
330
1F
100
AcDbEntity
  8
AM_0
100
AcDbLine
 10
30.00268129851111
 20
6.216117818584991
 30
0.0
 11
88.74999999999977
 21
6.216117818584962
 31
0.0
  0
LINE
  5
1A49E
330
1F
100
AcDbEntity
  8
AM_0
100
AcDbLine
 10
55.96005453150701
 20
15.78258523496842
 30
0.0
 11
27.24999999999977
 21
15.78258523496842
 31
0.0
  0
LINE
  5
1A49F
330
1F
100
AcDbEntity
  8
AM_0
100
AcDbLine
 10
27.24999999999977
 20
16.82447430097
 30
0.0
 11
55.96005453150701
 21
16.82447430097
 31
0.0
  0
ELLIPSE
  5
1A4A0
330
1F
100
AcDbEntity
  8
AM_0
100
AcDbEllipse
 10
29.6185244110543
 20
-83.75393550969463
 30
0.0
 11
15.74074538151591
 21
5.732576575288353
 31
-5.002184811329023E-18
210
2.805727671384632E-19
220
1.021809853077549E-19
230
1.0
 40
0.1125307278460177
 41
1.870481670193048
 42
3.505238229123916
  0
SPLINE
  5
1A4A1
330
1F
100
AcDbEntity
  8
AM_0
100
AcDbSpline
210
0.0
220
0.0
230
1.0
 70
     8
 71
     3
 72
    32
 73
    28
 74
     0
 42
0.0000000001
 43
0.0000000001
 40
4.045618079636788
 40
4.045618079636788
 40
4.045618079636788
 40
4.045618079636788
 40
5.259382177050171
 40
5.259382177050171
 40
5.845378705947328
 40
5.845378705947328
 40
6.431375234844486
 40
6.431375234844486
 40
7.017371763741644
 40
7.017371763741644
 40
7.603368292638802
 40
7.603368292638802
 40
8.189364821535959
 40
8.189364821535959
 40
8.775361350433116
 40
8.775361350433116
 40
9.361357879330274
 40
9.361357879330274
 40
9.947354408227431
 40
9.947354408227431
 40
11.26219995248998
 40
11.26219995248998
 40
12.57704549675252
 40
12.57704549675252
 40
13.89189104101506
 40
13.89189104101506
 40
14.21346012528928
 40
14.21346012528928
 40
14.21346012528928
 40
14.21346012528928
 10
30.00268129851111
 20
-83.75393550969463
 30
0.0
 10
30.29881936988488
 20
-83.85416303231827
 30
0.0
 10
30.55804916234979
 20
-83.98022224779382
 30
0.0
 10
30.87508287700655
 20
-84.21283903637024
 30
0.0
 10
30.97243445181903
 20
-84.29937049502965
 30
0.0
 10
31.1441940610805
 20
-84.49338639856487
 30
0.0
 10
31.2185971279448
 20
-84.60090776886565
 30
0.0
 10
31.33787253013361
 20
-84.83325823301604
 30
0.0
 10
31.38280932448947
 20
-84.95824355332817
 30
0.0
 10
31.44152745225574
 20
-85.21867427066277
 30
0.0
 10
31.45530650066348
 20
-85.35412465641267
 30
0.0
 10
31.45530650066348
 20
-85.62501420535998
 30
0.0
 10
31.44152745225574
 20
-85.77099443303999
 30
0.0
 10
31.38280932448947
 20
-86.07574813385074
 30
0.0
 10
31.33787253013361
 20
-86.23451771943408
 30
0.0
 10
31.2185971279448
 20
-86.55469082201776
 30
0.0
 10
31.1441940610805
 20
-86.71626191741316
 30
0.0
 10
30.97243445181903
 20
-87.03151473349575
 30
0.0
 10
30.87508287700655
 20
-87.18517550803099
 30
0.0
 10
30.54024333522534
 20
-87.65392452648607
 30
0.0
 10
30.25528887158191
 20
-87.96643434456266
 30
0.0
 10
29.60058384587546
 20
-88.5341068087134
 30
0.0
 10
29.23073049575362
 20
-88.78907071642706
 30
0.0
 10
28.43531498269681
 20
-89.21366676387513
 30
0.0
 10
28.00901270310851
 20
-89.38351547399688
 30
0.0
 10
27.46528280094344
 20
-89.53255215732102
 30
0.0
 10
27.35781057662166
 20
-89.55888325204305
 30
0.0
 10
27.24999999999977
 20
-89.58222590910722
 30
0.0
  0
ELLIPSE
  5
1A4A2
330
1F
100
AcDbEntity
  8
AM_0
100
AcDbEllipse
 10
16.90785135381395
 20
-83.62474372350593
 30
0.0
 11
5.561346434751362
 21
2.247201167552448
 31
-1.123824561243139E-16
210
1.737142996785334E-17
220
7.019360898267953E-18
230
0.9999999999999999
 40
0.3122174173171767
 41
4.596205825726358
 42
5.23978725294615
  0
LINE
  5
1A4A3
330
1F
100
AcDbEntity
  8
AM_0
100
AcDbLine
 10
8.715026151380812
 20
-99.00393550969463
 30
0.0
 11
17.99999999999966
 21
-99.00393550969463
 31
0.0
  0
LINE
  5
1A4A4
330
1F
100
AcDbEntity
  8
AM_0
100
AcDbLine
 10
9.558691776116802
 20
-92.0320224802615
 30
0.0
 11
8.713338312667929
 21
-95.10281494465301
 31
0.0
  0
LINE
  5
1A4A5
330
1F
100
AcDbEntity
  8
AM_0
100
AcDbLine
 10
9.558691776116802
 20
-92.0320224802615
 30
0.0
 11
0.433143166057107
 21
-91.29171613946289
 31
0.0
  0
LINE
  5
1A4A6
330
1F
100
AcDbEntity
  8
AM_0
100
AcDbLine
 10
0.8014021413591763
 20
-90.65448391912773
 30
0.0
 11
9.788440310026317
 21
-91.38355365789707
 31
0.0
  0
ELLIPSE
  5
1A4A7
330
1F
100
AcDbEntity
  8
AM_0
100
AcDbEllipse
 10
9.456055863899678
 20
-89.23581010916382
 30
0.0
 11
1.80592038938224
 21
0.8022272710700549
 31
-3.391451091094286E-17
210
1.568456026315997E-17
220
6.967406787047150E-18
230
1.0
 40
0.2827422957937204
 41
5.566350903965558
 42
8.409416459992201
  0
ELLIPSE
  5
1A4A8
330
1F
100
AcDbEntity
  8
AM_0
100
AcDbEllipse
 10
10.34198158419167
 20
-91.2539355096946
 30
0.0
 11
2.280650459371375
 21
7.748636383516288
 31
1.037085362593838E-16
210
-3.625276141013584E-18
220
-1.231707668797883E-17
230
0.9999999999999999
 40
0.0637432403834637
 41
1.615528098952071
 42
1.902516278124911
  0
ELLIPSE
  5
1A4A9
330
1F
100
AcDbEntity
  8
AM_0
100
AcDbEllipse
 10
16.5479580245086
 20
-83.7539355096946
 30
0.0
 11
15.74074538151591
 21
5.732576575288353
 31
-5.002184811329023E-18
210
2.805727671384632E-19
220
1.021809853077549E-19
230
1.0
 40
0.1125307278460177
 41
3.989971300206171
 42
4.6975909275114
  0
LINE
  5
1A4AA
330
1F
100
AcDbEntity
  8
AM_0
100
AcDbLine
 10
2.999999999999773
 20
-98.22604780157766
 30
0.0
 11
2.999999999999773
 21
-94.6393227470077
 31
0.0
  0
ELLIPSE
  5
1A4AB
330
1F
100
AcDbEntity
  8
AM_0
100
AcDbEllipse
 10
0.7955898831530703
 20
-91.2539355096946
 30
0.0
 11
0.8286288427547236
 21
-8.249641919302896
 31
1.165279957616609E-16
210
-1.404625237365186E-18
220
1.398413214842510E-17
230
1.0
 40
0.0927614798988879
 41
5.098026217765195
 42
6.243560552385046
  0
LINE
  5
1A4AC
330
1F
100
AcDbEntity
  8
AM_0
100
AcDbLine
 10
8.715026151380698
 20
-99.00393550969463
 30
0.0
 11
8.715026151380698
 21
-95.10161357742274
 31
0.0
  0
LINE
  5
1A4AD
330
1F
100
AcDbEntity
  8
AM_0
100
AcDbLine
 10
8.715026151380812
 20
-99.00393550969463
 30
0.0
 11
3.173341932411745
 21
-99.48877005569491
 31
0.0
  0
SPLINE
  5
1A4AE
330
1F
100
AcDbEntity
  8
AM_0
100
AcDbSpline
210
0.0
220
0.0
230
1.0
 70
     8
 71
     3
 72
    55
 73
    51
 74
     0
 42
0.0000000001
 43
0.0000000001
 40
-8.512011633524866
 40
-8.512011633524866
 40
-8.512011633524866
 40
-8.512011633524866
 40
-8.09709962471325
 40
-8.09709962471325
 40
-7.236111331539604
 40
-7.236111331539604
 40
-6.805617184952781
 40
-6.805617184952781
 40
-6.375123038365958
 40
-6.375123038365958
 40
-6.009233716397313
 40
-6.009233716397313
 40
-5.643344394428668
 40
-5.643344394428668
 40
-5.277455072460024
 40
-5.277455072460024
 40
-4.911565750491379
 40
-4.911565750491379
 40
-4.027212738695109
 40
-4.027212738695109
 40
-3.585036232796975
 40
-3.585036232796975
 40
-3.142859726898839
 40
-3.142859726898839
 40
-2.733967519032303
 40
-2.733967519032303
 40
-2.325075311165767
 40
-2.325075311165767
 40
-1.916183103299231
 40
-1.916183103299231
 40
-1.507290895432696
 40
-1.507290895432696
 40
-1.130468171574522
 40
-1.130468171574522
 40
-0.7536454477163481
 40
-0.7536454477163481
 40
-0.3768227238581741
 40
-0.3768227238581741
 40
0.0
 40
0.0
 40
0.0
 40
0.3849237401817758
 40
0.3849237401817758
 40
0.7698474803635517
 40
0.7698474803635517
 40
1.154771220545328
 40
1.154771220545328
 40
1.539694960727103
 40
1.539694960727103
 40
1.557940388373984
 40
1.557940388373984
 40
1.557940388373984
 40
1.557940388373984
 10
2.999999999999773
 20
-98.22604780157766
 30
0.0
 10
3.080035213609108
 20
-98.15518880750378
 30
0.0
 10
3.167100969037392
 20
-98.0856343871246
 30
0.0
 10
3.446559749032076
 20
-97.88365531703772
 30
0.0
 10
3.682036659336518
 20
-97.74241072770641
 30
0.0
 10
4.075597603619826
 20
-97.57749481199679
 30
0.0
 10
4.213501206522892
 20
-97.53032711686578
 30
0.0
 10
4.495498102526767
 20
-97.45950919632892
 30
0.0
 10
4.639614148530654
 20
-97.43593356832284
 30
0.0
 10
4.904065144871652
 20
-97.41828986840739
 30
0.0
 10
5.027897374754843
 20
-97.42022143612942
 30
0.0
 10
5.269638879555714
 20
-97.44566728568773
 30
0.0
 10
5.387555613041286
 20
-97.46914143058632
 30
0.0
 10
5.608828896437672
 20
-97.5332947431404
 30
0.0
 10
5.712534066792614
 20
-97.57398173526465
 30
0.0
 10
5.900509930824569
 20
-97.66517382461493
 30
0.0
 10
5.984804700626
 20
-97.71562590970541
 30
0.0
 10
6.235054625387875
 20
-97.89003667294423
 30
0.0
 10
6.374822445381142
 20
-98.03632821153266
 30
0.0
 10
6.502102292739664
 20
-98.24943757291783
 30
0.0
 10
6.531110729890997
 20
-98.31955309422219
 30
0.0
 10
6.561494293849137
 20
-98.45274489955804
 30
0.0
 10
6.562832240120656
 20
-98.51582507236745
 30
0.0
 10
6.541469617111034
 20
-98.62710092424746
 30
0.0
 10
6.519821092656457
 20
-98.67988137035457
 30
0.0
 10
6.450633859273694
 20
-98.77985383050034
 30
0.0
 10
6.403085855644463
 20
-98.82705604934591
 30
0.0
 10
6.283051882733616
 20
-98.91368976873471
 30
0.0
 10
6.210464319858374
 20
-98.95321071814149
 30
0.0
 10
6.045035981563729
 20
-99.0241404963638
 30
0.0
 10
5.952185312095708
 20
-99.0555836893804
 30
0.0
 10
5.762808558821462
 20
-99.10884397886295
 30
0.0
 10
5.660974814635779
 20
-99.13292755493009
 30
0.0
 10
5.440359659194087
 20
-99.17727810312076
 30
0.0
 10
5.321584974634106
 20
-99.19757778388291
 30
0.0
 10
5.074551418546889
 20
-99.23435116040426
 30
0.0
 10
4.946111236566935
 20
-99.25087390707373
 30
0.0
 10
4.688244847497799
 20
-99.28019403899967
 30
0.0
 10
4.558817781800599
 20
-99.29299590666764
 30
0.0
 10
4.433688181924481
 20
-99.30384272599281
 30
0.0
 10
4.305868518878242
 20
-99.31492273258309
 30
0.0
 10
4.173725961302353
 20
-99.32472688695142
 30
0.0
 10
3.911526951354745
 20
-99.3400572864538
 30
0.0
 10
3.781467997978098
 20
-99.34558037961506
 30
0.0
 10
3.5332071687385
 20
-99.35051236318577
 30
0.0
 10
3.414780935538602
 20
-99.3499025249881
 30
0.0
 10
3.197489801024176
 20
-99.34097006834858
 30
0.0
 10
3.098634862765152
 20
-99.33260808141881
 30
0.0
 10
3.008140010477518
 20
-99.31962401956307
 30
0.0
 10
3.004061391871687
 20
-99.31902598131651
 30
0.0
 10
2.999999999999773
 20
-99.31841738208604
 30
0.0
  0
SPLINE
  5
1A4AF
330
1F
100
AcDbEntity
  8
AM_0
100
AcDbSpline
210
0.0
220
0.0
230
1.0
 70
     8
 71
     3
 72
    20
 73
    16
 74
     0
 42
0.0000000001
 43
0.0000000001
 40
1.589061183164045
 40
1.589061183164045
 40
1.589061183164045
 40
1.589061183164045
 40
1.900117996457201
 40
1.900117996457201
 40
2.300865455986472
 40
2.300865455986472
 40
2.701612915515743
 40
2.701612915515743
 40
3.102360375045014
 40
3.102360375045014
 40
3.55893946929618
 40
3.55893946929618
 40
4.015518563547346
 40
4.015518563547346
 40
4.56806973375094
 40
4.56806973375094
 40
4.56806973375094
 40
4.56806973375094
 10
2.999999999999773
 20
-99.31841738208604
 30
0.0
 10
2.931145419952145
 20
-99.3017094434224
 30
0.0
 10
2.867514914211938
 20
-99.28234189433445
 30
0.0
 10
2.738270761269632
 20
-99.23141363776026
 30
0.0
 10
2.677437171441966
 20
-99.19789262763482
 30
0.0
 10
2.583683494670822
 20
-99.12165161427535
 30
0.0
 10
2.550657941763916
 20
-99.07883598515608
 30
0.0
 10
2.511816492961884
 20
-98.98636571265411
 30
0.0
 10
2.505984434455968
 20
-98.93670657156773
 30
0.0
 10
2.517056145046809
 20
-98.82827319673493
 30
0.0
 10
2.537626728970736
 20
-98.76488072511532
 30
0.0
 10
2.608107091710963
 20
-98.63050324065728
 30
0.0
 10
2.657978803175524
 20
-98.55952231092323
 30
0.0
 10
2.796642878234138
 20
-98.4001470960545
 30
0.0
 10
2.891545944772588
 20
-98.31112789359676
 30
0.0
 10
2.999999999999773
 20
-98.22604780157766
 30
0.0
  0
LINE
  5
1A4B0
330
1F
100
AcDbEntity
  8
AM_0
100
AcDbLine
 10
2.999999999999773
 20
-99.50014676092994
 30
0.0
 11
2.999999999999773
 21
-99.31841738208604
 31
0.0
  0
LINE
  5
1A4B1
330
1F
100
AcDbEntity
  8
AM_0
100
AcDbLine
 10
1.593253417916117
 20
-99.50014676092994
 30
0.0
 11
2.999999999999773
 21
-99.50014676092994
 31
0.0
  0
SPLINE
  5
1A4B2
330
1F
100
AcDbEntity
  8
AM_0
100
AcDbSpline
210
0.0
220
0.0
230
1.0
 70
     8
 71
     3
 72
     8
 73
     4
 74
     0
 42
0.0000000001
 43
0.0000000001
 40
1.721832210918845
 40
1.721832210918845
 40
1.721832210918845
 40
1.721832210918845
 40
2.012104147338245
 40
2.012104147338245
 40
2.012104147338245
 40
2.012104147338245
 10
2.999999999999773
 20
-99.50014676092994
 30
0.0
 10
3.057628694591813
 20
-99.49762467394569
 30
0.0
 10
3.115422386262139
 20
-99.49383724684483
 30
0.0
 10
3.173341932411631
 20
-99.48877005569491
 30
0.0
  0
LINE
  5
1A4B3
330
1F
100
AcDbEntity
  8
AM_0
100
AcDbLine
 10
0.3605172818550955
 20
-94.42519580777724
 30
0.0
 11
8.713338312668157
 21
-95.10281494465303
 31
0.0
  0
ELLIPSE
  5
1A4B4
330
1F
100
AcDbEntity
  8
AM_0
100
AcDbEllipse
 10
-0.1579006199983724
 20
-75.35988790065611
 30
0.0
 11
14.88986657800411
 21
-7.886068307088001
 31
5.840982547657804E-18
210
-3.063473132350990E-19
220
1.622496632329601E-19
230
1.0
 40
0.8804506765471121
 41
5.207078515854525
 42
5.690196876188604
  0
ELLIPSE
  5
1A4B5
330
1F
100
AcDbEntity
  8
AM_0
100
AcDbEllipse
 10
-0.5598441650824952
 20
-75.27606243793071
 30
0.0
 11
0.004880966302836975
 21
-15.08159127406861
 31
2.104867593237608E-18
210
-4.516855654631356E-23
220
1.395653372725018E-19
230
1.0
 40
0.8613405286120368
 41
0.1253601585870013
 42
0.356287659364406
  0
ELLIPSE
  5
1A4B6
330
1F
100
AcDbEntity
  8
AM_0
100
AcDbEllipse
 10
-0.5150804394405668
 20
-75.28539792810372
 30
0.0
 11
1.004353544016226
 21
-15.51837841299156
 31
-2.792332075691396E-16
210
1.159700035230120E-18
220
-1.791865434187178E-17
230
1.0
 40
0.1533565045587275
 41
0.1349302404380428
 42
0.260923568909234
  0
LINE
  5
1A4B7
330
1F
100
AcDbEntity
  8
AM_0
100
AcDbLine
 10
0.2191994686431826
 20
-93.30589033611116
 30
0.0
 11
0.0000110597762841
 21
-91.22633443155527
 31
0.0
  0
LINE
  5
1A4B8
330
1F
100
AcDbEntity
  8
AM_0
100
AcDbLine
 10
0.2191994686382941
 20
-93.30589033613441
 30
0.0
 11
0.3605172818549818
 21
-94.42519580777724
 31
0.0
  0
ELLIPSE
  5
1A4B9
330
1F
100
AcDbEntity
  8
AM_0
100
AcDbEllipse
 10
0.3984790923243509
 20
-91.2608890355294
 30
0.0
 11
-0.3984716947152832
 21
0.03493291443224132
 31
2.194970007552955E-17
210
5.466458867242771E-17
220
-4.792293715948960E-18
230
1.0
 40
0.0695066915419304
 41
6.201846805389584
 42
7.947176057384034
  0
LINE
  5
1A4BA
330
1F
100
AcDbEntity
  8
AM_0
100
AcDbLine
 10
0.0015220838046162
 20
-91.22382131019506
 30
0.0
 11
0.8014021413591763
 21
-90.65448391912773
 31
0.0
  0
LINE
  5
1A4BB
330
1F
100
AcDbEntity
  8
AM_0
100
AcDbLine
 10
0.8014021413589489
 20
-90.65448391912773
 30
0.0
 11
0.8002837250259063
 21
-90.64200590855793
 31
0.0
  0
LINE
  5
1A4BC
330
1F
100
AcDbEntity
  8
AM_0
100
AcDbLine
 10
7.698155970785706
 20
-91.21398020905193
 30
0.0
 11
8.169367735464334
 21
-89.65972479422553
 31
0.0
  0
ELLIPSE
  5
1A4BD
330
1F
100
AcDbEntity
  8
AM_0
100
AcDbEllipse
 10
5.180046958737989
 20
-91.3432531996946
 30
0.0
 11
-1.992358473576414
 21
0.1746645721612208
 31
3.176272533450878E-17
210
1.582068374102220E-17
220
-1.386955707806586E-18
230
1.0
 40
0.0695066915419304
 41
0.9004323412083981
 42
7.183617648387981
  0
LINE
  5
1A4BE
330
1F
100
AcDbEntity
  8
AM_0
100
AcDbLine
 10
8.713338312667929
 20
-95.10281494465303
 30
0.0
 11
9.060486009920851
 21
-94.85572269325564
 31
0.0
  0
ELLIPSE
  5
1A4BF
330
1F
100
AcDbEntity
  8
AM_0
100
AcDbEllipse
 10
-29.41949379874825
 20
-91.2539355096946
 30
0.0
 11
88.61841560082385
 21
-7.731397586150161
 31
2.768936982235353E-17
210
-3.100958769407495E-19
220
2.705390858322388E-20
230
1.0
 40
0.0060557195205533
 41
5.158281045250254
 42
5.16194353417716
  0
ELLIPSE
  5
1A4C0
330
1F
100
AcDbEntity
  8
AM_0
100
AcDbEllipse
 10
9.957279928855769
 20
-91.2539355096946
 30
0.0
 11
0.7284888624032305
 21
7.749775563470486
 31
1.024455614993211E-16
210
-1.231734589171168E-18
220
-1.310338031572594E-17
230
1.0
 40
0.0809629941463693
 41
1.891367456378835
 42
2.097261753503696
  0
SPLINE
  5
1A4C1
330
1F
100
AcDbEntity
  8
AM_0
100
AcDbSpline
210
0.0
220
0.0
230
1.0
 70
     8
 71
     3
 72
    10
 73
     6
 74
     0
 42
0.0000000001
 43
0.0000000001
 40
2.90662917786273
 40
2.90662917786273
 40
2.90662917786273
 40
2.90662917786273
 40
4.966935907987606
 40
4.966935907987606
 40
5.598433222928954
 40
5.598433222928954
 40
5.598433222928954
 40
5.598433222928954
 10
6.624124683551486
 20
-88.87317623626012
 30
0.0
 10
5.961096530904911
 20
-89.04275847840131
 30
0.0
 10
5.283327022491903
 20
-89.18724068547579
 30
0.0
 10
4.393700670960584
 20
-89.34300293144051
 30
0.0
 10
4.184698954607939
 20
-89.37718496674322
 30
0.0
 10
3.975743657391945
 20
-89.40903522673273
 30
0.0
  0
ELLIPSE
  5
1A4C2
330
1F
100
AcDbEntity
  8
AM_0
100
AcDbEllipse
 10
8.801049896915629
 20
-96.70731204236208
 30
0.0
 11
0.6287602950602392
 21
9.082044916463143
 31
8.898640741915517E-17
210
-6.750950327550505E-19
220
-9.751320906443547E-18
230
1.0
 40
0.1913847435778546
 41
0.6161641924266434
 42
0.6958681928839074
  0
SPLINE
  5
1A4C3
330
1F
100
AcDbEntity
  8
AM_0
100
AcDbSpline
210
0.0
220
0.0
230
1.0
 70
     8
 71
     3
 72
     8
 73
     4
 74
     0
 42
0.0000000001
 43
0.0000000001
 40
2.458545055531939
 40
2.458545055531939
 40
2.458545055531939
 40
2.458545055531939
 40
2.460392082474136
 40
2.460392082474136
 40
2.460392082474136
 40
2.460392082474136
 10
8.309680805144581
 20
-89.22590150720566
 30
0.0
 10
8.310135561345305
 20
-89.22559572049548
 30
0.0
 10
8.310590439591806
 20
-89.22528992878841
 30
0.0
 10
8.311045439367604
 20
-89.22498413233612
 30
0.0
  0
LINE
  5
1A4C4
330
1F
100
AcDbEntity
  8
AM_0
100
AcDbLine
 10
25.96005452730219
 20
-89.74166695912825
 30
0.0
 11
15.13657198893748
 21
-89.74166695912825
 31
0.0
  0
LINE
  5
1A4C5
330
1F
100
AcDbEntity
  8
AM_0
100
AcDbLine
 10
17.99999999999966
 20
-98.75393550969463
 30
0.0
 11
26.99999999999977
 21
-98.75393550969463
 31
0.0
  0
LINE
  5
1A4C6
330
1F
100
AcDbEntity
  8
AM_0
100
AcDbLine
 10
17.99999999999977
 20
-98.75393550969463
 30
0.0
 11
17.99999999999977
 21
-99.00393550969463
 31
0.0
  0
ELLIPSE
  5
1A4C7
330
1F
100
AcDbEntity
  8
AM_0
100
AcDbEllipse
 10
12.81741198472298
 20
-78.06589374749692
 30
0.0
 11
-4.127488581185265
 21
-14.46138536298178
 31
-2.744964393041901E-17
210
-5.009469851635763E-19
220
-1.755156254555661E-18
230
1.0
 40
0.117119499480969
 41
0.4222558247907062
 42
0.6691284756163294
  0
ELLIPSE
  5
1A4C8
330
1F
100
AcDbEntity
  8
AM_0
100
AcDbEllipse
 10
4.726264881381894
 20
-91.2539355096946
 30
0.0
 11
-20.33179611779146
 21
-7.40457807641415
 31
-1.969090195334921E-16
210
-8.550685632004966E-18
220
-3.114049491852318E-18
230
1.0
 40
0.1125307278460177
 41
1.987205897090773
 42
2.066873120352801
  0
SPLINE
  5
1A4C9
330
1F
100
AcDbEntity
  8
AM_0
100
AcDbSpline
210
0.0
220
0.0
230
1.0
 70
     8
 71
     3
 72
    10
 73
     6
 74
     0
 42
0.0000000001
 43
0.0000000001
 40
35.27909651399533
 40
35.27909651399533
 40
35.27909651399533
 40
35.27909651399533
 40
37.51511733242877
 40
37.51511733242877
 40
39.14284444435268
 40
39.14284444435268
 40
39.14284444435268
 40
39.14284444435268
 10
13.71209815290195
 20
-90.35137550857175
 30
0.0
 10
12.99290505328247
 20
-90.65458589170595
 30
0.0
 10
12.23406820134971
 20
-90.90573065221318
 30
0.0
 10
10.89368854846327
 20
-91.24888369482611
 30
0.0
 10
10.32002156247222
 20
-91.36561200193538
 30
0.0
 10
9.746568944943192
 20
-91.45519953698383
 30
0.0
  0
LINE
  5
1A4CA
330
1F
100
AcDbEntity
  8
AM_0
100
AcDbLine
 10
9.585540891328265
 20
-92.01291185853438
 30
0.0
 11
9.558691776116802
 21
-92.0320224802615
 31
0.0
  0
LINE
  5
1A4CB
330
1F
100
AcDbEntity
  8
AM_0
100
AcDbLine
 10
10.96654335373387
 20
-88.96649111469569
 30
0.0
 11
10.63057732679317
 21
-89.70872329458345
 31
0.0
  0
LINE
  5
1A4CC
330
1F
100
AcDbEntity
  8
AM_0
100
AcDbLine
 10
27.24999999999977
 20
-98.75393550969469
 30
0.0
 11
27.24999999999977
 21
-89.58222590910722
 31
0.0
  0
LINE
  5
1A4CD
330
1F
100
AcDbEntity
  8
AM_0
100
AcDbLine
 10
26.99999999999977
 20
-98.75393550969463
 30
0.0
 11
26.99999999999977
 21
-89.65183633683873
 31
0.0
  0
SPLINE
  5
1A4CE
330
1F
100
AcDbEntity
  8
AM_0
100
AcDbSpline
210
0.0
220
0.0
230
1.0
 70
    28
 71
     2
 72
     6
 73
     3
 74
     0
 42
0.0000000001
 43
0.0000000001
 40
0.0
 40
0.0
 40
0.0
 40
0.8683077351808841
 40
0.8683077351808841
 40
0.8683077351808841
 10
26.99999999999977
 20
-98.75393550969463
 30
0.0
 41
1.0
 10
27.10306055405002
 20
-98.75393550969463
 30
0.0
 41
1.001395898062718
 10
27.24999999999977
 20
-98.75393550969463
 30
0.0
 41
1.0
  0
SPLINE
  5
1A4CF
330
1F
100
AcDbEntity
  8
AM_0
100
AcDbSpline
210
0.0
220
0.0
230
1.0
 70
     8
 71
     3
 72
     8
 73
     4
 74
     0
 42
0.0000000001
 43
0.0000000001
 40
1.349977110272202
 40
1.349977110272202
 40
1.349977110272202
 40
1.349977110272202
 40
1.687186803935218
 40
1.687186803935218
 40
1.687186803935218
 40
1.687186803935218
 10
27.24999999999977
 20
-89.58222590910722
 30
0.0
 10
27.16513255068651
 20
-89.60942632132984
 30
0.0
 10
27.08139151888224
 20
-89.63258746613983
 30
0.0
 10
26.99999999999977
 20
-89.65183633683873
 30
0.0
  0
SPLINE
  5
1A4D0
330
1F
100
AcDbEntity
  8
AM_0
100
AcDbSpline
210
0.0
220
0.0
230
1.0
 70
     8
 71
     3
 72
    10
 73
     6
 74
     0
 42
0.0000000001
 43
0.0000000001
 40
0.9770413229207811
 40
0.9770413229207811
 40
0.9770413229207811
 40
0.9770413229207811
 40
0.9806912142757285
 40
0.9806912142757285
 40
1.961382428551457
 40
1.961382428551457
 40
1.961382428551457
 40
1.961382428551457
 10
26.99999999999977
 20
-89.65183633683873
 30
0.0
 10
26.99869170254704
 20
-89.6520640439193
 30
0.0
 10
26.99738332480285
 20
-89.65229132233228
 30
0.0
 10
26.64450507737331
 20
-89.71347046228752
 30
0.0
 10
26.28695159872746
 20
-89.74166695912825
 30
0.0
 10
25.96005452730219
 20
-89.74166695912825
 30
0.0
  0
LINE
  5
1A4FE
330
1F
100
AcDbEntity
  8
AM_0
100
AcDbLine
 10
24.35520908761305
 20
-83.75393550969463
 30
0.0
 11
25.96005452730219
 21
-83.75393550969463
 31
0.0
  0
LINE
  5
1A4FF
330
1F
100
AcDbEntity
  8
AM_0
100
AcDbLine
 10
21.57434943690578
 20
-83.7539355096946
 30
0.0
 11
24.35520908761305
 21
-83.75393550969463
 31
0.0
  0
ELLIPSE
  5
1A500
330
1F
100
AcDbEntity
  8
AM_0
100
AcDbEllipse
 10
4.726264881381894
 20
-91.2539355096946
 30
0.0
 11
-20.33179611779146
 21
-7.40457807641415
 31
-1.969090195334921E-16
210
-8.550685632004966E-18
220
-3.114049491852318E-18
230
1.0
 40
0.1125307278460177
 41
3.695966051257317
 42
3.798865566900894
  0
LINE
  5
1A501
330
1F
100
AcDbEntity
  8
AM_0
100
AcDbLine
 10
25.96005452730219
 20
-83.75393550969463
 30
0.0
 11
30.00268129851111
 21
-83.75393550969463
 31
0.0
  0
LINE
  5
1A502
330
1F
100
AcDbEntity
  8
AM_0
100
AcDbLine
 10
8.715026151380926
 20
16.75000000000003
 30
0.0
 11
21.27884323472767
 21
16.75
 31
0.0
  0
LINE
  5
1A503
330
1F
100
AcDbEntity
  8
AM_0
100
AcDbLine
 10
9.558691776116802
 20
0.8553669468546445
 30
0.0
 11
0.433143166057107
 21
0.0017315852456932
 31
0.0
  0
LINE
  5
1A504
330
1F
100
AcDbEntity
  8
AM_0
100
AcDbLine
 10
0.8014021413591763
 20
9.574124424439901
 30
0.0
 11
9.926950751419099
 21
10.42775978604885
 31
0.0
  0
ELLIPSE
  5
1A505
330
1F
100
AcDbEntity
  8
AM_0
100
AcDbEllipse
 10
9.456055863899678
 20
9.176682283781844
 30
0.0
 11
-1.818716344479417
 21
0.07573250286039744
 31
0.0
210
0.0
220
0.0
230
0.9999999999999999
 40
0.9400481963510837
 41
2.588828169584154
 42
5.432858631451048
  0
LINE
  5
1A506
330
1F
100
AcDbEntity
  8
AM_0
100
AcDbLine
 10
7.311376686175095
 20
16.60335020816015
 30
0.0
 11
16.96005452730219
 21
16.60335020816015
 31
0.0
  0
ELLIPSE
  5
1A507
330
1F
100
AcDbEntity
  8
AM_0
100
AcDbEllipse
 10
16.5479580245086
 20
16.68247723902681
 30
0.0
 11
15.73323680740914
 21
-2.29189358303107
 31
0.0
210
0.0
220
0.0
230
1.0
 40
0.3524397423285112
 41
4.082226218343392
 42
4.789845845648621
  0
LINE
  5
1A508
330
1F
100
AcDbEntity
  8
AM_0
100
AcDbLine
 10
0.0015220838046162
 20
0.4314535306562277
 30
0.0
 11
0.8014021413591763
 21
9.574124424439873
 31
0.0
  0
ELLIPSE
  5
1A509
330
1F
100
AcDbEntity
  8
AM_0
100
AcDbEllipse
 10
0.3984790923243509
 20
0.3990325941235255
 30
0.0
 11
0.2494616320999617
 21
0.3126801786330938
 31
0.0
210
0.0
220
0.0
230
1.0
 40
0.9937699626689576
 41
2.159821810591438
 42
3.905151062585887
  0
ELLIPSE
  5
1A50A
330
1F
100
AcDbEntity
  8
AM_0
100
AcDbEllipse
 10
-0.1579006199983724
 20
11.23921058648364
 30
0.0
 11
16.42837395304505
 21
1.52239527980571
 31
0.0
210
0.0
220
0.0
230
0.9999999999999999
 40
0.1058950379124387
 41
4.761007319853828
 42
5.244049776947444
  0
LINE
  5
1A50B
330
1F
100
AcDbEntity
  8
AM_0
100
AcDbLine
 10
3.975743657391945
 20
14.67752158107442
 30
0.0
 11
1.102773193262692
 21
13.01881131023555
 31
0.0
  0
LINE
  5
1A50E
330
1F
100
AcDbEntity
  8
AM_0
100
AcDbLine
 10
7.69815597078582
 20
10.21927061791041
 30
0.0
 11
8.169367735464334
 21
10.44699700437383
 31
0.0
  0
ELLIPSE
  5
1A50F
330
1F
100
AcDbEntity
  8
AM_0
100
AcDbEllipse
 10
8.801049896915629
 20
9.69925732602897
 30
0.0
 11
-1.816846916294047
 21
-0.7063714934134934
 31
0.0
210
0.0
220
0.0
230
1.0
 40
0.4813826607271819
 41
4.796443591917747
 42
4.876147592375011
  0
SPLINE
  5
1A511
330
1F
100
AcDbEntity
  8
AM_0
100
AcDbSpline
210
0.0
220
0.0
230
1.0
 70
     8
 71
     3
 72
    10
 73
     6
 74
     0
 42
0.0000000001
 43
0.0000000001
 40
2.90662917786273
 40
2.90662917786273
 40
2.90662917786273
 40
2.90662917786273
 40
4.966935907987606
 40
4.966935907987606
 40
5.598433222928954
 40
5.598433222928954
 40
5.598433222928954
 40
5.598433222928954
 10
6.624124683551486
 20
13.5530404872338
 30
0.0
 10
5.961096530904911
 20
13.83044897614926
 30
0.0
 10
5.283327022491903
 20
14.11768145422528
 30
0.0
 10
4.393700670960584
 20
14.49807242524176
 30
0.0
 10
4.184698954607939
 20
14.5876859802022
 30
0.0
 10
3.975743657391945
 20
14.67752158107442
 30
0.0
  0
LINE
  5
1A512
330
1F
100
AcDbEntity
  8
AM_0
100
AcDbLine
 10
3.975743657391945
 20
14.67752158107442
 30
0.0
 11
7.311376686175095
 21
16.60335020816015
 31
0.0
  0
LINE
  5
1A513
330
1F
100
AcDbEntity
  8
AM_0
100
AcDbLine
 10
7.565381576561094
 20
16.75000000000003
 30
0.0
 11
8.715026151380926
 21
16.75000000000003
 31
0.0
  0
LINE
  5
1A514
330
1F
100
AcDbEntity
  8
AM_0
100
AcDbLine
 10
7.311376686175095
 20
16.60335020816015
 30
0.0
 11
7.565381576561094
 21
16.75000000000003
 31
0.0
  0
LINE
  5
1A515
330
1F
100
AcDbEntity
  8
AM_0
100
AcDbLine
 10
10.82590822549548
 20
1.249999999999972
 30
0.0
 11
26.99999999999977
 21
1.249999999999943
 31
0.0
  0
LINE
  5
1A516
330
1F
100
AcDbEntity
  8
AM_0
100
AcDbLine
 10
24.35520908761305
 20
7.782477239026775
 30
0.0
 11
25.96005452730219
 21
7.782477239026775
 31
0.0
  0
LINE
  5
1A517
330
1F
100
AcDbEntity
  8
AM_0
100
AcDbLine
 10
25.96005452730219
 20
1.398977448331777
 30
0.0
 11
15.13657198893748
 21
1.398977448331806
 31
0.0
  0
LINE
  5
1A518
330
1F
100
AcDbEntity
  8
AM_0
100
AcDbLine
 10
23.96005453150701
 20
16.55818669342415
 30
0.0
 11
26.99999999999977
 21
16.55818669342415
 31
0.0
  0
LINE
  5
1A519
330
1F
100
AcDbEntity
  8
AM_0
100
AcDbLine
 10
26.99999999999977
 20
15.5162976274226
 30
0.0
 11
23.96005453150701
 21
15.5162976274226
 31
0.0
  0
LINE
  5
1A51A
330
1F
100
AcDbEntity
  8
AM_0
100
AcDbLine
 10
26.99999999999977
 20
10.95256241897664
 30
0.0
 11
21.57434943690578
 21
10.95256241897664
 31
0.0
  0
LINE
  5
1A51B
330
1F
100
AcDbEntity
  8
AM_0
100
AcDbLine
 10
10.35857183367125
 20
9.998037840638318
 30
0.0
 11
9.558691776116802
 21
0.8553669468546445
 31
0.0
  0
LINE
  5
1A51C
330
1F
100
AcDbEntity
  8
AM_0
100
AcDbLine
 10
10.96654335373387
 20
8.214573770714367
 30
0.0
 11
10.63057732679317
 21
6.503597524517943
 31
0.0
  0
ELLIPSE
  5
1A51D
330
1F
100
AcDbEntity
  8
AM_0
100
AcDbEllipse
 10
29.6185244110543
 20
1.782477239026775
 30
0.0
 11
15.73323680740914
 21
-2.29189358303107
 31
0.0
210
0.0
220
0.0
230
1.0
 40
0.3524397423285112
 41
1.962736588330269
 42
3.59749314726114
  0
ELLIPSE
  5
1A51E
330
1F
100
AcDbEntity
  8
AM_0
100
AcDbEllipse
 10
12.81741198472298
 20
-11.18631644585474
 30
0.0
 11
1.480689148135417
 21
26.55356402618345
 31
0.0
210
0.0
220
0.0
230
1.0
 40
0.1584950087293919
 41
0.8505708583647766
 42
1.092125979220331
  0
SPLINE
  5
1A51F
330
1F
100
AcDbEntity
  8
AM_0
100
AcDbSpline
210
0.0
220
0.0
230
1.0
 70
     8
 71
     3
 72
    10
 73
     6
 74
     0
 42
0.0000000001
 43
0.0000000001
 40
35.27909651399533
 40
35.27909651399533
 40
35.27909651399533
 40
35.27909651399533
 40
37.51511733242877
 40
37.51511733242877
 40
39.14284444435268
 40
39.14284444435268
 40
39.14284444435268
 40
39.14284444435268
 10
13.71209815290195
 20
1.302735197203248
 30
0.0
 10
12.99290505328247
 20
1.267181585530381
 30
0.0
 10
12.23406820134971
 20
1.255278673640618
 30
0.0
 10
10.89368854846327
 20
1.248653082919361
 30
0.0
 10
10.32002156247222
 20
1.250286476004618
 30
0.0
 10
9.746568944943192
 20
1.252613809075996
 30
0.0
  0
ELLIPSE
  5
1A520
330
1F
100
AcDbEntity
  8
AM_0
100
AcDbEllipse
 10
10.34198158419167
 20
9.0
 30
0.0
 11
-0.5865926701387092
 21
-7.748113408471748
 31
0.0
210
0.0
220
0.0
230
1.0
 40
0.2915021252068223
 41
6.211970020921164
 42
6.2792782400197
  0
ELLIPSE
  5
1A521
330
1F
100
AcDbEntity
  8
AM_0
100
AcDbEllipse
 10
4.726264881381894
 20
9.0
 30
0.0
 11
-20.32209754290354
 21
2.96036254474847
 31
0.0
210
0.0
220
0.0
230
1.0
 40
0.3524397423285113
 41
2.079460815228002
 42
2.15912803849003
  0
SPLINE
  5
1A522
330
1F
100
AcDbEntity
  8
AM_0
100
AcDbSpline
210
0.0
220
0.0
230
1.0
 70
     8
 71
     3
 72
    34
 73
    30
 74
     0
 42
0.0000000001
 43
0.0000000001
 40
0.9431206435791275
 40
0.9431206435791275
 40
0.9431206435791275
 40
0.9431206435791275
 40
2.251843241963401
 40
2.251843241963401
 40
3.560565840347675
 40
3.560565840347675
 40
4.869288438731948
 40
4.869288438731948
 40
6.178011037116222
 40
6.178011037116222
 40
6.713744425988628
 40
6.713744425988628
 40
7.249477814861033
 40
7.249477814861033
 40
7.785211203733438
 40
7.785211203733438
 40
8.320944592605844
 40
8.320944592605844
 40
8.856677981478249
 40
8.856677981478249
 40
9.392411370350654
 40
9.392411370350654
 40
9.928144759223059
 40
9.928144759223059
 40
10.46387814809547
 40
10.46387814809547
 40
11.77260074647974
 40
11.77260074647974
 40
12.21787060072593
 40
12.21787060072593
 40
12.21787060072593
 40
12.21787060072593
 10
16.96005452730219
 20
16.60335020816015
 30
0.0
 10
17.39629539343025
 20
16.60335020816015
 30
0.0
 10
17.84431172974485
 20
16.59429458765612
 30
0.0
 10
18.72264804255622
 20
16.55086143248579
 30
0.0
 10
19.15298561384975
 20
16.51639152343728
 30
0.0
 10
19.95840635800653
 20
16.40652864147506
 30
0.0
 10
20.3341576644757
 20
16.33084186910904
 30
0.0
 10
21.00016573593496
 20
16.11870704414881
 30
0.0
 10
21.29058280041159
 20
15.98214363780221
 30
0.0
 10
21.62127028158193
 20
15.73426419140824
 30
0.0
 10
21.71205072936039
 20
15.65243054318893
 30
0.0
 10
21.87246016041286
 20
15.46995185086598
 30
0.0
 10
21.94208084535774
 20
15.36927321111176
 30
0.0
 10
22.05380319676692
 20
15.15262788034517
 30
0.0
 10
22.09596330157899
 20
15.03651370694217
 30
0.0
 10
22.15107846222452
 20
14.79534653921647
 30
0.0
 10
22.16403063381392
 20
14.67028862271519
 30
0.0
 10
22.16403063381392
 20
14.42079484911307
 30
0.0
 10
22.15107846222452
 20
14.28671305726635
 30
0.0
 10
22.09596330157899
 20
14.0076121465562
 30
0.0
 10
22.05380319676692
 20
13.8625967526277
 30
0.0
 10
21.94208084535774
 20
13.57092702803635
 30
0.0
 10
21.87246016041286
 20
13.42411714819275
 30
0.0
 10
21.71205072936039
 20
13.13831756346121
 30
0.0
 10
21.62127028158193
 20
12.99934519668443
 30
0.0
 10
21.29058280041159
 20
12.55023814786705
 30
0.0
 10
21.00016573593496
 20
12.24793506152943
 30
0.0
 10
20.55386293189815
 20
11.88524482318215
 30
0.0
 10
20.43564326731507
 20
11.79682840283203
 30
0.0
 10
20.31308328589864
 20
11.71261954160809
 30
0.0
  0
ELLIPSE
  5
1A523
330
1F
100
AcDbEntity
  8
AM_0
100
AcDbEllipse
 10
16.90785135381395
 20
16.63668361186799
 30
0.0
 11
-3.95551140240269
 21
4.509148123563151
 31
0.0
210
0.0
220
0.0
230
1.0
 40
0.8808196320100978
 41
2.367555558387622
 42
3.011136985607414
  0
ELLIPSE
  5
1A524
330
1F
100
AcDbEntity
  8
AM_0
100
AcDbEllipse
 10
9.961614825151628
 20
10.03045877717102
 30
0.0
 11
0.2494616320999617
 21
0.3126801786330938
 31
0.0
210
0.0
220
0.0
230
1.0
 40
0.9937699626689579
 41
5.301414464181231
 42
7.04674371617539
  0
ELLIPSE
  5
1A525
330
1F
100
AcDbEntity
  8
AM_0
100
AcDbEllipse
 10
8.988088249663178
 20
9.5500349066686
 30
0.0
 11
1.091394640437353
 21
1.36797578151981
 31
0.0
210
0.0
220
0.0
230
1.0
 40
0.9937699626689582
 41
4.595670483698768
 42
6.082493403276904
  0
ELLIPSE
  5
1A526
330
1F
100
AcDbEntity
  8
AM_0
100
AcDbEllipse
 10
8.801049896915629
 20
9.699257326029112
 30
0.0
 11
-2.421846997589003
 21
1.140050107783496
 31
0.0
210
0.0
220
0.0
230
1.0
 40
0.6285286617359939
 41
2.670814678492455
 42
2.888672869380751
  0
LINE
  5
1A528
330
1F
100
AcDbEntity
  8
AM_0
100
AcDbLine
 10
10.63442345359704
 20
7.992787554702233
 30
0.0
 11
10.16321168891841
 21
7.765061168238788
 31
0.0
  0
LINE
  5
1A529
330
1F
100
AcDbEntity
  8
AM_0
100
AcDbLine
 10
21.57434943690578
 20
10.95256241897667
 30
0.0
 11
24.35520908761305
 21
7.782477239026804
 31
0.0
  0
ELLIPSE
  5
1A52A
330
1F
100
AcDbEntity
  8
AM_0
100
AcDbEllipse
 10
4.726264881381894
 20
9.0
 30
0.0
 11
-20.32209754290354
 21
2.96036254474847
 31
0.0
210
0.0
220
0.0
230
1.0
 40
0.3524397423285113
 41
3.788220969394547
 42
3.891120485038123
  0
SPLINE
  5
1A52B
330
1F
100
AcDbEntity
  8
AM_0
100
AcDbSpline
210
0.0
220
0.0
230
1.0
 70
     8
 71
     3
 72
    38
 73
    34
 74
     0
 42
0.0000000001
 43
0.0000000001
 40
0.0
 40
0.0
 40
0.0
 40
0.0
 40
0.5718157009076238
 40
0.5718157009076238
 40
1.143631401815248
 40
1.143631401815248
 40
1.715447102722871
 40
1.715447102722871
 40
2.287262803630495
 40
2.287262803630495
 40
2.85857653112219
 40
2.85857653112219
 40
3.429890258613885
 40
3.429890258613885
 40
4.00120398610558
 40
4.00120398610558
 40
4.572517713597275
 40
4.572517713597275
 40
5.143831441088971
 40
5.143831441088971
 40
5.715145168580667
 40
5.715145168580667
 40
6.286458896072364
 40
6.286458896072364
 40
6.857772623564061
 40
6.857772623564061
 40
7.429588324471673
 40
7.429588324471673
 40
8.001404025379287
 40
8.001404025379287
 40
8.573219726286901
 40
8.573219726286901
 40
9.145035427194515
 40
9.145035427194515
 40
9.145035427194515
 40
9.145035427194515
 10
23.96005453150701
 20
15.51629762742263
 30
0.0
 10
23.76944929787112
 20
15.51629762742263
 30
0.0
 10
23.57306825956528
 20
15.52722475470995
 30
0.0
 10
23.18380737181383
 20
15.571681732017
 30
0.0
 10
22.99091966327694
 20
15.60517085592608
 30
0.0
 10
22.62205888691574
 20
15.68974340241911
 30
0.0
 10
22.44575417040005
 20
15.74082799104809
 30
0.0
 10
22.12015777133161
 20
15.85221309627889
 30
0.0
 10
21.97086370195791
 20
15.91244379195226
 30
0.0
 10
21.70672066498662
 20
16.03234144966021
 30
0.0
 10
21.58251169200514
 20
16.09631060904195
 30
0.0
 10
21.36293605194214
 20
16.22394087483556
 30
0.0
 10
21.26755256788727
 20
16.28754059519176
 30
0.0
 10
21.11383750840059
 20
16.40632523223201
 30
0.0
 10
21.05538378349081
 20
16.46157199619495
 30
0.0
 10
20.9784809485775
 20
16.55801330592527
 30
0.0
 10
20.96005453150701
 20
16.59919088995966
 30
0.0
 10
20.96005453150701
 20
16.66532928172967
 30
0.0
 10
20.9784809485775
 20
16.69233391554306
 30
0.0
 10
21.05538378349081
 20
16.73109114818348
 30
0.0
 10
21.11383750840059
 20
16.74286274243659
 30
0.0
 10
21.26755256788727
 20
16.7522415929314
 30
0.0
 10
21.36293605194214
 20
16.74990133626019
 30
0.0
 10
21.58251169200514
 20
16.73535962867379
 30
0.0
 10
21.70672066498662
 20
16.72322045809497
 30
0.0
 10
21.97086370195802
 20
16.69505871441399
 30
0.0
 10
22.12015777133161
 20
16.6779704240453
 30
0.0
 10
22.44575417040005
 20
16.64282593509228
 30
0.0
 10
22.62205888691574
 20
16.62484712194137
 30
0.0
 10
22.99091966327705
 20
16.5936359268018
 30
0.0
 10
23.18380737181383
 20
16.58044468120596
 30
0.0
 10
23.57306825956539
 20
16.56270396936094
 30
0.0
 10
23.76944929787112
 20
16.55818669342415
 30
0.0
 10
23.96005453150701
 20
16.55818669342415
 30
0.0
  0
ARC
  5
1A52C
330
1F
100
AcDbEntity
  8
AM_0
100
AcDbCircle
 10
25.96005452730216
 20
1.782477239026775
 30
0.0
 40
6.0
100
AcDbArc
 50
47.64120616491997
 51
90.0
  0
SPLINE
  5
1A52D
330
1F
100
AcDbEntity
  8
AM_0
100
AcDbSpline
210
0.0
220
0.0
230
1.0
 70
     8
 71
     3
 72
    32
 73
    28
 74
     0
 42
0.0000000001
 43
0.0000000001
 40
4.045618079636788
 40
4.045618079636788
 40
4.045618079636788
 40
4.045618079636788
 40
5.259382177050171
 40
5.259382177050171
 40
5.845378705947328
 40
5.845378705947328
 40
6.431375234844486
 40
6.431375234844486
 40
7.017371763741644
 40
7.017371763741644
 40
7.603368292638802
 40
7.603368292638802
 40
8.189364821535959
 40
8.189364821535959
 40
8.775361350433116
 40
8.775361350433116
 40
9.361357879330274
 40
9.361357879330274
 40
9.947354408227431
 40
9.947354408227431
 40
11.26219995248998
 40
11.26219995248998
 40
12.57704549675252
 40
12.57704549675252
 40
13.89189104101506
 40
13.89189104101506
 40
14.21346012528928
 40
14.21346012528928
 40
14.21346012528928
 40
14.21346012528928
 10
30.00268129851111
 20
6.216117818584962
 30
0.0
 10
30.29881936988488
 20
5.946096901501704
 30
0.0
 10
30.55804916234979
 20
5.651705989598725
 30
0.0
 10
30.87508287700655
 20
5.198623976786251
 30
0.0
 10
30.97243445181903
 20
5.041527083414451
 30
0.0
 10
31.1441940610805
 20
4.718591575423716
 30
0.0
 10
31.2185971279448
 20
4.552772504433932
 30
0.0
 10
31.33787253013361
 20
4.223441010872051
 30
0.0
 10
31.38280932448947
 20
4.059754887193776
 30
0.0
 10
31.44152745225574
 20
3.744775859608637
 30
0.0
 10
31.45530650066348
 20
3.593486654543966
 30
0.0
 10
31.45530650066348
 20
3.311995111754442
 30
0.0
 10
31.44152745225574
 20
3.170839156529809
 30
0.0
 10
31.38280932448947
 20
2.89851374788779
 30
0.0
 10
31.33787253013361
 20
2.767339451350551
 30
0.0
 10
31.2185971279448
 20
2.522522876698133
 30
0.0
 10
31.1441940610805
 20
2.408717821854282
 30
0.0
 10
30.97243445181903
 20
2.20245300396769
 30
0.0
 10
30.87508287700655
 20
2.10995709263085
 30
0.0
 10
30.54024333522534
 20
1.846094304696436
 30
0.0
 10
30.25528887158191
 20
1.700265780435558
 30
0.0
 10
29.60058384587546
 20
1.470304430132018
 30
0.0
 10
29.23073049575362
 20
1.385973744174066
 30
0.0
 10
28.43531498269681
 20
1.261379194320142
 30
0.0
 10
28.00901270310851
 20
1.220759023119285
 30
0.0
 10
27.46528280094344
 20
1.187334628123381
 30
0.0
 10
27.35781057662166
 20
1.181600700753933
 30
0.0
 10
27.24999999999977
 20
1.176612817244404
 30
0.0
  0
LINE
  5
1A52E
330
1F
100
AcDbEntity
  8
AM_0
100
AcDbLine
 10
26.99999999999977
 20
1.249999999999943
 30
0.0
 11
27.24999999999977
 21
0.9999999999999716
 31
0.0
  0
LINE
  5
1A52F
330
1F
100
AcDbEntity
  8
AM_0
100
AcDbLine
 10
27.24999999999977
 20
0.9999999999999716
 30
0.0
 11
27.24999999999977
 21
1.176612817244404
 31
0.0
  0
SPLINE
  5
1A530
330
1F
100
AcDbEntity
  8
AM_0
100
AcDbSpline
210
0.0
220
0.0
230
1.0
 70
     8
 71
     3
 72
     8
 73
     4
 74
     0
 42
0.0000000001
 43
0.0000000001
 40
1.349977110272202
 40
1.349977110272202
 40
1.349977110272202
 40
1.349977110272202
 40
1.687186803935218
 40
1.687186803935218
 40
1.687186803935218
 40
1.687186803935218
 10
27.24999999999977
 20
1.176612817244404
 30
0.0
 10
27.16513255068651
 20
1.257583934927283
 30
0.0
 10
27.08139151888224
 20
1.338281538792813
 30
0.0
 10
26.99999999999977
 20
1.417402935646948
 30
0.0
  0
SPLINE
  5
1A531
330
1F
100
AcDbEntity
  8
AM_0
100
AcDbSpline
210
0.0
220
0.0
230
1.0
 70
     8
 71
     3
 72
    10
 73
     6
 74
     0
 42
0.0000000001
 43
0.0000000001
 40
0.9770413229207811
 40
0.9770413229207811
 40
0.9770413229207811
 40
0.9770413229207811
 40
0.9806912142757285
 40
0.9806912142757285
 40
1.961382428551457
 40
1.961382428551457
 40
1.961382428551457
 40
1.961382428551457
 10
26.99999999999977
 20
1.417402935646948
 30
0.0
 10
26.99869170254704
 20
1.417354824251589
 30
0.0
 10
26.99738332480285
 20
1.417306814134037
 30
0.0
 10
26.64450507737331
 20
1.404386246713699
 30
0.0
 10
26.28695159872746
 20
1.398977448331777
 30
0.0
 10
25.96005452730219
 20
1.398977448331777
 30
0.0
  0
LINE
  5
1A532
330
1F
100
AcDbEntity
  8
AM_0
100
AcDbLine
 10
26.99999999999977
 20
1.249999999999943
 30
0.0
 11
26.99999999999977
 21
1.417402935646948
 31
0.0
  0
LINE
  5
1A533
330
1F
100
AcDbEntity
  8
AM_0
100
AcDbLine
 10
27.24999999999977
 20
11.78388218141498
 30
0.0
 11
27.24999999999977
 21
15.78258523496842
 31
0.0
  0
LINE
  5
1A534
330
1F
100
AcDbEntity
  8
AM_0
100
AcDbLine
 10
26.99999999999977
 20
10.95256241897673
 30
0.0
 11
26.99999999999977
 21
15.5162976274226
 31
0.0
  0
SPLINE
  5
1A535
330
1F
100
AcDbEntity
  8
AM_0
100
AcDbSpline
210
0.0
220
0.0
230
1.0
 70
    12
 71
     2
 72
     6
 73
     3
 74
     0
 42
0.0000000001
 43
0.0000000001
 40
0.0
 40
0.0
 40
0.0
 40
0.8683077351808665
 40
0.8683077351808665
 40
0.8683077351808665
 10
27.24999999999977
 20
11.78388218141501
 30
0.0
 41
1.0
 10
27.10306055404999
 20
11.36162452430284
 30
0.0
 41
1.001395898062785
 10
26.99999999999977
 20
10.95256241897667
 30
0.0
 41
1.0
  0
SPLINE
  5
1A536
330
1F
100
AcDbEntity
  8
AM_0
100
AcDbSpline
210
0.0
220
0.0
230
1.0
 70
    12
 71
     2
 72
     6
 73
     3
 74
     0
 42
0.0000000001
 43
0.0000000001
 40
0.0
 40
0.0
 40
0.0
 40
0.3682577903369524
 40
0.3682577903369524
 40
0.3682577903369524
 10
27.24999999999977
 20
15.78258523496845
 30
0.0
 41
1.0
 10
27.12267892892623
 20
15.64732803748831
 30
0.0
 41
1.000147402150909
 10
26.99999999999977
 20
15.5162976274226
 30
0.0
 41
1.0
  0
SPLINE
  5
1A537
330
1F
100
AcDbEntity
  8
AM_0
100
AcDbSpline
210
0.0
220
0.0
230
1.0
 70
    12
 71
     2
 72
     6
 73
     3
 74
     0
 42
0.0000000001
 43
0.0000000001
 40
0.0
 40
0.0
 40
0.0
 40
0.3682577903369513
 40
0.3682577903369513
 40
0.3682577903369513
 10
26.99999999999977
 20
16.55818669342415
 30
0.0
 41
1.0
 10
27.12267892892302
 20
16.68921710348599
 30
0.0
 41
1.00014740213481
 10
27.24999999999977
 20
16.82447430097
 30
0.0
 41
1.0
  0
SPLINE
  5
1A538
330
1F
100
AcDbEntity
  8
AM_0
100
AcDbSpline
210
0.0
220
0.0
230
1.0
 70
     8
 71
     3
 72
    38
 73
    34
 74
     0
 42
0.0000000001
 43
0.0000000001
 40
-9.138107654842823
 40
-9.138107654842823
 40
-9.138107654842823
 40
-9.138107654842823
 40
-8.566757165328985
 40
-8.566757165328985
 40
-7.995406675815147
 40
-7.995406675815147
 40
-7.424056186301309
 40
-7.424056186301309
 40
-6.852705696787471
 40
-6.852705696787471
 40
-6.281792729445945
 40
-6.281792729445945
 40
-5.710879762104419
 40
-5.710879762104419
 40
-5.139966794762893
 40
-5.139966794762893
 40
-4.569053827421367
 40
-4.569053827421367
 40
-3.99814086007984
 40
-3.99814086007984
 40
-3.427227892738312
 40
-3.427227892738312
 40
-2.856314925396784
 40
-2.856314925396784
 40
-2.285401958055259
 40
-2.285401958055259
 40
-1.714051468541445
 40
-1.714051468541445
 40
-1.14270097902763
 40
-1.14270097902763
 40
-0.5713504895138151
 40
-0.5713504895138151
 40
0.0
 40
0.0
 40
0.0
 40
0.0
 10
55.96005453150701
 20
16.82447430096994
 30
0.0
 10
56.15050469467826
 20
16.82447430096994
 30
0.0
 10
56.34677972771817
 20
16.82870234917564
 30
0.0
 10
56.73592667523235
 20
16.84530269449027
 30
0.0
 10
56.92880601544027
 20
16.85764522241786
 30
0.0
 10
57.29772059433401
 20
16.88679354184498
 30
0.0
 10
57.47408511078868
 20
16.90355970818743
 30
0.0
 10
57.79981519450712
 20
16.93617720165608
 30
0.0
 10
57.94918251593776
 20
16.95195353906371
 30
0.0
 10
58.21346600545917
 20
16.97763749615763
 30
0.0
 10
58.33772521254741
 20
16.98851814773192
 30
0.0
 10
58.55734623907654
 20
17.00072987162366
 30
0.0
 10
58.65272478063196
 20
17.00200013337349
 30
0.0
 10
58.8063978669511
 20
16.9908573736509
 30
0.0
 10
58.86481450181736
 20
16.97839142503028
 30
0.0
 10
58.94165399511849
 20
16.93872596392237
 30
0.0
 10
58.96005453150701
 20
16.91150802289272
 30
0.0
 10
58.96005453150701
 20
16.84541602530251
 30
0.0
 10
58.94165399511849
 20
16.80448607201427
 30
0.0
 10
58.86481450181725
 20
16.7089939640943
 30
0.0
 10
58.8063978669511
 20
16.65444825961535
 30
0.0
 10
58.65272478063184
 20
16.53741641146803
 30
0.0
 10
58.55734623907642
 20
16.47486958821688
 30
0.0
 10
58.3377252125473
 20
16.34952402565045
 30
0.0
 10
58.21346600545917
 20
16.28678544050104
 30
0.0
 10
57.94918251593765
 20
16.16931679072141
 30
0.0
 10
57.79981519450701
 20
16.11038129809813
 30
0.0
 10
57.47408511078857
 20
16.00150530896343
 30
0.0
 10
57.2977205943339
 20
15.95163247861902
 30
0.0
 10
56.92880601544016
 20
15.86913437237416
 30
0.0
 10
56.73592667523235
 20
15.83650642547374
 30
0.0
 10
56.34677972771817
 20
15.79321280967182
 30
0.0
 10
56.15050469467826
 20
15.78258523496839
 30
0.0
 10
55.96005453150701
 20
15.78258523496839
 30
0.0
  0
ARC
  5
1A5DB
330
1F
100
AcDbEntity
  8
AM_0
100
AcDbCircle
 10
6.163752107580166
 20
6.918572983108845
 30
0.0
 40
0.726
100
AcDbArc
 50
196.9722150900635
 51
283.0277849099318
  0
ARC
  5
1A5DC
330
1F
100
AcDbEntity
  8
AM_0
100
AcDbCircle
 10
6.163752107580166
 20
3.510918388185758
 30
0.0
 40
0.726
100
AcDbArc
 50
76.97221509006819
 51
163.0277849099365
  0
CIRCLE
  5
1A5DD
330
1F
100
AcDbEntity
  8
AM_0
100
AcDbCircle
 10
5.180046958737961
 20
5.214745685647301
 30
0.0
 40
1.706099999999583
  0
CIRCLE
  5
1A5DE
330
1F
100
AcDbEntity
  8
AM_0
100
AcDbCircle
 10
5.180046958737961
 20
5.214745685647301
 30
0.0
 40
2.35
  0
CIRCLE
  5
1A5DF
330
1F
100
AcDbEntity
  8
AM_0
100
AcDbCircle
 10
5.180046958737961
 20
5.214745685647301
 30
0.0
 40
2.8
  0
ARC
  5
1A5E0
330
1F
100
AcDbEntity
  8
AM_0
100
AcDbCircle
 10
3.212636661053892
 20
5.214745685647301
 30
0.0
 40
0.726
100
AcDbArc
 50
316.9722150900669
 51
43.02778490993995
  0
ARC
  5
1A5E1
330
1F
100
AcDbEntity
  8
AM_0
100
AcDbCircle
 10
4.196341809895984
 20
3.510918388185644
 30
0.0
 40
0.726
100
AcDbArc
 50
16.97221509006351
 51
103.0277849099318
  0
ARC
  5
1A5E2
330
1F
100
AcDbEntity
  8
AM_0
100
AcDbCircle
 10
5.180046958738075
 20
3.811145685647603
 30
0.0
 40
0.3024999999998347
100
AcDbArc
 50
196.9722150900666
 51
343.0277849099334
  0
ARC
  5
1A5E3
330
1F
100
AcDbEntity
  8
AM_0
100
AcDbCircle
 10
3.964493701986356
 20
4.51294568564748
 30
0.0
 40
0.3024999999998347
100
AcDbArc
 50
136.9722150900601
 51
283.0277849099381
  0
ARC
  5
1A5E4
330
1F
100
AcDbEntity
  8
AM_0
100
AcDbCircle
 10
4.196341809895984
 20
6.918572983108959
 30
0.0
 40
0.726
100
AcDbArc
 50
256.9722150900682
 51
343.0277849099365
  0
ARC
  5
1A5E5
330
1F
100
AcDbEntity
  8
AM_0
100
AcDbCircle
 10
5.180046958738075
 20
6.618345685647057
 30
0.0
 40
0.3024999999998347
100
AcDbArc
 50
16.97221509006655
 51
163.0277849099334
  0
ARC
  5
1A5E6
330
1F
100
AcDbEntity
  8
AM_0
100
AcDbCircle
 10
3.964493701986356
 20
5.916545685647236
 30
0.0
 40
0.3024999999998347
100
AcDbArc
 50
76.97221509006819
 51
223.0277849099423
  0
ARC
  5
1A5E7
330
1F
100
AcDbEntity
  8
AM_0
100
AcDbCircle
 10
7.147457256422257
 20
5.214745685647301
 30
0.0
 40
0.726
100
AcDbArc
 50
136.9722150900669
 51
223.0277849099331
  0
ARC
  5
1A5E8
330
1F
100
AcDbEntity
  8
AM_0
100
AcDbCircle
 10
6.395600215489679
 20
4.51294568564748
 30
0.0
 40
0.3024999999998347
100
AcDbArc
 50
256.9722150900619
 51
43.02778490993995
  0
ARC
  5
1A5E9
330
1F
100
AcDbEntity
  8
AM_0
100
AcDbCircle
 10
6.395600215489679
 20
5.916545685647236
 30
0.0
 40
0.3024999999998347
100
AcDbArc
 50
316.9722150900669
 51
103.0277849099453
  0
LINE
  5
1A5EA
330
1F
100
AcDbEntity
  8
AM_7
  6
AM_ISO08W050x2
100
AcDbLine
 10
5.180046958737989
 20
10.56474568564727
 30
0.0
 11
5.180046958737989
 21
-0.1352543143527214
 31
0.0
1001
GENIUS_GENODEF_13
1002
{
1000
HIER
1070
     0
1002
}
1002
{
1000
MANEDIT
1070
     0
1002
}
1002
{
1000
NOSEL
1070
     0
1002
}
1002
{
1000
BEHIND
1070
     0
1002
}
1002
{
1000
REACTOR
1002
}
1001
GENIUS_GENOBJ-N-CEN_13
1002
{
1000
OWNER
1000
GEN
1002
}
  0
LINE
  5
1A5EB
330
1F
100
AcDbEntity
  8
AM_7
  6
AM_ISO08W050x2
100
AcDbLine
 10
10.53004695873801
 20
5.214745685647273
 30
0.0
 11
-0.1699530412620334
 21
5.214745685647273
 31
0.0
1001
GENIUS_GENODEF_13
1002
{
1000
HIER
1070
     0
1002
}
1002
{
1000
MANEDIT
1070
     0
1002
}
1002
{
1000
NOSEL
1070
     0
1002
}
1002
{
1000
BEHIND
1070
     0
1002
}
1002
{
1000
REACTOR
1002
}
1001
GENIUS_GENOBJ-N-CEN_13
1002
{
1000
OWNER
1000
GEN
1002
}
  0
LINE
  5
1A5FD
330
1F
100
AcDbEntity
  8
AM_5
100
AcDbLine
 10
-2.570757848202675
 20
0.0
 30
0.0
 11
0.3960510210162056
 21
0.0
 31
0.0
  0
LINE
  5
1A5FE
330
1F
100
AcDbEntity
  8
AM_5
100
AcDbLine
 10
0.0
 20
-3.141916874376904
 30
0.0
 11
0.0
 21
0.3966011501370019
 31
0.0
  0
CIRCLE
  5
1A600
330
1F
100
AcDbEntity
  8
AM_11
  6
ACJISTGB
100
AcDbCircle
 10
-57.26307074641505
 20
9.125000000000114
 30
0.0
 40
9.0
  0
DIMENSION
  5
1A601
330
1F
100
AcDbEntity
  8
AM_5
100
AcDbDimension
  2
*D7
 10
-51.00649570472459
 20
2.655435196421795
 30
0.0
 11
-79.67938381601104
 21
25.75543413889948
 31
0.0
 70
    35
  1
最小加工径\P<>
 71
     5
 42
18.00000000000006
  3
AM_JIS$3
100
AcDbDiametricDimension
 15
-63.51964578810524
 25
15.59456480357825
 35
0.0
 40
0.0
1001
ACAD
1000
DSTYLE
1002
{
1070
   271
1070
     0
1070
   288
1070
     1
1070
   289
1070
     3
1070
   172
1070
     1
1070
    74
1070
     1
1002
}
1001
GENIUS_GENDTOL_13
1000

1000
h7
1000

1040
0.0
  0
SPLINE
  5
1A602
330
1F
100
AcDbEntity
  8
AM_11
  6
ACJISTGB
100
AcDbSpline
210
0.0
220
0.0
230
1.0
 70
     8
 71
     3
 72
    10
 73
     6
 74
     4
 42
0.0000000001
 43
0.0000000001
 44
0.0000000001
 40
0.0
 40
0.0
 40
0.0
 40
0.0
 40
3.611293456373466
 40
9.398744622703468
 40
11.55174305206971
 40
11.55174305206971
 40
11.55174305206971
 40
11.55174305206971
 10
25.00090610714187
 20
-83.75393550969463
 30
0.0
 10
24.03030703441322
 20
-84.46838089003893
 30
0.0
 10
21.50422796445848
 20
-86.32779490826982
 30
0.0
 10
18.06726039923228
 20
-88.09083483212855
 30
0.0
 10
15.76170698033577
 20
-89.38953367744369
 30
0.0
 10
15.13657198893748
 20
-89.74166695912825
 30
0.0
 11
25.00090610714187
 21
-83.75393550969463
 31
0.0
 11
22.04920183188926
 21
-85.83453213073901
 31
0.0
 11
17.01616407190829
 21
-88.69164989332077
 31
0.0
 11
15.13657198893748
 21
-89.74166695912825
 31
0.0
  0
LINE
  5
1A60A
330
1F
100
AcDbEntity
  8
AM_5
100
AcDbLine
 10
0.0000073976090107
 20
-91.22595612109714
 30
0.0
 11
-8.038635261219724
 21
-90.52266601831374
 31
0.0
  0
TEXT
  5
1A90E
330
1F
100
AcDbEntity
  8
AM_0
100
AcDbText
 10
17.90368197136979
 20
-139.2884201690282
 30
0.0
 40
5.0
  1
XBPC-316RH18
 41
0.8834717506327637
100
AcDbText
  0
LINE
  5
1B1AE
330
1F
100
AcDbEntity
  8
AM_0
100
AcDbLine
 10
-58.38038077568285
 20
9.391883782949179
 30
0.0
 11
-56.6636191558481
 21
9.574029918387197
 31
0.0
  0
LINE
  5
1B1AF
330
1F
100
AcDbEntity
  8
AM_0
100
AcDbLine
 10
-60.41016998733528
 20
1.248748770682113
 30
0.0
 11
-59.89487211842356
 21
9.52362918718913
 31
0.0
  0
ARC
  5
1B1B0
330
1F
100
AcDbEntity
  8
AM_0
100
AcDbCircle
 10
-57.26307074641505
 20
8.999999999999943
 30
0.0
 40
8.250000000000028
100
AcDbArc
 50
181.7365015759396
 51
247.6324950730255
  0
ELLIPSE
  5
1B1B1
330
1F
100
AcDbEntity
  8
AM_0
100
AcDbEllipse
 10
-44.07502898421728
 20
-11.06131644585466
 30
0.0
 11
-1.906990375288942
 21
26.53458580992865
 31
4.302581068690436E-17
210
1.159352675951529E-19
220
-1.613167190702004E-18
230
1.0
 40
0.540549125524821
 41
0.802904318787056
 42
0.9865097708041377
  0
LINE
  5
1B1B2
330
1F
100
AcDbEntity
  8
AM_0
100
AcDbLine
 10
-59.89487211842356
 20
9.52362918718913
 30
0.0
 11
-58.38038077568263
 21
9.391883782949122
 31
0.0
  0
LINE
  5
1B1B3
330
1F
100
AcDbEntity
  8
AM_0
100
AcDbLine
 10
-54.97562635141605
 20
8.339573770714452
 30
0.0
 11
-55.71785853130382
 21
6.628597524518028
 31
0.0
  0
ELLIPSE
  5
1B1B4
330
1F
100
AcDbEntity
  8
AM_0
100
AcDbEllipse
 10
-55.24494534588416
 20
9.301682283781901
 30
0.0
 11
-0.709704455024138
 21
-1.690605382464957
 31
-7.340574262134712E-17
210
-1.549644969410060E-17
220
-3.691449458500708E-17
230
0.9999999999999999
 40
0.3743855657699222
 41
1.129653812242778
 42
3.972719368269434
  0
ELLIPSE
  5
1B1B5
330
1F
100
AcDbEntity
  8
AM_0
100
AcDbEllipse
 10
-62.71644727908301
 20
9.824257326029198
 30
0.0
 11
-8.784037033887811
 21
0.7765345932755754
 31
-1.079191562819447E-16
210
-1.219055650361099E-17
220
1.077680888618095E-18
230
1.0
 40
0.1976346967763815
 41
2.448596903765268
 42
2.666455094653604
  0
LINE
  5
1B1B6
330
1F
100
AcDbEntity
  8
AM_0
100
AcDbLine
 10
-56.05661805297063
 20
8.117787554702289
 30
0.0
 11
-56.76072740286099
 21
8.014622864783206
 31
0.0
  0
ARC
  5
1B1B7
330
1F
100
AcDbEntity
  8
AM_0
100
AcDbCircle
 10
-57.26307074641505
 20
8.499999999999943
 30
0.0
 40
8.25
100
AcDbArc
 50
143.0283670153223
 51
178.2634984240669
  0
LINE
  5
1B1B8
330
1F
100
AcDbEntity
  8
AM_0
100
AcDbLine
 10
-53.06779182471666
 20
15.51629762742262
 30
0.0
 11
-53.02083813487798
 21
15.78258523496841
 31
0.0
  0
ARC
  5
1B1B9
330
1F
100
AcDbEntity
  8
AM_0
100
AcDbCircle
 10
-57.26307074641505
 20
8.999999999999943
 30
0.0
 40
7.999999999999989
100
AcDbArc
 50
57.97568716295761
 51
102.0243128370422
  0
LINE
  5
1B1BA
330
1F
100
AcDbEntity
  8
AM_0
100
AcDbLine
 10
-58.97445977524069
 20
16.57054196395872
 30
0.0
 11
-58.92968465295121
 21
16.82447430096995
 31
0.0
  0
LINE
  5
1B1BB
330
1F
100
AcDbEntity
  8
AM_0
100
AcDbLine
 10
-49.763070746415
 20
10.95256241897661
 30
0.0
 11
-49.763070746415
 21
7.782477239026747
 31
0.0
  0
LINE
  5
1B1BC
330
1F
100
AcDbEntity
  8
AM_0
100
AcDbLine
 10
-49.763070746415
 20
11.78388218141501
 30
0.0
 11
-49.763070746415
 21
10.95256241897667
 31
0.0
  0
ARC
  5
1B1BD
330
1F
100
AcDbEntity
  8
AM_0
100
AcDbCircle
 10
-49.76307074641503
 20
1.782477239026719
 30
0.0
 40
6.0
100
AcDbArc
 50
89.99999999999839
 51
183.6646513580672
  0
ARC
  5
1B1BE
330
1F
100
AcDbEntity
  8
AM_0
100
AcDbCircle
 10
-57.26318450520824
 20
9.00013156436637
 30
0.0
 40
8.000152431769006
100
AcDbArc
 50
282.0622291833467
 51
339.6352653526135
  0
LINE
  5
1B1BF
330
1F
100
AcDbEntity
  8
AM_0
100
AcDbLine
 10
-55.66270806360376
 20
1.416900530477136
 30
0.0
 11
-55.59304641727476
 21
1.176125230753343
 31
0.0
  0
ARC
  5
1B1C0
330
1F
100
AcDbEntity
  8
AM_0
100
AcDbCircle
 10
-57.25832043262068
 20
8.924809040610796
 30
0.0
 40
7.674768524784233
100
AcDbArc
 50
270.5701396017212
 51
276.717956380642
  0
ARC
  5
1B1C1
330
1F
100
AcDbEntity
  8
AM_0
100
AcDbCircle
 10
-57.26307074641505
 20
8.999999999999943
 30
0.0
 40
7.750000000000028
100
AcDbArc
 50
276.6878055681673
 51
281.2524012266067
  0
LINE
  5
1B1C2
330
1F
100
AcDbEntity
  8
AM_0
100
AcDbLine
 10
-55.75078394658203
 20
1.398888733038149
 30
0.0
 11
-55.66096382535204
 21
1.417365269230828
 31
0.0
  0
ARC
  5
1B1C3
330
1F
100
AcDbEntity
  8
AM_0
100
AcDbCircle
 10
-57.26307074641505
 20
8.999999999999943
 30
0.0
 40
7.750000000000028
100
AcDbArc
 50
14.59255060203204
 51
20.48825856234994
  0
LINE
  5
1B1C4
330
1F
100
AcDbEntity
  8
AM_0
100
AcDbLine
 10
-56.24791352397688
 20
12.99943554007407
 30
0.0
 11
-63.85427104443875
 21
13.46171126037493
 31
0.0
  0
ARC
  5
1B1C5
330
1F
100
AcDbEntity
  8
AM_0
100
AcDbCircle
 10
-57.26307074641505
 20
8.499999999999943
 30
0.0
 40
8.25
100
AcDbArc
 50
89.99999999999839
 51
143.0283670153223
  0
ARC
  5
1B1C6
330
1F
100
AcDbEntity
  8
AM_0
100
AcDbCircle
 10
-57.26307074641505
 20
8.999999999999943
 30
0.0
 40
7.750000000000027
100
AcDbArc
 50
78.83613123133443
 51
90.0
  0
LINE
  5
1B1C7
330
1F
100
AcDbEntity
  8
AM_0
100
AcDbLine
 10
-55.23503680880538
 20
10.63646431592255
 30
0.0
 11
-55.23411943399265
 21
10.63749714619539
 31
0.0
  0
ELLIPSE
  5
1B1C8
330
1F
100
AcDbEntity
  8
AM_0
100
AcDbEllipse
 10
-41.36902313737653
 20
11.36421058648384
 30
0.0
 11
15.29791737712665
 21
1.605828847969769
 31
-2.258236830956695E-16
210
1.460084358013904E-17
220
1.532656717099182E-18
230
1.0
 40
0.1087062323196967
 41
2.693925586260201
 42
3.063817255473398
  0
ELLIPSE
  5
1B1C9
330
1F
100
AcDbEntity
  8
AM_0
100
AcDbEllipse
 10
-41.29453316482409
 20
11.98153256864507
 30
0.0
 11
-5.239240699141711
 21
-26.04351516609389
 31
-1.091932474825344E-16
210
-8.106533844704923E-19
220
-4.029641874701656E-18
230
1.0
 40
0.5609080227466815
 41
4.785904999547499
 42
4.916733836273152
  0
ELLIPSE
  5
1B1CA
330
1F
100
AcDbEntity
  8
AM_0
100
AcDbEllipse
 10
-41.28519767465105
 20
12.05889873083558
 30
0.0
 11
-15.08159185239541
 21
0.0009662735101526215
 31
-1.992950565178764E-18
210
-1.321445757518827E-19
220
8.466467221039381E-24
230
1.0
 40
0.4972951979648897
 41
5.92665074742112
 42
6.157578248198525
  0
ARC
  5
1B1CB
330
1F
100
AcDbEntity
  8
AM_0
100
AcDbCircle
 10
-57.26310788804204
 20
8.999956262632907
 30
0.0
 40
7.750050100997505
100
AcDbArc
 50
20.48846534755242
 51
78.83592444613245
  0
ARC
  5
1B1CC
330
1F
100
AcDbEntity
  8
AM_0
100
AcDbCircle
 10
-49.76010457487578
 20
16.68389073516764
 30
0.0
 40
6.003268008508317
100
AcDbArc
 50
199.5246772926248
 51
211.4345553171605
  0
ARC
  5
1B1CD
330
1F
100
AcDbEntity
  8
AM_0
100
AcDbCircle
 10
-49.76307074641503
 20
16.68247723902672
 30
0.0
 40
6.0
100
AcDbArc
 50
180.7556293898189
 51
199.5214220882908
  0
ARC
  5
1B1CE
330
1F
100
AcDbEntity
  8
AM_0
100
AcDbCircle
 10
-49.76307074641503
 20
16.68247723902672
 30
0.0
 40
6.0
100
AcDbArc
 50
211.4378105214958
 51
251.9814286667045
  0
ARC
  5
1B1D0
330
1F
100
AcDbEntity
  8
AM_0
100
AcDbCircle
 10
-57.26307074641505
 20
8.999999999999943
 30
0.0
 40
7.999999999999996
100
AcDbArc
 50
20.3641348063165
 51
57.97568716295761
  0
ARC
  5
1B1D1
330
1F
100
AcDbEntity
  8
AM_0
100
AcDbCircle
 10
-57.26307074641505
 20
8.999999999999943
 30
0.0
 40
7.999999999999996
100
AcDbArc
 50
102.0243128370422
 51
151.5388669134974
  0
ARC
  5
1B1D2
330
1F
100
AcDbEntity
  8
AM_0
100
AcDbCircle
 10
-57.26307074641505
 20
8.999999999999943
 30
0.0
 40
7.999999999999996
100
AcDbArc
 50
270.4694126701953
 51
282.0616293422783
  0
LINE
  5
1B1D3
330
1F
100
AcDbEntity
  8
AM_0
100
AcDbLine
 10
-49.763070746415
 20
7.782477239026747
 30
0.0
 11
-49.763070746415
 21
6.216117818584934
 31
0.0
  0
ELLIPSE
  5
1B1D4
330
1F
100
AcDbEntity
  8
AM_0
100
AcDbEllipse
 10
-49.6338789602263
 20
16.63668361186792
 30
0.0
 11
2.003969661785512
 21
5.653546926436009
 31
-1.670084574199823E-16
210
9.302222174081620E-18
220
2.624318650335581E-17
230
1.0
 40
0.3559172097403943
 41
3.150905754302615
 42
3.794487181522411
  0
LINE
  5
1B1D5
330
1F
100
AcDbEntity
  8
AM_0
100
AcDbLine
 10
-59.91320365403112
 20
9.22925330450866
 30
0.0
 11
-60.43433104449764
 21
0.8607598601570032
 31
0.0
  0
LINE
  5
1B1D6
330
1F
100
AcDbEntity
  8
AM_0
100
AcDbLine
 10
-60.43433104449764
 20
0.8607598601570032
 30
0.0
 11
-61.01049054278462
 21
1.650214637842936
 31
0.0
  0
LINE
  5
1B1D7
330
1F
100
AcDbEntity
  8
AM_0
100
AcDbLine
 10
-59.31502557285478
 20
0.5419704596132249
 30
0.0
 11
-60.43433104449764
 21
0.8607598601570032
 31
0.0
  0
LINE
  5
1B1D8
330
1F
100
AcDbEntity
  8
AM_0
100
AcDbLine
 10
-56.6636191558481
 20
9.574029918387083
 30
0.0
 11
-59.91320365403112
 21
9.22925330450866
 31
0.0
  0
LINE
  5
1B1D9
330
1F
100
AcDbEntity
  8
AM_0
100
AcDbLine
 10
-57.23295654691538
 20
0.431359024603438
 30
0.0
 11
-56.6636191558481
 21
9.574029918387083
 31
0.0
  0
LINE
  5
1B1DA
330
1F
100
AcDbEntity
  8
AM_0
100
AcDbLine
 10
-59.31502557320948
 20
0.5419704597142925
 30
0.0
 11
-57.29851998654021
 21
0.0000118928343511
 31
0.0
  0
ELLIPSE
  5
1B1DB
330
1F
100
AcDbEntity
  8
AM_0
100
AcDbEllipse
 10
-57.27002427224977
 20
0.3989380880707074
 30
0.0
 11
0.02790879336188582
 21
0.3990251862390188
 31
2.192532217119082E-17
210
-3.824433036678362E-18
220
-5.467972351693687E-17
230
1.0
 40
0.0871210716637074
 41
3.124592578165476
 42
4.799820866696913
  0
DIMENSION
  5
1C5E4
330
1F
100
AcDbEntity
  8
AM_5
100
AcDbDimension
  2
*D8
 10
153.6686900870427
 20
-91.25393550969466
 30
0.0
 11
-12.09701508087321
 21
-91.25393550969457
 31
0.0
 70
   162
  1
<>
 71
     5
 42
0.0872664625997159
  3
AM_JIS$2
100
AcDb2LineAngularDimension
 13
0.0000073976090107
 23
-91.22595612109714
 33
0.0
 14
-8.038635261219724
 24
-90.52266601831374
 34
0.0
 15
-1.773854710452724
 25
-91.2539355096946
 35
0.0
 16
-11.0776996142549
 26
-90.59010597837714
 36
0.0
1001
ACAD
1000
DSTYLE
1002
{
1070
   279
1070
     1
1002
}
  0
LINE
  5
1C890
330
1F
100
AcDbEntity
  8
AM_0
100
AcDbLine
 10
0.8015286264504766
 20
9.575570155649075
 30
0.0
 11
1.102773193262692
 21
13.01881131023555
 31
0.0
  0
DIMENSION
  5
1C8A1
330
1F
100
AcDbEntity
  8
AM_5
100
AcDbDimension
  2
*D9
 10
-8.203858857571163
 20
9.000000000000002
 30
0.0
 11
-11.60385885757117
 21
4.500000000000001
 31
0.0
 70
    32
 71
     5
 42
9.0
  3
AM_JIS$0
100
AcDbAlignedDimension
 13
-2.570757848202675
 23
0.0
 33
0.0
 14
-2.16554845196606
 24
9.0
 34
0.0
 50
90.0
100
AcDbRotatedDimension
1001
ACAD
1000
DSTYLE
1002
{
1070
   271
1070
     0
1002
}
  0
DIMENSION
  5
1C8D9
330
1F
100
AcDbEntity
  8
AM_5
100
AcDbDimension
  2
*D10
 10
0.8014021413591763
 20
9.574124424439873
 30
0.0
 11
-15.69277751975775
 21
17.08612863420285
 31
0.0
 70
    34
 71
     5
 42
1.658062789394621
  3
AM_JIS$2
100
AcDb2LineAngularDimension
 13
-2.570757848202675
 23
0.0
 33
0.0
 14
0.3960510210162056
 24
0.0
 34
0.0
 15
0.0015220838046162
 25
0.4314535306562277
 35
0.0
 16
-8.911062422030039
 26
17.67125378350406
 36
0.0
1001
ACAD
1000
DSTYLE
1002
{
1070
   179
1070
     0
1070
   271
1070
     0
1002
}
  0
DIMENSION
  5
1C998
330
1F
100
AcDbEntity
  8
AM_5
100
AcDbDimension
  2
*D11
 10
200.0000000000001
 20
-43.70154348178417
 30
0.0
 11
100.0
 21
-40.30116946603614
 31
0.0
 70
    32
 71
     5
 42
200.0000000000001
  3
AM_JIS$0
100
AcDbAlignedDimension
 13
0.0
 23
-3.141916874376904
 33
0.0
 14
200.0000000000001
 24
1.999999999999972
 34
0.0
100
AcDbRotatedDimension
1001
ACAD
1000
DSTYLE
1002
{
1070
   179
1070
     0
1070
   271
1070
     0
1002
}
  0
ENDSEC
  0
SECTION
  2
OBJECTS
  0
DICTIONARY
  5
C
330
0
100
AcDbDictionary
281
     1
  3
ACAD_COLOR
350
19EA7
  3
ACAD_GROUP
350
D
  3
ACAD_LAYOUT
350
1A
  3
ACAD_MATERIAL
350
19EA6
  3
ACAD_MLINESTYLE
350
17
  3
ACAD_PLOTSETTINGS
350
19
  3
ACAD_PLOTSTYLENAME
350
E
  3
ACAD_TABLESTYLE
350
19EA8
  3
AcAmCatalogState
350
19F0F
  3
ACDBHEADERROUNDTRIPXREC
350
1CC29
  3
AcDbVariableDictionary
350
30
  3
ACDMSYSVARMGR
350
19EC2
  3
ACGREF_MASTER
350
19EBA
  3
ACGREFACAD_MASTER
350
19EE2
  3
AcmDictionary
350
4D
  3
ACME_BOM_MANAGER_NAME
350
36
  3
ACME_COMMAND_HISTORY
350
2F
  3
ACME_SCOPE_NAME
350
2E
  3
ACMESTATEMGR
350
3B
  3
AcmeSysVarManager
350
32
  3
AcmSystemVariableManager
350
6A
  3
AD_APPL
350
19EED
  3
ADSYSVARMGR
350
19EEC
  3
AmdtNamedDwgMgr
350
19EDD
  3
AMG
350
3F
  3
AMGSNAPSETTINGS
350
73
  3
AMI_MASTER
350
19EE5
  3
ASE_INDEX_DICTIONARY
350
1C6F1
  3
AUTOCAD_ASSEMBLIES_PROJECT
350
19EF5
  3
Designer_Assemblies_SysVars
350
19EF0
  3
DWGPROPS
350
1CC2C
  3
eng_data
350
2A40
  3
FILENAME
350
2916
  3
GREFAM_MODULE
350
19EE6
  3
line_dic_data
350
2A3E
  3
table_dic_data
350
1688
  3
ZWKSIZE
350
2918
  0
DICTIONARY
  5
1A8DF
330
2
100
AcDbDictionary
280
     1
281
     1
  3
ACAD_LAYERSTATES
360
1A8E0
  0
DICTIONARY
  5
165
330
1F
100
AcDbDictionary
280
     1
281
     1
  3
ACAD_SORTENTS
360
1B525
  0
DICTIONARY
  5
19EA7
102
{ACAD_REACTORS
330
C
102
}
330
C
100
AcDbDictionary
281
     1
  0
DICTIONARY
  5
D
102
{ACAD_REACTORS
330
C
102
}
330
C
100
AcDbDictionary
281
     1
  0
DICTIONARY
  5
1A
102
{ACAD_REACTORS
330
C
102
}
330
C
100
AcDbDictionary
281
     1
  3
Model
350
22
  3
ﾚｲｱｳﾄ1
350
1E
  3
ﾚｲｱｳﾄ2
350
26
  0
DICTIONARY
  5
19EA6
102
{ACAD_REACTORS
330
C
102
}
330
C
100
AcDbDictionary
281
     1
  0
DICTIONARY
  5
17
102
{ACAD_REACTORS
330
C
102
}
330
C
100
AcDbDictionary
281
     1
  3
Standard
350
18
  0
DICTIONARY
  5
19
102
{ACAD_REACTORS
330
C
102
}
330
C
100
AcDbDictionary
281
     1
  0
ACDBDICTIONARYWDFLT
  5
E
102
{ACAD_REACTORS
330
C
102
}
330
C
100
AcDbDictionary
281
     1
  3
Normal
350
F
100
AcDbDictionaryWithDefault
340
F
  0
DICTIONARY
  5
19EA8
102
{ACAD_REACTORS
330
C
102
}
330
C
100
AcDbDictionary
281
     1
  3
Standard
350
19EA9
  0
ACAD_PROXY_OBJECT
  5
19F0F
102
{ACAD_REACTORS
330
C
102
}
330
C
100
AcDbProxyObject
 90
      499
 91
      571
 95
       25
 70
     0
 93
      336
310
3FFFFFFFE00A02814028EA31D2E20A1A0A226991818182E4B34482AC8E746FA41B7C1A1C1B3A7A4400AA
  0
DICTIONARY
  5
1CC29
102
{ACAD_REACTORS
330
C
102
}
330
C
100
AcDbDictionary
281
     1
  3
COLORDICT
350
1CC2A
  3
MATERIALDICT
350
1CC2B
  0
DICTIONARY
  5
30
102
{ACAD_REACTORS
330
C
102
}
330
C
100
AcDbDictionary
281
     1
  3
CTABLESTYLE
350
1A8D9
  3
HIDETEXT
350
1CC28
  3
INDEXCTL
350
1CC27
  0
ACAD_PROXY_OBJECT
  5
19EC2
102
{ACAD_REACTORS
330
C
102
}
330
C
100
AcDbProxyObject
 90
      499
 91
      507
 95
       25
 70
     0
 93
      240
310
4C51A47A0000000000000000000000000000000000000000000000000000
330
19EC3
330
19EC4
330
19EC5
330
19EC6
330
19EC7
330
19EC8
330
19EC9
330
19ECA
330
19ECB
330
19ECC
330
19ECD
330
19ECE
330
19ECF
330
19ED0
330
19ED1
330
19ED2
330
19ED3
330
19ED4
330
19ED5
330
19ED6
330
19ED7
330
19ED8
330
19ED9
330
19EDA
330
19EDB
330
19EDC
 94
        0
  0
ACAD_PROXY_OBJECT
  5
19EBA
102
{ACAD_REACTORS
330
C
102
}
330
C
100
AcDbProxyObject
 90
      499
 91
      535
 95
       25
 70
     0
 93
       34
310
0400004280
  0
ACAD_PROXY_OBJECT
  5
19EE2
102
{ACAD_REACTORS
330
C
102
}
330
C
100
AcDbProxyObject
 90
      499
 91
      541
 95
       25
 70
     0
 93
      114
310
04000041C080000000000000000000
  0
DICTIONARY
  5
4D
102
{ACAD_REACTORS
330
C
102
}
330
C
100
AcDbDictionary
281
     1
  3
AcmBOMDATA
350
4E
  3
AcmStdDictionary
350
17E
  3
AMDTSECTSYM_ARROWCOLOR
350
19F03
  0
ACAD_PROXY_OBJECT
  5
36
102
{ACAD_REACTORS
330
C
102
}
330
C
100
AcDbProxyObject
 90
      499
 91
      510
 95
       25
 70
     0
 93
       50
310
00010040400000
330
0
330
0
330
37
 94
        0
  0
ACAD_PROXY_OBJECT
  5
2F
102
{ACAD_REACTORS
330
C
102
}
330
C
100
AcDbProxyObject
 90
      499
 91
      505
 95
       25
 70
     0
 93
     5728
310
4780504554E444F805054552415345805055153415645404052D4D5347202D205050413A2020206465736B746F702E6172782046696C6556657273696F6E3A20392E322E302E3401411693D3D36014194D1531150D5101014B5354D1C80B481414104E88080819195CDADD1BDC0B985C9E08119A5B1955995C9CDA5BDB8E88
310
0E4B8C8B8C0B8D0050E414D4454524553455444424D4F4440805084E202D20554E444F014213880B4815539113C0504554E444F80504554E444F80505505552474580505505552474540405184D5347202D20436F6D6D616E642043414E43454C4C45442E01415454D05591501014B5354D1C80B481414104E88080819195C
310
DADD1BDC0B985C9E08119A5B1955995C9CDA5BDB8E880E4B8C8B8C0B8D0050E414D4454524553455444424D4F4440805084E202D20554E444F014213880B4815539113C0504554E444F80504554E444F805055153415645404052D4D5347202D205050413A2020206465736B746F702E6172782046696C6556657273696F6E
310
3A20392E322E302E34014390535115149154D15511109353D1102014213880B4815539113C05084E202D20554E444F014115539113E014115539113E01419493D510551160142111493D411D153D36014311D4925417D4D514915510D22014311D4925417D4D514915510D22014311D4925417D4D514915510D22014311D49
310
25417D4D514915510D22014311D4925417D4D514915510D210201461354D1C80B4810DBDB5B585B990810D05390D1531311510B8052D4D5347202D205050413A2020206465736B746F702E6172782046696C6556657273696F6E3A20392E322E302E34014115539113D0101461354D1C80B4810DBDB5B585B990810D05390D
310
1531311510B80504554E444F805044D4F5645805045A4F4F4D805055153415645404052D4D5347202D205050413A2020206465736B746F702E6172782046696C6556657273696F6E3A20392E322E302E34
  0
ACAD_PROXY_OBJECT
  5
2E
102
{ACAD_REACTORS
330
C
102
}
330
C
100
AcDbProxyObject
 90
      499
 91
      504
 95
       25
 70
     0
 93
      586
310
09000046408000000000000000001344E200000000000000000000000000000000000000000000000000000000000000000000000000000000000000000000000000000000AAA406AA80
360
33
360
34
360
35
360
37
360
6B
360
6C
360
19EBB
360
19EBC
360
19EBD
360
19EBE
360
19EBF
360
19EC0
360
19EC3
360
19EC4
360
19EC5
360
19EC6
360
19EC7
360
19EC8
360
19EC9
360
19ECA
360
19ECB
360
19ECC
360
19ECD
360
19ECE
360
19ECF
360
19ED0
360
19ED1
360
19ED2
360
19ED3
360
19ED4
360
19ED5
360
19ED6
360
19ED7
360
19ED8
360
19ED9
360
19EDA
360
19EDB
360
19EDC
360
19EE8
360
19EE9
360
19EEA
360
19EEB
360
19EF1
360
19EF2
360
19EF3
360
19EF4
360
19EF9
360
19EFA
360
19EFB
360
19EFC
360
19EFD
360
19EFE
 94
        0
  0
ACAD_PROXY_OBJECT
  5
3B
102
{ACAD_REACTORS
330
C
102
}
330
C
100
AcDbProxyObject
 90
      499
 91
      515
 95
       25
 70
     0
 93
       50
310
09000042641280
  0
ACAD_PROXY_OBJECT
  5
32
102
{ACAD_REACTORS
330
C
102
}
330
C
100
AcDbProxyObject
 90
      499
 91
      507
 95
       25
 70
     0
 93
       48
310
903412000000
330
33
330
34
330
35
 94
        0
  0
ACAD_PROXY_OBJECT
  5
6A
102
{ACAD_REACTORS
330
C
102
}
330
C
100
AcDbProxyObject
 90
      499
 91
      507
 95
       25
 70
     0
 93
       40
310
90240E0000
330
6B
330
6C
 94
        0
  0
ACAD_PROXY_OBJECT
  5
19EED
102
{ACAD_REACTORS
330
C
102
}
330
C
100
AcDbProxyObject
 90
      499
 91
      551
 95
       25
 70
     0
 93
       42
310
000900004040
330
19EE8
 94
        0
  0
ACAD_PROXY_OBJECT
  5
19EEC
102
{ACAD_REACTORS
330
C
102
}
330
C
100
AcDbProxyObject
 90
      499
 91
      507
 95
       25
 70
     0
 93
        8
310
AA
  0
ACAD_PROXY_OBJECT
  5
19EDD
102
{ACAD_REACTORS
330
C
102
}
330
C
100
AcDbProxyObject
 90
      499
 91
      540
 95
       25
 70
     0
 93
       42
310
000100005E80
330
19EBB
 94
        0
  0
DICTIONARY
  5
3F
102
{ACAD_REACTORS
330
C
102
}
330
C
100
AcDbDictionary
281
     1
  3
AcMgSettings
350
40
  3
AMGLAYCFG
350
42
  0
DICTIONARY
  5
73
102
{ACAD_REACTORS
330
C
102
}
330
C
100
AcDbDictionary
281
     1
  3
DIMENSION
350
62F
  3
FEA
350
630
  3
HATCH (1)
350
631
  3
HATCH (2)
350
632
  3
SYMBOLS
350
633
  0
ACAD_PROXY_OBJECT
  5
19EE5
102
{ACAD_REACTORS
330
C
102
}
330
C
100
AcDbProxyObject
 90
      499
 91
      544
 95
       25
 70
     0
 93
       34
310
0500004280
  0
DICTIONARY
  5
1C6F1
102
{ACAD_REACTORS
330
C
102
}
330
C
100
AcDbDictionary
281
     1
  3
ASEBlockHierarchyIndexRecord
350
1C6F3
1001
DCO15
1040
1562581178.546
  0
ACAD_PROXY_OBJECT
  5
19EF5
102
{ACAD_REACTORS
330
C
102
}
330
C
100
AcDbProxyObject
 90
      499
 91
      554
 95
       25
 70
     0
 93
       98
310
0900004E400000000000000000
330
19EFC
330
0
330
19EFD
330
0
330
0
330
0
330
0
330
0
 94
        0
  0
ACAD_PROXY_OBJECT
  5
19EF0
102
{ACAD_REACTORS
330
C
102
}
330
C
100
AcDbProxyObject
 90
      499
 91
      507
 95
       25
 70
     0
 93
       56
310
90441600000000
330
19EF1
330
19EF2
330
19EF3
330
19EF4
 94
        0
  0
XRECORD
  5
1CC2C
102
{ACAD_REACTORS
330
C
102
}
330
C
100
AcDbXrecord
280
     1
  1
DWGPROPS COOKIE
  2

  3

  4

  6

  7

  8

  9

300
AmdtFileType=84
301
=
302
=
303
=
304
=
305
=
306
=
307
=
308
=
309
=
 40
0.0
 41
2451943.235431667
 42
2455441.240532581
  1

 90
        1
  0
DICTIONARY
  5
2A40
102
{ACAD_REACTORS
330
C
102
}
330
C
100
AcDbDictionary
281
     1
  3
eng_id
350
2A41
  0
DICTIONARY
  5
2916
102
{ACAD_REACTORS
330
C
102
}
330
C
100
AcDbDictionary
281
     1
  3
FILENAME
350
2917
  0
ACAD_PROXY_OBJECT
  5
19EE6
102
{ACAD_REACTORS
330
C
102
}
330
C
100
AcDbProxyObject
 90
      499
 91
      545
 95
       25
 70
     0
 93
        8
310
05
  0
DICTIONARY
  5
2A3E
102
{ACAD_REACTORS
330
C
102
}
330
C
100
AcDbDictionary
281
     1
  3
line_data
350
2A3F
  0
DICTIONARY
  5
1688
102
{ACAD_REACTORS
330
C
102
}
330
C
100
AcDbDictionary
281
     1
  3
input_data
350
168A
  3
table_data
350
1689
  0
DICTIONARY
  5
2918
102
{ACAD_REACTORS
330
C
102
}
330
C
100
AcDbDictionary
281
     1
  3
ZWKSIZE
350
2919
  0
DICTIONARY
  5
1A8E0
102
{ACAD_REACTORS
330
1A8DF
102
}
330
1A8DF
100
AcDbDictionary
281
     1
  0
SORTENTSTABLE
  5
1B525
102
{ACAD_REACTORS
330
165
102
}
330
165
100
AcDbSortentsTable
330
1F
331
17EF0
  5
17EF0
331
17EFF
  5
17EFF
331
19B64
  5
19B64
331
19B6A
  5
19B6A
331
1A3AA
  5
1A3AA
331
1A3AB
  5
1A3AB
331
1A3AC
  5
1A3AC
331
1A3AD
  5
1A3AD
331
1A3AE
  5
1A3AE
331
1A3AF
  5
1A3AF
331
1A3B0
  5
1A3B0
331
1A3B2
  5
1A3B2
331
1A3B3
  5
1A3B3
331
1A3B4
  5
1A3B4
331
1A3B5
  5
1A3B5
331
1A3B6
  5
1A3B6
331
1A3B7
  5
1A3B7
331
1A3B8
  5
1A3BA
331
1A3B9
  5
1A3BB
331
1A3BA
  5
1A3BC
331
1A3BB
  5
1A3BD
331
1A3BC
  5
1A3BE
331
1A3BD
  5
1A3BF
331
1A3BE
  5
1A3C0
331
1A3BF
  5
1A3C1
331
1A3C0
  5
1A3C2
331
1A3C3
  5
1A3C5
331
1A3C5
  5
1A3C7
331
1A3C6
  5
1A3C8
331
1A3C7
  5
1A3C9
331
1A3CC
  5
1A3D2
331
1A3E4
  5
1A3E6
331
1A487
  5
1A490
331
1A497
  5
1A499
331
1A498
  5
1A49A
331
1A499
  5
1A49B
331
1A49A
  5
1A49C
331
1A49B
  5
1A49D
331
1A49C
  5
1A49E
331
1A49D
  5
1A49F
331
1A49E
  5
1A4A0
331
1A49F
  5
1A4A1
331
1A4A0
  5
1A4A2
331
1A4A1
  5
1A4A3
331
1A4A2
  5
1A4A4
331
1A4A3
  5
1A4A5
331
1A4A4
  5
1A4A6
331
1A4A5
  5
1A4A7
331
1A4A6
  5
1A4A8
331
1A4A7
  5
1A4A9
331
1A4A8
  5
1A4AA
331
1A4A9
  5
1A4AB
331
1A4AA
  5
1A4AC
331
1A4AB
  5
1A4AD
331
1A4AC
  5
1A4AE
331
1A4AD
  5
1A4AF
331
1A4AE
  5
1A4B0
331
1A4AF
  5
1A4B1
331
1A4B0
  5
1A4B2
331
1A4B1
  5
1A4B3
331
1A4B2
  5
1A4B4
331
1A4B3
  5
1A4B5
331
1A4B4
  5
1A4B6
331
1A4B5
  5
1A4B7
331
1A4B6
  5
1A4B8
331
1A4B7
  5
1A4B9
331
1A4B8
  5
1A4BA
331
1A4B9
  5
1A4BB
331
1A4BA
  5
1A4BC
331
1A4BB
  5
1A4BD
331
1A4BC
  5
1A4BE
331
1A4BD
  5
1A4BF
331
1A4BE
  5
1A4C0
331
1A4BF
  5
1A4C1
331
1A4C0
  5
1A4C2
331
1A4C1
  5
1A4C3
331
1A4C2
  5
1A4C4
331
1A4C3
  5
1A4C5
331
1A4C4
  5
1A4C6
331
1A4C5
  5
1A4C7
331
1A4C6
  5
1A4C8
331
1A4C7
  5
1A4C9
331
1A4C8
  5
1A4CA
331
1A4C9
  5
1A4CB
331
1A4CA
  5
1A4CC
331
1A4CB
  5
1A4CD
331
1A4CC
  5
1A4CE
331
1A4CD
  5
1A4CF
331
1A4CE
  5
1A4D0
331
1A4CF
  5
1A4FE
331
1A4D0
  5
1A4FF
331
1A4FE
  5
1A500
331
1A4FF
  5
1A501
331
1A500
  5
1A502
331
1A501
  5
1A503
331
1A502
  5
1A504
331
1A503
  5
1A505
331
1A504
  5
1A506
331
1A505
  5
1A507
331
1A506
  5
1A508
331
1A507
  5
1A509
331
1A508
  5
1A50A
331
1A509
  5
1A50B
331
1A50A
  5
1A50C
331
1A50B
  5
1A50D
331
1A50E
  5
1A510
331
1A50F
  5
1A511
331
1A511
  5
1A513
331
1A512
  5
1A514
331
1A513
  5
1A515
331
1A514
  5
1A516
331
1A515
  5
1A517
331
1A516
  5
1A518
331
1A517
  5
1A519
331
1A518
  5
1A51A
331
1A519
  5
1A51B
331
1A51A
  5
1A51C
331
1A51B
  5
1A51D
331
1A51C
  5
1A51E
331
1A51D
  5
1A51F
331
1A51E
  5
1A520
331
1A51F
  5
1A521
331
1A520
  5
1A522
331
1A521
  5
1A523
331
1A522
  5
1A524
331
1A523
  5
1A525
331
1A524
  5
1A526
331
1A525
  5
1A527
331
1A526
  5
1A528
331
1A528
  5
1A52A
331
1A529
  5
1A52B
331
1A52A
  5
1A52C
331
1A52B
  5
1A52D
331
1A52C
  5
1A52E
331
1A52D
  5
1A52F
331
1A52E
  5
1A530
331
1A52F
  5
1A531
331
1A530
  5
1A532
331
1A531
  5
1A533
331
1A532
  5
1A534
331
1A533
  5
1A535
331
1A534
  5
1A536
331
1A535
  5
1A537
331
1A536
  5
1A538
331
1A537
  5
1A539
331
1A538
  5
1A53A
331
1A5DB
  5
1A5DD
331
1A5DC
  5
1A5DE
331
1A5DD
  5
1A5DF
331
1A5DE
  5
1A5E0
331
1A5DF
  5
1A5E1
331
1A5E0
  5
1A5E2
331
1A5E1
  5
1A5E3
331
1A5E2
  5
1A5E4
331
1A5E3
  5
1A5E5
331
1A5E4
  5
1A5E6
331
1A5E5
  5
1A5E7
331
1A5E6
  5
1A5E8
331
1A5E7
  5
1A5E9
331
1A5E8
  5
1A5EA
331
1A5E9
  5
1A5EB
331
1A5EA
  5
1A5EC
331
1A5EB
  5
1A5ED
331
1A5FD
  5
1A5FF
331
1A5FE
  5
1A600
331
1A600
  5
1A602
331
1A601
  5
1A603
331
1A602
  5
1A604
331
1A60A
  5
1A60D
331
1A90E
  5
1A910
331
1B1AE
  5
1B1B0
331
1B1AF
  5
1B1B1
331
1B1B0
  5
1B1B2
331
1B1B1
  5
1B1B3
331
1B1B2
  5
1B1B4
331
1B1B3
  5
1B1B5
331
1B1B4
  5
1B1B6
331
1B1B5
  5
1B1B7
331
1B1B6
  5
1B1B8
331
1B1B7
  5
1B1B9
331
1B1B8
  5
1B1BA
331
1B1B9
  5
1B1BB
331
1B1BA
  5
1B1BC
331
1B1BB
  5
1B1BD
331
1B1BC
  5
1B1BE
331
1B1BD
  5
1B1BF
331
1B1BE
  5
1B1C0
331
1B1BF
  5
1B1C1
331
1B1C0
  5
1B1C2
331
1B1C1
  5
1B1C3
331
1B1C2
  5
1B1C4
331
1B1C3
  5
1B1C5
331
1B1C4
  5
1B1C6
331
1B1C5
  5
1B1C7
331
1B1C6
  5
1B1C8
331
1B1C7
  5
1B1C9
331
1B1C8
  5
1B1CA
331
1B1C9
  5
1B1CB
331
1B1CA
  5
1B1CC
331
1B1CB
  5
1B1CD
331
1B1CC
  5
1B1CE
331
1B1CD
  5
1B1CF
331
1B1CE
  5
1B1D1
331
1B1D0
  5
1B1D2
331
1B1D1
  5
1B1D3
331
1B1D2
  5
1B1D4
331
1B1D3
  5
1B1D5
331
1B1D4
  5
1B1D6
331
1B1D5
  5
1B1D7
331
1B1D6
  5
1B1D8
331
1B1D7
  5
1B1D9
331
1B1D8
  5
1B1DA
331
1B1D9
  5
1B1DB
331
1B1DA
  5
1B1F2
331
1B1DB
  5
1B66F
  0
LAYOUT
  5
22
102
{ACAD_REACTORS
330
1A
102
}
330
1A
100
AcDbPlotSettings
  1

  2
SII LP-2150 (D-SCAN C2)
  4
User262
  6
AM_VIEW1
 40
3.174999952316284
 41
3.174999952316284
 42
3.17498779296875
 43
3.17498779296875
 44
296.9259948730469
 45
419.9889831542969
 46
0.0
 47
0.0
 48
0.0
 49
0.0
140
420.0
141
297.0
142
1.0
143
1.022107788374329
 70
 11952
 72
     1
 73
     1
 74
     4
  7
sei_cad.ctb
 75
     0
147
0.9783703943695685
148
0.0
149
0.0
100
AcDbLayout
  1
Model
 70
     1
 71
     0
 10
0.0
 20
0.0
 11
12.0
 21
9.0
 12
0.0
 22
0.0
 32
0.0
 14
0.0
 24
0.0
 34
0.0
 15
0.0
 25
0.0
 35
0.0
146
0.0
 13
0.0
 23
0.0
 33
0.0
 16
1.0
 26
0.0
 36
0.0
 17
0.0
 27
1.0
 37
0.0
 76
     0
330
1F
  0
LAYOUT
  5
1E
102
{ACAD_REACTORS
330
1A
102
}
330
1A
100
AcDbPlotSettings
  1

  2
Canon LASER SHOT LBP-2030
  4

  6

 40
0.0
 41
0.0
 42
0.0
 43
0.0
 44
0.0
 45
0.0
 46
0.0
 47
0.0
 48
0.0
 49
0.0
140
0.0
141
0.0
142
1.0
143
1.0
 70
   688
 72
     0
 73
     0
 74
     5
  7
sei_cad.ctb
 75
    16
147
1.0
148
0.0
149
0.0
100
AcDbLayout
  1
ﾚｲｱｳﾄ1
 70
     1
 71
     1
 10
0.0
 20
0.0
 11
420.0
 21
297.0
 12
0.0
 22
0.0
 32
0.0
 14
1.000000000000000E+20
 24
1.000000000000000E+20
 34
1.000000000000000E+20
 15
-1.000000000000000E+20
 25
-1.000000000000000E+20
 35
-1.000000000000000E+20
146
0.0
 13
0.0
 23
0.0
 33
0.0
 16
1.0
 26
0.0
 36
0.0
 17
0.0
 27
1.0
 37
0.0
 76
     0
330
1B
  0
LAYOUT
  5
26
102
{ACAD_REACTORS
330
1A
102
}
330
1A
100
AcDbPlotSettings
  1

  2
Canon LASER SHOT LBP-2030
  4

  6

 40
0.0
 41
0.0
 42
0.0
 43
0.0
 44
0.0
 45
0.0
 46
0.0
 47
0.0
 48
0.0
 49
0.0
140
0.0
141
0.0
142
1.0
143
1.0
 70
   688
 72
     0
 73
     0
 74
     5
  7
sei_cad.ctb
 75
    16
147
1.0
148
0.0
149
0.0
100
AcDbLayout
  1
ﾚｲｱｳﾄ2
 70
     1
 71
     2
 10
0.0
 20
0.0
 11
12.0
 21
9.0
 12
0.0
 22
0.0
 32
0.0
 14
0.0
 24
0.0
 34
0.0
 15
0.0
 25
0.0
 35
0.0
146
0.0
 13
0.0
 23
0.0
 33
0.0
 16
1.0
 26
0.0
 36
0.0
 17
0.0
 27
1.0
 37
0.0
 76
     0
330
23
  0
MLINESTYLE
  5
18
102
{ACAD_REACTORS
330
17
102
}
330
17
100
AcDbMlineStyle
  2
STANDARD
 70
     0
  3

 62
   256
 51
90.0
 52
90.0
 71
     2
 49
0.5
 62
   256
  6
BYLAYER
 49
-0.5
 62
   256
  6
BYLAYER
  0
ACDBPLACEHOLDER
  5
F
102
{ACAD_REACTORS
330
E
102
}
330
E
  0
TABLESTYLE
  5
19EA9
102
{ACAD_REACTORS
330
19EA8
102
}
330
19EA8
100
AcDbTableStyle
  3
Standard
 70
     0
 71
     8
 40
1.5
 41
1.5
280
     0
281
     0
  7
STANDARD
140
4.5
170
     2
 62
     0
 63
     7
283
     0
274
    -2
284
     1
 64
     0
275
    -2
285
     1
 65
     0
276
    -2
286
     1
 66
     0
277
    -2
287
     1
 67
     0
278
    -2
288
     1
 68
     0
279
    -2
289
     1
 69
     0
  7
STANDARD
140
6.0
170
     5
 62
     0
 63
     7
283
     0
274
    -2
284
     1
 64
     0
275
    -2
285
     1
 65
     0
276
    -2
286
     1
 66
     0
277
    -2
287
     1
 67
     0
278
    -2
288
     1
 68
     0
279
    -2
289
     1
 69
     0
  7
STANDARD
140
4.5
170
     5
 62
     0
 63
     7
283
     0
274
    -2
284
     1
 64
     0
275
    -2
285
     1
 65
     0
276
    -2
286
     1
 66
     0
277
    -2
287
     1
 67
     0
278
    -2
288
     1
 68
     0
279
    -2
289
     1
 69
     0
  0
XRECORD
  5
1CC2A
102
{ACAD_REACTORS
330
1CC29
102
}
330
1CC29
100
AcDbXrecord
280
     1
340
19EA7
  0
XRECORD
  5
1CC2B
102
{ACAD_REACTORS
330
1CC29
102
}
330
1CC29
100
AcDbXrecord
280
     1
340
19EA6
  0
DICTIONARYVAR
  5
1A8D9
102
{ACAD_REACTORS
330
30
102
}
330
30
100
DictionaryVariables
280
     0
  1
STANDARD
  0
DICTIONARYVAR
  5
1CC28
102
{ACAD_REACTORS
330
30
102
}
330
30
100
DictionaryVariables
280
     0
  1
0
  0
DICTIONARYVAR
  5
1CC27
102
{ACAD_REACTORS
330
30
102
}
330
30
100
DictionaryVariables
280
     0
  1
1
  0
ACAD_PROXY_OBJECT
  5
4E
102
{ACAD_REACTORS
330
4D
102
}
330
4D
100
AcDbProxyObject
 90
      499
 91
      520
 95
       25
 70
     0
 93
      118
310
405010040CA904C415CD5B075DD128
350
4F
 94
        0
  0
DICTIONARY
  5
17E
102
{ACAD_REACTORS
330
4D
102
}
330
4D
100
AcDbDictionary
281
     1
  3
ISO
350
1AF82
  3
JIS
350
17F
  0
XRECORD
  5
19F03
102
{ACAD_REACTORS
330
4D
102
}
330
4D
100
AcDbXrecord
280
     1
 90
-1023410169
  0
ACAD_PROXY_OBJECT
  5
33
330
2E
100
AcDbProxyObject
 90
      499
 91
      508
 95
       25
 70
     0
 93
      156
310
00010143D050D351505391D5531054925390D490
330
2E
 94
        0
  0
ACAD_PROXY_OBJECT
  5
34
330
2E
100
AcDbProxyObject
 90
      499
 91
      508
 95
       25
 70
     0
 93
      148
310
000101439050D351531253915054925390D490
330
2E
 94
        0
  0
ACAD_PROXY_OBJECT
  5
35
330
2E
100
AcDbProxyObject
 90
      499
 91
      509
 95
       25
 70
     0
 93
      156
310
000101439050D35154D6535093D314D256915080
330
2E
 94
        0
  0
ACAD_PROXY_OBJECT
  5
37
330
2E
100
AcDbProxyObject
 90
      499
 91
      511
 95
       25
 70
     0
 93
       88
310
000101411093D34C402B00
330
2E
330
0
330
0
 94
        0
  0
ACAD_PROXY_OBJECT
  5
6B
330
2E
100
AcDbProxyObject
 90
      499
 91
      509
 95
       25
 70
     0
 93
      108
310
00010142505351D153D35054D4E0
330
2E
 94
        0
  0
ACAD_PROXY_OBJECT
  5
6C
330
2E
100
AcDbProxyObject
 90
      499
 91
      522
 95
       25
 70
     0
 93
      140
310
00010142105350D55494D511005034A49530
330
2E
 94
        0
  0
ACAD_PROXY_OBJECT
  5
19EBB
330
2E
100
AcDbProxyObject
 90
      499
 91
      536
 95
       25
 70
     0
 93
      486
310
0001014124FEA55D00507392E322E302E32014124FEA55D00507392E322E302E324050100004157D554D1548182D4454FB21E93F4000000000000E03F8
330
2E
330
19EBC
330
19EC2
 94
        0
  0
ACAD_PROXY_OBJECT
  5
19EBC
330
2E
100
AcDbProxyObject
 90
      499
 91
      537
 95
       25
 70
     0
 93
       56
310
000190240E0000
330
2E
330
19EBD
330
19EBF
 94
        0
  0
ACAD_PROXY_OBJECT
  5
19EBD
330
2E
100
AcDbProxyObject
 90
      499
 91
      538
 95
       25
 70
     0
 93
       48
310
0001AA000000
330
2E
330
1E
330
19EBE
330
0
 94
        0
  0
ACAD_PROXY_OBJECT
  5
19EBE
330
2E
100
AcDbProxyObject
 90
      499
 91
      539
 95
       25
 70
     0
 93
       28
310
0001AAA0
330
2E
 94
        0
  0
ACAD_PROXY_OBJECT
  5
19EBF
330
2E
100
AcDbProxyObject
 90
      499
 91
      538
 95
       25
 70
     0
 93
       48
310
0001AA000000
330
2E
330
26
330
19EC0
330
0
 94
        0
  0
ACAD_PROXY_OBJECT
  5
19EC0
330
2E
100
AcDbProxyObject
 90
      499
 91
      539
 95
       25
 70
     0
 93
       28
310
0001AAA0
330
2E
 94
        0
  0
ACAD_PROXY_OBJECT
  5
19EC3
330
2E
100
AcDbProxyObject
 90
      499
 91
      509
 95
       25
 70
     0
 93
      108
310
000101421053521310D05310D010
330
2E
 94
        0
  0
ACAD_PROXY_OBJECT
  5
19EC4
330
2E
100
AcDbProxyObject
 90
      499
 91
      509
 95
       25
 70
     0
 93
      124
310
00010142905354915554D15112535010
330
2E
 94
        0
  0
ACAD_PROXY_OBJECT
  5
19EC5
330
2E
100
AcDbProxyObject
 90
      499
 91
      509
 95
       25
 70
     0
 93
      132
310
00010143105354D150D51253D391125360
330
2E
 94
        0
  0
ACAD_PROXY_OBJECT
  5
19EC6
330
2E
100
AcDbProxyObject
 90
      499
 91
      509
 95
       25
 70
     0
 93
      124
310
00010142905355941093D49111549010
330
2E
 94
        0
  0
ACAD_PROXY_OBJECT
  5
19EC7
330
2E
100
AcDbProxyObject
 90
      499
 91
      509
 95
       25
 70
     0
 93
      116
310
0001014290535115D1D0D3D313D4A0
330
2E
 94
        0
  0
ACAD_PROXY_OBJECT
  5
19EC8
330
2E
100
AcDbProxyObject
 90
      499
 91
      509
 95
       25
 70
     0
 93
      148
310
00010143505355925155D49151949154D21010
330
2E
 94
        0
  0
ACAD_PROXY_OBJECT
  5
19EC9
330
2E
100
AcDbProxyObject
 90
      499
 91
      509
 95
       25
 70
     0
 93
      172
310
00010144105350539393D51154149154D15495915010
330
2E
 94
        0
  0
ACAD_PROXY_OBJECT
  5
19ECA
330
2E
100
AcDbProxyObject
 90
      499
 91
      509
 95
       25
 70
     0
 93
      172
310
00010144105350555513D11253505494905391D15010
330
2E
 94
        0
  0
ACAD_PROXY_OBJECT
  5
19ECB
330
2E
100
AcDbProxyObject
 90
      499
 91
      509
 95
       25
 70
     0
 93
      124
310
00010142D05351561514915191125360
330
2E
 94
        0
  0
ACAD_PROXY_OBJECT
  5
19ECC
330
2E
100
AcDbProxyObject
 90
      499
 91
      509
 95
       25
 70
     0
 93
      132
310
00010142D05355105410539393D5115010
330
2E
 94
        0
  0
ACAD_PROXY_OBJECT
  5
19ECD
330
2E
100
AcDbProxyObject
 90
      499
 91
      509
 95
       25
 70
     0
 93
      108
310
00010142105350555513D0D31010
330
2E
 94
        0
  0
ACAD_PROXY_OBJECT
  5
19ECE
330
2E
100
AcDbProxyObject
 90
      499
 91
      509
 95
       25
 70
     0
 93
      108
310
00010142105350D3119150551050
330
2E
 94
        0
  0
ACAD_PROXY_OBJECT
  5
19ECF
330
2E
100
AcDbProxyObject
 90
      499
 91
      509
 95
       25
 70
     0
 93
      108
310
00010142105350D315925155D3F0
330
2E
 94
        0
  0
ACAD_PROXY_OBJECT
  5
19ED0
330
2E
100
AcDbProxyObject
 90
      499
 91
      509
 95
       25
 70
     0
 93
      148
310
0001014350535212511156915493D112535010
330
2E
 94
        0
  0
ACAD_PROXY_OBJECT
  5
19ED1
330
2E
100
AcDbProxyObject
 90
      499
 91
      509
 95
       25
 70
     0
 93
      124
310
00010142905352105510D21254D3D010
330
2E
 94
        0
  0
ACAD_PROXY_OBJECT
  5
19ED2
330
2E
100
AcDbProxyObject
 90
      499
 91
      509
 95
       25
 70
     0
 93
      148
310
00010143905354D25391D31152105513105660
330
2E
 94
        0
  0
ACAD_PROXY_OBJECT
  5
19ED3
330
2E
100
AcDbProxyObject
 90
      499
 91
      509
 95
       25
 70
     0
 93
      124
310
00010142D0535115D1D193111254D420
330
2E
 94
        0
  0
ACAD_PROXY_OBJECT
  5
19ED4
330
2E
100
AcDbProxyObject
 90
      499
 91
      509
 95
       25
 70
     0
 93
      100
310
00010142105350555513D213A0
330
2E
 94
        0
  0
ACAD_PROXY_OBJECT
  5
19ED5
330
2E
100
AcDbProxyObject
 90
      499
 91
      509
 95
       25
 70
     0
 93
      116
310
000101425053521390D3D553951010
330
2E
 94
        0
  0
ACAD_PROXY_OBJECT
  5
19ED6
330
2E
100
AcDbProxyObject
 90
      499
 91
      509
 95
       25
 70
     0
 93
      108
310
0001014210535213941493D29010
330
2E
 94
        0
  0
ACAD_PROXY_OBJECT
  5
19ED7
330
2E
100
AcDbProxyObject
 90
      499
 91
      509
 95
       25
 70
     0
 93
      108
310
0001014210535213951654115070
330
2E
 94
        0
  0
ACAD_PROXY_OBJECT
  5
19ED8
330
2E
100
AcDbProxyObject
 90
      499
 91
      509
 95
       25
 70
     0
 93
      108
310
000101421053521395925155D0F0
330
2E
 94
        0
  0
ACAD_PROXY_OBJECT
  5
19ED9
330
2E
100
AcDbProxyObject
 90
      499
 91
      509
 95
       25
 70
     0
 93
      140
310
00010143505354D150D51253D390D3D41660
330
2E
 94
        0
  0
ACAD_PROXY_OBJECT
  5
19EDA
330
2E
100
AcDbProxyObject
 90
      499
 91
      509
 95
       25
 70
     0
 93
      108
310
00010142105350D3141493D29030
330
2E
 94
        0
  0
ACAD_PROXY_OBJECT
  5
19EDB
330
2E
100
AcDbProxyObject
 90
      499
 91
      508
 95
       25
 70
     0
 93
      212
310
00010143905350555513D2105510D21493D500000000000002E400
330
2E
 94
        0
  0
ACAD_PROXY_OBJECT
  5
19EDC
330
2E
100
AcDbProxyObject
 90
      499
 91
      509
 95
       25
 70
     0
 93
      156
310
00010143905350555513D2105510D21111551010
330
2E
 94
        0
  0
ACAD_PROXY_OBJECT
  5
19EE8
330
2E
100
AcDbProxyObject
 90
      499
 91
      547
 95
       25
 70
     0
 93
      698
310
0001000000009AA6A9AA4051E4D6F6E204E6F762032312030343A35363A303620323030352028555443290141CE4B8C8B8C0B8C80518576564205365702030312031343A34363A323220323031300141CE4B8C8B8C0B8C80
330
2E
330
19EE9
330
19EEA
330
19EEC
330
0
 94
        0
  0
ACAD_PROXY_OBJECT
  5
19EE9
330
2E
100
AcDbProxyObject
 90
      499
 91
      548
 95
       25
 70
     0
 93
       70
310
0001AAA80820000000
330
2E
330
19EE9
330
19EE9
 94
        0
  0
ACAD_PROXY_OBJECT
  5
19EEA
330
2E
100
AcDbProxyObject
 90
      499
 91
      549
 95
       25
 70
     0
 93
       48
310
000100000000
330
2E
330
0
330
19EEB
330
0
330
0
 94
        0
  0
ACAD_PROXY_OBJECT
  5
19EEB
330
2E
100
AcDbProxyObject
 90
      499
 91
      550
 95
       25
 70
     0
 93
       40
310
000100AAAA
330
2E
330
0
 94
        0
  0
ACAD_PROXY_OBJECT
  5
19EF1
330
2E
100
AcDbProxyObject
 90
      499
 91
      522
 95
       25
 70
     0
 93
      180
310
00010143105050D3D35411119390535140504434F4D500
330
2E
 94
        0
  0
ACAD_PROXY_OBJECT
  5
19EF2
330
2E
100
AcDbProxyObject
 90
      499
 91
      522
 95
       25
 70
     0
 93
      212
310
0001014390505193D311115491119390535140506466F6C6465720
330
2E
 94
        0
  0
ACAD_PROXY_OBJECT
  5
19EF3
330
2E
100
AcDbProxyObject
 90
      499
 91
      522
 95
       25
 70
     0
 93
      180
310
00010143105050539393D1119390535140504284156290
330
2E
 94
        0
  0
ACAD_PROXY_OBJECT
  5
19EF4
330
2E
100
AcDbProxyObject
 90
      499
 91
      522
 95
       25
 70
     0
 93
      436
310
00010143905050D3D35415925155D31254D50052295BD96CA0A90B396CA0A894591A496CA0A8DB691A496CA0A89BA96CA0A95E28F95310
330
2E
 94
        0
  0
ACAD_PROXY_OBJECT
  5
19EF9
330
2E
100
AcDbProxyObject
 90
      499
 91
      555
 95
       25
 70
     0
 93
       32
310
00010000
330
2E
340
19EF6
330
19EFB
330
19EF6
 94
        0
  0
ACAD_PROXY_OBJECT
  5
19EFA
330
2E
100
AcDbProxyObject
 90
      499
 91
      556
 95
       25
 70
     0
 93
       18
310
000180
330
2E
 94
        0
  0
ACAD_PROXY_OBJECT
  5
19EFB
330
2E
100
AcDbProxyObject
 90
      499
 91
      557
 95
       25
 70
     0
 93
      194
310
0001014356109410CB4CCC4D9493120C4E1050055401550000
330
2E
330
19EF9
330
19EFA
 94
        0
  0
ACAD_PROXY_OBJECT
  5
19EFC
330
2E
100
AcDbProxyObject
 90
      499
 91
      558
 95
       25
 70
     0
 93
      178
310
000100AAAAAA993E0C080F9B5E9129319E773140D95740
330
2E
330
19EFB
 94
        0
  0
ACAD_PROXY_OBJECT
  5
19EFD
330
2E
100
AcDbProxyObject
 90
      499
 91
      559
 95
       25
 70
     0
 93
      108
310
000190140A000000000000AAAAA0
330
2E
330
19EFE
330
19EFE
330
19EFE
330
19EFE
330
19EFE
330
0
 94
        0
  0
ACAD_PROXY_OBJECT
  5
19EFE
330
2E
100
AcDbProxyObject
 90
      499
 91
      560
 95
       25
 70
     0
 93
       51
310
00010000AAAA80
330
2E
330
19EFD
330
19EFB
 94
        0
  0
DICTIONARY
  5
40
102
{ACAD_REACTORS
330
3F
102
}
330
3F
100
AcDbDictionary
281
     1
  3
DWGSETTINGS
350
41
  3
FEM
350
69
  3
Shaft
350
56
  3
TRANSSETTINGS
350
4C
  0
ACAD_PROXY_OBJECT
  5
42
102
{ACAD_REACTORS
330
3F
102
}
330
3F
100
AcDbProxyObject
 90
      499
 91
      519
 95
       25
 70
     0
 93
    23232
310
41502491013041105357CC201C00030C011E441013141105357CC603800030C011E441013241105357CCA01400030C011E441013341105357CCE01800030C010D9013441105357CD200C00030C010D9013541105357CD600C00030C010D9013641105357CDA00800030C011E9013741105357CDE01000030C010D901384110
310
5357CE200400030C011E9013941105357CE63F400030C0241102324141505357CC4C201C00030C011E902344141505357CC4C600C00030C010D902495041505357CC4CA01C00030C011E40902304E41505357CC13A01C00030C011E902314E41505357CC53A03800030C011E902324E41505357CC93A01400030C011E90233
310
4E41505357CCD3A01800030C010D902344E41505357CD13A00C00030C010D902354E41505357CD53A00C00030C010D902364E41505357CD93A00800030C011E902374E41505357CDD3A01000030C010D902384E41505357CE13A00400030C011E902394E41505357CE53A3F400030C024110332414E41905357CC4C13A01C0
310
0030C011E90334414E41905357CC4C53A00C00030C010D90349504E41905357CC4C93A01C00030C011E409044B4C494E41505357D0D3200400030C011E42504494E464F42105357D410549151A01000030C010D42D055241484D3541905357D093D4A01C00030C011E425045649455742105357D5925155D4E00400030C011
310
E42D06424548494E4441905357D25395A3F400030C0243505545241494C41505357D514A00C00030C010D4250348494441905357D21251201C00030C011E4250356495341905357D59254E01C00030C011E4250650415244494D42505357D41054911253600C00030C010D4250652454644494D42505357D49151911253601
310
000030C010D425774110531514901348070000C300479034110915312501348000000C0003FFFFFFFD034110921395901398000000C0003FFFFFFFE415092139594D06424548494E448000000C0003FFFFFFFE411093125110234418000000C0003FFFFFFFD03411093D05410234418000000C0003FFFFFFFD03411093D48C
310
9055241484D358010000C30047A411093D48CD055241484D358020000C30047A411093D48D5055241484D358000000C0003FFFFFFFE411093D48DD055241484D3581E0000C30047903411094105410234418000000C0003FFFFFFFD03411094115610234418000000C0003FFFFFFFD034110951112501358000000C0003FFF
310
FFFFD034110D0530C901348000000C0003FFFFFFFE4110D0530CD01348020000C30047A4110D0530D501348070000C30047A4110D0530DD013481E0000C30047A4110D15393901378000000C0003FFFFFFFE4110D15395D01378000000C0003FFFFFFFE4110D312539044B4C494E8000000C0003FFFFFFFE4110D3D38C5013
310
08000000C0003FFFFFFFD034110D3D38C901318000000C0003FFFFFFFD034110D3D38CD01328000000C0003FFFFFFFD034110D3D38D101328000000C0003FFFFFFFD034111115494101348000000C0003FFFFFFFD034111115510501348000000C0003FFFFFFFE4111125051D01358000000C0003FFFFFFFE4111125312501
310
358000000C0003FFFFFFFE411112535410650415244494D8000000C0003FFFFFFFE411112535490652454644494D8000000C0003FFFFFFFE411156135410234418000000C0003FFFFFFFD034111915353901388000000C0003FFFFFFFE415191535413901388030000C3004364151915354D410234418000000C0003FFFFFF
310
FE4151915354D510234418030000C300436415191535593901328000000C0003FFFFFFFE415191535595101328030000C3004364111931055101308000000C0003FFFFFFFD03411194905490234418000000C0003FFFFFFFD034111D49312501358000000C0003FFFFFFFD034111D5931250234418000000C0003FFFFFFFD0
310
34112105510D01388000000C0003FFFFFFFD014112125113901338000000C0003FFFFFFFD034112125115D01338000000C0003FFFFFFFD034112131253901348000000C0003FFFFFFFD01411213D0D3901378000000C0003FFFFFFFE411213D0D5D01378000000C0003FFFFFFFE4112539193D04494E464F8000000C0003FF
310
FFFFFE4113105112501348000000C0003FFFFFFFD034113115051101358000000C0003FFFFFFFE419397D0921395902394E8000000C0003FFFFFFFE419397D0D3D38C502304E8000000C0003FFFFFFFD03419397D0D3D38C902314E8000000C0003FFFFFFFD03419397D0D3D38CD02324E8000000C0003FFFFFFFD03419397
310
D0D3D38D102324E8000000C0003FFFFFFFD03419397D0D15393902374E8000000C0003FFFFFFFE419397D0D15395D02374E8000000C0003FFFFFFFE419397D1125312502354E8000000C0003FFFFFFFE419397D2105510D02384E8000000C0003FFFFFFFD01419397D2125113902334E8000000C0003FFFFFFFD03419397D2
310
125115D02334E8000000C0003FFFFFFFD03419397D3115051102354E8000000C0003FFFFFFFE419397D391D25410349504E8000000C0003FFFFFFFE419397D412105390334414E8000000C0003FFFFFFFE419397D510D3D3902304E8000000C0003FFFFFFFD03419397D5121312502344E8000000C0003FFFFFFFD01419397
310
D5131153902304E8000000C0003FFFFFFFD03419397D516150CD02364E8000000C0003FFFFFFFD03419397D594131250332414E8000000C0003FFFFFFFE411391D25410249508000000C0003FFFFFFFE411410530C9055241484D358010000C30047A411410530CD055241484D358020000C30047A411410530D5055241484
310
D358000000C0003FFFFFFFE411410530DD055241484D3581E0000C30047903411412105390234418000000C0003FFFFFFFE411413D4D3901368070000C30047A419413D4D49151901368050000C30047903411413D4D6101368000000C0003FFFFFFFD03411414D150D0234418000000C0003FFFFFFFD03411490D1D390137
310
8000000C0003FFFFFFFE411490D1D5D01378000000C0003FFFFFFFE4114919112501348000000C0003FFFFFFFD034114945514901348070000C30047903411494D093D01348000000C0003FFFFFFFD034114D09492D01348000000C0003FFFFFFFD014114D0D153901378000000C0003FFFFFFFD034114D150D51013480000
310
00C0003FFFFFFFD014114D15313901378000000C0003FFFFFFFD034114D15315D01378000000C0003FFFFFFFD034114D4D654D01308000000C0003FFFFFFFD034114D51312501348070000C300479034114D6508C501358000000C0003FFFFFFFD034114D6508C901358000000C0003FFFFFFFD034114D6508CD0135802000
310
0C30047A4114D6508D501358070000C300479034114D65353901378000000C0003FFFFFFFD034114D65355D01378000000C0003FFFFFFFD03411510D3D3901308000000C0003FFFFFFFD034115121312501348000000C0003FFFFFFFD01411512550C9055241484D358010000C30047A411512550CD055241484D358020000
310
C30047A411512550D5055241484D358000000C0003FFFFFFFE411512550DD055241484D3581E0000C300479034115131153901308000000C0003FFFFFFFD03415514905253105545241494C8000000C0003FFFFFFFE41151492D3901378000000C0003FFFFFFFD0341151492D5D01378000000C0003FFFFFFFD03411514931
310
2501348000000C0003FFFFFFFD01411516150C501368030000C300436411516150C901368030000C300436411516150CD01368000000C0003FFFFFFFE411516150D501368070000C30047A411516150DD013681E0000C30047A4115925155D04564945578000000C0003FFFFFFFE41159151121034849448000000C0003FFF
310
FFFFD0241159151159035649538000000C0003FFFFFFFD02411594131250232418000000C0003FFFFFFFE4116925690501348000000C0003FFFFFFFD01411354D653501358020000C30047AAAA3F400030C01013F90A4391E41D1E4190D4151E4110D40D0D4091E4051E4791E7F6
340
16
340
16
340
16
340
43
340
16
340
16
340
16
340
44
340
16
340
16
340
44
340
45
340
16
340
16
340
16
340
16
340
43
340
16
340
16
340
16
340
44
340
16
340
16
340
44
340
45
340
16
340
46
340
16
340
16
340
16
340
16
340
16
340
43
340
16
340
16
340
16
340
47
340
15
340
15
340
15
340
15
340
15
340
15
340
15
340
15
340
15
340
15
340
15
340
15
340
15
340
15
340
15
340
15
340
48
340
15
340
15
340
15
340
15
340
15
340
15
340
15
340
15
340
15
340
15
340
15
340
15
340
15
340
15
340
15
340
16
340
15
340
15
340
15
340
15
340
15
340
15
340
15
340
15
340
47
340
15
340
15
340
48
340
15
340
15
340
15
340
15
340
15
340
15
340
15
340
15
340
15
340
48
340
15
340
15
340
15
340
47
340
15
340
15
340
15
340
15
340
15
340
15
340
15
340
15
340
15
340
15
340
15
340
15
340
15
340
15
340
15
340
15
340
15
340
15
340
15
340
48
340
15
340
15
340
48
340
15
340
15
340
16
340
15
340
48
340
15
340
15
340
47
340
15
340
15
340
16
340
15
340
48
340
15
340
15
340
15
340
15
340
15
340
15
340
15
340
15
340
15
340
48
340
15
340
15
340
15
340
15
340
15
340
15
340
15
340
15
340
15
340
15
340
15
340
4B
340
16
 94
        0
  0
ACAD_PROXY_OBJECT
  5
62F
102
{ACAD_REACTORS
330
73
102
}
330
73
100
AcDbProxyObject
 90
      499
 91
      523
 95
       25
 70
     0
 93
      253
310
43D1444494D454E53494F4E2C414D44545F2A5F44494D404A9012A404A9012A0
  0
ACAD_PROXY_OBJECT
  5
630
102
{ACAD_REACTORS
330
73
102
}
330
73
100
AcDbProxyObject
 90
      499
 91
      523
 95
       25
 70
     0
 93
      181
310
43D012A42D05357D191504B505357CA9012A404A9012A8
  0
ACAD_PROXY_OBJECT
  5
631
102
{ACAD_REACTORS
330
73
102
}
330
73
100
AcDbProxyObject
 90
      499
 91
      523
 95
       25
 70
     0
 93
      133
310
43D054841544348404A9012A404A9012A8
  0
ACAD_PROXY_OBJECT
  5
632
102
{ACAD_REACTORS
330
73
102
}
330
73
100
AcDbProxyObject
 90
      499
 91
      523
 95
       25
 70
     0
 93
      549
310
43D044C494E4549CE0B0E138B0A8B4E0B0A8B4E138B105357CE0B105357CE138B0A8B505357CE0B0A8B505357CE139012A404A910494E534552542C5354445041525432448
  0
ACAD_PROXY_OBJECT
  5
633
102
{ACAD_REACTORS
330
73
102
}
330
73
100
AcDbProxyObject
 90
      499
 91
      523
 95
       25
 70
     0
 93
      909
310
43D6641434D46434652414D452C41434D444154554D5441524745542C41434D444154554D49442C41434D57454C4453594D2C41434D5355524653594D2C41434D4645415449442C41434D504152545245462C41434D42414C4C4F4F4E2C414D44544544474553594D404A9012A404A9012A8
  0
XRECORD
  5
1C6F3
102
{ACAD_REACTORS
330
1C6F1
102
}
330
1C6F1
100
AcDbXrecord
280
     1
330
0
330
0
330
0
330
0
330
0
330
0
330
0
330
0
330
0
330
0
330
0
330
0
330
0
330
0
330
0
330
0
330
0
330
0
330
0
330
0
330
0
330
0
330
0
330
0
330
0
330
0
330
0
330
0
330
0
330
0
330
0
330
0
330
0
330
0
330
0
330
0
330
0
330
0
330
0
330
0
330
0
330
0
330
0
330
0
330
0
330
0
330
0
330
0
330
0
330
0
330
0
330
0
330
0
330
0
330
0
330
0
330
0
330
0
330
0
330
0
330
0
330
0
330
0
330
0
330
0
330
0
330
0
330
0
330
0
330
0
  0
XRECORD
  5
2A41
102
{ACAD_REACTORS
330
2A40
102
}
330
2A40
100
AcDbXrecord
280
     1
  1
LINE
  0

  0
XRECORD
  5
2917
102
{ACAD_REACTORS
330
2916
102
}
330
2916
100
AcDbXrecord
280
     1
  1
25000259__00___
  0

  0
XRECORD
  5
2A3F
102
{ACAD_REACTORS
330
2A3E
102
}
330
2A3E
100
AcDbXrecord
280
     1
  1
110 ^M^J ^M^J ^M^J ^M^J ^M^J ^M^J ^M^J ^M^J ^M^J ^M^J ^M^Jボーリングクイル ^M^J鋼 ^M^J特型 ^M^J直付け ^M^Jストレート ^M^J25 ^M^J2 ^M^J ^M^Jアルミ ^M^J ^M^J
  0

  0
XRECORD
  5
168A
102
{ACAD_REACTORS
330
1688
102
}
330
1688
100
AcDbXrecord
280
     1
  1
1,,,,,,,,,^M^J2,,,,,,,,,^M^J3,,,,,,,,,^M^J4,,,,,,,,,^M^J5,,,,,,,,,^M^J6,,,,,,,,,^M^J7,,,,,,,,,^M^J8,,,,,,,,,^M^J9,,,,,,,,,^M^J10,,,,,,,,,
  0

  0
XRECORD
  5
1689
102
{ACAD_REACTORS
330
1688
102
}
330
1688
100
AcDbXrecord
280
     1
  1
10,10
  0

  0
XRECORD
  5
2919
102
{ACAD_REACTORS
330
2918
102
}
330
2918
100
AcDbXrecord
280
     1
  1
3
  0

  0
ACAD_PROXY_OBJECT
  5
4F
102
{ACAD_REACTORS
330
4E
102
}
330
4E
100
AcDbProxyObject
 90
      499
 91
      521
 95
       25
 70
     0
 93
      157
310
057356C1D77406406AA8FFFFFFFF05DD01009010
330
1F
330
0
330
19EFB
 94
        0
  0
ACAD_PROXY_OBJECT
  5
1AF82
102
{ACAD_REACTORS
330
17E
102
}
330
17E
100
AcDbProxyObject
 90
      499
 91
      577
 95
       25
 70
     0
 93
     2497
310
5DC0000000000000C408030000C30040D254D3D01640600800030C0200800030C000000000000000C40C88A2085A0B6B23A22B233B2A9BA3220480A1C82C6DAA6EAE4CCA8CAF0E8A6E8C88120284A0B1B6A321A329BA3220480A1A82C6DAAECAD8C8D2DCCEA6E8C8812028420B1B6A4B229BA3220480A1682C6DA88C2E8EAD
310
AA6E8C88120284A0B1B6A127A6A9BA3220480A2082DAC8E888CAE8C2D2D8A6F2DAA6E8C88120288A0B6B23A29B2B1BA34B7B729BCB6A9BA3220480A2282DAC8E886CADCE8CAE498D2DCCAA6E8C88120288A0B6B23A2A343932B0B22634B732A9BA3220480A1682DAC8E89CDEE8CAA6E8C88120285A0B1A0B6B3A630BCA9BA3
310
220480A1682C682DACE88D2DAA6E8C88120288A0B1A0B6B3A437B632A1B430B93A29BA3220480A1A82C682DACEA8D2E8D8CAA6E8C8812032048080
340
1ABC2
360
1AF83
360
1AF84
360
1AF85
360
1AF86
360
1AF87
360
1AF88
360
1AF89
360
1AF8A
360
1AF8B
360
1AF8C
360
1AF8D
360
1AF8E
360
1AF94
360
1AF95
360
1AF96
360
1AF97
340
0
340
0
 94
        0
  0
ACAD_PROXY_OBJECT
  5
17F
102
{ACAD_REACTORS
330
17E
102
}
330
17E
100
AcDbProxyObject
 90
      499
 91
      526
 95
       25
 70
     0
 93
     2379
310
5DC33333333333309408000000C00040D29254D01640600800030C0200800030C003333333333330940C8121E8720B1B6A9BAB9332A32BC3A29BA3220480A1282C6DA8C868CA6E8C88120286A0B1B6ABB2B63234B733A9BA3220480A1082C6DA92C8A6E8C88120285A0B1B6A230BA3AB6A9BA3220480A1282C6DA849E9AA6E
310
8C88120286A0B1A0B6B3AA34BA3632A9BA3220480A2082DAC8E888CAE8C2D2D8A6F2DAA6E8C88120288A0B6B23A29B2B1BA34B7B729BCB6A9BA3220480A2282DAC8E886CADCE8CAE498D2DCCAA6E8C88120288A0B6B23A2A343932B0B22634B732A9BA3220480A1682DAC8E89CDEE8CAA6E8C88120285A0B1A0B6B3A630BCA
310
9BA3220480A1682C682DACE88D2DAA6E8C88120288A0B1A0B6B3A437B632A1B430B93A29BA3220480C812020
340
180
360
181
360
182
360
183
360
184
360
185
360
186
360
19F00
360
19F01
360
19F02
360
19F04
360
19F05
360
19F06
360
19F0C
360
19F0D
360
19F0E
340
0
340
0
 94
        0
  0
ACAD_PROXY_OBJECT
  5
41
102
{ACAD_REACTORS
330
40
102
}
330
40
100
AcDbProxyObject
 90
      499
 91
      518
 95
       25
 70
     0
 93
     2962
310
4050B44574753455454494E4753A0E8482A68AA6A88882A069492A684A1A0A723A0A92920ACA0A81969B1820C868A9C829C8E82A12686AF87260F862666A8321A2A72224A0A50000000000000122020E868A9C889282A682A106260F86460F8666083A1A2A72224A9AA250000000000000042020C868A9C988A9C940000000
310
00000048808321A2A727A323250000000000000122020E868A9C9E8C8C62940000000000000488083A1A2A727A32319250000000000000122021CC6D0C2DACCCAE4C8D2DADADEC8CA9FC84A1A624A720A92920ACA0A819918182108698929C8AA8B2A082A0AB098929C8A84A22BA3AAA9A1A0A622A50A0E9882A6A89E84948
310
2A02608426A0A5A2AB24A2ABA7E8120CA0A68682988A0C00800010652455649534941501304154D0D0531150540CC4E8C5085354414E44415244415034A4953425512535154D510535412837EFD3949C8ADCD050756455253494F4E4150531352E3030441ED115D1D4D15515125391D4D153911F40
  0
ACAD_PROXY_OBJECT
  5
69
102
{ACAD_REACTORS
330
40
102
}
330
40
100
AcDbProxyObject
 90
      499
 91
      518
 95
       25
 70
     0
 93
      411
310
4050346454D21092DCC6E486DECACC942842630BCA3B937BAB820A8320A6AFA322A0A20F688AE8EA68AA8A8929C8EA68A9C88FA0
  0
ACAD_PROXY_OBJECT
  5
56
102
{ACAD_REACTORS
330
40
102
}
330
40
100
AcDbProxyObject
 90
      499
 91
      518
 95
       25
 70
     0
 93
      583
310
40505536861667421292DCE8CAE4E4EAE0E89FA0484A634B3B43A2634B732A7F21A98D2CED0E898D2DCCAACD2CAEE9FC8229B4B232A7E80A20F688AE8EA68AA8A8929C8EA68A9C88FA
  0
ACAD_PROXY_OBJECT
  5
4C
102
{ACAD_REACTORS
330
40
102
}
330
40
100
AcDbProxyObject
 90
      499
 91
      518
 95
       25
 70
     0
 93
      852
310
4050D5452414E5353455454494E4753A2488A482AE929C8EA8A4829CA69882A8929E9C0C00800050D4F524947494E414C4C595F4F4E0600400028529A7AAA921A2A620A723A0A81A52827212AAA0A48AA68AA4AC8A0C0080001107B44574753455454494E4753454E447D0
  0
ACAD_PROXY_OBJECT
  5
1AF83
330
1AF82
100
AcDbProxyObject
 90
      499
 91
      578
 95
       25
 70
     0
 93
       13
310
5DD8
  0
ACAD_PROXY_OBJECT
  5
1AF84
330
1AF82
100
AcDbProxyObject
 90
      499
 91
      579
 95
       25
 70
     0
 93
       96
310
5DEA0E80A0280A0280A0280F
  0
ACAD_PROXY_OBJECT
  5
1AF85
330
1AF82
100
AcDbProxyObject
 90
      499
 91
      580
 95
       25
 70
     0
 93
      272
310
5DD0E4050140501405014050140501405014050140D01405012C0000000000000040
340
1ABC3
 94
        0
  0
ACAD_PROXY_OBJECT
  5
1AF86
330
1AF82
100
AcDbProxyObject
 90
      499
 91
      581
 95
       25
 70
     0
 93
      497
310
5DE8666666666667A67E199999999999E99FD22405014050140501405014050140501405014050140501405014050140501405014050140501405014050100
340
1ABBE
 94
        0
  0
ACAD_PROXY_OBJECT
  5
1AF87
330
1AF82
100
AcDbProxyObject
 90
      499
 91
      582
 95
       25
 70
     0
 93
       10
310
5DC0
  0
ACAD_PROXY_OBJECT
  5
1AF88
330
1AF82
100
AcDbProxyObject
 90
      499
 91
      583
 95
       25
 70
     0
 93
      257
310
5DE290EA22A7D90F49F80000000000001081400000000000004204010000618000
340
1ABBF
340
1ABC0
 94
        0
  0
ACAD_PROXY_OBJECT
  5
1AF89
330
1AF82
100
AcDbProxyObject
 90
      499
 91
      584
 95
       25
 70
     0
 93
    13013
310
5DD0E411255115350141236025B690140501406901000000000000091013347454E545241434F2C4A504E2C302C8D8096DA2C47454E54524154582C25732C2847454E4D53472067656E647767203232322940690120281A8AA2CA0282484A4BE52028120280A0320200000000000012202668E8A9CA8A482869E5894A09C58
310
605921292F94588E8A9CA8A482A8B0584AE658508E8A9C9AA68E40CECADCC8EECE406464665280D202405044E414D454050496BC914F4051C40640A80000000000004E404CD1D15395149050D3CB1294138B0C0B25AF2453CB11D15395149055160B095CCB0A11D1539354D1C819D95B991DD9C80C8C8D8A50192C3D494628
310
4953424C414E4B28504152543A4E414D45292C424C4F434B3A4E414D452C504152543A4E414D452940480A0A888AA686A480A09251B1DBE80A3A80C81D0000000000100A28099A3A2A72A2920A1A7962528271618164946C76F9623A2A72A2920AA2C1612B9961423A2A726A9A39033B2B7323BB39019189B94A0348090142
310
14D51053911054911014122D2E29A50147501904A000000000000125013347454E545241434F2C4A504E2C302C8B4B8A692C47454E54524154582C25732C2847454E4D53472067656E64776720323138294069012028426A0AA22A924A0A62028246EF4BDFA028EA0320B40000000000001CA02668E8A9CA8A482869E5894A
310
09C5860591BBD2F7E588E8A9CA8A482A8B0584AE658508E8A9C9AA68E40CECADCC8EECE406464625280D202405044E4F544540504928D8B4C4051D40641A80000000000003E404CD1D15395149050D3CB1294138B0C0B24A362D30B11D15395149055160B095CCB0A11D1539354D1C819D95B991DD9C80C8C8D4A501240480
310
A0CAC8A9C889EA480A1106F1072706BF02B680A3A80C83D00000000000007C809BA3A2A72A2920A1A79625282716181641BC41C9C1AFC0AD9623A2A72A2920AA2C1612B9961423A2A726A9A39033B2B7323BB39019191A14A0248090141911154D0D48C90141A43825AF880C90147501908A000000000020145013447454E5
310
45241434F2C4A504E2C302C90E096BE20322C47454E54524154582C25732C2847454E4D53472067656E6477672033362940490120284A9AA20A72220A922192028345A5C53490192028EA03213400000000000024A026A8E8A9CA8A482869E5894A09C586059169714D24064588E8A9CA8A482A8B0584AE658508E8A9C9AA6
310
8E40CECADCC8EECE4064646052809202405094D4154455249414C32405068DDE97BF20324051D40642A8713D0AD7A37045404D11D15395149050D3CB1294138B0C0B2377A5EFC80C8B11D15395149055160B095CCB0A11D1539354D1C819D95B991DD9C80D0C0A501240480A089A82A6A680A091D7F2F9480A3A80A0485A06
310
8100000000000007C809923A2A72A2920A1A796252827161816475FCBE51623A2A72A2920AA2C1612B9961423A2A726A9A39033B2B7323BB3901A1914A024809014154149250D150141226FE29A501475014090C409020000000000000F9013247454E545241434F2C4A504E2C302C89BF8A692C47454E54524154582C2573
310
2C2847454E4D53472067656E6477672034332940490120281A224A6A02824850CB202028EA028121A81A040000000000001F202648E8A9CA8A482869E5894A09C58605921432C80588E8A9CA8A482A8B0584AE658508E8A9C9AA68E40CECADCC8EECE406868528092024050E445020000000000000510201C00030C0001018
310
0000000000003E400000000000000F901073D3C4954454D3E4050180000000000003E400000000000000F901073D3C4954454D3E40501800000000000034400000000000000D101073D3C4954454D3E40501800000000000034400000000000000D101073D3C4954454D3E405029010000000000000F9000000000000003E4
310
041CF4F125511534F901418F4F1455164F9014060000000000000F9000000000000003E4041CF4F125511534F9014060000000000000D100000000000000344041CF4F125511534F901901000000000000000F9000000000000003E40A2200000000000008204018000618048220681A048120280C88214844882034852034
310
8452028521485214814000000000000F0BF0000000000003C2FD018020000C3008070000C3003373333333333B0FCCDCCCCCCCCCCEC3F000000000000031012034164050341105901A000000000000062040100006180401000061804008000618008098A02808
340
0
340
0
 94
        0
  0
ACAD_PROXY_OBJECT
  5
1AF8A
330
1AF82
100
AcDbProxyObject
 90
      499
 91
      585
 95
       25
 70
     0
 93
      898
310
5DC4000000000000144048CF4F11115510525317D3105091530F880A0F11115510525317D05094D4D0D053114F8A51141C9A9999999999B93F26A666666666724FC000000000000E03F400000000000000400000000000000510000000000000024408070000C300000000000000051000
340
16
340
1ABC2
 94
        0
  0
ACAD_PROXY_OBJECT
  5
1AF8B
330
1AF82
100
AcDbProxyObject
 90
      499
 91
      586
 95
       25
 70
     0
 93
      823
310
5DC0B00000000000002880959E9E29A2A1AA24A7A72FA620A122A62FA324A929AA1F169E29A2A1AA24A7A72FA620A122A62FA620A9AA1F000000000000048803FFFE01C00030C0088C0380006180000000000000048800000000000000A2000000000000002880
340
652
340
1ABC2
 94
        0
  0
ACAD_PROXY_OBJECT
  5
1AF8C
330
1AF82
100
AcDbProxyObject
 90
      499
 91
      587
 95
       25
 70
     0
 93
      152
310
5DE80000000000000840A3D0A5723F0BD1F200
  0
ACAD_PROXY_OBJECT
  5
1AF8D
330
1AF82
100
AcDbProxyObject
 90
      499
 91
      588
 95
       25
 70
     0
 93
       14
310
5DE0
340
0
 94
        0
  0
ACAD_PROXY_OBJECT
  5
1AF8E
330
1AF82
100
AcDbProxyObject
 90
      499
 91
      589
 95
       25
 70
     0
 93
     8619
310
5DD084050BA4050AA405024050E836583938376838C815B836720314043A013D2525633C486F6C653A63746469613E2078203C486F6C653A637464657074683E20555C503C696628657175616C28486F6C653A7461707065642C223022292C22252563222C486F6C653A6E6F6D696E616C202220782022293E3C6966286571
310
75616C28486F6C653A7461707065642C223022292C486F6C653A6469612C486F6C653A706974636864657363293E3C696628657175616C28486F6C653A7461707065642C223122292C22207820222C2222293E3C696628657175616C28486F6C653A7461707065642C223122292C486F6C653A74617064657074682C222229
310
3E203C696628657175616C28486F6C653A7465726D696E6174696F6E2C223022292C22202F20222C2222293E3C696628657175616C28486F6C653A7465726D696E6174696F6E2C223022292C486F6C653A64657074682C2222293E406901405034050E836583938376838C815B836720314043B013D2525633C486F6C653A6
310
3746469613E2078203C486F6C653A6374616E676C653E2525645C503C696628657175616C28486F6C653A7461707065642C223022292C22252563222C486F6C653A6E6F6D696E616C202220782022293E3C696628657175616C28486F6C653A7461707065642C223022292C486F6C653A6469612C486F6C653A70697463686
310
4657363293E3C696628657175616C28486F6C653A7461707065642C223122292C22207820222C2222293E3C696628657175616C28486F6C653A7461707065642C223122292C486F6C653A74617064657074682C2222293E203C696628657175616C28486F6C653A7465726D696E6174696F6E2C223022292C22202F20222C2
310
222293E3C696628657175616C28486F6C653A7465726D696E6174696F6E2C223022292C486F6C653A64657074682C2222293E406901405014050E836583938376838C815B8367203140416013D3C696628657175616C28486F6C653A7461707065642C223022292C22252563222C486F6C653A6E6F6D696E616C2022207820
310
22293E3C696628657175616C28486F6C653A7461707065642C223022292C486F6C653A6469612C486F6C653A706974636864657363293E3C696628657175616C28486F6C653A7461707065642C223122292C22207820222C2222293E3C696628657175616C28486F6C653A7461707065642C223122292C486F6C653A746170
310
64657074682C2222293E203C696628657175616C28486F6C653A7465726D696E6174696F6E2C223022292C22202F20222C2222293E3C696628657175616C28486F6C653A7465726D696E6174696F6E2C223022292C486F6C653A64657074682C2222293E4069014051E4090E836583938376838C815B83672032405173D3C5
310
35444503A444553433E203C535444503A5354443E40690E836583938376838C815B836720314050C3D3C535444503A444553433E40690240515AAABBA120
360
1AF8F
330
1AF8F
360
1AF90
330
1AF90
360
1AF91
330
1AF91
360
1AF92
360
1AF93
330
1AF92
330
1AF93
 94
        0
  0
ACAD_PROXY_OBJECT
  5
1AF94
330
1AF82
100
AcDbProxyObject
 90
      499
 91
      568
 95
       25
 70
     0
 93
       26
310
5DD02A80
340
0
 94
        0
  0
ACAD_PROXY_OBJECT
  5
1AF95
330
1AF82
100
AcDbProxyObject
 90
      499
 91
      569
 95
       25
 70
     0
 93
      250
310
5DD020000000000000A1000000000000002440408F0F9023C3E409A0DCFFFF80
340
1ABC4
340
0
340
0
340
1ABC5
340
1ABC6
340
1ABC7
340
1ABC8
340
1ABC9
340
1ABCA
340
0
 94
        0
  0
ACAD_PROXY_OBJECT
  5
1AF96
330
1AF82
100
AcDbProxyObject
 90
      499
 91
      590
 95
       25
 70
     0
 93
    13889
310
5DD1D003FFFFFFFD030300030000000000000310200800030C01030300030000000000000310200800030C00050C8DC0955782CC838A83588367014ED1D15395149050D3CB1294138B0C0B23702555E0B320E2A0D620D9CB11D15395149055160B095CCB0A11D1539354D1C819D95B991A5B5E880CCC0A78000C0000000000
310
00000000000000000000010000000000000310200800030C010000000000000310200800030C020143CF4F111959985D5B1D151A5D1B194F8050A8C8A8365815B8375838B014E51D15395149050D3CB1294138B0C0B2322A0D96056E0DD60E2CB11D15395149055160B095CCB0A11D1539354D1C819D95B991A5B5E880CCC4
310
A78000C000000000000000000000000000000010000000000000310200800030C010000000000000310200800030C020143CF4F111959985D5B1D151A5D1B194F90D44111409034110541D0C4350F4050E44D03449074510F000141232D24D7C053247454E545241434F2C4A504E2C302C8CB4935F2C47454E54524154582C
310
25732C2847454E4D53472067656E64696D7A20312900010104002214000281464500A608E8A9CA8A482869E5894A09C5860591914588E8A9CA8A482A8B0584AE658508E8A9C9AA68E40CECADCC8D2DAF4406452029E9E9E27B934B3B4B71F1E24A31427A91424A9A12620A7259427B934B3B4B7149624A9A12620A7259424B
310
A32B6949496111116111711149F1E24BA32B69F00808200111A000140560052F47454E545241434F2C4A504E2C302C582C47454E54524154582C25732C2847454E4D53472067656E64696D7A20332900010100002054000280AC80A5E8E8A9CA8A482869E5894A09C586058B2588E8A9CA8A482A8B0584AE658508E8A9C9AA
310
68E40CECADCC8D2DAF4406852000202000040E800050152014BD1D15395149050D3CB1294138B0C0B148B11D15395149055160B095CCB0A11D1539354D1C819D95B991A5B5E880D8A400040400008250000A0507A6029823A2A72A2920A1A79625282716181641E99623A2A72A2920AA2C1612B9961423A2A726A9A39033B2
310
B73234B6BD101B948000808180105A000140A0F4C053047454E545241434F2C4A504E2C302C83D32C47454E54524154582C25732C2847454E4D53472067656E64696D7A203829000101010020F400028248704B5F00A668E8A9CA8A482869E5894A09C58605921C12D7C588E8A9CA8A482A8B0584AE658508E8A9C9AA68E40
310
CECADCC8D2DAF440646052000200080043280005048B4B8A69014CD1D15395149050D3CB1294138B0C0B22D2E29A4B11D15395149055160B095CCB0A11D1539354D1C819D95B991A5B5E880C8C4A4000400100086D0000A09196926BE029923A2A72A2920A1A796252827161816465A49AF9623A2A72A2920AA2C1612B9961
310
423A2A726A9A39033B2B73234B6BD10189480A02620202080043E80005048D8096DA014CD1D15395149050D3CB1294138B0C0B236025B68B11D15395149055160B095CCB0A11D1539354D1C819D95B991A5B5E880C4D0A4000404140280D0000A190687072706CD06C5069D06B0029DA3A2A72A2920A1A7962528271618164
310
1A1C1C9C1B341B141A741AC1623A2A72A2920AA2C1612B9961423A2A726A9A39033B2B73234B6BD10189A94800080828050EA000143A322A0D0E0E4E0D9A0D8A0D3A0D60053D47454E545241434F2C4A504E2C302C8C8A8343839383668362834E83582C47454E54524154582C25732C2847454E4D53472067656E64696D7A
310
2031372900010105002274000281464500A628E8A9CA8A482869E5894A09C5860591914588E8A9CA8A482A8B0584AE658508E8A9C9AA68E40CECADCC8D2DAF440626C52000202080044A8000504909497CA014CD1D15395149050D3CB1294138B0C0B242525F28B11D15395149055160B095CCB0A11D1539354D1C819D95B9
310
91A5B5E880C4E4A400040418008A521E000000000000001CA040C00000000000034408080000000000006881010000000000000D102040000000000001A204080000000000003440818000000000000728103000000000000125020600000000004028A040000000000000034408000000000000004881000000000000000D
310
102000000000000001A204000000000000003440818000000000000508143C0000000000000039408180000000000006881030000000000000D102060000000000001A2040C00000000000034408180000000000006881030000000000000E5020600000000000024A040C0000000000805140800000000000000688100000
310
00000000009102000000000000001A2040000000000000034408180000000000006881030000000000000A10284220000000878000002020000008380000020400000081800000208000000828000002028900000000
340
0
340
0
340
0
340
0
340
1ABC2
340
1ABC2
 94
        0
  0
ACAD_PROXY_OBJECT
  5
1AF97
330
1AF82
100
AcDbProxyObject
 90
      499
 91
      561
 95
       25
 70
     0
 93
     7018
310
5DD9740D254D3D0649534F5F4133429254D3D7D5125513115051349534F5F42525F5265766973696F6E6C69737446111413478342028323937783834316D6D2920421254D3D7D04D1E0D11141327835202835393478323130326D6D29421254D3D7D04C9E0D51141347839202832393778313839326D6D29421254D3D7D04D
310
1E0E51141337837202834323078323038306D6D29421254D3D7D04CDE0DD1141347838202832393778313638326D6D29421254D3D7D04D1E0E11141327834202835393478313638326D6D29421254D3D7D04C9E0D10E41312028353934783834316D6D29419254D3D7D04C51141347837202832393778313437316D6D29421
310
254D3D7D04D1E0DD1141347836202832393778313236316D6D29421254D3D7D04D1E0D91141347835202832393778313035316D6D29421254D3D7D04D1E0D5104130202838343078313138396D6D2920419254D3D7D04C10E41332028323937783432306D6D29419254D3D7D04CD1141327833202835393478313236316D6D
310
29421254D3D7D04C9E0CD10413478332028323937783633306D6D29421254D3D7D04D1E0CD1141337834202834323078313138396D6D29421254D3D7D04CDE0D11141337836202834323078313738336D6D29421254D3D7D04CDE0D91141337835202834323078313438366D6D29421254D3D7D04CDE0D50E4132202834323
310
0783539346D6D29419254D3D7D04C910413378332028343230783839316D6D29421254D3D7D04CDE0CD0E41342028323937783231306D6D29419254D3D7D04D1124130783220283131383978313638326D6D29421254D3D7D04C1E0C9124130783320283131383978323532336D6D29421254D3D7D04C1E0CD114131783420
310
2838343178323337386D6D29421254D3D7D04C5E0D11141317833202838343178313738336D6D29421254D3D7D04C5E0CD02431254D3C82557247A25E4C81050A49534F5F5449544C4541431254D3C82557247A25E4C81090A49534F5F5449544C45424110E979A97F0838A835883675F42525F44D254D3D7D09497D4995D9
310
A5CDA5BDB9B1A5CDD10E979A97F0838A835883675F54525F44D254D3D7D51497D4995D9A5CDA5BDB9B1A5CDD10E979A97F0838A835883675F424C5F44D254D3D7D09317D4995D9A5CDA5BDB9B1A5CDD10E979A97F0838A835883675F544C5F44D254D3D7D51317D4995D9A5CDA5BDB9B1A5CDD00
  0
ACAD_PROXY_OBJECT
  5
181
330
17F
100
AcDbProxyObject
 90
      499
 91
      527
 95
       25
 70
     0
 93
       86
310
5DEA0C80A0280A0280A034
  0
ACAD_PROXY_OBJECT
  5
182
330
17F
100
AcDbProxyObject
 90
      499
 91
      528
 95
       25
 70
     0
 93
      282
310
5DD0E4050140501405014050140501405014050141101405014041000000000000001000
340
187
 94
        0
  0
ACAD_PROXY_OBJECT
  5
183
330
17F
100
AcDbProxyObject
 90
      499
 91
      529
 95
       25
 70
     0
 93
      323
310
5DCC199999999999E99F91740501405014050140501405014050140501405014050140501405014040
340
0
 94
        0
  0
ACAD_PROXY_OBJECT
  5
184
330
17F
100
AcDbProxyObject
 90
      499
 91
      530
 95
       25
 70
     0
 93
       10
310
5DC0
  0
ACAD_PROXY_OBJECT
  5
185
330
17F
100
AcDbProxyObject
 90
      499
 91
      531
 95
       25
 70
     0
 93
      257
310
5DE0C16A22A7D90F49F80000000000001081400000000000004204010000618000
340
188
340
189
 94
        0
  0
ACAD_PROXY_OBJECT
  5
186
330
17F
100
AcDbProxyObject
 90
      499
 91
      532
 95
       25
 70
     0
 93
     5277
310
5DD06411255115350141236025B6901405014069010000000000000910240690120281A8AA2CA0282484A4BE52028120280A032020000000000001220480D202405044E414D454050496BC914F4051C40640A80000000000004E4090193C3D3C4946284953424C414E4B28504152543A4E414D45292C424C4F434B3A4E414D
310
452C504152543A4E414D45293E3C41435F44455343524950544E3E40480A109A82A88AA492829880A091BBD2F7E80A3A80C81D0E27A15AF46E08A81203480901411393D5115014124A363B7D0147501904A0000000000000F902406428F4F1050D7D393D5114F901202832B22A72227A92028366EF6EE06F582028EA0320B4
310
0000000000001F20480C879E9E20A1AFAB27222FA620A122A61F20240506445020000000000000490201C00030C00010180000000000003E400000000000000F901073D3C4954454D3E4050180000000000003E400000000000000F901073D3C4954454D3E40501800000000000034400000000000000D101073D3C4954454
310
D3E40501800000000000034400000000000000D101073D3C4954454D3E405029010000000000000F9000000000000003E4041CF4F125511534F901418F4F1455164F9014060000000000000F9000000000000003E4041CF4F125511534F901800000000000034400000000000000D101073D3C4954454D3E40640400000000
310
0000003E400000000000000F90288800000000000020810000001800120881A068120480A032208521122080D21480D211480A1485214852050000000000003C2FC000000000000F0BF40600800030C0200400030C00CDCCCCCCCCCCEC3F3373333333333B0FC3333333333330940C80D069014090341504901A1999999999
310
9984A040100006180400800061804010000618008098A02808
340
0
340
0
 94
        0
  0
ACAD_PROXY_OBJECT
  5
19F00
330
17F
100
AcDbProxyObject
 90
      499
 91
      561
 95
       25
 70
     0
 93
     3042
310
5DD9740D29254D064A49535F413342929254D7D512551311505134A49535F42525F5265766973696F6E6C6973744190F4134522028323937783231306D6D2941D29254D7D04D1490E41312028353934783834316D6D2941929254D7D04C50F41344C2028323130783239376D6D2941D29254D7D04D1310E413320283239377
310
83432306D6D2941929254D7D04CD0E41322028343230783539346D6D2941929254D7D04C90F4130202838343178313138396D6D2941929254D7D04C10243129254C82557247A25E4C81050A4A49535F5449544C454143129254C82557247A25E4C81090A4A49535F5449544C45424110E979A97F0838A835883675F42525F4
310
4D29254D7D09497D4995D9A5CDA5BDB9B1A5CDD10E979A97F0838A835883675F54525F44D29254D7D51497D4995D9A5CDA5BDB9B1A5CDD10E979A97F0838A835883675F424C5F44D29254D7D09317D4995D9A5CDA5BDB9B1A5CDD10E979A97F0838A835883675F544C5F44D29254D7D51317D4995D9A5CDA5BDB9B1A5CDD00
  0
ACAD_PROXY_OBJECT
  5
19F01
330
17F
100
AcDbProxyObject
 90
      499
 91
      562
 95
       25
 70
     0
 93
      898
310
5DC4000000000000124048CF4F11115510525317D3105091530F880A0F11115510525317D05094D4D0D053114F8A50241C9A9999999999B93F26A666666666724FC000000000000E03F400000000000000400000000000000510000000000000024408070000C300000000000000049000
340
16
340
180
 94
        0
  0
ACAD_PROXY_OBJECT
  5
19F02
330
17F
100
AcDbProxyObject
 90
      499
 91
      563
 95
       25
 70
     0
 93
      823
310
5DC0B00000000000002480959E9E29A2A1AA24A7A72FA620A122A62FA324A929AA1F169E29A2A1AA24A7A72FA620A122A62FA620A9AA1F000000000000048803FFFE01C00030C008140380006180000000000000048800000000000000A2000000000000002480
340
652
340
180
 94
        0
  0
ACAD_PROXY_OBJECT
  5
19F04
330
17F
100
AcDbProxyObject
 90
      499
 91
      564
 95
       25
 70
     0
 93
      152
310
5DE8273108AC1C5A0640A3D0A5723F0BD1F200
  0
ACAD_PROXY_OBJECT
  5
19F05
330
17F
100
AcDbProxyObject
 90
      499
 91
      565
 95
       25
 70
     0
 93
       14
310
5DE0
340
0
 94
        0
  0
ACAD_PROXY_OBJECT
  5
19F06
330
17F
100
AcDbProxyObject
 90
      499
 91
      566
 95
       25
 70
     0
 93
     6059
310
5DD084050BA4050AA405024050E836583938376838C815B83672031405983D3C486F6C653A6469613E3C696628657175616C28486F6C653A7465726D696E6174696F6E2C223022292C2220905B82B320222C22208368838A838B22293E3C696628657175616C28486F6C653A7465726D696E6174696F6E2C223022292C486F
310
6C653A64657074682C2222293E2C203C486F6C653A63746469613E2082B482AE82E882CC905B82B3203C486F6C653A637464657074683E406901405034050E836583938376838C815B83672031405EF3D3C486F6C653A6374616E676C653E252564202525633C486F6C653A63746469613E208E4D8C8A2C203C69662865717
310
5616C28486F6C653A7461707065642C223022292C22252563222C486F6C653A6E6F6D696E616C202220782022293E3C696628657175616C28486F6C653A7461707065642C223022292C486F6C653A6469612C486F6C653A706974636864657363293E203C696628657175616C28486F6C653A7465726D696E6174696F6E2C2
310
23022292C22905B82B320222C222022293E3C696628657175616C28486F6C653A7465726D696E6174696F6E2C223022292C486F6C653A64657074682C2222293E406901405014050E836583938376838C815B83672031405C73D3C696628657175616C28486F6C653A7461707065642C223022292C22252563222C486F6C65
310
3A6E6F6D696E616C202220782022293E3C696628657175616C28486F6C653A7461707065642C223022292C486F6C653A6469612C486F6C653A706974636864657363293E203C696628657175616C28486F6C653A7465726D696E6174696F6E2C223022292C22905B82B320222C222022293E3C696628657175616C28486F6C
310
653A7465726D696E6174696F6E2C223022292C486F6C653A64657074682C2222293E4069014051E4090E836583938376838C815B83672032405173D3C535444503A444553433E203C535444503A5354443E40690E836583938376838C815B836720314050C3D3C535444503A444553433E40690240515AAABBA120
360
19F0A
330
19F0A
360
19F0B
330
19F0B
360
19F09
330
19F09
360
19F08
360
19F07
330
19F08
330
19F07
 94
        0
  0
ACAD_PROXY_OBJECT
  5
19F0C
330
17F
100
AcDbProxyObject
 90
      499
 91
      568
 95
       25
 70
     0
 93
       26
310
5DD02A80
340
42
 94
        0
  0
ACAD_PROXY_OBJECT
  5
19F0D
330
17F
100
AcDbProxyObject
 90
      499
 91
      569
 95
       25
 70
     0
 93
      250
310
5DD020000000000000A1000000000000002440408F0F9023C3E409A0DCFFFF80
340
58
340
1B97
340
1B98
340
5F
340
60
340
61
340
62
340
63
340
68
340
0
 94
        0
  0
ACAD_PROXY_OBJECT
  5
19F0E
330
17F
100
AcDbProxyObject
 90
      499
 91
      570
 95
       25
 70
     0
 93
    13889
310
5DD1D003FFFFFFFD030300030CCCCCCCCCCCC250200800030C01030300030CCCCCCCCCCCC250200800030C00050C8DC0955782CC838A83588367014ED1D15395149050D3CB1294138B0C0B23702555E0B320E2A0D620D9CB11D15395149055160B095CCB0A11D1539354D1C819D95B991A5B5E880CCC0A78000C0000000000
310
00000000000000000000010CCCCCCCCCCCC250200800030C010CCCCCCCCCCCC250200800030C020143CF4F111959985D5B1D151A5D1B194F8050A8C8A8365815B8375838B014E51D15395149050D3CB1294138B0C0B2322A0D96056E0DD60E2CB11D15395149055160B095CCB0A11D1539354D1C819D95B991A5B5E880CCC4
310
A78000C000000000000000000000000000000010CCCCCCCCCCCC250200800030C010CCCCCCCCCCCC250200800030C020143CF4F111959985D5B1D151A5D1B194F90D44111409034110541D0C4350F4050E44D03449074510F000141232D24D7C053247454E545241434F2C4A504E2C302C8CB4935F2C47454E54524154582C
310
25732C2847454E4D53472067656E64696D7A20312900010104002214000281464500A608E8A9CA8A482869E5894A09C5860591914588E8A9CA8A482A8B0584AE658508E8A9C9AA68E40CECADCC8D2DAF4406452029E9E9E27B934B3B4B71F1E24A31427A91424A9A12620A7259427B934B3B4B7149624A9A12620A7259424B
310
A32B6949496111116111711149F1E24BA32B69F00808200111A000140560052F47454E545241434F2C4A504E2C302C582C47454E54524154582C25732C2847454E4D53472067656E64696D7A20332900010100002054000280AC80A5E8E8A9CA8A482869E5894A09C586058B2588E8A9CA8A482A8B0584AE658508E8A9C9AA
310
68E40CECADCC8D2DAF4406852000202000040E800050152014BD1D15395149050D3CB1294138B0C0B148B11D15395149055160B095CCB0A11D1539354D1C819D95B991A5B5E880D8A400040400008250000A0507A6029823A2A72A2920A1A79625282716181641E99623A2A72A2920AA2C1612B9961423A2A726A9A39033B2
310
B73234B6BD101B948000808180105A000140A0F4C053047454E545241434F2C4A504E2C302C83D32C47454E54524154582C25732C2847454E4D53472067656E64696D7A203829000101010020F400028248704B5F00A668E8A9CA8A482869E5894A09C58605921C12D7C588E8A9CA8A482A8B0584AE658508E8A9C9AA68E40
310
CECADCC8D2DAF440646052000200080043280005048B4B8A69014CD1D15395149050D3CB1294138B0C0B22D2E29A4B11D15395149055160B095CCB0A11D1539354D1C819D95B991A5B5E880C8C4A4000400100086D0000A09196926BE029923A2A72A2920A1A796252827161816465A49AF9623A2A72A2920AA2C1612B9961
310
423A2A726A9A39033B2B73234B6BD10189480A02620202080043E80005048D8096DA014CD1D15395149050D3CB1294138B0C0B236025B68B11D15395149055160B095CCB0A11D1539354D1C819D95B991A5B5E880C4D0A4000404140280D0000A190687072706CD06C5069D06B0029DA3A2A72A2920A1A7962528271618164
310
1A1C1C9C1B341B141A741AC1623A2A72A2920AA2C1612B9961423A2A726A9A39033B2B73234B6BD10189A94800080820050EA000143A322A0D0E0E4E0D9A0D8A0D3A0D60053D47454E545241434F2C4A504E2C302C8C8A8343839383668362834E83582C47454E54524154582C25732C2847454E4D53472067656E64696D7A
310
2031372900010105002274000281464500A628E8A9CA8A482869E5894A09C5860591914588E8A9CA8A482A8B0584AE658508E8A9C9AA68E40CECADCC8D2DAF440626C52000202080044A8000504909497CA014CD1D15395149050D3CB1294138B0C0B242525F28B11D15395149055160B095CCB0A11D1539354D1C819D95B9
310
91A5B5E880C4E4A400040418008A521E000000000000001CA040C00000000000034408080000000000006881010000000000000D102040000000000001A204080000000000003440818000000000000728103000000000000125020600000000004028A040000000000000034408000000000000004881000000000000000D
310
102000000000000001A204000000000000003440818000000000000508143C0000000000000039408180000000000006881030000000000000D102060000000000001A2040C00000000000034408180000000000006881030000000000000E5020600000000000024A040C0000000000805140800000000000000688100000
310
00000000009102000000000000001A2040000000000000034408180000000000006881030000000000000A10284220000000878000002020000008380000020400000081800000208000000828000002028900000000
340
0
340
0
340
0
340
0
340
180
340
180
 94
        0
  0
ACAD_PROXY_OBJECT
  5
1AF8F
330
1AF8E
100
AcDbProxyObject
 90
      499
 91
      567
 95
       25
 70
     0
 93
     2680
310
5DE0143A0D960E4E0DDA0E32056E0D9C80C4043A013D2525633C486F6C653A63746469613E2078203C486F6C653A637464657074683E20555C503C696628657175616C28486F6C653A7461707065642C223022292C22252563222C486F6C653A6E6F6D696E616C202220782022293E3C696628657175616C28486F6C653A74
310
61707065642C223022292C486F6C653A6469612C486F6C653A706974636864657363293E3C696628657175616C28486F6C653A7461707065642C223122292C22207820222C2222293E3C696628657175616C28486F6C653A7461707065642C223122292C486F6C653A74617064657074682C2222293E203C69662865717561
310
6C28486F6C653A7465726D696E6174696F6E2C223022292C22202F20222C2222293E3C696628657175616C28486F6C653A7465726D696E6174696F6E2C223022292C486F6C653A64657074682C2222293E
  0
ACAD_PROXY_OBJECT
  5
1AF90
330
1AF8E
100
AcDbProxyObject
 90
      499
 91
      567
 95
       25
 70
     0
 93
     2688
310
5DE0143A0D960E4E0DDA0E32056E0D9C80C4043B013D2525633C486F6C653A63746469613E2078203C486F6C653A6374616E676C653E2525645C503C696628657175616C28486F6C653A7461707065642C223022292C22252563222C486F6C653A6E6F6D696E616C202220782022293E3C696628657175616C28486F6C653A
310
7461707065642C223022292C486F6C653A6469612C486F6C653A706974636864657363293E3C696628657175616C28486F6C653A7461707065642C223122292C22207820222C2222293E3C696628657175616C28486F6C653A7461707065642C223122292C486F6C653A74617064657074682C2222293E203C696628657175
310
616C28486F6C653A7465726D696E6174696F6E2C223022292C22202F20222C2222293E3C696628657175616C28486F6C653A7465726D696E6174696F6E2C223022292C486F6C653A64657074682C2222293E
  0
ACAD_PROXY_OBJECT
  5
1AF91
330
1AF8E
100
AcDbProxyObject
 90
      499
 91
      567
 95
       25
 70
     0
 93
     2392
310
5DE0143A0D960E4E0DDA0E32056E0D9C80C40416013D3C696628657175616C28486F6C653A7461707065642C223022292C22252563222C486F6C653A6E6F6D696E616C202220782022293E3C696628657175616C28486F6C653A7461707065642C223022292C486F6C653A6469612C486F6C653A706974636864657363293E
310
3C696628657175616C28486F6C653A7461707065642C223122292C22207820222C2222293E3C696628657175616C28486F6C653A7461707065642C223122292C486F6C653A74617064657074682C2222293E203C696628657175616C28486F6C653A7465726D696E6174696F6E2C223022292C22202F20222C2222293E3C69
310
6628657175616C28486F6C653A7465726D696E6174696F6E2C223022292C486F6C653A64657074682C2222293E
  0
ACAD_PROXY_OBJECT
  5
1AF92
330
1AF8E
100
AcDbProxyObject
 90
      499
 91
      567
 95
       25
 70
     0
 93
      344
310
5DE0143A0D960E4E0DDA0E32056E0D9C80C805173D3C535444503A444553433E203C535444503A5354443E
  0
ACAD_PROXY_OBJECT
  5
1AF93
330
1AF8E
100
AcDbProxyObject
 90
      499
 91
      567
 95
       25
 70
     0
 93
      256
310
5DE0143A0D960E4E0DDA0E32056E0D9C80C4050C3D3C535444503A444553433E
  0
ACAD_PROXY_OBJECT
  5
19F0A
330
19F06
100
AcDbProxyObject
 90
      499
 91
      567
 95
       25
 70
     0
 93
     1376
310
5DE0143A0D960E4E0DDA0E32056E0D9C80C405983D3C486F6C653A6469613E3C696628657175616C28486F6C653A7465726D696E6174696F6E2C223022292C2220905B82B320222C22208368838A838B22293E3C696628657175616C28486F6C653A7465726D696E6174696F6E2C223022292C486F6C653A64657074682C22
310
22293E2C203C486F6C653A63746469613E2082B482AE82E882CC905B82B3203C486F6C653A637464657074683E
  0
ACAD_PROXY_OBJECT
  5
19F0B
330
19F06
100
AcDbProxyObject
 90
      499
 91
      567
 95
       25
 70
     0
 93
     2072
310
5DE0143A0D960E4E0DDA0E32056E0D9C80C405EF3D3C486F6C653A6374616E676C653E252564202525633C486F6C653A63746469613E208E4D8C8A2C203C696628657175616C28486F6C653A7461707065642C223022292C22252563222C486F6C653A6E6F6D696E616C202220782022293E3C696628657175616C28486F6C
310
653A7461707065642C223022292C486F6C653A6469612C486F6C653A706974636864657363293E203C696628657175616C28486F6C653A7465726D696E6174696F6E2C223022292C22905B82B320222C222022293E3C696628657175616C28486F6C653A7465726D696E6174696F6E2C223022292C486F6C653A6465707468
310
2C2222293E
  0
ACAD_PROXY_OBJECT
  5
19F09
330
19F06
100
AcDbProxyObject
 90
      499
 91
      567
 95
       25
 70
     0
 93
     1752
310
5DE0143A0D960E4E0DDA0E32056E0D9C80C405C73D3C696628657175616C28486F6C653A7461707065642C223022292C22252563222C486F6C653A6E6F6D696E616C202220782022293E3C696628657175616C28486F6C653A7461707065642C223022292C486F6C653A6469612C486F6C653A706974636864657363293E20
310
3C696628657175616C28486F6C653A7465726D696E6174696F6E2C223022292C22905B82B320222C222022293E3C696628657175616C28486F6C653A7465726D696E6174696F6E2C223022292C486F6C653A64657074682C2222293E
  0
ACAD_PROXY_OBJECT
  5
19F08
330
19F06
100
AcDbProxyObject
 90
      499
 91
      567
 95
       25
 70
     0
 93
      344
310
5DE0143A0D960E4E0DDA0E32056E0D9C80C805173D3C535444503A444553433E203C535444503A5354443E
  0
ACAD_PROXY_OBJECT
  5
19F07
330
19F06
100
AcDbProxyObject
 90
      499
 91
      567
 95
       25
 70
     0
 93
      256
310
5DE0143A0D960E4E0DDA0E32056E0D9C80C4050C3D3C535444503A444553433E
  0
ENDSEC
  0
EOF
