  0
SECTION
  2
HEADER
  9
$ACADVER
  1
AC1015
  9
$ACADMAINTVER
 70
     6
  9
$DWGCODEPAGE
  3
ANSI_932
  9
$INSBASE
 10
0.0
 20
0.0
 30
0.0
  9
$EXTMIN
 10
-84.24392049754124
 20
-93.41376352899134
 30
0.0
  9
$EXTMAX
 10
155.4582697729217
 20
29.95497398581247
 30
0.0
  9
$LIMMIN
 10
0.0
 20
0.0
  9
$LIMMAX
 10
420.0
 20
297.0
  9
$ORTHOMODE
 70
     0
  9
$REGENMODE
 70
     1
  9
$FILLMODE
 70
     1
  9
$QTEXTMODE
 70
     0
  9
$MIRRTEXT
 70
     1
  9
$LTSCALE
 40
1.0
  9
$ATTMODE
 70
     1
  9
$TEXTSIZE
 40
4.0
  9
$TRACEWID
 40
1.0
  9
$TEXTSTYLE
  7
STANDARD
  9
$CLAYER
  8
AM_0
  9
$CELTYPE
  6
ByLayer
  9
$CECOLOR
 62
   256
  9
$CELTSCALE
 40
1.0
  9
$DISPSILH
 70
     0
  9
$DIMSCALE
 40
1.0
  9
$DIMASZ
 40
2.5
  9
$DIMEXO
 40
0.0
  9
$DIMDLI
 40
10.0
  9
$DIMRND
 40
0.0
  9
$DIMDLE
 40
0.0
  9
$DIMEXE
 40
1.0
  9
$DIMTP
 40
0.1
  9
$DIMTM
 40
0.1000000001
  9
$DIMTXT
 40
3.8
  9
$DIMCEN
 40
0.0
  9
$DIMTSZ
 40
0.0
  9
$DIMTOL
 70
     0
  9
$DIMLIM
 70
     0
  9
$DIMTIH
 70
     0
  9
$DIMTOH
 70
     0
  9
$DIMSE1
 70
     0
  9
$DIMSE2
 70
     0
  9
$DIMTAD
 70
     3
  9
$DIMZIN
 70
     1
  9
$DIMBLK
  1
Open30
  9
$DIMASO
 70
     1
  9
$DIMSHO
 70
     1
  9
$DIMPOST
  1

  9
$DIMAPOST
  1
"
  9
$DIMALT
 70
     0
  9
$DIMALTD
 70
     2
  9
$DIMALTF
 40
0.0393701
  9
$DIMLFAC
 40
1.0
  9
$DIMTOFL
 70
     1
  9
$DIMTVP
 40
0.0
  9
$DIMTIX
 70
     0
  9
$DIMSOXD
 70
     0
  9
$DIMSAH
 70
     0
  9
$DIMBLK1
  1

  9
$DIMBLK2
  1

  9
$DIMSTYLE
  2
AM_JIS
  9
$DIMCLRD
 70
   256
  9
$DIMCLRE
 70
   256
  9
$DIMCLRT
 70
     2
  9
$DIMTFAC
 40
0.71
  9
$DIMGAP
 40
1.5
  9
$DIMJUST
 70
     0
  9
$DIMSD1
 70
     0
  9
$DIMSD2
 70
     0
  9
$DIMTOLJ
 70
     0
  9
$DIMTZIN
 70
     8
  9
$DIMALTZ
 70
     0
  9
$DIMALTTZ
 70
     0
  9
$DIMUPT
 70
     0
  9
$DIMDEC
 70
     0
  9
$DIMTDEC
 70
     3
  9
$DIMALTU
 70
     2
  9
$DIMALTTD
 70
     2
  9
$DIMTXSTY
  7
STANDARD
  9
$DIMAUNIT
 70
     1
  9
$DIMADEC
 70
     0
  9
$DIMALTRND
 40
0.0
  9
$DIMAZIN
 70
     2
  9
$DIMDSEP
 70
    46
  9
$DIMATFIT
 70
     3
  9
$DIMFRAC
 70
     0
  9
$DIMLDRBLK
  1
Open30
  9
$DIMLUNIT
 70
     2
  9
$DIMLWD
 70
    -1
  9
$DIMLWE
 70
    -1
  9
$DIMTMOVE
 70
     0
  9
$LUNITS
 70
     2
  9
$LUPREC
 70
     4
  9
$SKETCHINC
 40
1.0
  9
$FILLETRAD
 40
0.4
  9
$AUNITS
 70
     0
  9
$AUPREC
 70
     4
  9
$MENU
  1
.
  9
$ELEVATION
 40
0.0
  9
$PELEVATION
 40
0.0
  9
$THICKNESS
 40
0.0
  9
$LIMCHECK
 70
     0
  9
$CHAMFERA
 40
2.0
  9
$CHAMFERB
 40
2.0
  9
$CHAMFERC
 40
20.0
  9
$CHAMFERD
 40
0.0
  9
$SKPOLY
 70
     0
  9
$TDCREATE
 40
2451943.610431667
  9
$TDUCREATE
 40
2451943.235431667
  9
$TDUPDATE
 40
2455482.6001114
  9
$TDUUPDATE
 40
2455482.2251114
  9
$TDINDWG
 40
1.8707536458
  9
$TDUSRTIMER
 40
1.8707534722
  9
$USRTIMER
 70
     1
  9
$ANGBASE
 50
0.0
  9
$ANGDIR
 70
     0
  9
$PDMODE
 70
     0
  9
$PDSIZE
 40
0.0
  9
$PLINEWID
 40
0.0
  9
$SPLFRAME
 70
     0
  9
$SPLINETYPE
 70
     6
  9
$SPLINESEGS
 70
     8
  9
$HANDSEED
  5
1BD6F
  9
$SURFTAB1
 70
     6
  9
$SURFTAB2
 70
     6
  9
$SURFTYPE
 70
     6
  9
$SURFU
 70
     6
  9
$SURFV
 70
     6
  9
$UCSBASE
  2

  9
$UCSNAME
  2

  9
$UCSORG
 10
0.0
 20
0.0
 30
0.0
  9
$UCSXDIR
 10
1.0
 20
0.0
 30
0.0
  9
$UCSYDIR
 10
0.0
 20
1.0
 30
0.0
  9
$UCSORTHOREF
  2

  9
$UCSORTHOVIEW
 70
     0
  9
$UCSORGTOP
 10
0.0
 20
0.0
 30
0.0
  9
$UCSORGBOTTOM
 10
0.0
 20
0.0
 30
0.0
  9
$UCSORGLEFT
 10
0.0
 20
0.0
 30
0.0
  9
$UCSORGRIGHT
 10
0.0
 20
0.0
 30
0.0
  9
$UCSORGFRONT
 10
0.0
 20
0.0
 30
0.0
  9
$UCSORGBACK
 10
0.0
 20
0.0
 30
0.0
  9
$PUCSBASE
  2

  9
$PUCSNAME
  2

  9
$PUCSORG
 10
0.0
 20
0.0
 30
0.0
  9
$PUCSXDIR
 10
1.0
 20
0.0
 30
0.0
  9
$PUCSYDIR
 10
0.0
 20
1.0
 30
0.0
  9
$PUCSORTHOREF
  2

  9
$PUCSORTHOVIEW
 70
     0
  9
$PUCSORGTOP
 10
0.0
 20
0.0
 30
0.0
  9
$PUCSORGBOTTOM
 10
0.0
 20
0.0
 30
0.0
  9
$PUCSORGLEFT
 10
0.0
 20
0.0
 30
0.0
  9
$PUCSORGRIGHT
 10
0.0
 20
0.0
 30
0.0
  9
$PUCSORGFRONT
 10
0.0
 20
0.0
 30
0.0
  9
$PUCSORGBACK
 10
0.0
 20
0.0
 30
0.0
  9
$USERI1
 70
     0
  9
$USERI2
 70
     0
  9
$USERI3
 70
     0
  9
$USERI4
 70
     0
  9
$USERI5
 70
     0
  9
$USERR1
 40
0.0
  9
$USERR2
 40
0.0
  9
$USERR3
 40
0.0
  9
$USERR4
 40
0.0
  9
$USERR5
 40
0.0
  9
$WORLDVIEW
 70
     1
  9
$SHADEDGE
 70
     3
  9
$SHADEDIF
 70
    70
  9
$TILEMODE
 70
     1
  9
$MAXACTVP
 70
    64
  9
$PINSBASE
 10
0.0
 20
0.0
 30
0.0
  9
$PLIMCHECK
 70
     0
  9
$PEXTMIN
 10
1.000000000000000E+20
 20
1.000000000000000E+20
 30
1.000000000000000E+20
  9
$PEXTMAX
 10
-1.000000000000000E+20
 20
-1.000000000000000E+20
 30
-1.000000000000000E+20
  9
$PLIMMIN
 10
0.0
 20
0.0
  9
$PLIMMAX
 10
420.0
 20
297.0
  9
$UNITMODE
 70
     0
  9
$VISRETAIN
 70
     1
  9
$PLINEGEN
 70
     0
  9
$PSLTSCALE
 70
     1
  9
$TREEDEPTH
 70
  3020
  9
$CMLSTYLE
  2
Standard
  9
$CMLJUST
 70
     0
  9
$CMLSCALE
 40
20.0
  9
$PROXYGRAPHICS
 70
     1
  9
$MEASUREMENT
 70
     1
  9
$CELWEIGHT
370
    -1
  9
$ENDCAPS
280
     0
  9
$JOINSTYLE
280
     0
  9
$LWDISPLAY
290
     0
  9
$INSUNITS
 70
     4
  9
$HYPERLINKBASE
  1

  9
$STYLESHEET
  1
sei_cad.ctb
  9
$XEDIT
290
     1
  9
$CEPSNTYPE
380
     0
  9
$PSTYLEMODE
290
     1
  9
$FINGERPRINTGUID
  2
{C77AB3BE-9CA2-11D3-BAF3-006094EB760E}
  9
$VERSIONGUID
  2
{B63D8B5F-4F25-4539-A8F1-FB1A0C023159}
  9
$EXTNAMES
290
     1
  9
$PSVPSCALE
 40
0.0
  9
$OLESTARTUP
290
     0
  0
ENDSEC
  0
SECTION
  2
CLASSES
  0
CLASS
  1
ACDBDICTIONARYWDFLT
  2
AcDbDictionaryWithDefault
  3
ObjectDBX Classes
 90
        0
280
     0
281
     0
  0
CLASS
  1
ACDBPLACEHOLDER
  2
AcDbPlaceHolder
  3
ObjectDBX Classes
 90
        0
280
     0
281
     0
  0
CLASS
  1
LAYOUT
  2
AcDbLayout
  3
ObjectDBX Classes
 90
        0
280
     0
281
     0
  0
CLASS
  1
ACME_DOCUMENT
  2
AcMeDbDoc
  3
AcMeServices
 90
        0
280
     1
281
     0
  0
CLASS
  1
ACMESCOPE
  2
AcMeScope
  3
AcMeServices
 90
        0
280
     1
281
     0
  0
CLASS
  1
ACMECOMMANDHISTORY
  2
AcMeCommandHistory
  3
AcMeServices
 90
        0
280
     1
281
     0
  0
CLASS
  1
DICTIONARYVAR
  2
AcDbDictionaryVar
  3
ObjectDBX Classes
 90
        0
280
     0
281
     0
  0
CLASS
  1
ACIMSYSVARMAN
  2
AcImSysVarManager
  3
AcMeServices
 90
        0
280
     1
281
     0
  0
CLASS
  1
ACIMREALSYSVAR
  2
AcImRealSysVar
  3
AcMeServices
 90
        0
280
     1
281
     0
  0
CLASS
  1
ACIMINTSYSVAR
  2
AcImIntSysVar
  3
AcMeServices
 90
        0
280
     1
281
     0
  0
CLASS
  1
ACMEDRAWINGMAN
  2
AcMeDrawingMan
  3
AcMeServices
 90
        0
280
     1
281
     0
  0
CLASS
  1
ACMEVIEW
  2
AcMeView
  3
AcMeServices
 90
        0
280
     1
281
     0
  0
CLASS
  1
ACDBENTITYCACHE
  2
AcMeEntityCache
  3
AcMeServices
 90
        0
280
     1
281
     0
  0
CLASS
  1
GSMANAGER
  2
AcMeGSManager
  3
AcMeServices
 90
        0
280
     1
281
     0
  0
CLASS
  1
AMDTINTERNALREACTOR
  2
AmdtInternalReactor
  3
AcMeServices
 90
        0
280
     1
281
     0
  0
CLASS
  1
ACMESTATEMGR
  2
AcMeStateMgr
  3
AcMeServices
 90
        0
280
     1
281
     0
  0
CLASS
  1
ACME_DATABASE
  2
AcMeDbDatabase
  3
AcMeServices
 90
        0
280
     1
281
     0
  0
CLASS
  1
ACRFINSADJUSTERMGR
  2
AcRfInsAdjusterMgr
  3
AcMeServices
 90
        0
280
     1
281
     0
  0
CLASS
  1
AMGSETTINGSOBJ
  2
AmgSettingsObj
  3
"AcadM|Product Description: AutoCAD Mechanical 2000|Company: Autodesk"
 90
        0
280
     1
281
     0
  0
CLASS
  1
AMGOBJPROPCFG
  2
AmgObjPropCfg
  3
"AmgLay|Product Description: AutoCAD Mechanical 2000|Company: Autodesk"
 90
        1
280
     1
281
     0
  0
CLASS
  1
ACMDATADICTIONARY
  2
AcmDataDictionary
  3
"AcmSymBB|Product Description: AutoCAD Mechanical 2004 DX|Company: Autodesk"
 90
        0
280
     1
281
     0
  0
CLASS
  1
ACMDATAENTRYBLOCK
  2
AcmDataEntryBlock
  3
"AcmSymBB|Product Description: AutoCAD Mechanical 2004 DX|Company: Autodesk"
 90
        0
280
     1
281
     0
  0
CLASS
  1
ACIMSTRSYSVAR
  2
AcImStrSysVar
  3
AcMeServices
 90
        0
280
     1
281
     0
  0
CLASS
  1
ACAMGFILTERDAT
  2
AcAmgFilterDat
  3
"AcadM|Product Description: AutoCAD Mechanical 2000|Company: Autodesk"
 90
        0
280
     1
281
     0
  0
CLASS
  1
LAYER_INDEX
  2
AcDbLayerIndex
  3
ObjectDBX Classes
 90
        0
280
     0
281
     0
  0
CLASS
  1
IDBUFFER
  2
AcDbIdBuffer
  3
ObjectDBX Classes
 90
        0
280
     0
281
     0
  0
CLASS
  1
ACMSTANDARDJIS
  2
AcmStandardJIS
  3
"Amdt_StdImp|Product Description: AutoCAD Mechanical 2004 DX|Company: Autodesk"
 90
        0
280
     1
281
     0
  0
CLASS
  1
ACMSURFSTANDARDJIS
  2
AcmSurfTextStdJIS
  3
"Amdt_StdImp|Product Description: AutoCAD Mechanical 2004 DX|Company: Autodesk"
 90
        0
280
     1
281
     0
  0
CLASS
  1
ACMFCFSTANDARDJIS
  2
AcmFCFStdJIS
  3
"Amdt_StdImp|Product Description: AutoCAD Mechanical 2004 DX|Company: Autodesk"
 90
        0
280
     1
281
     0
  0
CLASS
  1
ACMWELDSTANDARDJIS
  2
AcmWeldingStdJIS
  3
"Amdt_StdImp|Product Description: AutoCAD Mechanical 2004 DX|Company: Autodesk"
 90
        0
280
     1
281
     0
  0
CLASS
  1
ACMIDSTANDARDJIS
  2
AcmIdStdJIS
  3
"Amdt_StdImp|Product Description: AutoCAD Mechanical 2004 DX|Company: Autodesk"
 90
        0
280
     1
281
     0
  0
CLASS
  1
ACMDATUMSTANDARDJIS
  2
AcmDatumStdJIS
  3
"Amdt_StdImp|Product Description: AutoCAD Mechanical 2004 DX|Company: Autodesk"
 90
        0
280
     1
281
     0
  0
CLASS
  1
ACMBOMSTANDARDJIS
  2
AcmBOMStdJIS
  3
"Amdt_StdImp|Product Description: AutoCAD Mechanical 2004 DX|Company: Autodesk"
 90
        0
280
     1
281
     0
  0
CLASS
  1
AMDTNOTE
  2
AmdtNote
  3
"AcmSymBB|Product Description: AutoCAD Mechanical 2004 DX|Company: Autodesk"
 90
     1023
280
     1
281
     1
  0
CLASS
  1
TABLESTYLE
  2
AcDbTableStyle
  3
ObjectDBX Classes
 90
     2047
280
     0
281
     0
  0
CLASS
  1
ACGREFMASTER
  2
AcGrefMaster
  3
AcAttribServices
 90
        0
280
     1
281
     0
  0
CLASS
  1
AM_DRAWING_MGR
  2
AcDmDwgMgr
  3
AcMechDwgViewMgmt
 90
        0
280
     1
281
     0
  0
CLASS
  1
AM_DWG_DOCUMENT
  2
AcDmDwgDocument
  3
AcMechDwgViewMgmt
 90
        0
280
     1
281
     0
  0
CLASS
  1
AM_DWG_SHEET
  2
AcDmSheet
  3
AcMechDwgViewMgmt
 90
        0
280
     1
281
     0
  0
CLASS
  1
AM_VIEWDIMPARMAP
  2
AcDmViewDimParMap
  3
AcMechDwgViewMgmt
 90
        0
280
     1
281
     0
  0
CLASS
  1
AM_DWGMGR_NAME
  2
AcDmDwgMgrName
  3
AcMechDwgViewMgmt
 90
        0
280
     1
281
     0
  0
CLASS
  1
ACGREFACADMASTER
  2
AcGrefacadMaster
  3
AcGrefServices
 90
        0
280
     1
281
     0
  0
CLASS
  1
AMDTMENUSTATEMGR
  2
AmdtMenuStateMgr
  3
McadcomServices
 90
        0
280
     1
281
     0
  0
CLASS
  1
AMDTMCOMMENUSTATE
  2
AmdtMcomMenuState
  3
McadcomServices
 90
        0
280
     1
281
     0
  0
CLASS
  1
AMIMASTER
  2
AmiMaster
  3
AmiServices
 90
        0
280
     1
281
     0
  0
CLASS
  1
MAPIAMMOUDLE
  2
MApiAmModule
  3
MApiAmServices
 90
        0
280
     1
281
     0
  0
CLASS
  1
AMDTADMENUSTATE
  2
AmdtAdMenuState
  3
DesignerServices
 90
        0
280
     1
281
     0
  0
CLASS
  1
ADAPPL
  2
AcAdAppl
  3
DesignerServices
 90
        0
280
     1
281
     0
  0
CLASS
  1
DEPMGR
  2
AcAdDepMgr
  3
DesignerServices
 90
        0
280
     1
281
     0
  0
CLASS
  1
PARAMMGR
  2
AcAdParamMgr
  3
DesignerServices
 90
        0
280
     1
281
     0
  0
CLASS
  1
PARAMSCOPE
  2
AcAdParamScope
  3
DesignerServices
 90
        0
280
     1
281
     0
  0
CLASS
  1
NAMEDAPPL
  2
AcAdNamedAppl
  3
DesignerServices
 90
        0
280
     1
281
     0
  0
CLASS
  1
AMDTDMMENUSTATE
  2
AmdtDmMenuState
  3
AcMechDwgViewMgmt
 90
        0
280
     1
281
     0
  0
CLASS
  1
AMDTAMMENUSTATE
  2
AmdtAmMenuState
  3
DesignerAssemblies
 90
        0
280
     1
281
     0
  0
CLASS
  1
ACAMPROJECT
  2
AcAmProject
  3
DesignerAssemblies
 90
        0
280
     1
281
     0
  0
CLASS
  1
ACAMGRCOMPDEF
  2
AcAmGrCompDef
  3
DesignerAssemblies
 90
        0
280
     1
281
     0
  0
CLASS
  1
ACCMCONTEXT
  2
AcCmContext
  3
DesignerAssemblies
 90
        0
280
     1
281
     0
  0
CLASS
  1
ACAMCOMPDEF
  2
AcAmCompDef
  3
DesignerAssemblies
 90
        0
280
     1
281
     0
  0
CLASS
  1
ACAMCOMPDEFMGR
  2
AcAmCompDefMgr
  3
DesignerAssemblies
 90
        0
280
     1
281
     0
  0
CLASS
  1
AMCONTEXTMGR
  2
AcAmContextMgr
  3
DesignerAssemblies
 90
        0
280
     1
281
     0
  0
CLASS
  1
ACAMCONTEXTMODELER
  2
AcAmContextModeler
  3
DesignerAssemblies
 90
        0
280
     1
281
     0
  0
CLASS
  1
ACAMGTITLESTD
  2
AcAmgTitleStd
  3
"TITLEAPP"
 90
        0
280
     1
281
     0
  0
CLASS
  1
ACMDETAILSTANDARDJIS
  2
AmdtDetailSymStdJIS
  3
"Amdt_StdImp|Product Description: AutoCAD Mechanical 2004 DX|Company: Autodesk"
 90
        0
280
     1
281
     0
  0
CLASS
  1
ACMSECTIONSTANDARDJIS
  2
AmdtSectionSymStdJIS
  3
"Amdt_StdImp|Product Description: AutoCAD Mechanical 2004 DX|Company: Autodesk"
 90
        0
280
     1
281
     0
  0
CLASS
  1
ACMCENTERLINESTANDARDJIS
  2
AmdtCenterLineStdJIS
  3
"Amdt_StdImp|Product Description: AutoCAD Mechanical 2004 DX|Company: Autodesk"
 90
        0
280
     1
281
     0
  0
CLASS
  1
ACMTHREADLINESTANDARDJIS
  2
AmdtThreadLineStdJIS
  3
"Amdt_StdImp|Product Description: AutoCAD Mechanical 2004 DX|Company: Autodesk"
 90
        0
280
     1
281
     0
  0
CLASS
  1
ACMNOTESTANDARDJIS
  2
AmdtNoteStdJIS
  3
"Amdt_StdImp|Product Description: AutoCAD Mechanical 2004 DX|Company: Autodesk"
 90
        0
280
     1
281
     0
  0
CLASS
  1
AMDTNOTETEMPLATEDB
  2
AmdtNoteTemplateDB
  3
AMDT_STDIMP_MODULE_NAME
 90
        0
280
     1
281
     0
  0
CLASS
  1
ACAMGLAYSTD
  2
AcAmgLayStd
  3
"AcAmgLayStd|Product Description: AutoCAD Mechanical 2000|Company: Autodesk"
 90
        0
280
     1
281
     0
  0
CLASS
  1
ACAMGDIMSTD
  2
AcAmgDimStd
  3
"AcAmgDimStd|Product Description: AutoCAD Mechanical 2000|Company: Autodesk"
 90
        0
280
     1
281
     0
  0
CLASS
  1
ACAMGHOLECHARTSTDJIS
  2
AcAmgHoleChartStdJIS
  3
ACMSYMBB_MODULE_NAME
 90
        0
280
     1
281
     0
  0
CLASS
  1
CATALOGSTATE
  2
AcAmCatalogState
  3
DesignerAssemblies
 90
        0
280
     1
281
     0
  0
CLASS
  1
ACAMGRCOMPDEFSET
  2
AcAmGrCompDefSet
  3
DesignerAssemblies
 90
        0
280
     1
281
     0
  0
CLASS
  1
AMDTBROWSERDBTAB
  2
AmdtBrowserDbTab
  3
McadcomServices
 90
        0
280
     1
281
     0
  0
CLASS
  1
CBROWSERAPPOBJECT
  2
CBrowserAppObject
  3
McadcomServices
 90
        0
280
     1
281
     0
  0
CLASS
  1
DM_PLACEHOLDER
  2
AcDmSelsetPlaceholder
  3
AcMechDwgViewMgmt
 90
        0
280
     1
281
     0
  0
CLASS
  1
ACMSTANDARDISO
  2
AcmStandardISO
  3
"Amdt_StdImp|Product Description: AutoCAD Mechanical 2004 DX|Company: Autodesk"
 90
        0
280
     1
281
     0
  0
CLASS
  1
AMDTEDGESTANDARDISO13715
  2
AmdtEdgeStdISO13715
  3
"Amdt_StdImp|Product Description: AutoCAD Mechanical 2004 DX|Company: Autodesk"
 90
        0
280
     1
281
     0
  0
CLASS
  1
ACMSURFSTANDARDISO
  2
AcmSurfTextStdISO
  3
"Amdt_StdImp|Product Description: AutoCAD Mechanical 2004 DX|Company: Autodesk"
 90
        0
280
     1
281
     0
  0
CLASS
  1
ACMFCFSTANDARDISO
  2
AcmFCFStdISO
  3
"Amdt_StdImp|Product Description: AutoCAD Mechanical 2004 DX|Company: Autodesk"
 90
        0
280
     1
281
     0
  0
CLASS
  1
ACMWELDSTANDARDISO
  2
AcmWeldingStdISO
  3
"Amdt_StdImp|Product Description: AutoCAD Mechanical 2004 DX|Company: Autodesk"
 90
        0
280
     1
281
     0
  0
CLASS
  1
ACMIDSTANDARDISO
  2
AcmIdStdISO
  3
"Amdt_StdImp|Product Description: AutoCAD Mechanical 2004 DX|Company: Autodesk"
 90
        0
280
     1
281
     0
  0
CLASS
  1
ACMDATUMSTANDARDISO
  2
AcmDatumStdISO
  3
"Amdt_StdImp|Product Description: AutoCAD Mechanical 2004 DX|Company: Autodesk"
 90
        0
280
     1
281
     0
  0
CLASS
  1
ACMBOMSTANDARDISO
  2
AcmBOMStdISO
  3
"Amdt_StdImp|Product Description: AutoCAD Mechanical 2004 DX|Company: Autodesk"
 90
        0
280
     1
281
     0
  0
CLASS
  1
ACMDETAILSTANDARDISO
  2
AmdtDetailSymStdISO
  3
"Amdt_StdImp|Product Description: AutoCAD Mechanical 2004 DX|Company: Autodesk"
 90
        0
280
     1
281
     0
  0
CLASS
  1
ACMSECTIONSTANDARDISO
  2
AmdtSectionSymStdISO
  3
"Amdt_StdImp|Product Description: AutoCAD Mechanical 2004 DX|Company: Autodesk"
 90
        0
280
     1
281
     0
  0
CLASS
  1
ACMCENTERLINESTANDARDISO
  2
AmdtCenterLineStdISO
  3
"Amdt_StdImp|Product Description: AutoCAD Mechanical 2004 DX|Company: Autodesk"
 90
        0
280
     1
281
     0
  0
CLASS
  1
ACMTHREADLINESTANDARDISO
  2
AmdtThreadLineStdISO
  3
"Amdt_StdImp|Product Description: AutoCAD Mechanical 2004 DX|Company: Autodesk"
 90
        0
280
     1
281
     0
  0
CLASS
  1
ACMNOTESTANDARDISO
  2
AmdtNoteStdISO
  3
"Amdt_StdImp|Product Description: AutoCAD Mechanical 2004 DX|Company: Autodesk"
 90
        0
280
     1
281
     0
  0
CLASS
  1
ACAMGHOLECHARTSTDISO
  2
AcAmgHoleChartStdISO
  3
ACMSYMBB_MODULE_NAME
 90
        0
280
     1
281
     0
  0
CLASS
  1
ACRFATTGENMGR
  2
AcRfAttGeneralMgr
  3
AcAttribServices
 90
        0
280
     1
281
     0
  0
CLASS
  1
SORTENTSTABLE
  2
AcDbSortentsTable
  3
ObjectDBX Classes
 90
        0
280
     0
281
     0
  0
ENDSEC
  0
SECTION
  2
TABLES
  0
TABLE
  2
VPORT
  5
8
330
0
100
AcDbSymbolTable
 70
     3
  0
VPORT
  5
1BD67
330
8
100
AcDbSymbolTableRecord
100
AcDbViewportTableRecord
  2
*Active
 70
     0
 10
0.0
 20
0.0
 11
1.0
 21
1.0
 12
56.46733968589174
 22
-31.73050047075799
 13
0.0
 23
0.0
 14
2.5
 24
2.5
 15
10.0
 25
10.0
 16
0.0
 26
0.0
 36
1.0
 17
0.0
 27
0.0
 37
0.0
 40
175.6897931725326
 41
1.610603290676417
 42
50.0
 43
0.0
 44
0.0
 50
0.0
 51
0.0
 71
    16
 72
  2000
 73
     1
 74
     3
 75
     0
 76
     0
 77
     0
 78
     0
281
     0
 65
     1
110
0.0
120
0.0
130
0.0
111
1.0
121
0.0
131
0.0
112
0.0
122
1.0
132
0.0
 79
     0
146
0.0
  0
ENDTAB
  0
TABLE
  2
LTYPE
  5
5
330
0
100
AcDbSymbolTable
 70
    16
  0
LTYPE
  5
14
330
5
100
AcDbSymbolTableRecord
100
AcDbLinetypeTableRecord
  2
ByBlock
 70
     0
  3

 72
    65
 73
     0
 40
0.0
  0
LTYPE
  5
15
330
5
100
AcDbSymbolTableRecord
100
AcDbLinetypeTableRecord
  2
ByLayer
 70
     0
  3

 72
    65
 73
     0
 40
0.0
  0
LTYPE
  5
16
330
5
100
AcDbSymbolTableRecord
100
AcDbLinetypeTableRecord
  2
Continuous
 70
     0
  3
Solid line
 72
    65
 73
     0
 40
0.0
  0
LTYPE
  5
43
330
5
100
AcDbSymbolTableRecord
100
AcDbLinetypeTableRecord
  2
AM_ISO02W050
 70
     0
  3
__ __ __ __ __ __ __ __ __ __ __ __ __ __ __
 72
    65
 73
     2
 40
7.5
 49
6.0
 74
     0
 49
-1.5
 74
     0
  0
LTYPE
  5
44
330
5
100
AcDbSymbolTableRecord
100
AcDbLinetypeTableRecord
  2
AM_ISO08W050
 70
     0
  3
____ . ____ . ____ . ____ . ____ . ____ . ____
 72
    65
 73
     4
 40
18.0
 49
12.0
 74
     0
 49
-1.5
 74
     0
 49
3.0
 74
     0
 49
-1.5
 74
     0
  0
LTYPE
  5
45
330
5
100
AcDbSymbolTableRecord
100
AcDbLinetypeTableRecord
  2
AM_ISO09W050
 70
     0
  3
_____ . . _____ . . _____ . . ____ .. ____
 72
    65
 73
     6
 40
22.5
 49
12.0
 74
     0
 49
-1.5
 74
     0
 49
3.0
 74
     0
 49
-1.5
 74
     0
 49
3.0
 74
     0
 49
-1.5
 74
     0
  0
LTYPE
  5
46
330
5
100
AcDbSymbolTableRecord
100
AcDbLinetypeTableRecord
  2
Amconstr
 70
     0
  3
_______________________
 72
    65
 73
     2
 40
9999.0
 49
9999.0
 74
     0
 49
0.0
 74
     0
  0
LTYPE
  5
47
330
5
100
AcDbSymbolTableRecord
100
AcDbLinetypeTableRecord
  2
AM_ISO02W050x2
 70
     0
  3
 _ _ _ _ _ _ _ _ _ _ _ _
 72
    65
 73
     2
 40
3.75
 49
3.0
 74
     0
 49
-0.75
 74
     0
  0
LTYPE
  5
48
330
5
100
AcDbSymbolTableRecord
100
AcDbLinetypeTableRecord
  2
AM_ISO08W050x2
 70
     0
  3
__ . __ . __ . __ . __ . __
 72
    65
 73
     4
 40
9.0
 49
6.0
 74
     0
 49
-0.75
 74
     0
 49
1.5
 74
     0
 49
-0.75
 74
     0
  0
LTYPE
  5
4B
330
5
100
AcDbSymbolTableRecord
100
AcDbLinetypeTableRecord
  2
Amzigzag
 70
     0
  3
/\/-/\/-/\/-/\/-/\/-/\/
 72
    65
 73
     2
 40
11.0001
 49
0.0001
 74
     4
 75
   135
340
4A
 46
0.04
 50
0.0
 44
0.0
 45
0.0
 49
-11.0
 74
     0
  0
LTYPE
  5
188
330
5
100
AcDbSymbolTableRecord
100
AcDbLinetypeTableRecord
  2
ACJISTGB
 70
     0
  3
__ . . __ . .
 72
    65
 73
     6
 40
9.0
 49
4.0
 74
     0
 49
-1.0
 74
     0
 49
1.0
 74
     0
 49
-1.0
 74
     0
 49
1.0
 74
     0
 49
-1.0
 74
     0
  0
LTYPE
  5
189
330
5
100
AcDbSymbolTableRecord
100
AcDbLinetypeTableRecord
  2
ACJISTGL
 70
     0
  3
_ _ _ _ _
 72
    65
 73
     2
 40
3.0
 49
2.0
 74
     0
 49
-1.0
 74
     0
  0
LTYPE
  5
652
330
5
100
AcDbSymbolTableRecord
100
AcDbLinetypeTableRecord
  2
CENTER
 70
     0
  3
____ _ ____ _ ____ _ ____ _ ____ _ ____ _ ____
 72
    65
 73
     4
 40
17.5
 49
13.0
 74
     0
 49
-1.5
 74
     0
 49
1.5
 74
     0
 49
-1.5
 74
     0
  0
LTYPE
  5
12AB
330
5
100
AcDbSymbolTableRecord
100
AcDbLinetypeTableRecord
  2
HIDDEN
 70
     0
  3
Hidden __ __ __ __ __ __ __ __ __ __ __ __ __ _
 72
    65
 73
     2
 40
0.375
 49
0.25
 74
     0
 49
-0.125
 74
     0
  0
LTYPE
  5
12AC
330
5
100
AcDbSymbolTableRecord
100
AcDbLinetypeTableRecord
  2
PHANTOM2
 70
     0
  3
Phantom (.5x) ___ _ _ ___ _ _ ___ _ _ ___ _ _
 72
    65
 73
     6
 40
1.25
 49
0.625
 74
     0
 49
-0.125
 74
     0
 49
0.125
 74
     0
 49
-0.125
 74
     0
 49
0.125
 74
     0
 49
-0.125
 74
     0
  0
LTYPE
  5
1A331
330
5
100
AcDbSymbolTableRecord
100
AcDbLinetypeTableRecord
  2
ACISOWELD
 70
     0
  3
_ _ _ _ _
 72
    65
 73
     2
 40
2.0
 49
2.0
 74
     0
 49
-1.0
 74
     0
  0
LTYPE
  5
1A332
330
5
100
AcDbSymbolTableRecord
100
AcDbLinetypeTableRecord
  2
ACISOTGB
 70
     0
  3
__ . . __ . .
 72
    65
 73
     6
 40
9.0
 49
4.0
 74
     0
 49
-1.0
 74
     0
 49
1.0
 74
     0
 49
-1.0
 74
     0
 49
1.0
 74
     0
 49
-1.0
 74
     0
  0
LTYPE
  5
1A333
330
5
100
AcDbSymbolTableRecord
100
AcDbLinetypeTableRecord
  2
ACISOTGL
 70
     0
  3
_ _ _ _ _
 72
    65
 73
     2
 40
3.0
 49
2.0
 74
     0
 49
-1.0
 74
     0
  0
ENDTAB
  0
TABLE
  2
LAYER
  5
2
102
{ACAD_XDICTIONARY
360
1A33D
102
}
330
0
100
AcDbSymbolTable
 70
     8
  0
LAYER
  5
10
330
2
100
AcDbSymbolTableRecord
100
AcDbLayerTableRecord
  2
0
 70
     0
 62
     7
  6
Continuous
370
    -3
390
F
  0
LAYER
  5
7D
330
2
100
AcDbSymbolTableRecord
100
AcDbLayerTableRecord
  2
AM_5
 70
     0
 62
     3
  6
Continuous
370
    13
390
F
  0
LAYER
  5
7F
330
2
100
AcDbSymbolTableRecord
100
AcDbLayerTableRecord
  2
Defpoints
 70
     0
 62
     7
  6
Continuous
290
     0
370
    -3
390
F
  0
LAYER
  5
12B1
330
2
100
AcDbSymbolTableRecord
100
AcDbLayerTableRecord
  2
AM_0
 70
     0
 62
     7
  6
Continuous
370
    30
390
F
  0
LAYER
  5
12B2
330
2
100
AcDbSymbolTableRecord
100
AcDbLayerTableRecord
  2
AM_4
 70
     0
 62
     3
  6
Continuous
370
    13
390
F
  0
LAYER
  5
1AFF
330
2
100
AcDbSymbolTableRecord
100
AcDbLayerTableRecord
  2
AM_7
 70
     0
 62
     4
  6
AM_ISO08W050
370
    13
390
F
  0
LAYER
  5
361D
330
2
100
AcDbSymbolTableRecord
100
AcDbLayerTableRecord
  2
AM_11
 70
     0
 62
     3
  6
AM_ISO09W050
370
    13
390
F
  0
ENDTAB
  0
TABLE
  2
STYLE
  5
3
330
0
100
AcDbSymbolTable
 70
     6
  0
STYLE
  5
11
330
3
100
AcDbSymbolTableRecord
100
AcDbTextStyleTableRecord
  2
STANDARD
 70
     0
 40
0.0
 41
1.0
 50
0.0
 71
     0
 42
4.0
  3
ISOCP.SHX
  4
EXTFONT.SHX
  0
STYLE
  5
4A
330
3
100
AcDbSymbolTableRecord
100
AcDbTextStyleTableRecord
  2

 70
     1
 40
0.0
 41
1.0
 50
0.0
 71
     0
 42
2.5
  3
ltypeshp.shx
  4

  0
STYLE
  5
180
330
3
100
AcDbSymbolTableRecord
100
AcDbTextStyleTableRecord
  2
ACJISTS
 70
     0
 40
1.0
 41
1.0
 50
0.0
 71
     0
 42
2.5
  3
isocp.shx
  4
bigfont.shx
  0
STYLE
  5
187
330
3
100
AcDbSymbolTableRecord
100
AcDbTextStyleTableRecord
  2
ACJISGDT
 70
     0
 40
0.0
 41
1.0
 50
0.0
 71
     0
 42
2.5
  3
amgdt.shx
  4

  0
STYLE
  5
1A334
330
3
100
AcDbSymbolTableRecord
100
AcDbTextStyleTableRecord
  2
ACISOTS
 70
     0
 40
1.0
 41
1.0
 50
0.0
 71
     0
 42
2.5
  3
isocp.shx
  4
extfont.shx
  0
STYLE
  5
1A335
330
3
100
AcDbSymbolTableRecord
100
AcDbTextStyleTableRecord
  2
ACISOGDT
 70
     0
 40
0.0
 41
1.0
 50
0.0
 71
     0
 42
2.5
  3
amgdt.shx
  4

  0
ENDTAB
  0
TABLE
  2
VIEW
  5
6
330
0
100
AcDbSymbolTable
 70
     6
  0
VIEW
  5
A30
330
6
100
AcDbSymbolTableRecord
100
AcDbViewTableRecord
  2
AM_VIEW1
 70
     0
 40
148.5
 10
108.6929657794677
 20
222.75
 41
217.3859315589354
 11
0.0
 21
0.0
 31
1.0
 12
0.0
 22
0.0
 32
0.0
 42
50.0
 43
0.0
 44
0.0
 50
0.0
 71
    16
281
     0
 72
     0
  0
VIEW
  5
A31
330
6
100
AcDbSymbolTableRecord
100
AcDbViewTableRecord
  2
AM_VIEW2
 70
     0
 40
148.5
 10
311.3070342205323
 20
222.75
 41
217.3859315589354
 11
0.0
 21
0.0
 31
1.0
 12
0.0
 22
0.0
 32
0.0
 42
50.0
 43
0.0
 44
0.0
 50
0.0
 71
    16
281
     0
 72
     0
  0
VIEW
  5
A32
330
6
100
AcDbSymbolTableRecord
100
AcDbViewTableRecord
  2
AM_VIEW3
 70
     0
 40
148.5
 10
108.6929657794677
 20
74.25
 41
217.3859315589354
 11
0.0
 21
0.0
 31
1.0
 12
0.0
 22
0.0
 32
0.0
 42
50.0
 43
0.0
 44
0.0
 50
0.0
 71
    16
281
     0
 72
     0
  0
VIEW
  5
A33
330
6
100
AcDbSymbolTableRecord
100
AcDbViewTableRecord
  2
AM_VIEW4
 70
     0
 40
148.5
 10
311.3070342205323
 20
74.25
 41
217.3859315589354
 11
0.0
 21
0.0
 31
1.0
 12
0.0
 22
0.0
 32
0.0
 42
50.0
 43
0.0
 44
0.0
 50
0.0
 71
    16
281
     0
 72
     0
  0
VIEW
  5
A34
330
6
100
AcDbSymbolTableRecord
100
AcDbViewTableRecord
  2
AM_VIEW5
 70
     0
 40
148.5
 10
210.0
 20
148.5
 41
217.3859315589353
 11
0.0
 21
0.0
 31
1.0
 12
0.0
 22
0.0
 32
0.0
 42
50.0
 43
0.0
 44
0.0
 50
0.0
 71
    16
281
     0
 72
     0
  0
VIEW
  5
A35
330
6
100
AcDbSymbolTableRecord
100
AcDbViewTableRecord
  2
AM_VIEW6
 70
     0
 40
296.99703
 10
210.0
 20
148.5
 41
434.7675153992395
 11
0.0
 21
0.0
 31
1.0
 12
0.0
 22
0.0
 32
0.0
 42
50.0
 43
0.0
 44
0.0
 50
0.0
 71
    16
281
     0
 72
     0
  0
ENDTAB
  0
TABLE
  2
UCS
  5
7
330
0
100
AcDbSymbolTable
 70
     0
  0
ENDTAB
  0
TABLE
  2
APPID
  5
9
330
0
100
AcDbSymbolTable
 70
    42
  0
APPID
  5
12
330
9
100
AcDbSymbolTableRecord
100
AcDbRegAppTableRecord
  2
ACAD
 70
     0
  0
APPID
  5
2C
330
9
100
AcDbSymbolTableRecord
100
AcDbRegAppTableRecord
  2
MCAD_NO_VIS
 70
     0
  0
APPID
  5
2D
330
9
100
AcDbSymbolTableRecord
100
AcDbRegAppTableRecord
  2
ACAD_TEMP_GRAPHIC
 70
     0
  0
APPID
  5
B9
330
9
100
AcDbSymbolTableRecord
100
AcDbRegAppTableRecord
  2
GENIUS_GENDTOL_13
 70
     0
  0
APPID
  5
359
330
9
100
AcDbSymbolTableRecord
100
AcDbRegAppTableRecord
  2
GENIUS_GENREC_14
 70
     0
  0
APPID
  5
35A
330
9
100
AcDbSymbolTableRecord
100
AcDbRegAppTableRecord
  2
GENIUS_GENODEF_13
 70
     0
  0
APPID
  5
35B
330
9
100
AcDbSymbolTableRecord
100
AcDbRegAppTableRecord
  2
GENIUS_GENOBJ-N-REC_13
 70
     0
  0
APPID
  5
667
330
9
100
AcDbSymbolTableRecord
100
AcDbRegAppTableRecord
  2
GENIUS_GENCFG_13
 70
     0
  0
APPID
  5
668
330
9
100
AcDbSymbolTableRecord
100
AcDbRegAppTableRecord
  2
GENIUS_GENCFG0_13
 70
     0
  0
APPID
  5
669
330
9
100
AcDbSymbolTableRecord
100
AcDbRegAppTableRecord
  2
GENIUS_GENCFG1_13
 70
     0
  0
APPID
  5
66A
330
9
100
AcDbSymbolTableRecord
100
AcDbRegAppTableRecord
  2
GENIUS_GENCFG2_13
 70
     0
  0
APPID
  5
66B
330
9
100
AcDbSymbolTableRecord
100
AcDbRegAppTableRecord
  2
GENIUS_GENCFG3_13
 70
     0
  0
APPID
  5
66C
330
9
100
AcDbSymbolTableRecord
100
AcDbRegAppTableRecord
  2
GENIUS_GENCFG4_13
 70
     0
  0
APPID
  5
A76
330
9
100
AcDbSymbolTableRecord
100
AcDbRegAppTableRecord
  2
GENIUS_GENBLLY_14
 70
     0
  0
APPID
  5
A77
330
9
100
AcDbSymbolTableRecord
100
AcDbRegAppTableRecord
  2
GENIUS_GENOBJ-N-CEN_13
 70
     0
  0
APPID
  5
A83
330
9
100
AcDbSymbolTableRecord
100
AcDbRegAppTableRecord
  2
GENIUS_GENTRA_14
 70
     0
  0
APPID
  5
A8D
330
9
100
AcDbSymbolTableRecord
100
AcDbRegAppTableRecord
  2
GENIUS_GENOBJ-N-TIT_13
 70
     0
  0
APPID
  5
A8E
330
9
100
AcDbSymbolTableRecord
100
AcDbRegAppTableRecord
  2
GENIUS_GENTITLE_13
 70
     0
  0
APPID
  5
A8F
330
9
100
AcDbSymbolTableRecord
100
AcDbRegAppTableRecord
  2
GENIUS_GENOENT_13
 70
     0
  0
APPID
  5
A90
330
9
100
AcDbSymbolTableRecord
100
AcDbRegAppTableRecord
  2
GENIUS_GENOREF_13
 70
     0
  0
APPID
  5
A91
330
9
100
AcDbSymbolTableRecord
100
AcDbRegAppTableRecord
  2
GENIUS_GENOLIS_13
 70
     0
  0
APPID
  5
A92
330
9
100
AcDbSymbolTableRecord
100
AcDbRegAppTableRecord
  2
GENIUS_GENZVEED_13
 70
     0
  0
APPID
  5
A93
330
9
100
AcDbSymbolTableRecord
100
AcDbRegAppTableRecord
  2
GENIUS_GENSCREG_15
 70
     0
  0
APPID
  5
A94
330
9
100
AcDbSymbolTableRecord
100
AcDbRegAppTableRecord
  2
GENIUS_GENOBJ-N-SDF_13
 70
     0
  0
APPID
  5
12B5
330
9
100
AcDbSymbolTableRecord
100
AcDbRegAppTableRecord
  2
GENIUS_GENOBJ-N-RSBK_13
 70
     0
  0
APPID
  5
12B6
330
9
100
AcDbSymbolTableRecord
100
AcDbRegAppTableRecord
  2
GENIUS_GENOBJ-N-LIB_13
 70
     0
  0
APPID
  5
12B7
330
9
100
AcDbSymbolTableRecord
100
AcDbRegAppTableRecord
  2
GENIUS_GENSCALE_13
 70
     0
  0
APPID
  5
12B8
330
9
100
AcDbSymbolTableRecord
100
AcDbRegAppTableRecord
  2
GENIUS_GENOBJ-N-HTC_13
 70
     0
  0
APPID
  5
12B9
330
9
100
AcDbSymbolTableRecord
100
AcDbRegAppTableRecord
  2
GENIUS_GENHATCH_13
 70
     0
  0
APPID
  5
1687
330
9
100
AcDbSymbolTableRecord
100
AcDbRegAppTableRecord
  2
BASE_TYPE
 70
     0
  0
APPID
  5
1ABF
330
9
100
AcDbSymbolTableRecord
100
AcDbRegAppTableRecord
  2
GENIUS_GENFIL_13
 70
     0
  0
APPID
  5
1AC0
330
9
100
AcDbSymbolTableRecord
100
AcDbRegAppTableRecord
  2
GENIUS_GENOBJ-N-CHA_13
 70
     0
  0
APPID
  5
1AE7
330
9
100
AcDbSymbolTableRecord
100
AcDbRegAppTableRecord
  2
GENIUS_GENOBJ-N-FIL_13
 70
     0
  0
APPID
  5
20E9
330
9
100
AcDbSymbolTableRecord
100
AcDbRegAppTableRecord
  2
GENIUS_GENDIMSH_14
 70
     0
  0
APPID
  5
1A2ED
330
9
100
AcDbSymbolTableRecord
100
AcDbRegAppTableRecord
  2
AD_DRAW
 70
     0
  0
APPID
  5
1A2F0
330
9
100
AcDbSymbolTableRecord
100
AcDbRegAppTableRecord
  2
ACATTRIBSERVICES
 70
     0
  0
APPID
  5
1A30E
330
9
100
AcDbSymbolTableRecord
100
AcDbRegAppTableRecord
  2
DESIGNERASSEMBLIES
 70
     0
  0
APPID
  5
1A321
330
9
100
AcDbSymbolTableRecord
100
AcDbRegAppTableRecord
  2
ACADM_DIM_EDIT
 70
     0
  0
APPID
  5
1A322
330
9
100
AcDbSymbolTableRecord
100
AcDbRegAppTableRecord
  2
AMDT_DM_ADJ
 70
     0
  0
APPID
  5
1B4F5
330
9
100
AcDbSymbolTableRecord
100
AcDbRegAppTableRecord
  2
ACAD_DSTYLE_DIMTEXT_FILL
 70
     0
  0
APPID
  5
1B4F6
330
9
100
AcDbSymbolTableRecord
100
AcDbRegAppTableRecord
  2
ACAD_PSEXT
 70
     0
  0
APPID
  5
1B688
330
9
100
AcDbSymbolTableRecord
100
AcDbRegAppTableRecord
  2
DCO15
 70
     0
  0
ENDTAB
  0
TABLE
  2
DIMSTYLE
  5
A
330
0
100
AcDbSymbolTable
 70
    17
100
AcDbDimStyleTable
  0
DIMSTYLE
105
58
330
A
100
AcDbSymbolTableRecord
100
AcDbDimStyleTableRecord
  2
AM_JIS
 70
     0
  4
"
 41
2.5
 42
0.0
 43
10.0
 44
1.0
 47
0.1
 48
0.1000000001
 73
     0
 74
     0
 77
     3
 78
     1
 79
     2
140
3.8
141
0.0
143
0.0393701
146
0.71
147
1.5
172
     1
176
   256
177
   256
178
     2
179
     2
271
     3
272
     3
275
     1
283
     0
284
     8
340
11
341
59
342
59
371
    -1
372
    -1
  0
DIMSTYLE
105
5F
102
{ACAD_REACTORS
330
17032
330
171D5
102
}
330
A
100
AcDbSymbolTableRecord
100
AcDbDimStyleTableRecord
  2
AM_JIS$3
 70
     0
  4
"
 41
2.5
 42
0.0
 43
10.0
 44
1.0
 47
0.1
 48
0.1000000001
 73
     0
 77
     3
 78
     1
 79
     2
140
3.8
141
0.0
143
0.0393701
146
0.71
147
1.5
172
     1
176
   256
177
   256
178
     2
179
     2
271
     3
272
     3
275
     1
283
     0
284
     8
288
     1
289
     0
340
11
341
59
342
59
371
    -1
372
    -1
  0
DIMSTYLE
105
60
330
A
100
AcDbSymbolTableRecord
100
AcDbDimStyleTableRecord
  2
AM_JIS$4
 70
     0
  4
"
 41
2.5
 42
0.0
 43
10.0
 44
1.0
 47
0.1
 48
0.1000000001
 73
     0
 77
     3
 78
     1
 79
     2
140
3.8
141
0.0
143
0.0393701
146
0.71
147
1.5
172
     1
176
   256
177
   256
178
     2
179
     2
271
     3
272
     3
275
     1
283
     0
284
     8
288
     1
289
     0
340
11
341
59
342
59
371
    -1
372
    -1
  0
DIMSTYLE
105
61
330
A
100
AcDbSymbolTableRecord
100
AcDbDimStyleTableRecord
  2
AM_JIS$6
 70
     0
  4
"
 41
2.5
 42
0.0
 43
10.0
 44
1.0
 47
0.1
 48
0.1000000001
 73
     0
 74
     0
 78
     1
 79
     2
140
3.8
141
0.0
143
0.0393701
146
0.71
147
1.5
172
     1
176
   256
177
   256
178
     2
179
     2
271
     3
272
     3
275
     1
283
     0
284
     8
340
11
341
59
342
59
371
    -1
372
    -1
  0
DIMSTYLE
105
62
330
A
100
AcDbSymbolTableRecord
100
AcDbDimStyleTableRecord
  2
AM_JIS$7
 70
     0
  4
"
 41
2.5
 42
0.0
 43
10.0
 44
1.0
 47
0.1
 48
0.1000000001
 73
     0
 74
     0
 77
     3
 78
     1
 79
     2
140
5.0
141
0.0
143
0.0393701
146
0.71
147
1.5
172
     1
176
   256
177
   256
178
     2
179
     2
271
     3
272
     3
275
     1
283
     0
284
     8
340
11
341
59
342
59
371
    -1
372
    -1
  0
DIMSTYLE
105
63
330
A
100
AcDbSymbolTableRecord
100
AcDbDimStyleTableRecord
  2
AM_JIS$SF
 70
     0
  4
"
 41
2.5
 42
1.0
 43
10.0
 44
1.0
 47
0.1
 48
0.1
 73
     0
 74
     0
 75
     1
 76
     1
 77
     3
 78
     8
 79
     2
140
3.5
141
0.0
143
0.0393701
146
0.71
147
1.5
176
   256
177
   256
178
     2
271
     2
272
     3
274
     4
340
11
341
59
342
59
343
59
344
59
371
    -1
372
    -1
  0
DIMSTYLE
105
68
330
A
100
AcDbSymbolTableRecord
100
AcDbDimStyleTableRecord
  2
AM_JIS$SH
 70
     0
  4
"
 41
2.5
 42
1.0
 43
10.0
 44
1.0
 47
0.1
 48
0.1
 73
     0
 74
     0
 75
     1
 76
     1
 77
     3
 78
     8
 79
     2
140
3.5
141
0.0
143
0.0393701
144
2.0
146
0.71
147
1.5
173
     1
176
   256
177
   256
178
     2
271
     2
272
     3
274
     4
340
11
341
59
342
59
343
64
344
59
371
    -1
372
    -1
  0
DIMSTYLE
105
65F
330
A
100
AcDbSymbolTableRecord
100
AcDbDimStyleTableRecord
  2
STANDARD
 70
     0
340
11
  0
DIMSTYLE
105
1B97
102
{ACAD_REACTORS
330
F478
330
1748D
330
1BA89
330
1BB10
102
}
330
A
100
AcDbSymbolTableRecord
100
AcDbDimStyleTableRecord
  2
AM_JIS$0
 70
     0
  4
"
 41
2.5
 42
0.0
 43
10.0
 44
1.0
 47
0.1
 48
0.1000000001
 73
     0
 74
     0
 77
     3
 78
     1
 79
     2
140
3.8
141
0.0
143
0.0393701
146
0.71
147
1.5
172
     1
176
     3
177
     3
178
     2
271
     3
272
     3
275
     1
283
     0
284
     8
289
     0
340
11
341
59
342
59
371
    13
372
    13
  0
DIMSTYLE
105
1B98
102
{ACAD_REACTORS
330
16E08
330
1B9E9
330
1BABD
102
}
330
A
100
AcDbSymbolTableRecord
100
AcDbDimStyleTableRecord
  2
AM_JIS$2
 70
     0
  4
"
 41
2.5
 42
0.0
 43
10.0
 44
1.0
 47
0.1
 48
0.1000000001
 73
     0
 74
     0
 77
     3
 78
     1
 79
     2
140
3.8
141
0.0
143
0.0393701
146
0.71
147
1.5
172
     1
176
     3
177
     3
178
     2
271
     3
272
     3
275
     1
283
     0
284
     8
289
     0
340
11
341
59
342
59
371
    13
372
    13
  0
DIMSTYLE
105
1A336
330
A
100
AcDbSymbolTableRecord
100
AcDbDimStyleTableRecord
  2
AM_ISO
 70
     0
  4
"
 41
2.5
 42
1.0
 43
10.0
 44
1.0
 47
0.1
 48
0.1
 73
     0
 74
     0
 77
     1
 78
     8
 79
     2
140
3.5
141
0.0
143
0.0393701
146
0.71
147
1.5
172
     1
176
   256
177
   256
178
     2
271
     2
272
     3
274
     4
283
     0
284
     8
340
11
371
    -1
372
    -1
  0
DIMSTYLE
105
1A337
330
A
100
AcDbSymbolTableRecord
100
AcDbDimStyleTableRecord
  2
AM_ISO$3
 70
     0
  4
"
 41
2.5
 42
1.0
 43
10.0
 44
1.0
 47
0.1
 48
0.1
 73
     0
 77
     1
 78
     8
 79
     2
140
3.5
141
0.0
143
0.0393701
146
0.71
147
1.5
176
   256
177
   256
178
     2
271
     2
272
     3
274
     4
283
     0
284
     8
288
     1
289
     0
340
11
371
    -1
372
    -1
  0
DIMSTYLE
105
1A338
330
A
100
AcDbSymbolTableRecord
100
AcDbDimStyleTableRecord
  2
AM_ISO$4
 70
     0
  4
"
 41
2.5
 42
1.0
 43
10.0
 44
1.0
 47
0.1
 48
0.1
 73
     0
 77
     1
 78
     8
 79
     2
140
3.5
141
0.0
143
0.0393701
146
0.71
147
1.5
176
   256
177
   256
178
     2
271
     2
272
     3
274
     4
283
     0
284
     8
288
     1
289
     0
340
11
371
    -1
372
    -1
  0
DIMSTYLE
105
1A339
330
A
100
AcDbSymbolTableRecord
100
AcDbDimStyleTableRecord
  2
AM_ISO$6
 70
     0
  4
"
 41
2.5
 42
1.0
 43
10.0
 44
1.0
 47
0.1
 48
0.1
 73
     0
 74
     0
 78
     8
 79
     2
140
3.5
141
0.0
143
0.0393701
146
0.71
147
1.5
172
     1
176
   256
177
   256
178
     2
271
     2
272
     3
274
     4
283
     0
284
     8
340
11
371
    -1
372
    -1
  0
DIMSTYLE
105
1A33A
330
A
100
AcDbSymbolTableRecord
100
AcDbDimStyleTableRecord
  2
AM_ISO$7
 70
     0
  4
"
 41
2.5
 42
1.0
 43
10.0
 44
1.0
 47
0.1
 48
0.1
 73
     0
 74
     0
 77
     1
 78
     8
 79
     2
140
5.0
141
0.0
143
0.0393701
146
0.71
147
1.5
172
     1
176
   256
177
   256
178
     2
271
     2
272
     3
274
     4
283
     0
284
     8
340
11
371
    -1
372
    -1
  0
DIMSTYLE
105
1A33B
330
A
100
AcDbSymbolTableRecord
100
AcDbDimStyleTableRecord
  2
AM_ISO$SF
 70
     0
  4
"
 41
2.5
 42
1.0
 43
10.0
 44
1.0
 47
0.1
 48
0.1
 73
     0
 74
     0
 75
     1
 76
     1
 77
     1
 78
     8
 79
     2
140
3.5
141
0.0
143
0.0393701
146
0.71
147
1.5
172
     1
176
   256
177
   256
178
     2
271
     2
272
     3
274
     4
283
     0
284
     8
340
11
371
    -1
372
    -1
  0
DIMSTYLE
105
1A33C
330
A
100
AcDbSymbolTableRecord
100
AcDbDimStyleTableRecord
  2
AM_ISO$SH
 70
     0
  4
"
 41
2.5
 42
1.0
 43
10.0
 44
1.0
 47
0.1
 48
0.1
 73
     0
 74
     0
 75
     1
 76
     1
 77
     1
 78
     8
 79
     2
140
3.5
141
0.0
143
0.0393701
144
2.0
146
0.71
147
1.5
172
     1
173
     1
176
   256
177
   256
178
     2
271
     2
272
     3
274
     4
283
     0
284
     8
340
11
343
64
371
    -1
372
    -1
  0
ENDTAB
  0
TABLE
  2
BLOCK_RECORD
  5
1
330
0
100
AcDbSymbolTable
 70
    13
  0
BLOCK_RECORD
  5
1F
102
{ACAD_XDICTIONARY
360
165
102
}
330
1
100
AcDbSymbolTableRecord
100
AcDbBlockTableRecord
  2
*Model_Space
340
22
  0
BLOCK_RECORD
  5
1B
330
1
100
AcDbSymbolTableRecord
100
AcDbBlockTableRecord
  2
*Paper_Space
340
1E
  0
BLOCK_RECORD
  5
23
330
1
100
AcDbSymbolTableRecord
100
AcDbBlockTableRecord
  2
*Paper_Space0
340
26
  0
BLOCK_RECORD
  5
59
330
1
100
AcDbSymbolTableRecord
100
AcDbBlockTableRecord
  2
_Open30
340
0
102
{BLKREFS
331
1BCF1
331
1BCF2
331
1BCFB
331
1BCFC
331
1BD08
331
1BD09
331
1BD11
331
1BD12
331
1BD18
331
1BD19
331
1BD21
331
1BD22
331
1BD2E
331
1BD2F
331
1BD39
331
1BD3A
331
1BD44
331
1BD45
102
}
  0
BLOCK_RECORD
  5
64
330
1
100
AcDbSymbolTableRecord
100
AcDbBlockTableRecord
  2
GENAXEH
340
0
  0
BLOCK_RECORD
  5
F479
330
1
100
AcDbSymbolTableRecord
100
AcDbBlockTableRecord
  2
*D3
340
0
  0
BLOCK_RECORD
  5
16E09
330
1
100
AcDbSymbolTableRecord
100
AcDbBlockTableRecord
  2
*D4
340
0
  0
BLOCK_RECORD
  5
17033
330
1
100
AcDbSymbolTableRecord
100
AcDbBlockTableRecord
  2
*D5
340
0
  0
BLOCK_RECORD
  5
171D6
330
1
100
AcDbSymbolTableRecord
100
AcDbBlockTableRecord
  2
*D6
340
0
  0
BLOCK_RECORD
  5
1748E
330
1
100
AcDbSymbolTableRecord
100
AcDbBlockTableRecord
  2
*D7
340
0
  0
BLOCK_RECORD
  5
1B350
330
1
100
AcDbSymbolTableRecord
100
AcDbBlockTableRecord
  2
*U8
340
0
  0
BLOCK_RECORD
  5
1B9EA
330
1
100
AcDbSymbolTableRecord
100
AcDbBlockTableRecord
  2
*D9
340
0
  0
BLOCK_RECORD
  5
1BA8A
330
1
100
AcDbSymbolTableRecord
100
AcDbBlockTableRecord
  2
*D10
340
0
  0
BLOCK_RECORD
  5
1BABE
330
1
100
AcDbSymbolTableRecord
100
AcDbBlockTableRecord
  2
*D11
340
0
  0
BLOCK_RECORD
  5
1BB11
330
1
100
AcDbSymbolTableRecord
100
AcDbBlockTableRecord
  2
*D12
340
0
  0
ENDTAB
  0
ENDSEC
  0
SECTION
  2
BLOCKS
  0
BLOCK
  5
20
330
1F
100
AcDbEntity
  8
0
100
AcDbBlockBegin
  2
*Model_Space
 70
     0
 71
     0
 10
0.0
 20
0.0
 30
0.0
  3
*Model_Space
  1

  0
ENDBLK
  5
21
330
1F
100
AcDbEntity
  8
0
100
AcDbBlockEnd
  0
BLOCK
  5
1C
330
1B
100
AcDbEntity
 67
     1
  8
0
100
AcDbBlockBegin
  2
*Paper_Space
 70
     0
 71
     0
 10
0.0
 20
0.0
 30
0.0
  3
*Paper_Space
  1

  0
ENDBLK
  5
1D
330
1B
100
AcDbEntity
 67
     1
  8
0
100
AcDbBlockEnd
  0
BLOCK
  5
24
330
23
100
AcDbEntity
  8
0
100
AcDbBlockBegin
  2
*Paper_Space0
 70
     0
 71
     0
 10
0.0
 20
0.0
 30
0.0
  3
*Paper_Space0
  1

  0
ENDBLK
  5
25
330
23
100
AcDbEntity
  8
0
100
AcDbBlockEnd
  0
BLOCK
  5
5D
330
59
100
AcDbEntity
  8
0
100
AcDbBlockBegin
  2
_Open30
 70
     0
 71
     0
 10
0.0
 20
0.0
 30
0.0
  3
_Open30
  1

  0
LINE
  5
5A
330
59
100
AcDbEntity
  8
0
 62
     0
370
    -2
100
AcDbLine
 10
-1.0
 20
0.26794919
 30
0.0
 11
0.0
 21
0.0
 31
0.0
  0
LINE
  5
5B
330
59
100
AcDbEntity
  8
0
 62
     0
370
    -2
100
AcDbLine
 10
0.0
 20
0.0
 30
0.0
 11
-1.0
 21
-0.26794919
 31
0.0
  0
LINE
  5
5C
330
59
100
AcDbEntity
  8
0
 62
     0
370
    -2
100
AcDbLine
 10
0.0
 20
0.0
 30
0.0
 11
-1.0
 21
0.0
 31
0.0
  0
ENDBLK
  5
5E
330
59
100
AcDbEntity
  8
0
100
AcDbBlockEnd
  0
BLOCK
  5
66
330
64
100
AcDbEntity
  8
0
100
AcDbBlockBegin
  2
GENAXEH
 70
     0
 71
     0
 10
0.0
 20
0.0
 30
0.0
  3
GENAXEH
  1

  0
LINE
  5
65
330
64
100
AcDbEntity
  8
0
100
AcDbLine
 10
-1.0
 20
0.0
 30
0.0
 11
1.0
 21
0.0
 31
0.0
  0
ENDBLK
  5
67
330
64
100
AcDbEntity
  8
0
100
AcDbBlockEnd
  0
BLOCK
  5
F484
330
F479
100
AcDbEntity
  8
0
100
AcDbBlockBegin
  2
*D3
 70
     1
 71
     0
 10
0.0
 20
0.0
 30
0.0
  3
*D3
  1

  0
LINE
  5
1BCED
330
F479
100
AcDbEntity
  8
AM_5
 62
     3
370
    13
100
AcDbLine
 10
95.74945728417345
 20
4.216117818584952
 30
0.0
 11
95.74945728417345
 21
-15.66149453576155
 31
0.0
  0
LINE
  5
1BCEE
330
F479
100
AcDbEntity
  8
AM_5
 62
     3
370
    13
100
AcDbLine
 10
106.7494572841735
 20
4.216117818584952
 30
0.0
 11
106.7494572841735
 21
-15.66149453576155
 31
0.0
  0
LINE
  5
1BCEF
330
F479
100
AcDbEntity
  8
AM_5
 62
     3
370
    13
100
AcDbLine
 10
98.24945728417345
 20
-14.66149453576155
 30
0.0
 11
104.2494572841735
 21
-14.66149453576155
 31
0.0
  0
MTEXT
  5
1BCF0
330
F479
100
AcDbEntity
  8
AM_5
 62
     2
100
AcDbMText
 10
100.7879114432384
 20
-11.1962382770274
 30
0.0
 40
3.8
 41
0.0
 71
     5
 72
     1
  1
11
 73
     1
 44
1.0
  0
INSERT
  5
1BCF1
330
F479
100
AcDbEntity
  8
AM_5
 62
     3
370
    13
100
AcDbBlockReference
  2
_Open30
 10
95.74945728417345
 20
-14.66149453576155
 30
0.0
 41
2.5
 42
2.5
 43
2.5
 50
180.0
  0
INSERT
  5
1BCF2
330
F479
100
AcDbEntity
  8
AM_5
 62
     3
370
    13
100
AcDbBlockReference
  2
_Open30
 10
106.7494572841735
 20
-14.66149453576155
 30
0.0
 41
2.5
 42
2.5
 43
2.5
  0
POINT
  5
1BCF3
330
F479
100
AcDbEntity
  8
Defpoints
 62
     0
100
AcDbPoint
 10
95.74945728417345
 20
4.216117818584952
 30
0.0
  0
POINT
  5
1BCF4
330
F479
100
AcDbEntity
  8
Defpoints
 62
     0
100
AcDbPoint
 10
106.7494572841735
 20
4.216117818584952
 30
0.0
  0
POINT
  5
1BCF5
330
F479
100
AcDbEntity
  8
Defpoints
 62
     0
100
AcDbPoint
 10
106.7494572841735
 20
-14.66149453576155
 30
0.0
  0
ENDBLK
  5
F485
330
F479
100
AcDbEntity
  8
0
100
AcDbBlockEnd
  0
BLOCK
  5
16E18
330
16E09
100
AcDbEntity
  8
0
100
AcDbBlockBegin
  2
*D4
 70
     1
 71
     0
 10
0.0
 20
0.0
 30
0.0
  3
*D4
  1

  0
LINE
  5
1BCF6
330
16E09
100
AcDbEntity
  8
AM_5
 62
     3
370
    13
100
AcDbLine
 10
-7.427503355750275
 20
-55.1647533215582
 30
0.0
 11
-13.8460494223065
 21
-54.60320330441564
 31
0.0
  0
LINE
  5
1BCF7
330
16E09
100
AcDbEntity
  8
AM_5
 62
     3
370
    13
100
AcDbLine
 10
-1.300639545297884
 20
-55.81452818200474
 30
0.0
 11
-13.89893700863057
 21
-55.81452818200473
 31
0.0
  0
ARC
  5
1BCF8
330
16E09
100
AcDbEntity
  8
AM_5
 62
     3
370
    13
100
AcDbCircle
 10
-0.0005427158263664
 20
-55.81452818200474
 30
0.0
 40
12.8983942928042
100
AcDbArc
 50
152.7546551759585
 51
163.8773275879794
  0
ARC
  5
1BCF9
330
16E09
100
AcDbEntity
  8
AM_5
 62
     3
370
    13
100
AcDbCircle
 10
-0.0005427158263664
 20
-55.81452818200474
 30
0.0
 40
12.8983942928042
100
AcDbArc
 50
191.1226724120209
 51
202.2453448240418
  0
ARC
  5
1BCFA
330
16E09
100
AcDbEntity
  8
AM_5
 62
     3
370
    13
100
AcDbCircle
 10
-0.0005427158263664
 20
-55.81452818200474
 30
0.0
 40
12.8983942928042
100
AcDbArc
 50
175.0000000000003
 51
180.0
  0
INSERT
  5
1BCFB
330
16E09
100
AcDbEntity
  8
AM_5
 62
     3
370
    13
100
AcDbBlockReference
  2
_Open30
 10
-12.84985472421475
 20
-54.69035904716331
 30
0.0
 41
2.5
 42
2.5
 43
2.5
 50
259.4386637939899
  0
INSERT
  5
1BCFC
330
16E09
100
AcDbEntity
  8
AM_5
 62
     3
370
    13
100
AcDbBlockReference
  2
_Open30
 10
-12.89893700863057
 20
-55.81452818200474
 30
0.0
 41
2.5
 42
2.5
 43
2.5
 50
95.56133620601045
  0
MTEXT
  5
1BCFD
330
16E09
100
AcDbEntity
  8
AM_5
 62
     2
100
AcDbMText
 10
-15.63366914457864
 20
-51.20551369012474
 30
0.0
 40
3.8
 41
0.0
 71
     5
 72
     1
  1
5°
 11
0.2827894827599621
 21
0.9591819996436303
 31
0.0
 73
     1
 44
1.0
  0
POINT
  5
1BCFE
330
16E09
100
AcDbEntity
  8
Defpoints
 62
     0
100
AcDbPoint
 10
-12.89348034398526
 20
-55.43938201176079
 30
0.0
  0
POINT
  5
1BCFF
330
16E09
100
AcDbEntity
  8
Defpoints
 62
     0
100
AcDbPoint
 10
155.4582697729216
 20
-55.81452818200476
 30
0.0
  0
POINT
  5
1BD00
330
16E09
100
AcDbEntity
  8
Defpoints
 62
     0
100
AcDbPoint
 10
-0.0005427158263842
 20
-55.81452818200474
 30
0.0
  0
POINT
  5
1BD01
330
16E09
100
AcDbEntity
  8
Defpoints
 62
     0
100
AcDbPoint
 10
-7.427503355750275
 20
-55.1647533215582
 30
0.0
  0
POINT
  5
1BD02
330
16E09
100
AcDbEntity
  8
Defpoints
 62
     0
100
AcDbPoint
 10
-1.300639545297884
 20
-55.81452818200474
 30
0.0
  0
ENDBLK
  5
16E19
330
16E09
100
AcDbEntity
  8
0
100
AcDbBlockEnd
  0
BLOCK
  5
17039
330
17033
100
AcDbEntity
  8
0
100
AcDbBlockBegin
  2
*D5
 70
     1
 71
     0
 10
0.0
 20
0.0
 30
0.0
  3
*D5
  1

  0
LINE
  5
1BD03
330
17033
100
AcDbEntity
  8
AM_5
100
AcDbLine
 10
-84.24392049754124
 20
18.32164065247914
 30
0.0
 11
-60.37619448805219
 21
18.32164065247915
 31
0.0
  0
LINE
  5
1BD04
330
17033
100
AcDbEntity
  8
AM_5
100
AcDbLine
 10
-60.37619448805219
 20
18.32164065247915
 30
0.0
 11
-54.81572425122221
 21
13.41247259293953
 31
0.0
  0
LINE
  5
1BD05
330
17033
100
AcDbEntity
  8
AM_5
100
AcDbLine
 10
-40.57245378506373
 20
0.8375274070604846
 30
0.0
 11
-38.69833925004289
 21
-0.8170706437130626
 31
0.0
  0
MTEXT
  5
1BD06
330
17033
100
AcDbEntity
  8
AM_5
 62
     2
100
AcDbMText
 10
-73.06005749279672
 20
24.8883073191458
 30
0.0
 40
3.8
 41
0.0
 71
     5
 72
     1
  1
最小加工径\P\U+220514
 73
     1
 44
1.0
  0
LINE
  5
1BD07
330
17033
100
AcDbEntity
  8
AM_5
100
AcDbLine
 10
-42.44656832008457
 20
2.492125457834032
 30
0.0
 11
-52.94160971620136
 21
11.75787454216598
 31
0.0
  0
INSERT
  5
1BD08
330
17033
100
AcDbEntity
  8
AM_5
100
AcDbBlockReference
  2
_Open30
 10
-42.44656832008457
 20
2.492125457834032
 30
0.0
 41
2.5
 42
2.5
 43
2.5
 50
138.559706517671
  0
INSERT
  5
1BD09
330
17033
100
AcDbEntity
  8
AM_5
100
AcDbBlockReference
  2
_Open30
 10
-52.94160971620136
 20
11.75787454216598
 30
0.0
 41
2.5
 42
2.5
 43
2.5
 50
318.559706517671
  0
POINT
  5
1BD0A
330
17033
100
AcDbEntity
  8
Defpoints
 62
     0
100
AcDbPoint
 10
-52.94160971620136
 20
11.75787454216598
 30
0.0
  0
POINT
  5
1BD0B
330
17033
100
AcDbEntity
  8
Defpoints
 62
     0
100
AcDbPoint
 10
-42.44656832008457
 20
2.492125457834032
 30
0.0
  0
ENDBLK
  5
1703A
330
17033
100
AcDbEntity
  8
0
100
AcDbBlockEnd
  0
BLOCK
  5
171DC
330
171D6
100
AcDbEntity
  8
0
100
AcDbBlockBegin
  2
*D6
 70
     1
 71
     0
 10
0.0
 20
0.0
 30
0.0
  3
*D6
  1

  0
LINE
  5
1BD0C
330
171D6
100
AcDbEntity
  8
AM_5
100
AcDbLine
 10
112.9283963235399
 20
17.55099305711157
 30
0.0
 11
104.3601719140911
 21
17.55099305711157
 31
0.0
  0
LINE
  5
1BD0D
330
171D6
100
AcDbEntity
  8
AM_5
100
AcDbLine
 10
104.3601719140911
 20
17.55099305711157
 30
0.0
 11
103.6531913163826
 21
15.15304008958622
 31
0.0
  0
LINE
  5
1BD0E
330
171D6
100
AcDbEntity
  8
AM_5
100
AcDbLine
 10
98.8457232519645
 20
-1.153040089586263
 30
0.0
 11
98.13874265425596
 21
-3.550993057111622
 31
0.0
  0
MTEXT
  5
1BD0F
330
171D6
100
AcDbEntity
  8
AM_5
 62
     2
100
AcDbMText
 10
109.3942841188155
 20
20.9513670728596
 30
0.0
 40
3.8
 41
0.0
 71
     5
 72
     1
  1
\U+220512
 73
     1
 44
1.0
  0
LINE
  5
1BD10
330
171D6
100
AcDbEntity
  8
AM_5
100
AcDbLine
 10
99.55270384967304
 20
1.244912877939097
 30
0.0
 11
102.946210718674
 21
12.75508712206085
 31
0.0
  0
INSERT
  5
1BD11
330
171D6
100
AcDbEntity
  8
AM_5
100
AcDbBlockReference
  2
_Open30
 10
99.55270384967304
 20
1.244912877939097
 30
0.0
 41
2.5
 42
2.5
 43
2.5
 50
73.57307481415165
  0
INSERT
  5
1BD12
330
171D6
100
AcDbEntity
  8
AM_5
100
AcDbBlockReference
  2
_Open30
 10
102.946210718674
 20
12.75508712206085
 30
0.0
 41
2.5
 42
2.5
 43
2.5
 50
253.5730748141516
  0
POINT
  5
1BD13
330
171D6
100
AcDbEntity
  8
Defpoints
 62
     0
100
AcDbPoint
 10
102.946210718674
 20
12.75508712206085
 30
0.0
  0
POINT
  5
1BD14
330
171D6
100
AcDbEntity
  8
Defpoints
 62
     0
100
AcDbPoint
 10
99.55270384967304
 20
1.244912877939097
 30
0.0
  0
ENDBLK
  5
171DD
330
171D6
100
AcDbEntity
  8
0
100
AcDbBlockEnd
  0
BLOCK
  5
17498
330
1748E
100
AcDbEntity
  8
0
100
AcDbBlockBegin
  2
*D7
 70
     1
 71
     0
 10
0.0
 20
0.0
 30
0.0
  3
*D7
  1

  0
LINE
  5
1BD15
330
1748E
100
AcDbEntity
  8
AM_5
 62
     3
370
    13
100
AcDbLine
 10
-0.0005427158263842
 20
-55.81452818200475
 30
0.0
 11
-0.0005427158263854
 21
-76.05309308026435
 31
0.0
  0
LINE
  5
1BD16
330
1748E
100
AcDbEntity
  8
AM_5
 62
     3
370
    13
100
AcDbLine
 10
16.99945728417333
 20
-61.31452818200475
 30
0.0
 11
16.99945728417333
 21
-76.05309308026435
 31
0.0
  0
LINE
  5
1BD17
330
1748E
100
AcDbEntity
  8
AM_5
 62
     3
370
    13
100
AcDbLine
 10
2.499457284173615
 20
-75.05309308026435
 30
0.0
 11
14.49945728417333
 21
-75.05309308026435
 31
0.0
  0
INSERT
  5
1BD18
330
1748E
100
AcDbEntity
  8
AM_5
 62
     3
370
    13
100
AcDbBlockReference
  2
_Open30
 10
-0.0005427158263854
 20
-75.05309308026435
 30
0.0
 41
2.5
 42
2.5
 43
2.5
 50
180.0
  0
INSERT
  5
1BD19
330
1748E
100
AcDbEntity
  8
AM_5
 62
     3
370
    13
100
AcDbBlockReference
  2
_Open30
 10
16.99945728417333
 20
-75.05309308026435
 30
0.0
 41
2.5
 42
2.5
 43
2.5
  0
MTEXT
  5
1BD1A
330
1748E
100
AcDbEntity
  8
AM_5
 62
     2
100
AcDbMText
 10
8.499457284173474
 20
-71.65309308026434
 30
0.0
 40
3.8
 41
0.0
 71
     5
 72
     1
  1
17
 73
     1
 44
1.0
  0
POINT
  5
1BD1B
330
1748E
100
AcDbEntity
  8
Defpoints
 62
     0
100
AcDbPoint
 10
-0.0005427158263842
 20
-55.81452818200475
 30
0.0
  0
POINT
  5
1BD1C
330
1748E
100
AcDbEntity
  8
Defpoints
 62
     0
100
AcDbPoint
 10
16.99945728417333
 20
-61.31452818200475
 30
0.0
  0
POINT
  5
1BD1D
330
1748E
100
AcDbEntity
  8
Defpoints
 62
     0
100
AcDbPoint
 10
16.99945728417333
 20
-75.05309308026435
 30
0.0
  0
ENDBLK
  5
17499
330
1748E
100
AcDbEntity
  8
0
100
AcDbBlockEnd
  0
BLOCK
  5
1B351
330
1B350
100
AcDbEntity
  8
0
100
AcDbBlockBegin
  2
*U8
 70
     1
 71
     0
 10
0.0
 20
0.0
 30
0.0
  3
*U8
  1

  0
ENDBLK
  5
1B352
330
1B350
100
AcDbEntity
  8
0
100
AcDbBlockEnd
  0
BLOCK
  5
1BA3C
330
1B9EA
100
AcDbEntity
  8
0
100
AcDbBlockBegin
  2
*D9
 70
     1
 71
     0
 10
0.0
 20
0.0
 30
0.0
  3
*D9
  1

  0
LINE
  5
1BD1E
330
1B9EA
100
AcDbEntity
  8
AM_5
 62
     3
370
    13
100
AcDbLine
 10
0.4996307710306951
 20
9.947032732212339
 30
0.0
 11
1.237707270838351
 21
24.03037131104405
 31
0.0
  0
LINE
  5
1BD1F
330
1B9EA
100
AcDbEntity
  8
AM_5
 62
     3
370
    13
100
AcDbLine
 10
-3.164978512548657
 20
0.0000000000000282
 30
0.0
 11
-24.08502041986148
 21
0.0000000000000338
 31
0.0
  0
ARC
  5
1BD20
330
1B9EA
100
AcDbEntity
  8
AM_5
 62
     3
370
    13
100
AcDbCircle
 10
-0.0216711249202003
 20
0.0000000000000284
 30
0.0
 40
23.06334929494128
100
AcDbArc
 50
93.21374055597585
 51
173.7862594440246
  0
INSERT
  5
1BD21
330
1B9EA
100
AcDbEntity
  8
AM_5
 62
     3
370
    13
100
AcDbBlockReference
  2
_Open30
 10
1.185371314595413
 20
23.03174177628947
 30
0.0
 41
2.5
 42
2.5
 43
2.5
 50
0.1068702779881338
  0
INSERT
  5
1BD22
330
1B9EA
100
AcDbEntity
  8
AM_5
 62
     3
370
    13
100
AcDbBlockReference
  2
_Open30
 10
-23.08502041986148
 20
0.000000000000032
 30
0.0
 41
2.5
 42
2.5
 43
2.5
 50
266.8931297220123
  0
MTEXT
  5
1BD23
330
1B9EA
100
AcDbEntity
  8
AM_5
 62
     2
100
AcDbMText
 10
-18.23783870027517
 20
19.19583534969646
 30
0.0
 40
3.8
 41
0.0
 71
     5
 72
     1
  1
93°
 11
0.7253743710122858
 21
0.688354575693756
 31
0.0
 73
     1
 44
1.0
  0
POINT
  5
1BD24
330
1B9EA
100
AcDbEntity
  8
Defpoints
 62
     0
100
AcDbPoint
 10
-10.84925776149324
 20
20.36372874323301
 30
0.0
  0
POINT
  5
1BD25
330
1B9EA
100
AcDbEntity
  8
Defpoints
 62
     0
100
AcDbPoint
 10
0.0000000000001137
 20
0.413509696781432
 30
0.0
  0
POINT
  5
1BD26
330
1B9EA
100
AcDbEntity
  8
Defpoints
 62
     0
100
AcDbPoint
 10
-3.164978512548657
 20
0.0000000000000282
 30
0.0
  0
POINT
  5
1BD27
330
1B9EA
100
AcDbEntity
  8
Defpoints
 62
     0
100
AcDbPoint
 10
0.3936705454162279
 20
0.0000000000000284
 30
0.0
  0
POINT
  5
1BD28
330
1B9EA
100
AcDbEntity
  8
Defpoints
 62
     0
100
AcDbPoint
 10
0.4996307710306951
 20
9.947032732212339
 30
0.0
  0
ENDBLK
  5
1BA3D
330
1B9EA
100
AcDbEntity
  8
0
100
AcDbBlockEnd
  0
BLOCK
  5
1BAAF
330
1BA8A
100
AcDbEntity
  8
0
100
AcDbBlockBegin
  2
*D10
 70
     1
 71
     0
 10
0.0
 20
0.0
 30
0.0
  3
*D10
  1

  0
LINE
  5
1BD29
330
1BA8A
100
AcDbEntity
  8
AM_5
 62
     3
370
    13
100
AcDbLine
 10
-2.166091167792331
 20
7.000000000000002
 30
0.0
 11
-8.952690075951578
 21
7.000000000000003
 31
0.0
  0
LINE
  5
1BD2A
330
1BA8A
100
AcDbEntity
  8
AM_5
 62
     3
370
    13
100
AcDbLine
 10
0.0
 20
0.0
 30
0.0
 11
-8.95269007595158
 21
0.0000000000000025
 31
0.0
  0
LINE
  5
1BD2B
330
1BA8A
100
AcDbEntity
  8
AM_5
 62
     3
370
    13
100
AcDbLine
 10
-7.952690075951578
 20
9.500000000000002
 30
0.0
 11
-7.952690075951577
 21
12.0
 31
0.0
  0
LINE
  5
1BD2C
330
1BA8A
100
AcDbEntity
  8
AM_5
 62
     3
370
    13
100
AcDbLine
 10
-7.952690075951581
 20
-2.499999999999998
 30
0.0
 11
-7.952690075951581
 21
-4.999999999999997
 31
0.0
  0
LINE
  5
1BD2D
330
1BA8A
100
AcDbEntity
  8
AM_5
 62
     3
370
    13
100
AcDbLine
 10
-7.952690075951578
 20
7.000000000000003
 30
0.0
 11
-7.95269007595158
 21
0.0000000000000023
 31
0.0
  0
INSERT
  5
1BD2E
330
1BA8A
100
AcDbEntity
  8
AM_5
 62
     3
370
    13
100
AcDbBlockReference
  2
_Open30
 10
-7.952690075951578
 20
7.000000000000003
 30
0.0
 41
2.5
 42
2.5
 43
2.5
 50
270.0
  0
INSERT
  5
1BD2F
330
1BA8A
100
AcDbEntity
  8
AM_5
 62
     3
370
    13
100
AcDbBlockReference
  2
_Open30
 10
-7.95269007595158
 20
0.0000000000000023
 30
0.0
 41
2.5
 42
2.5
 43
2.5
 50
90.0
  0
MTEXT
  5
1BD30
330
1BA8A
100
AcDbEntity
  8
AM_5
 62
     2
100
AcDbMText
 10
-11.35269007595158
 20
3.500000000000002
 30
0.0
 40
3.8
 41
0.0
 71
     5
 72
     1
  1
7
 11
6.123031769111886E-17
 21
1.0
 31
0.0
 73
     1
 44
1.0
  0
POINT
  5
1BD31
330
1BA8A
100
AcDbEntity
  8
Defpoints
 62
     0
100
AcDbPoint
 10
-2.166091167792331
 20
7.000000000000002
 30
0.0
  0
POINT
  5
1BD32
330
1BA8A
100
AcDbEntity
  8
Defpoints
 62
     0
100
AcDbPoint
 10
0.0
 20
0.0
 30
0.0
  0
POINT
  5
1BD33
330
1BA8A
100
AcDbEntity
  8
Defpoints
 62
     0
100
AcDbPoint
 10
-7.95269007595158
 20
0.0000000000000023
 30
0.0
  0
ENDBLK
  5
1BAB0
330
1BA8A
100
AcDbEntity
  8
0
100
AcDbBlockEnd
  0
BLOCK
  5
1BAEE
330
1BABE
100
AcDbEntity
  8
0
100
AcDbBlockBegin
  2
*D11
 70
     1
 71
     0
 10
0.0
 20
0.0
 30
0.0
  3
*D11
  1

  0
LINE
  5
1BD34
330
1BABE
100
AcDbEntity
  8
AM_5
 62
     3
370
    13
100
AcDbLine
 10
-47.69408901814296
 20
-0.0180761170279524
 30
0.0
 11
-49.72467009064812
 21
-17.19734940822971
 31
0.0
  0
LINE
  5
1BD35
330
1BABE
100
AcDbEntity
  8
AM_5
 62
     3
370
    13
100
AcDbLine
 10
-47.69408901814296
 20
-3.588845057297467
 30
0.0
 11
-47.69408901814296
 21
-17.3169399613911
 31
0.0
  0
ARC
  5
1BD36
330
1BABE
100
AcDbEntity
  8
AM_5
 62
     3
370
    13
100
AcDbCircle
 10
-47.69408901814296
 20
-0.0180761170279524
 30
0.0
 40
16.29886384436314
100
AcDbArc
 50
245.6650526584843
 51
254.4619994370478
  0
ARC
  5
1BD37
330
1BABE
100
AcDbEntity
  8
AM_5
 62
     3
370
    13
100
AcDbCircle
 10
-47.69408901814296
 20
-0.0180761170279524
 30
0.0
 40
16.29886384436314
100
AcDbArc
 50
278.7969467785635
 51
287.5938935571271
  0
ARC
  5
1BD38
330
1BABE
100
AcDbEntity
  8
AM_5
 62
     3
370
    13
100
AcDbCircle
 10
-47.69408901814296
 20
-0.0180761170279524
 30
0.0
 40
16.29886384436314
100
AcDbArc
 50
263.2589462156113
 51
270.0
  0
INSERT
  5
1BD39
330
1BABE
100
AcDbEntity
  8
AM_5
 62
     3
370
    13
100
AcDbBlockReference
  2
_Open30
 10
-49.60728775324294
 20
-16.20426261098322
 30
0.0
 41
2.5
 42
2.5
 43
2.5
 50
348.8604728263296
  0
INSERT
  5
1BD3A
330
1BABE
100
AcDbEntity
  8
AM_5
 62
     3
370
    13
100
AcDbBlockReference
  2
_Open30
 10
-47.69408901814296
 20
-16.3169399613911
 30
0.0
 41
2.5
 42
2.5
 43
2.5
 50
184.3984733892818
  0
MTEXT
  5
1BD3B
330
1BABE
100
AcDbEntity
  8
AM_5
 62
     2
100
AcDbMText
 10
-49.20818780606535
 20
-12.82776750034515
 30
0.0
 40
3.8
 41
0.0
 71
     5
 72
     1
  1
7°
 11
0.993086797246494
 21
-0.1173823374051697
 31
0.0
 73
     1
 44
1.0
  0
POINT
  5
1BD3C
330
1BABE
100
AcDbEntity
  8
Defpoints
 62
     0
100
AcDbPoint
 10
-48.33313175638102
 20
-16.30440741034854
 30
0.0
  0
POINT
  5
1BD3D
330
1BABE
100
AcDbEntity
  8
Defpoints
 62
     0
100
AcDbPoint
 10
-47.64309381625805
 20
0.4133572896866227
 30
0.0
  0
POINT
  5
1BD3E
330
1BABE
100
AcDbEntity
  8
Defpoints
 62
     0
100
AcDbPoint
 10
-47.69408901814296
 20
-3.588845057297467
 30
0.0
  0
POINT
  5
1BD3F
330
1BABE
100
AcDbEntity
  8
Defpoints
 62
     0
100
AcDbPoint
 10
-47.69408901814296
 20
17.50552737384306
 30
0.0
  0
POINT
  5
1BD40
330
1BABE
100
AcDbEntity
  8
Defpoints
 62
     0
100
AcDbPoint
 10
-46.51623640489407
 20
9.946880325117526
 30
0.0
  0
ENDBLK
  5
1BAEF
330
1BABE
100
AcDbEntity
  8
0
100
AcDbBlockEnd
  0
BLOCK
  5
1BB27
330
1BB11
100
AcDbEntity
  8
0
100
AcDbBlockBegin
  2
*D12
 70
     1
 71
     0
 10
0.0
 20
0.0
 30
0.0
  3
*D12
  1

  0
LINE
  5
1BD41
330
1BB11
100
AcDbEntity
  8
AM_5
 62
     3
370
    13
100
AcDbLine
 10
0.0
 20
0.0000000000000284
 30
0.0
 11
-0.000000000000002
 21
-32.02920205908514
 31
0.0
  0
LINE
  5
1BD42
330
1BB11
100
AcDbEntity
  8
AM_5
 62
     3
370
    13
100
AcDbLine
 10
150.0
 20
1.999999999999982
 30
0.0
 11
150.0
 21
-32.02920205908514
 31
0.0
  0
LINE
  5
1BD43
330
1BB11
100
AcDbEntity
  8
AM_5
 62
     3
370
    13
100
AcDbLine
 10
2.499999999999998
 20
-31.02920205908514
 30
0.0
 11
147.5
 21
-31.02920205908514
 31
0.0
  0
INSERT
  5
1BD44
330
1BB11
100
AcDbEntity
  8
AM_5
 62
     3
370
    13
100
AcDbBlockReference
  2
_Open30
 10
-0.0000000000000019
 20
-31.02920205908514
 30
0.0
 41
2.5
 42
2.5
 43
2.5
 50
180.0
  0
INSERT
  5
1BD45
330
1BB11
100
AcDbEntity
  8
AM_5
 62
     3
370
    13
100
AcDbBlockReference
  2
_Open30
 10
150.0
 20
-31.02920205908514
 30
0.0
 41
2.5
 42
2.5
 43
2.5
  0
MTEXT
  5
1BD46
330
1BB11
100
AcDbEntity
  8
AM_5
 62
     2
100
AcDbMText
 10
75.0
 20
-27.62920205908514
 30
0.0
 40
3.8
 41
0.0
 71
     5
 72
     1
  1
150
 73
     1
 44
1.0
  0
POINT
  5
1BD47
330
1BB11
100
AcDbEntity
  8
Defpoints
 62
     0
100
AcDbPoint
 10
0.0
 20
0.0000000000000284
 30
0.0
  0
POINT
  5
1BD48
330
1BB11
100
AcDbEntity
  8
Defpoints
 62
     0
100
AcDbPoint
 10
150.0
 20
1.999999999999982
 30
0.0
  0
POINT
  5
1BD49
330
1BB11
100
AcDbEntity
  8
Defpoints
 62
     0
100
AcDbPoint
 10
150.0
 20
-31.02920205908514
 30
0.0
  0
ENDBLK
  5
1BB28
330
1BB11
100
AcDbEntity
  8
0
100
AcDbBlockEnd
  0
ENDSEC
  0
SECTION
  2
ENTITIES
  0
LINE
  5
EF21
330
1F
100
AcDbEntity
  8
AM_7
100
AcDbLine
 10
153.44069550271
 20
6.999999999999982
 30
0.0
 11
-2.166091167792331
 21
7.000000000000002
 31
0.0
1001
GENIUS_GENODEF_13
1002
{
1000
HIER
1070
     0
1002
}
1002
{
1000
MANEDIT
1070
     0
1002
}
1002
{
1000
NOSEL
1070
     0
1002
}
1002
{
1000
BEHIND
1070
     0
1002
}
1002
{
1000
REACTOR
1002
}
1001
GENIUS_GENOBJ-N-CEN_13
1002
{
1000
OWNER
1000
GEN
1002
}
  0
LINE
  5
EF61
330
1F
100
AcDbEntity
  8
AM_7
  6
AM_ISO08W050x2
100
AcDbLine
 10
101.2494572841735
 20
18.20813857451877
 30
0.0
 11
101.2494572841735
 21
-4.183904590500912
 31
0.0
1001
GENIUS_GENODEF_13
1002
{
1000
HIER
1070
     0
1002
}
1002
{
1000
MANEDIT
1070
     0
1002
}
1002
{
1000
NOSEL
1070
     0
1002
}
1002
{
1000
BEHIND
1070
     0
1002
}
1002
{
1000
REACTOR
1002
}
1001
GENIUS_GENOBJ-N-CEN_13
1002
{
1000
OWNER
1000
GEN
1002
}
  0
ARC
  5
EFB8
330
1F
100
AcDbEntity
  8
AM_0
100
AcDbCircle
 10
4.413017155785155
 20
5.629539545534072
 30
0.0
 40
0.2499999999998634
100
AcDbArc
 50
316.9722150900681
 51
103.0277849099401
  0
ARC
  5
EFB9
330
1F
100
AcDbEntity
  8
AM_0
100
AcDbCircle
 10
4.413017155785155
 20
4.469539545534332
 30
0.0
 40
0.2499999999998634
100
AcDbArc
 50
256.9722150900631
 51
43.02778490993659
  0
CIRCLE
  5
EFBA
330
1F
100
AcDbEntity
  8
AM_0
100
AcDbCircle
 10
3.408427687395374
 20
5.049539545534145
 30
0.0
 40
2.15
  0
CIRCLE
  5
EFBC
330
1F
100
AcDbEntity
  8
AM_0
100
AcDbCircle
 10
3.408427687395374
 20
5.049539545534145
 30
0.0
 40
1.803589838486232
  0
ARC
  5
EFBD
330
1F
100
AcDbEntity
  8
AM_0
100
AcDbCircle
 10
5.034386611101354
 20
5.049539545534144
 30
0.0
 40
0.6
100
AcDbArc
 50
136.9722150900634
 51
223.0277849099365
  0
ARC
  5
EFBE
330
1F
100
AcDbEntity
  8
AM_0
100
AcDbCircle
 10
3.408427687395374
 20
6.209539545534
 30
0.0
 40
0.2499999999998634
100
AcDbArc
 50
16.97221509006815
 51
163.0277849099319
  0
ARC
  5
EFBF
330
1F
100
AcDbEntity
  8
AM_0
100
AcDbCircle
 10
2.403838219005706
 20
5.629539545534072
 30
0.0
 40
0.2499999999998634
100
AcDbArc
 50
76.97221509006819
 51
223.0277849099411
  0
ARC
  5
EFC0
330
1F
100
AcDbEntity
  8
AM_0
100
AcDbCircle
 10
2.595448225542441
 20
6.457661278973575
 30
0.0
 40
0.6
100
AcDbArc
 50
256.9722150900631
 51
343.0277849099371
  0
ARC
  5
EFC1
330
1F
100
AcDbEntity
  8
AM_0
100
AcDbCircle
 10
2.403838219005706
 20
4.469539545534332
 30
0.0
 40
0.2499999999998634
100
AcDbArc
 50
136.9722150900634
 51
283.0277849099369
  0
ARC
  5
EFC2
330
1F
100
AcDbEntity
  8
AM_0
100
AcDbCircle
 10
3.408427687395374
 20
3.889539545534404
 30
0.0
 40
0.2499999999998634
100
AcDbArc
 50
196.9722150900682
 51
343.0277849099334
  0
ARC
  5
EFC3
330
1F
100
AcDbEntity
  8
AM_0
100
AcDbCircle
 10
2.595448225542441
 20
3.641417812094829
 30
0.0
 40
0.6
100
AcDbArc
 50
16.97221509006296
 51
103.0277849099349
  0
ARC
  5
EFC4
330
1F
100
AcDbEntity
  8
AM_0
100
AcDbCircle
 10
1.782468763689508
 20
5.049539545534145
 30
0.0
 40
0.6
100
AcDbArc
 50
316.9722150900635
 51
43.02778490993659
  0
ARC
  5
EFC5
330
1F
100
AcDbEntity
  8
AM_0
100
AcDbCircle
 10
4.221407149248421
 20
3.641417812094829
 30
0.0
 40
0.6
100
AcDbArc
 50
76.97221509006315
 51
163.0277849099371
  0
ARC
  5
EFC6
330
1F
100
AcDbEntity
  8
AM_0
100
AcDbCircle
 10
4.221407149248421
 20
6.457661278973461
 30
0.0
 40
0.6
100
AcDbArc
 50
196.972215090063
 51
283.027784909935
  0
LINE
  5
EFDE
330
1F
100
AcDbEntity
  8
AM_7
  6
AM_ISO08W050x2
100
AcDbLine
 10
3.408427687395374
 20
1.083203270467919
 30
0.0
 11
3.408427687395374
 21
9.333814905862283
 31
0.0
1001
GENIUS_GENODEF_13
1002
{
1000
HIER
1070
     0
1002
}
1002
{
1000
MANEDIT
1070
     0
1002
}
1002
{
1000
NOSEL
1070
     0
1002
}
1002
{
1000
BEHIND
1070
     0
1002
}
1002
{
1000
REACTOR
1002
}
1001
GENIUS_GENOBJ-N-CEN_13
1002
{
1000
OWNER
1000
GEN
1002
}
  0
LINE
  5
EFE4
330
1F
100
AcDbEntity
  8
AM_7
  6
AM_ISO08W050x2
100
AcDbLine
 10
6.414687916404546
 20
5.049539545534145
 30
0.0
 11
-0.5021814691747295
 21
5.049539545534145
 31
0.0
1001
GENIUS_GENODEF_13
1002
{
1000
HIER
1070
     0
1002
}
1002
{
1000
MANEDIT
1070
     0
1002
}
1002
{
1000
NOSEL
1070
     0
1002
}
1002
{
1000
BEHIND
1070
     0
1002
}
1002
{
1000
REACTOR
1002
}
1001
GENIUS_GENOBJ-N-CEN_13
1002
{
1000
OWNER
1000
GEN
1002
}
  0
DIMENSION
  5
F478
330
1F
100
AcDbEntity
  8
AM_5
100
AcDbDimension
  2
*D3
 10
106.7494572841735
 20
-14.66149453576155
 30
0.0
 11
100.7879114432384
 21
-11.1962382770274
 31
0.0
 70
   160
  1
<>
 71
     5
 42
11.0
  3
AM_JIS$0
100
AcDbAlignedDimension
 13
95.74945728417345
 23
4.216117818584952
 33
0.0
 14
106.7494572841735
 24
4.216117818584952
 34
0.0
100
AcDbRotatedDimension
1001
GENIUS_GENDTOL_13
1000

1000
h7
1000

1040
0.0
1001
ACAD
1000
DSTYLE
1002
{
1070
   271
1070
     0
1070
   279
1070
     2
1002
}
  0
LINE
  5
166A2
330
1F
100
AcDbEntity
  8
AM_7
100
AcDbLine
 10
155.4582697729217
 20
-55.81452818200476
 30
0.0
 11
-1.300639545297884
 21
-55.81452818200475
 31
0.0
1001
GENIUS_GENODEF_13
1002
{
1000
HIER
1070
     0
1002
}
1002
{
1000
MANEDIT
1070
     0
1002
}
1002
{
1000
NOSEL
1070
     0
1002
}
1002
{
1000
BEHIND
1070
     0
1002
}
1002
{
1000
REACTOR
1002
}
1001
GENIUS_GENOBJ-N-CEN_13
1002
{
1000
OWNER
1000
GEN
1002
}
  0
ARC
  5
1679D
330
1F
100
AcDbEntity
  8
AM_0
100
AcDbCircle
 10
101.2494572841735
 20
6.999999999999988
 30
0.0
 40
6.0
100
AcDbArc
 50
203.5564643091011
 51
336.4435356908988
  0
ARC
  5
167AF
330
1F
100
AcDbEntity
  8
AM_0
100
AcDbCircle
 10
101.2494572841735
 20
6.999999999999988
 30
0.0
 40
6.0
100
AcDbArc
 50
23.55646430910121
 51
156.4435356908989
  0
LINE
  5
167CD
330
1F
100
AcDbEntity
  8
AM_0
100
AcDbLine
 10
106.7494572841735
 20
9.397915761656337
 30
0.0
 11
106.7494572841735
 21
4.60208423834364
 31
0.0
  0
LINE
  5
167CE
330
1F
100
AcDbEntity
  8
AM_0
100
AcDbLine
 10
95.74945728417345
 20
9.397915761656339
 30
0.0
 11
95.74945728417345
 21
4.60208423834364
 31
0.0
  0
LINE
  5
16820
330
1F
100
AcDbEntity
  8
AM_7
  6
AM_ISO08W050x2
100
AcDbLine
 10
-38.60812111157344
 20
7.000000000000005
 30
0.0
 11
-57.59604937303908
 21
7.000000000000009
 31
0.0
1001
GENIUS_GENODEF_13
1002
{
1000
HIER
1070
     0
1002
}
1002
{
1000
MANEDIT
1070
     0
1002
}
1002
{
1000
NOSEL
1070
     0
1002
}
1002
{
1000
BEHIND
1070
     0
1002
}
1002
{
1000
REACTOR
1002
}
1001
GENIUS_GENOBJ-N-CEN_13
1002
{
1000
OWNER
1000
GEN
1002
}
  0
LINE
  5
1682C
330
1F
100
AcDbEntity
  8
AM_7
  6
AM_ISO08W050x2
100
AcDbLine
 10
-47.69408901814296
 20
-3.588845057297469
 30
0.0
 11
-47.69408901814296
 21
17.50552737384306
 31
0.0
1001
GENIUS_GENODEF_13
1002
{
1000
HIER
1070
     0
1002
}
1002
{
1000
MANEDIT
1070
     0
1002
}
1002
{
1000
NOSEL
1070
     0
1002
}
1002
{
1000
BEHIND
1070
     0
1002
}
1002
{
1000
REACTOR
1002
}
1001
GENIUS_GENOBJ-N-CEN_13
1002
{
1000
OWNER
1000
GEN
1002
}
  0
CIRCLE
  5
1683F
330
1F
100
AcDbEntity
  8
AM_11
  6
ACJISTGB
100
AcDbCircle
 10
-47.69408901814296
 20
7.125000000000005
 30
0.0
 40
7.0
  0
LINE
  5
16868
330
1F
100
AcDbEntity
  8
AM_5
100
AcDbLine
 10
-3.164978512548657
 20
0.0000000000000284
 30
0.0
 11
0.3936705454162279
 21
0.0000000000000284
 31
0.0
  0
LINE
  5
16A81
330
1F
100
AcDbEntity
  8
AM_11
  6
ACJISTGB
 48
0.5
100
AcDbLine
 10
12.81221396965333
 20
-54.81379670984725
 30
0.0
 11
19.99945728417362
 21
-50.31452818200475
 31
0.0
  0
LINE
  5
16DE6
330
1F
100
AcDbEntity
  8
AM_5
100
AcDbLine
 10
-0.0005427158263842
 20
-55.81452818200475
 30
0.0
 11
-7.427503355750275
 21
-55.16475332155821
 31
0.0
  0
DIMENSION
  5
16E08
330
1F
100
AcDbEntity
  8
AM_5
100
AcDbDimension
  2
*D4
 10
-1.300639545297884
 20
-55.81452818200475
 30
0.0
 11
-12.3724503457903
 21
-52.16699793150861
 31
0.0
 70
   162
  1
<>
 71
     5
 42
0.0872664625997106
  3
AM_JIS$2
100
AcDb2LineAngularDimension
 13
-0.0005427158263842
 23
-55.81452818200475
 33
0.0
 14
-7.427503355750275
 24
-55.16475332155821
 34
0.0
 15
155.4582697729217
 25
-55.81452818200476
 35
0.0
 16
-12.89348034398526
 26
-55.43938201176079
 36
0.0
1001
GENIUS_GENDTOL_13
1000

1000
h7
1000

1040
0.0
  0
DIMENSION
  5
17032
330
1F
100
AcDbEntity
  8
AM_5
100
AcDbDimension
  2
*D5
 10
-42.44656832008457
 20
2.492125457834032
 30
0.0
 11
-73.06005749279672
 21
18.32164065247913
 31
0.0
 70
   163
  1
最小加工径\P<>
 71
     5
 42
14.00000000000012
  3
AM_JIS$3
100
AcDbDiametricDimension
 15
-52.94160971620136
 25
11.75787454216598
 35
0.0
 40
0.0
1001
ACAD
1000
DSTYLE
1002
{
1070
   271
1070
     0
1070
   288
1070
     1
1070
   289
1070
     3
1070
   172
1070
     1
1070
    74
1070
     1
1002
}
1001
GENIUS_GENDTOL_13
1000

1000
h7
1000

1040
0.0
  0
DIMENSION
  5
171D5
330
1F
100
AcDbEntity
  8
AM_5
100
AcDbDimension
  2
*D6
 10
99.55270384967304
 20
1.244912877939097
 30
0.0
 11
109.3942841188155
 21
20.9513670728596
 31
0.0
 70
    35
  1
<>
 71
     5
 42
12.00000000000003
  3
AM_JIS$3
100
AcDbDiametricDimension
 15
102.946210718674
 25
12.75508712206085
 35
0.0
 40
0.0
1001
GENIUS_GENDTOL_13
1000

1000
h7
1000

1040
0.0
1001
ACAD
1000
DSTYLE
1002
{
1070
   271
1070
     0
1070
   289
1070
     3
1002
}
  0
DIMENSION
  5
1748D
330
1F
100
AcDbEntity
  8
AM_5
100
AcDbDimension
  2
*D7
 10
16.99945728417333
 20
-75.05309308026435
 30
0.0
 11
8.499457284173474
 21
-71.65309308026434
 31
0.0
 70
    32
  1
<>
 71
     5
 42
16.99999999999972
  3
AM_JIS$0
100
AcDbAlignedDimension
 13
-0.0005427158263842
 23
-55.81452818200475
 33
0.0
 14
16.99945728417333
 24
-61.31452818200475
 34
0.0
100
AcDbRotatedDimension
1001
ACAD
1000
DSTYLE
1002
{
1070
   271
1070
     0
1002
}
1001
GENIUS_GENDTOL_13
1000

1000
h7
1000

1040
0.0
  0
TEXT
  5
1832E
330
1F
100
AcDbEntity
  8
AM_0
100
AcDbText
 10
25.44923827101229
 20
-93.66376352899134
 30
0.0
 40
5.0
  1
XBPT-212R H14
100
AcDbText
  0
LINE
  5
18FEB
330
1F
100
AcDbEntity
  8
AM_0
100
AcDbLine
 10
25.2494572841735
 20
-61.31452818200475
 30
0.0
 11
149.5
 21
-61.31452818200476
 31
0.0
  0
LINE
  5
18FEC
330
1F
100
AcDbEntity
  8
AM_0
100
AcDbLine
 10
25.2494572841735
 20
-50.31452818200475
 30
0.0
 11
149.5
 21
-50.31452818200476
 31
0.0
  0
LINE
  5
18FED
330
1F
100
AcDbEntity
  8
AM_0
100
AcDbLine
 10
25.2494572841735
 20
1.000000000000025
 30
0.0
 11
90.74945728417345
 21
1.000000000000018
 31
0.0
  0
LINE
  5
18FEE
330
1F
100
AcDbEntity
  8
AM_0
100
AcDbLine
 10
43.95822405541031
 20
13.00000000000003
 30
0.0
 11
90.74945728417345
 21
13.00000000000002
 31
0.0
  0
LINE
  5
18FEF
330
1F
100
AcDbEntity
  8
AM_0
100
AcDbLine
 10
25.2494572841735
 20
4.602084238343675
 30
0.0
 11
90.74945728417345
 21
4.602084238343668
 31
0.0
  0
LINE
  5
18FF0
330
1F
100
AcDbEntity
  8
AM_0
100
AcDbLine
 10
149.0000000000001
 20
9.39791576165636
 30
0.0
 11
111.7494572841735
 21
9.397915761656366
 31
0.0
  0
LINE
  5
19123
330
1F
100
AcDbEntity
  8
AM_0
100
AcDbLine
 10
-49.71489376755523
 20
0.6467866757755942
 30
0.0
 11
-47.72953262488664
 21
0.0000000000000355
 31
0.0
  0
LINE
  5
19124
330
1F
100
AcDbEntity
  8
AM_0
100
AcDbLine
 10
-48.5880363558386
 20
10.18030971128091
 30
0.0
 11
-49.76212588574623
 21
9.932912069327053
 31
0.0
  0
LINE
  5
19125
330
1F
100
AcDbEntity
  8
AM_0
100
AcDbLine
 10
-49.72265941867596
 20
10.26680921473795
 30
0.0
 11
-48.19273700205423
 21
10.26360500137665
 31
0.0
  0
LINE
  5
19126
330
1F
100
AcDbEntity
  8
AM_0
100
AcDbLine
 10
-46.40655116164049
 20
11.00000000000012
 30
0.0
 11
-51.76678366982543
 21
11.31588178643728
 31
0.0
  0
ARC
  5
19127
330
1F
100
AcDbEntity
  8
AM_0
100
AcDbCircle
 10
-47.69408901814296
 20
6.250000000000005
 30
0.0
 40
6.500000000000001
100
AcDbArc
 50
90.0
 51
128.7973972407204
  0
SPLINE
  5
19128
330
1F
100
AcDbEntity
  8
AM_0
100
AcDbSpline
210
0.0
220
0.0
230
1.0
 70
     8
 71
     3
 72
    22
 73
    18
 74
     0
 42
0.0000000001
 43
0.0000000001
 40
0.0
 40
0.0
 40
0.0
 40
0.0
 40
0.4285128671353693
 40
0.4285128671353693
 40
0.8570257342707386
 40
0.8570257342707386
 40
1.285538601406108
 40
1.285538601406108
 40
1.714051468541477
 40
1.714051468541477
 40
2.142236194047622
 40
2.142236194047622
 40
2.570420919553768
 40
2.570420919553768
 40
2.998605645059913
 40
2.998605645059913
 40
3.426790370566058
 40
3.426790370566058
 40
3.426790370566058
 40
3.426790370566058
 10
-48.94404944804506
 20
12.8683557257275
 30
0.0
 10
-48.94404944804506
 20
12.8683557257275
 30
0.0
 10
-48.92945708601457
 20
12.8715267618818
 30
0.0
 10
-48.86872734315926
 20
12.88397702086775
 30
0.0
 10
-48.82261215470754
 20
12.89323391681342
 30
0.0
 10
-48.70176917225541
 20
12.91509515638376
 30
0.0
 10
-48.62695386922593
 20
12.9276697811406
 30
0.0
 10
-48.45541666723585
 20
12.95213290124207
 30
0.0
 10
-48.35868862583453
 20
12.9639651542978
 30
0.0
 10
-48.15402167862277
 20
12.98322812211826
 30
0.0
 10
-48.03886592351483
 20
12.99138861079894
 30
0.0
 10
-47.7891650697191
 20
13.00054740371775
 30
0.0
 10
-47.65462657354652
 20
13.00150010003018
 30
0.0
 10
-47.37503203857119
 20
12.99314303023824
 30
0.0
 10
-47.22973387623648
 20
12.98379356877275
 30
0.0
 10
-46.93859872320383
 20
12.95404447294181
 30
0.0
 10
-46.79275983127451
 20
12.93363101716955
 30
0.0
 10
-46.6521999521413
 20
12.90884651807324
 30
0.0
  0
LINE
  5
19129
330
1F
100
AcDbEntity
  8
AM_0
100
AcDbLine
 10
-49.762125885746
 20
9.932912069327053
 30
0.0
 11
-50.80040646398021
 21
1.148773357531162
 31
0.0
  0
LINE
  5
1912A
330
1F
100
AcDbEntity
  8
AM_0
100
AcDbLine
 10
-50.79858908086686
 20
1.164148917563502
 30
0.0
 11
-49.72265941867596
 21
10.26680921473795
 31
0.0
  0
ARC
  5
1912B
330
1F
100
AcDbEntity
  8
AM_0
100
AcDbCircle
 10
-47.69408901814296
 20
7.000000000000005
 30
0.0
 40
6.5
100
AcDbArc
 50
183.3073621796685
 51
241.6096146960092
  0
LINE
  5
1912C
330
1F
100
AcDbEntity
  8
AM_0
100
AcDbLine
 10
-50.80040646398021
 20
1.148773357531162
 30
0.0
 11
-50.80119853520779
 21
1.290720671664026
 31
0.0
  0
LINE
  5
1912D
330
1F
100
AcDbEntity
  8
AM_0
100
AcDbLine
 10
-49.71489376722917
 20
0.6467866756247886
 30
0.0
 11
-50.80040646398021
 21
1.148773357531162
 31
0.0
  0
ARC
  5
1912E
330
1F
100
AcDbEntity
  8
AM_0
100
AcDbCircle
 10
-47.69408901814296
 20
6.250000000000005
 30
0.0
 40
6.5
100
AcDbArc
 50
128.7973972407204
 51
176.6926378203283
  0
ARC
  5
1912F
330
1F
100
AcDbEntity
  8
AM_0
100
AcDbCircle
 10
-47.69408901814296
 20
7.000000000000005
 30
0.0
 40
6.0
100
AcDbArc
 50
102.0243128370437
 51
140.806273740734
  0
SPLINE
  5
19130
330
1F
100
AcDbEntity
  8
AM_0
100
AcDbSpline
210
0.0
220
0.0
230
1.0
 70
    28
 71
     2
 72
     6
 73
     3
 74
     0
 42
0.0000000001
 43
0.0000000001
 40
0.0255517539552694
 40
0.0255517539552694
 40
0.0255517539552694
 40
0.3684419925851877
 40
0.3684419925851877
 40
0.3684419925851877
 10
-48.9878512378811
 20
12.61994343136374
 30
0.0
 41
1.000034256164535
 10
-48.96638412149986
 20
12.74168949821524
 30
0.0
 41
1.000246977360961
 10
-48.94404944804506
 20
12.8683557257275
 30
0.0
 41
1.0
  0
LINE
  5
19131
330
1F
100
AcDbEntity
  8
AM_0
100
AcDbLine
 10
-47.64309381625805
 20
0.4133572896866227
 30
0.0
 11
-46.51623640489407
 21
9.946880325117526
 31
0.0
  0
ARC
  5
19132
330
1F
100
AcDbEntity
  8
AM_0
100
AcDbCircle
 10
-47.69408901814296
 20
7.000000000000005
 30
0.0
 40
6.0
100
AcDbArc
 50
273.1442707257197
 51
336.443535690898
  0
ARC
  5
19133
330
1F
100
AcDbEntity
  8
AM_0
100
AcDbCircle
 10
-42.19408901814296
 20
1.500000000000005
 30
0.0
 40
4.5
100
AcDbArc
 50
90.0
 51
178.9669147634337
  0
SPLINE
  5
19134
330
1F
100
AcDbEntity
  8
AM_0
100
AcDbSpline
210
0.0
220
0.0
230
1.0
 70
     8
 71
     3
 72
    32
 73
    28
 74
     0
 42
0.0000000001
 43
0.0000000001
 40
3.386867410655446
 40
3.386867410655446
 40
3.386867410655446
 40
3.386867410655446
 40
3.986060856630277
 40
3.986060856630277
 40
4.998960010543327
 40
4.998960010543327
 40
5.418593789869783
 40
5.418593789869783
 40
5.838227569196239
 40
5.838227569196239
 40
6.257861348522695
 40
6.257861348522695
 40
6.677495127849152
 40
6.677495127849152
 40
7.097128907175609
 40
7.097128907175609
 40
7.516762686502066
 40
7.516762686502066
 40
7.936396465828523
 40
7.936396465828523
 40
8.35603024515498
 40
8.35603024515498
 40
9.36892939906803
 40
9.36892939906803
 40
10.38182855298108
 40
10.38182855298108
 40
10.81132309243601
 40
10.81132309243601
 40
10.81132309243601
 40
10.81132309243601
 10
-42.19408901814296
 20
5.322949016875164
 30
0.0
 10
-42.22670218800346
 20
5.215991961879247
 30
0.0
 10
-42.26604746128515
 20
5.098118860563496
 30
0.0
 10
-42.39439386418763
 20
4.757682475716599
 30
0.0
 10
-42.49903700221768
 20
4.518998222706792
 30
0.0
 10
-42.69080375616233
 20
4.163873448996306
 30
0.0
 10
-42.75482691558233
 20
4.053090662183543
 30
0.0
 10
-42.89799523584753
 20
3.825402513904244
 30
0.0
 10
-42.97716720563932
 20
3.708511298537822
 30
0.0
 10
-43.14789609638211
 20
3.47645345431409
 30
0.0
 10
-43.23957003681659
 20
3.361162077981824
 30
0.0
 10
-43.43027824179086
 20
3.139456198410365
 30
0.0
 10
-43.52931639599461
 20
3.033044638502936
 30
0.0
 10
-43.72713365664578
 20
2.835227377851773
 30
0.0
 10
-43.83354521655321
 20
2.736189223648019
 30
0.0
 10
-44.05525109612478
 20
2.545481018673804
 30
0.0
 10
-44.17054247245693
 20
2.453807078239386
 30
0.0
 10
-44.40260031668055
 20
2.283078187496479
 30
0.0
 10
-44.5194915320472
 20
2.203906217704805
 30
0.0
 10
-44.74717968032638
 20
2.060737897439488
 30
0.0
 10
-44.85796246713909
 20
1.996714738019598
 30
0.0
 10
-45.21308724084958
 20
1.804947984074836
 30
0.0
 10
-45.45177149385955
 20
1.700304846044681
 30
0.0
 10
-45.87957288218746
 20
1.539021352879793
 30
0.0
 10
-46.06850286098307
 20
1.482272814604137
 30
0.0
 10
-46.28764029972905
 20
1.424252778222872
 30
0.0
 10
-46.34669031037635
 20
1.409839096764991
 30
0.0
 10
-46.39899697737434
 20
1.397747184753435
 30
0.0
  0
SPLINE
  5
19135
330
1F
100
AcDbEntity
  8
AM_0
100
AcDbSpline
210
0.0
220
0.0
230
1.0
 70
    11
 71
     3
 72
    46
 73
    42
 74
     0
 42
0.0000000001
 43
0.0000000001
 40
0.0
 40
0.0
 40
0.0
 40
0.0
 40
0.4931464033106831
 40
0.4931464033106831
 40
0.9862928066213662
 40
0.9862928066213662
 40
1.349885149890871
 40
1.349885149890871
 40
1.713477493160376
 40
1.713477493160376
 40
2.102148656316581
 40
2.102148656316581
 40
2.490819819472787
 40
2.490819819472787
 40
3.067089909568548
 40
3.067089909568548
 40
3.643359999664309
 40
3.643359999664309
 40
4.283625289183543
 40
4.283625289183543
 40
4.603757933943159
 40
4.603757933943159
 40
4.923890578702777
 40
4.923890578702777
 40
5.113064879688217
 40
5.113064879688217
 40
5.302239180673658
 40
5.302239180673658
 40
5.461778020118406
 40
5.461778020118406
 40
5.621316859563154
 40
5.621316859563154
 40
5.86942655625478
 40
5.86942655625478
 40
6.117536252946405
 40
6.117536252946405
 40
6.613755646329655
 40
6.613755646329655
 40
7.211826329460161
 40
7.211826329460161
 40
7.809897012590666
 40
7.809897012590666
 40
7.809897012590666
 40
7.809897012590666
 10
-44.28698223695625
 20
4.01623159055692
 30
0.0
 10
-44.20384698067147
 20
3.939222880307291
 30
0.0
 10
-44.12482262390341
 20
3.835560628585604
 30
0.0
 10
-44.01675830649134
 20
3.586893021731449
 30
0.0
 10
-43.98789677940596
 20
3.442019419400602
 30
0.0
 10
-44.00066495181665
 20
3.182720133161418
 30
0.0
 10
-44.02728413277151
 20
3.060266904012686
 30
0.0
 10
-44.12845096989901
 20
2.830549278875999
 30
0.0
 10
-44.20313076755912
 20
2.723338467731317
 30
0.0
 10
-44.37661737022091
 20
2.547378934263982
 30
0.0
 10
-44.48520037060854
 20
2.472240574457381
 30
0.0
 10
-44.70972545758451
 20
2.368789392195261
 30
0.0
 10
-44.82552038796399
 20
2.340183277092713
 30
0.0
 10
-45.08055410596541
 20
2.313157865174794
 30
0.0
 10
-45.23239344228188
 20
2.331969956575684
 30
0.0
 10
-45.49888773218555
 20
2.422973285950839
 30
0.0
 10
-45.613450442643
 20
2.494880448932356
 30
0.0
 10
-45.79868533968266
 20
2.663661342652695
 30
0.0
 10
-45.88077576384018
 20
2.778116267624803
 30
0.0
 10
-45.9578821164128
 20
2.972991756714016
 30
0.0
 10
-45.9761686172838
 20
3.041683309848573
 30
0.0
 10
-45.99572850954274
 20
3.185378193100299
 30
0.0
 10
-45.99719040364681
 20
3.260187530149104
 30
0.0
 10
-45.98246232973207
 20
3.386598671987606
 30
0.0
 10
-45.9723922308354
 20
3.440272885133716
 30
0.0
 10
-45.9395786293897
 20
3.552262931566027
 30
0.0
 10
-45.91662894674784
 20
3.610765671947725
 30
0.0
 10
-45.86525789294166
 20
3.712620125480676
 30
0.0
 10
-45.83553644753675
 20
3.762022945337556
 30
0.0
 10
-45.77012544061682
 20
3.853074355531938
 30
0.0
 10
-45.734487460617
 20
3.894839604529416
 30
0.0
 10
-45.64942167327246
 20
3.983095422285608
 30
0.0
 10
-45.5963955519299
 20
4.027653876312577
 30
0.0
 10
-45.4876543667736
 20
4.104554042445848
 30
0.0
 10
-45.43197315230242
 20
4.136666423989034
 30
0.0
 10
-45.26291216553392
 20
4.216339411605595
 30
0.0
 10
-45.14750714847907
 20
4.246462584546528
 30
0.0
 10
-44.91393775032071
 20
4.272206855585075
 30
0.0
 10
-44.77560764141532
 20
4.261964866949263
 30
0.0
 10
-44.51239228787387
 20
4.18080122731579
 30
0.0
 10
-44.38780576356982
 20
4.109625056750254
 30
0.0
 10
-44.28698223695625
 20
4.01623159055692
 30
0.0
  0
ELLIPSE
  5
19136
330
1F
100
AcDbEntity
  8
AM_0
100
AcDbEllipse
 10
-47.68019025462155
 20
0.3968871581637146
 30
0.0
 11
0.04876106623551479
 21
0.3970168238495391
 31
0.0
210
0.0
220
0.0
230
1.0
 40
0.0871487501159606
 41
3.124587135372703
 42
4.764586312089743
  0
SPLINE
  5
19137
330
1F
100
AcDbEntity
  8
AM_0
100
AcDbSpline
210
0.0
220
0.0
230
1.0
 70
     8
 71
     3
 72
    10
 73
     6
 74
     0
 42
0.0000000001
 43
0.0000000001
 40
35.66404045851092
 40
35.66404045851092
 40
35.66404045851092
 40
35.66404045851092
 40
36.06219674417969
 40
36.06219674417969
 40
36.38899302711813
 40
36.38899302711813
 40
36.38899302711813
 40
36.38899302711813
 10
-47.2677238398249
 20
1.100516652167819
 30
0.0
 10
-47.33571018910362
 20
1.038854876550722
 30
0.0
 10
-47.40195645302657
 20
0.9741382119663129
 30
0.0
 10
-47.51887491300914
 20
0.8507691040511602
 30
0.0
 10
-47.570204466809
 20
0.7930980759412094
 30
0.0
 10
-47.62005406381428
 20
0.7334323271322845
 30
0.0
  0
ELLIPSE
  5
19138
330
1F
100
AcDbEntity
  8
AM_0
100
AcDbEllipse
 10
-48.42513212875412
 20
-7.499999999999993
 30
0.0
 11
4.504923693723854
 21
9.866845041617903
 31
0.0
210
0.0
220
0.0
230
1.0
 40
0.3610403027276593
 41
0.5954117905895502
 42
0.6987970717971412
  0
SPLINE
  5
19139
330
1F
100
AcDbEntity
  8
AM_0
100
AcDbSpline
210
0.0
220
0.0
230
1.0
 70
     8
 71
     3
 72
    12
 73
     8
 74
     0
 42
0.0000000001
 43
0.0000000001
 40
-1.299345701639491
 40
-1.299345701639491
 40
-1.299345701639491
 40
-1.299345701639491
 40
-1.274032593939324
 40
-1.274032593939324
 40
-0.6370162969696622
 40
-0.6370162969696622
 40
-0.6283201287880809
 40
-0.6283201287880809
 40
-0.6283201287880809
 40
-0.6283201287880809
 10
-46.39899697737434
 20
1.397747184753435
 30
0.0
 10
-46.40693631650794
 20
1.395911820434897
 30
0.0
 10
-46.41489207304818
 20
1.394090457783314
 30
0.0
 10
-46.62347634225472
 20
1.346805592593462
 30
0.0
 10
-46.83484242971173
 20
1.310463917298655
 30
0.0
 10
-47.05233962630115
 20
1.285923836050422
 30
0.0
 10
-47.05526937881729
 20
1.285595608205661
 30
0.0
 10
-47.0581996568763
 20
1.285269497147972
 30
0.0
  0
SPLINE
  5
1913A
330
1F
100
AcDbEntity
  8
AM_0
100
AcDbSpline
210
0.0
220
0.0
230
1.0
 70
     8
 71
     3
 72
    14
 73
    10
 74
     0
 42
0.0000000001
 43
0.0000000001
 40
4.398741584532346
 40
4.398741584532346
 40
4.398741584532346
 40
4.398741584532346
 40
4.781970903975992
 40
4.781970903975992
 40
5.338226633150732
 40
5.338226633150732
 40
5.894482362325473
 40
5.894482362325473
 40
6.064660701679938
 40
6.064660701679938
 40
6.064660701679938
 40
6.064660701679938
 10
-46.39899697737434
 20
1.397747184753435
 30
0.0
 10
-46.44422452947225
 20
1.456799532684848
 30
0.0
 10
-46.48417240192731
 20
1.515012625592824
 30
0.0
 10
-46.5675624215483
 20
1.653181775251717
 30
0.0
 10
-46.60439441548562
 20
1.731112774294168
 30
0.0
 10
-46.65233151352282
 20
1.874518406379146
 30
0.0
 10
-46.66343858591978
 20
1.939992409130134
 30
0.0
 10
-46.66343858591978
 20
2.015749105052585
 30
0.0
 10
-46.66241373241525
 20
2.033268010153741
 30
0.0
 10
-46.66029311380913
 20
2.05047341066939
 30
0.0
  0
ARC
  5
1913B
330
1F
100
AcDbEntity
  8
AM_0
100
AcDbCircle
 10
-41.69408901814296
 20
12.50000000000001
 30
0.0
 40
4.5
100
AcDbArc
 50
207.1915034289245
 51
237.79452681838
  0
SPLINE
  5
1913C
330
1F
100
AcDbEntity
  8
AM_0
100
AcDbSpline
210
0.0
220
0.0
230
1.0
 70
     8
 71
     3
 72
    32
 73
    28
 74
     0
 42
0.0000000001
 43
0.0000000001
 40
0.9478659275413041
 40
0.9478659275413041
 40
0.9478659275413041
 40
0.9478659275413041
 40
1.905011301595584
 40
1.905011301595584
 40
2.862156675649864
 40
2.862156675649864
 40
3.819302049704143
 40
3.819302049704143
 40
4.776447423758423
 40
4.776447423758423
 40
5.163971836667514
 40
5.163971836667514
 40
5.551496249576604
 40
5.551496249576604
 40
5.939020662485694
 40
5.939020662485694
 40
6.326545075394785
 40
6.326545075394785
 40
6.714069488303876
 40
6.714069488303876
 40
7.101593901212967
 40
7.101593901212967
 40
7.489118314122058
 40
7.489118314122058
 40
7.876642727031148
 40
7.876642727031148
 40
8.180631293058717
 40
8.180631293058717
 40
8.180631293058717
 40
8.180631293058717
 10
-46.19380200854727
 20
12.55082326225926
 30
0.0
 10
-46.19380200854727
 20
12.55082326225926
 30
0.0
 10
-46.15935648337978
 20
12.54188888805482
 30
0.0
 10
-46.01775758916807
 20
12.50071353260598
 30
0.0
 10
-45.91067888053186
 20
12.46841899627669
 30
0.0
 10
-45.63326305253878
 20
12.3700241014642
 30
0.0
 10
-45.46285754918023
 20
12.30372138226972
 30
0.0
 10
-45.07663563540274
 20
12.12413818759729
 30
0.0
 10
-44.86100173311098
 20
12.01080230223364
 30
0.0
 10
-44.54180820050721
 20
11.81013845792769
 30
0.0
 10
-44.4438647513785
 20
11.74487887560054
 30
0.0
 10
-44.24260825470861
 20
11.60055582205849
 30
0.0
 10
-44.13930799905148
 20
11.52146884719719
 30
0.0
 10
-43.93428140054158
 20
11.35247013591397
 30
0.0
 10
-43.83244596609239
 20
11.26244479957251
 30
0.0
 10
-43.63667350700604
 20
11.07653064545719
 30
0.0
 10
-43.54273930864002
 20
10.98063835577637
 30
0.0
 10
-43.36816611533715
 20
10.79019487217318
 30
0.0
 10
-43.28078846283398
 20
10.68829241545144
 30
0.0
 10
-43.11256744348526
 20
10.47712277491008
 30
0.0
 10
-43.03172037253495
 20
10.36785810536134
 30
0.0
 10
-42.88115415361773
 20
10.14893737945125
 30
0.0
 10
-42.81133130273753
 20
10.03916278354462
 30
0.0
 10
-42.68502040948584
 20
9.826139593535807
 30
0.0
 10
-42.62850784192193
 20
9.722901703107489
 30
0.0
 10
-42.53995031409596
 20
9.550415486075513
 30
0.0
 10
-42.50387986978541
 20
9.476009827447518
 30
0.0
 10
-42.47045316411646
 20
9.403357747928856
 30
0.0
  0
ARC
  5
1913D
330
1F
100
AcDbEntity
  8
AM_0
100
AcDbCircle
 10
-47.69408901814296
 20
7.000000000000005
 30
0.0
 40
6.0
100
AcDbArc
 50
23.55646430910201
 51
57.97568716295489
  0
SPLINE
  5
1913E
330
1F
100
AcDbEntity
  8
AM_0
100
AcDbSpline
210
0.0
220
0.0
230
1.0
 70
     8
 71
     3
 72
    18
 73
    14
 74
     0
 42
0.0000000001
 43
0.0000000001
 40
9.383291721619994
 40
9.383291721619994
 40
9.383291721619994
 40
9.383291721619994
 40
9.406733084444678
 40
9.406733084444678
 40
9.605316459277946
 40
9.605316459277946
 40
9.803899834111213
 40
9.803899834111213
 40
10.20106658377775
 40
10.20106658377775
 40
10.58842102449113
 40
10.58842102449113
 40
10.69169472146643
 40
10.69169472146643
 40
10.69169472146643
 40
10.69169472146643
 10
-45.65418199143556
 20
3.975362556570765
 30
0.0
 10
-45.64828636583053
 20
3.970184829374269
 30
0.0
 10
-45.64234495316947
 20
3.965082420101005
 30
0.0
 10
-45.5856513476636
 20
3.917510836630818
 30
0.0
 10
-45.52992792774222
 20
3.879134262503847
 30
0.0
 10
-45.41193115350626
 20
3.813852083968307
 30
0.0
 10
-45.34965604556106
 20
3.786926834199797
 30
0.0
 10
-45.15876558630026
 20
3.725453658240788
 30
0.0
 10
-45.02543287084956
 20
3.710795235470421
 30
0.0
 10
-44.78160962697831
 20
3.728509906226414
 30
0.0
 10
-44.65326791581839
 20
3.761266085032055
 30
0.0
 10
-44.50409291086527
 20
3.836100932783445
 30
0.0
 10
-44.473401521992
 20
3.853652794746502
 30
0.0
 10
-44.44373195013742
 20
3.872867492137523
 30
0.0
  0
SPLINE
  5
1913F
330
1F
100
AcDbEntity
  8
AM_0
100
AcDbSpline
210
0.0
220
0.0
230
1.0
 70
     8
 71
     3
 72
     8
 73
     4
 74
     0
 42
0.0000000001
 43
0.0000000001
 40
1.327011630901579
 40
1.327011630901579
 40
1.327011630901579
 40
1.327011630901579
 40
1.588882119816186
 40
1.588882119816186
 40
1.588882119816186
 40
1.588882119816186
 10
-46.33441886765655
 20
6.651273407043284
 30
0.0
 10
-46.36158873774599
 20
6.672626703135173
 30
0.0
 10
-46.39131480313864
 20
6.687761603366432
 30
0.0
 10
-46.42271739792483
 20
6.696017724113979
 30
0.0
  0
ELLIPSE
  5
19140
330
1F
100
AcDbEntity
  8
AM_0
100
AcDbEllipse
 10
-37.23252874043516
 20
5.858320787874682
 30
0.0
 11
-9.945225924261164
 21
1.160330457067213
 31
0.0
210
0.0
220
0.0
230
1.0
 40
0.0598581063003312
 41
0.2447148914766184
 42
0.3992163891201916
  0
SPLINE
  5
19141
330
1F
100
AcDbEntity
  8
AM_0
100
AcDbSpline
210
0.0
220
0.0
230
1.0
 70
     8
 71
     3
 72
    12
 73
     8
 74
     0
 42
0.0000000001
 43
0.0000000001
 40
-2.584307613796079
 40
-2.584307613796079
 40
-2.584307613796079
 40
-2.584307613796079
 40
-2.416485346927574
 40
-2.416485346927574
 40
-1.795563529742493
 40
-1.795563529742493
 40
-1.328462959426317
 40
-1.328462959426317
 40
-1.328462959426317
 40
-1.328462959426317
 10
-47.24844158467823
 20
3.877375912512896
 30
0.0
 10
-47.22825889853863
 20
3.894191556999438
 30
0.0
 10
-47.20737863487017
 20
3.91322360545815
 30
0.0
 10
-47.10743820868726
 20
4.010927085505848
 30
0.0
 10
-47.01115640795871
 20
4.124417239798397
 30
0.0
 10
-46.8323652748864
 20
4.369736715827465
 30
0.0
 10
-46.75248694070007
 20
4.489867677311345
 30
0.0
 10
-46.67663941473376
 20
4.615944045267732
 30
0.0
  0
ELLIPSE
  5
19142
330
1F
100
AcDbEntity
  8
AM_0
100
AcDbEllipse
 10
-47.029730722446
 20
5.261357614027766
 30
0.0
 11
0.6447764369200255
 21
1.420728770147459
 31
0.0
210
0.0
220
0.0
230
1.0
 40
0.3931313310792857
 41
4.425291916250934
 42
6.187251233714624
  0
SPLINE
  5
19143
330
1F
100
AcDbEntity
  8
AM_0
100
AcDbSpline
210
0.0
220
0.0
230
1.0
 70
    28
 71
     2
 72
     6
 73
     3
 74
     0
 42
0.0000000001
 43
0.0000000001
 40
0.0
 40
0.0
 40
0.0
 40
0.7632067745941296
 40
0.7632067745941296
 40
0.7632067745941296
 10
-42.19408901814296
 20
5.322949016875164
 30
0.0
 41
1.0
 10
-42.19408901814254
 20
4.970185401849115
 30
0.0
 41
1.001887252317323
 10
-42.19408901814296
 20
4.602084238343657
 30
0.0
 41
1.0
  0
LINE
  5
19144
330
1F
100
AcDbEntity
  8
AM_0
100
AcDbLine
 10
-42.19408901814296
 20
8.677050983124849
 30
0.0
 11
-42.19408901814296
 21
6.000000000000007
 31
0.0
  0
LINE
  5
19145
330
1F
100
AcDbEntity
  8
AM_0
100
AcDbLine
 10
-42.19408901814296
 20
6.000000000000007
 30
0.0
 11
-42.19408901814296
 21
5.322949016875164
 31
0.0
  0
ELLIPSE
  5
19146
330
1F
100
AcDbEntity
  8
AM_0
100
AcDbEllipse
 10
-42.39074779322033
 20
12.76929625251979
 30
0.0
 11
1.596426228464782
 21
4.129891635763983
 31
0.0
210
0.0
220
0.0
230
1.0
 40
0.3683352287198906
 41
3.069644392020959
 42
3.914967151267548
  0
ARC
  5
19147
330
1F
100
AcDbEntity
  8
AM_0
100
AcDbCircle
 10
-47.69408901814296
 20
7.000000000000005
 30
0.0
 40
5.75
100
AcDbArc
 50
16.95742629417218
 51
24.70682306633795
  0
SPLINE
  5
19148
330
1F
100
AcDbEntity
  8
AM_0
100
AcDbSpline
210
0.0
220
0.0
230
1.0
 70
    28
 71
     2
 72
     6
 73
     3
 74
     0
 42
0.0000000001
 43
0.0000000001
 40
0.0
 40
0.0
 40
0.0
 40
0.7632067745941296
 40
0.7632067745941296
 40
0.7632067745941296
 10
-42.19408901814296
 20
9.397915761656355
 30
0.0
 41
1.0
 10
-42.19408901814254
 20
9.029814598150894
 30
0.0
 41
1.001887252317323
 10
-42.19408901814296
 20
8.677050983124849
 30
0.0
 41
1.0
  0
LINE
  5
19149
330
1F
100
AcDbEntity
  8
AM_0
100
AcDbLine
 10
-44.44373195013742
 20
3.872867492137523
 30
0.0
 11
-44.31490962556433
 21
4.026391960253655
 31
0.0
  0
ELLIPSE
  5
1914A
330
1F
100
AcDbEntity
  8
AM_0
100
AcDbEllipse
 10
-44.99408901814292
 20
4.759358387289986
 30
0.0
 11
0.9999999999999999
 21
-1.224606353822377E-16
 31
0.0
210
0.0
220
0.0
230
1.0
 40
0.9986295347545716
 41
5.459032999928754
 42
5.470205715645697
  0
LINE
  5
1914B
330
1F
100
AcDbEntity
  8
AM_0
100
AcDbLine
 10
-44.31490962556433
 20
4.026391960253712
 30
0.0
 11
-44.30776857059738
 21
4.034902338165701
 31
0.0
  0
SPLINE
  5
1914C
330
1F
100
AcDbEntity
  8
AM_0
100
AcDbSpline
210
0.0
220
0.0
230
1.0
 70
     8
 71
     3
 72
    22
 73
    18
 74
     0
 42
0.0000000001
 43
0.0000000001
 40
3.426790370566058
 40
3.426790370566058
 40
3.426790370566058
 40
3.426790370566058
 40
3.854975096072203
 40
3.854975096072203
 40
4.283159821578348
 40
4.283159821578348
 40
4.711344547084494
 40
4.711344547084494
 40
5.139529272590639
 40
5.139529272590639
 40
5.568042139726009
 40
5.568042139726009
 40
5.996555006861378
 40
5.996555006861378
 40
6.425067873996747
 40
6.425067873996747
 40
6.853580741132117
 40
6.853580741132117
 40
6.853580741132117
 40
6.853580741132117
 10
-46.6521999521413
 20
12.90884651807324
 30
0.0
 10
-46.5116400730081
 20
12.88406201897693
 30
0.0
 10
-46.36761452936963
 20
12.85336455401075
 30
0.0
 10
-46.08386218439347
 20
12.78174547307072
 30
0.0
 10
-45.94412886928336
 20
12.74083619471157
 30
0.0
 10
-45.67853766174704
 20
12.65306230860109
 30
0.0
 10
-45.55243867101132
 20
12.60615219116267
 30
0.0
 10
-45.32092911296223
 20
12.5121430192379
 30
0.0
 10
-45.21550915115455
 20
12.46508908037584
 30
0.0
 10
-45.02977345415576
 20
12.37698759304107
 30
0.0
 10
-44.94292569631358
 20
12.33278597357367
 30
0.0
 10
-44.79010033325682
 20
12.25112898172257
 30
0.0
 10
-44.72409772003954
 20
12.21372435896434
 30
0.0
 10
-44.61801944544669
 20
12.15185077928062
 30
0.0
 10
-44.57785138803052
 20
12.12737981910534
 30
0.0
 10
-44.52504233616998
 20
12.09490960725385
 30
0.0
 10
-44.51241455949008
 20
12.08693892622632
 30
0.0
 10
-44.51241455949008
 20
12.08693892622632
 30
0.0
  0
LINE
  5
1914D
330
1F
100
AcDbEntity
  8
AM_0
100
AcDbLine
 10
-48.5880363558129
 20
10.18030971123327
 30
0.0
 11
-46.5051671818099
 21
10.32744187353465
 31
0.0
  0
ELLIPSE
  5
1914E
330
1F
100
AcDbEntity
  8
AM_0
100
AcDbEllipse
 10
-46.55333284325758
 20
9.930410193594675
 30
0.0
 11
0.04876106623551477
 21
0.3970168238495389
 31
0.0
210
0.0
220
0.0
230
1.0
 40
0.0871487501159606
 41
4.764586312089669
 42
6.300190825396522
  0
LINE
  5
1914F
330
1F
100
AcDbEntity
  8
AM_0
100
AcDbLine
 10
-48.19299911551292
 20
10.26360555033742
 30
0.0
 11
-48.20774402291664
 21
10.2071923127322
 31
0.0
  0
LINE
  5
19150
330
1F
100
AcDbEntity
  8
AM_0
100
AcDbLine
 10
-48.19273700205423
 20
10.26360500137665
 30
0.0
 11
-46.43502145632766
 21
10.63398108442775
 31
0.0
  0
LINE
  5
19151
330
1F
100
AcDbEntity
  8
AM_0
100
AcDbLine
 10
-46.5153302274021
 20
10.32672396436775
 30
0.0
 11
-46.43502145632766
 21
10.63398108442775
 31
0.0
  0
LINE
  5
19152
330
1F
100
AcDbEntity
  8
AM_0
100
AcDbLine
 10
-46.43502145632766
 20
10.63398108442775
 30
0.0
 11
-46.40655116164049
 21
11.00000000000012
 31
0.0
  0
ELLIPSE
  5
19153
330
1F
100
AcDbEntity
  8
AM_0
100
AcDbEllipse
 10
-36.30424828316569
 20
11.37919464182727
 30
0.0
 11
-10.11141237019553
 21
-0.04774627267476917
 31
0.0
210
0.0
220
0.0
230
1.0
 40
0.4950540463012268
 41
6.070458698366987
 42
6.29561888916172
  0
LINE
  5
19154
330
1F
100
AcDbEntity
  8
AM_0
100
AcDbLine
 10
-46.40655116164049
 20
11.00000000000012
 30
0.0
 11
-46.41458519683357
 21
11.26921493664236
 31
0.0
  0
SPLINE
  5
19155
330
1F
100
AcDbEntity
  8
AM_0
100
AcDbSpline
210
0.0
220
0.0
230
1.0
 70
     8
 71
     3
 72
    12
 73
     8
 74
     0
 42
0.0000000001
 43
0.0000000001
 40
3.349680994984138
 40
3.349680994984138
 40
3.349680994984138
 40
3.349680994984138
 40
5.000594304755719
 40
5.000594304755719
 40
7.500891457133578
 40
7.500891457133578
 40
7.885021767805957
 40
7.885021767805957
 40
7.885021767805957
 40
7.885021767805957
 10
-45.69676768413666
 20
10.44365287541263
 30
0.0
 10
-45.81908885963736
 20
10.68175098332564
 30
0.0
 10
-45.91616142014237
 20
10.92300004154556
 30
0.0
 10
-46.10350847804472
 20
11.52475093001642
 30
0.0
 10
-46.1656646906909
 20
11.88912063452199
 30
0.0
 10
-46.18925962428403
 20
12.28498570337502
 30
0.0
 10
-46.19145048265915
 20
12.33739013063747
 30
0.0
 10
-46.19272858614073
 20
12.3893562598052
 30
0.0
  0
ARC
  5
19156
330
1F
100
AcDbEntity
  8
AM_0
100
AcDbCircle
 10
-41.69408901814296
 20
12.50000000000001
 30
0.0
 40
4.5
100
AcDbArc
 50
179.3528843692743
 51
181.408901835696
  0
ARC
  5
19157
330
1F
100
AcDbEntity
  8
AM_0
100
AcDbCircle
 10
-47.69408901814296
 20
7.000000000000005
 30
0.0
 40
5.75
100
AcDbArc
 50
74.87537218334099
 51
90.0
  0
SPLINE
  5
19158
330
1F
100
AcDbEntity
  8
AM_0
100
AcDbSpline
210
0.0
220
0.0
230
1.0
 70
    28
 71
     2
 72
     6
 73
     3
 74
     0
 42
0.0000000001
 43
0.0000000001
 40
0.0
 40
0.0
 40
0.0
 40
0.3684419925851877
 40
0.3684419925851877
 40
0.3684419925851877
 10
-44.51241455949008
 20
12.08693892622637
 30
0.0
 41
1.0
 10
-44.53641314345063
 20
11.95083619331457
 30
0.0
 41
1.000265381787965
 10
-44.55941178641302
 20
11.82040440760671
 30
0.0
 41
1.0
  0
LINE
  5
19159
330
1F
100
AcDbEntity
  8
AM_0
100
AcDbLine
 10
25.2494572841735
 20
12.86835572572752
 30
0.0
 11
41.96399057506091
 21
12.86835572572752
 31
0.0
  0
LINE
  5
1915A
330
1F
100
AcDbEntity
  8
AM_0
100
AcDbLine
 10
41.96399057506091
 20
12.08693892622634
 30
0.0
 11
25.2494572841735
 21
12.08693892622634
 31
0.0
  0
LINE
  5
1915B
330
1F
100
AcDbEntity
  8
AM_0
100
AcDbLine
 10
4.177509051041454
 20
-62.30370185821343
 30
0.0
 11
16.2494572841735
 21
-62.30370185821343
 31
0.0
  0
SPLINE
  5
1915C
330
1F
100
AcDbEntity
  8
AM_0
100
AcDbSpline
210
0.0
220
0.0
230
1.0
 70
     8
 71
     3
 72
    26
 73
    22
 74
     0
 42
0.0000000001
 43
0.0000000001
 40
9.174451604544069
 40
9.174451604544069
 40
9.174451604544069
 40
9.174451604544069
 40
9.27259562537742
 40
9.27259562537742
 40
10.09832614555448
 40
10.09832614555448
 40
10.92405666573155
 40
10.92405666573155
 40
11.74978718590861
 40
11.74978718590861
 40
12.61770703576739
 40
12.61770703576739
 40
13.48562688562617
 40
13.48562688562617
 40
14.3376527168198
 40
14.3376527168198
 40
15.18967854801344
 40
15.18967854801344
 40
16.04170437920708
 40
16.04170437920708
 40
16.78879762526805
 40
16.78879762526805
 40
16.78879762526805
 40
16.78879762526805
 10
16.2494572841735
 20
-60.47775933541087
 30
0.0
 10
16.21499875225317
 20
-60.47524271216926
 30
0.0
 10
16.18047732888596
 20
-60.4725428594339
 30
0.0
 10
15.85505675991897
 20
-60.44537532305404
 30
0.0
 10
15.56081124799385
 20
-60.40781449009873
 30
0.0
 10
14.98251424240215
 20
-60.30393526874397
 30
0.0
 10
14.69827785864533
 20
-60.2375335533911
 30
0.0
 10
14.15530992665151
 20
-60.07653340344993
 30
0.0
 10
13.89659097809835
 20
-59.98185207166702
 30
0.0
 10
13.40560856891256
 20
-59.76427776013961
 30
0.0
 10
13.14107537618321
 20
-59.62402070402536
 30
0.0
 10
12.64821261505398
 20
-59.29653838808665
 30
0.0
 10
12.41998036010006
 20
-59.10885144731984
 30
0.0
 10
12.0413272836152
 20
-58.73060824921336
 30
0.0
 10
11.8650987866468
 20
-58.51749768221006
 30
0.0
 10
11.55583901057781
 20
-58.0479590514353
 30
0.0
 10
11.42273515369715
 20
-57.79151074489138
 30
0.0
 10
11.20987055960205
 20
-57.25126297342021
 30
0.0
 10
11.12976802987618
 20
-56.96687750771812
 30
0.0
 10
11.03105517189493
 20
-56.42600508937923
 30
0.0
 10
11.00600806342607
 20
-56.17039937155184
 30
0.0
 10
11.00059419818905
 20
-55.91980184448354
 30
0.0
  0
SPLINE
  5
1915D
330
1F
100
AcDbEntity
  8
AM_0
100
AcDbSpline
210
0.0
220
0.0
230
1.0
 70
     8
 71
     3
 72
    18
 73
    14
 74
     0
 42
0.0000000001
 43
0.0000000001
 40
1.026443429749797
 40
1.026443429749797
 40
1.026443429749797
 40
1.026443429749797
 40
1.923815279515564
 40
1.923815279515564
 40
2.885722919273347
 40
2.885722919273347
 40
3.847630559031129
 40
3.847630559031129
 40
5.741945949029734
 40
5.741945949029734
 40
7.636261339028341
 40
7.636261339028341
 40
8.021561314351894
 40
8.021561314351894
 40
8.021561314351894
 40
8.021561314351894
 10
19.96399057494574
 20
-54.78073227767104
 30
0.0
 10
19.65839088548245
 20
-54.76904045765426
 30
0.0
 10
19.34272916122853
 20
-54.75591443571969
 30
0.0
 10
18.68203293939138
 20
-54.73146534664804
 30
0.0
 10
18.33634150307472
 20
-54.7204224381982
 30
0.0
 10
17.65537123659868
 20
-54.70569076761572
 30
0.0
 10
17.32009316409273
 20
-54.70201037570084
 30
0.0
 10
16.36801882084063
 20
-54.70201037570084
 30
0.0
 10
15.71739031610184
 20
-54.71730657418542
 30
0.0
 10
14.42847504939601
 20
-54.76377026137831
 30
0.0
 10
13.79015612333018
 20
-54.79444147042918
 30
0.0
 10
13.05660059242234
 20
-54.81077165118367
 30
0.0
 10
12.93375267624555
 20
-54.81278614702606
 30
0.0
 10
12.81221396964719
 20
-54.81379670985095
 30
0.0
  0
ELLIPSE
  5
1915E
330
1F
100
AcDbEntity
  8
AM_0
100
AcDbEllipse
 10
23.47854112778674
 20
-50.31452818200475
 30
0.0
 11
11.34555704628461
 21
4.269136613696088
 31
0.0
210
0.0
220
0.0
230
1.0
 40
0.1254094100849946
 41
1.892503469098368
 42
3.445269057061431
  0
ELLIPSE
  5
1915F
330
1F
100
AcDbEntity
  8
AM_0
100
AcDbEllipse
 10
12.75990349018076
 20
-50.51118695708217
 30
0.0
 11
4.075306574402688
 21
1.731028004023564
 31
0.0
210
0.0
220
0.0
230
0.9999999999999999
 40
0.3352043512074568
 41
4.499009859855654
 42
5.344332619102244
  0
ELLIPSE
  5
19160
330
1F
100
AcDbEntity
  8
AM_0
100
AcDbEllipse
 10
3.408427687395431
 20
-55.4945572539477
 30
0.0
 11
-1.494207375492318
 21
0.1316978322690128
 31
0.0
210
0.0
220
0.0
230
1.0
 40
0.1214388637169113
 41
0.6278248067315924
 42
6.911010113911176
  0
LINE
  5
19161
330
1F
100
AcDbEntity
  8
AM_0
100
AcDbLine
 10
1.114538595666659
 20
-54.65171275201769
 30
0.0
 11
7.655343500257231
 21
-55.73923763768207
 31
0.0
  0
LINE
  5
19162
330
1F
100
AcDbEntity
  8
AM_0
100
AcDbLine
 10
0.0000000000001137
 20
-55.76353298011983
 30
0.0
 11
0.4996307710306951
 21
-54.63667556875592
 31
0.0
  0
ELLIPSE
  5
19163
330
1F
100
AcDbEntity
  8
AM_0
100
AcDbEllipse
 10
5.610448514169946
 20
-45.8652109444246
 30
0.0
 11
11.47017275802632
 21
-1.235751694373897
 31
0.0
210
0.0
220
0.0
230
1.0
 40
0.8603529575614317
 41
5.010133281903446
 42
5.064928674307003
  0
SPLINE
  5
19164
330
1F
100
AcDbEntity
  8
AM_0
100
AcDbSpline
210
0.0
220
0.0
230
1.0
 70
     8
 71
     3
 72
    10
 73
     6
 74
     0
 42
0.0000000001
 43
0.0000000001
 40
35.66404045851092
 40
35.66404045851092
 40
35.66404045851092
 40
35.66404045851092
 40
36.06219674417969
 40
36.06219674417969
 40
36.79662507680046
 40
36.79662507680046
 40
36.79662507680046
 40
36.79662507680046
 10
11.89738777114411
 20
-55.38816300368663
 30
0.0
 10
11.79344502268822
 20
-55.45614935296541
 30
0.0
 10
11.68865388154092
 20
-55.52239561688836
 30
0.0
 10
11.3894961388994
 20
-55.70505591096074
 30
0.0
 10
11.19421162196062
 20
-55.81655648785633
 30
0.0
 10
11.00059419818905
 20
-55.91980184448354
 30
0.0
  0
ELLIPSE
  5
19165
330
1F
100
AcDbEntity
  8
AM_0
100
AcDbEllipse
 10
7.179223993695985
 20
-46.37818538602411
 30
0.0
 11
5.871640623078587
 21
8.26474134733882
 31
0.0
210
0.0
220
0.0
230
1.0
 40
0.8326918709774634
 41
3.653194687834636
 42
3.934238650649384
  0
ELLIPSE
  5
19166
330
1F
100
AcDbEntity
  8
AM_0
100
AcDbEllipse
 10
9.582447803242474
 20
-55.81452818200475
 30
0.0
 11
74.30131551108619
 21
-6.452248959329444
 31
0.0
210
0.0
220
0.0
230
1.0
 40
0.0105844308312522
 41
4.627437053593427
 42
4.672364261964876
  0
ELLIPSE
  5
19167
330
1F
100
AcDbEntity
  8
AM_0
100
AcDbEllipse
 10
0.4187194166164545
 20
-55.81452818200475
 30
0.0
 11
0.6415270993301389
 21
-6.499872701186039
 31
0.0
210
0.0
220
0.0
230
0.9999999999999999
 40
0.0634113095143836
 41
5.204391748929456
 42
6.219202433892276
  0
SPLINE
  5
19168
330
1F
100
AcDbEntity
  8
AM_0
100
AcDbSpline
210
0.0
220
0.0
230
1.0
 70
     8
 71
     3
 72
    29
 73
    25
 74
     0
 42
0.0000000001
 43
0.0000000001
 40
-1.662586161557859
 40
-1.662586161557859
 40
-1.662586161557859
 40
-1.662586161557859
 40
-1.416571919703665
 40
-1.416571919703665
 40
-1.132418994118487
 40
-1.132418994118487
 40
-0.8493142455888645
 40
-0.8493142455888645
 40
-0.5662094970592424
 40
-0.5662094970592424
 40
-0.2831047485296221
 40
-0.2831047485296221
 40
0.0
 40
0.0
 40
0.0
 40
0.2852021210878449
 40
0.2852021210878449
 40
0.5704042421756898
 40
0.5704042421756898
 40
1.14080848435138
 40
1.14080848435138
 40
1.423180737699474
 40
1.423180737699474
 40
1.664923952642395
 40
1.664923952642395
 40
1.664923952642395
 40
1.664923952642395
 10
4.177509051041454
 20
-62.30370185821343
 30
0.0
 10
4.141705163783456
 20
-62.29912368768939
 30
0.0
 10
4.099080183216245
 20
-62.29325943365561
 30
0.0
 10
3.99534359200976
 20
-62.27907248933863
 30
0.0
 10
3.93235179303116
 20
-62.27052352743348
 30
0.0
 10
3.798422943708317
 20
-62.25359550402717
 30
0.0
 10
3.722964772465332
 20
-62.24462318753237
 30
0.0
 10
3.558708619639845
 20
-62.22754452177921
 30
0.0
 10
3.469914210831178
 20
-62.21946006560822
 30
0.0
 10
3.284715103651763
 20
-62.20594764746497
 30
0.0
 10
3.188160591884412
 20
-62.20052377774337
 30
0.0
 10
2.994009820761335
 20
-62.19333044756738
 30
0.0
 10
2.896412233270382
 20
-62.19156594380311
 30
0.0
 10
2.802043983760484
 20
-62.19156594380311
 30
0.0
 10
2.706976610064601
 20
-62.19156594380311
 30
0.0
 10
2.608679787436984
 20
-62.19335646527313
 30
0.0
 10
2.413161161364769
 20
-62.20062658468132
 30
0.0
 10
2.315937269580161
 20
-62.20610029415749
 30
0.0
 10
2.036235464513311
 20
-62.2265216915475
 30
0.0
 10
1.866022058530746
 20
-62.24555745103865
 30
0.0
 10
1.665363593591167
 20
-62.27096830195225
 30
0.0
 10
1.603075752604639
 20
-62.27944807571541
 30
0.0
 10
1.501584744026729
 20
-62.29343996681482
 30
0.0
 10
1.460320922737935
 20
-62.29919370930489
 30
0.0
 10
1.425945624604822
 20
-62.30370185821343
 30
0.0
  0
SPLINE
  5
19169
330
1F
100
AcDbEntity
  8
AM_0
100
AcDbSpline
210
0.0
220
0.0
230
1.0
 70
     8
 71
     3
 72
    40
 73
    36
 74
     0
 42
0.0000000001
 43
0.0000000001
 40
1.66400425410859
 40
1.66400425410859
 40
1.66400425410859
 40
1.66400425410859
 40
1.706132171298356
 40
1.706132171298356
 40
1.992916009709344
 40
1.992916009709344
 40
2.279699848120332
 40
2.279699848120332
 40
2.882771818154704
 40
2.882771818154704
 40
3.485843788189076
 40
3.485843788189076
 40
4.07603957785658
 40
4.07603957785658
 40
4.371137472690332
 40
4.371137472690332
 40
4.666235367524084
 40
4.666235367524084
 40
4.947345489481269
 40
4.947345489481269
 40
5.228455611438454
 40
5.228455611438454
 40
5.509565733395639
 40
5.509565733395639
 40
5.790675855352824
 40
5.790675855352824
 40
6.394317946821967
 40
6.394317946821967
 40
6.99796003829111
 40
6.99796003829111
 40
7.287650839236525
 40
7.287650839236525
 40
7.577341640181939
 40
7.577341640181939
 40
7.616862908635685
 40
7.616862908635685
 40
7.616862908635685
 40
7.616862908635685
 10
1.425945624604822
 20
-62.30370185821343
 30
0.0
 10
1.420147408308765
 20
-62.30291219398654
 30
0.0
 10
1.414556470422724
 20
-62.30207408709745
 30
0.0
 10
1.372552909341096
 20
-62.29514474542279
 30
0.0
 10
1.345772500387454
 20
-62.28674598160089
 30
0.0
 10
1.312545292029711
 20
-62.2652902607044
 30
0.0
 10
1.306097120091124
 20
-62.25222819206201
 30
0.0
 10
1.313172469466906
 20
-62.20673102292793
 30
0.0
 10
1.358611381376534
 20
-62.1640242418616
 30
0.0
 10
1.525566657593515
 20
-62.06719812052532
 30
0.0
 10
1.646904324787727
 20
-62.01347434311296
 30
0.0
 10
1.919570519406818
 20
-61.91994754799592
 30
0.0
 10
2.089903898284035
 20
-61.87315317811996
 30
0.0
 10
2.372403652257901
 20
-61.82318369527317
 30
0.0
 10
2.471024773545366
 20
-61.80985187679349
 30
0.0
 10
2.67058113019101
 20
-61.79201405238095
 30
0.0
 10
2.771522510083628
 20
-61.78752900633495
 30
0.0
 10
2.963591849013938
 20
-61.78752900633495
 30
0.0
 10
3.059968424500482
 20
-61.79160734323259
 30
0.0
 10
3.250316210545805
 20
-61.80831935277209
 30
0.0
 10
3.344290483595557
 20
-61.82094012388856
 30
0.0
 10
3.523045081029466
 20
-61.85289170417124
 30
0.0
 10
3.608020464421941
 20
-61.87222803204256
 30
0.0
 10
3.763992811177275
 20
-61.91443943188105
 30
0.0
 10
3.834995861624122
 20
-61.93728707763935
 30
0.0
 10
4.031500756137973
 20
-62.00891865309777
 30
0.0
 10
4.144345704435239
 20
-62.06442807261621
 30
0.0
 10
4.29095266033363
 20
-62.163513531642
 30
0.0
 10
4.324634665900078
 20
-62.20670187336108
 30
0.0
 10
4.317531669816106
 20
-62.25237682127235
 30
0.0
 10
4.306537138554859
 20
-62.26550012099935
 30
0.0
 10
4.264934982665693
 20
-62.2869905026466
 30
0.0
 10
4.234327793085924
 20
-62.29536370760295
 30
0.0
 10
4.188925600150185
 20
-62.30219049587888
 30
0.0
 10
4.183302233790585
 20
-62.30296718352039
 30
0.0
 10
4.177509051041454
 20
-62.30370185821343
 30
0.0
  0
LINE
  5
1916A
330
1F
100
AcDbEntity
  8
AM_0
100
AcDbLine
 10
1.032580280004083
 20
-62.30370185821343
 30
0.0
 11
1.425945624604822
 21
-62.30370185821343
 31
0.0
  0
LINE
  5
1916B
330
1F
100
AcDbEntity
  8
AM_0
100
AcDbLine
 10
0.3574426795281624
 20
-58.92084562784211
 30
0.0
 11
2.936098452516092
 21
-58.98390502938807
 31
0.0
  0
LINE
  5
1916C
330
1F
100
AcDbEntity
  8
AM_0
100
AcDbLine
 10
5.428625862023637
 20
-55.97838214015164
 30
0.0
 11
0.5788983996968113
 21
-55.85978511194841
 31
0.0
  0
ELLIPSE
  5
1916D
330
1F
100
AcDbEntity
  8
AM_0
100
AcDbEllipse
 10
-26.90688791033728
 20
-55.81452818200474
 30
0.0
 11
74.30131551108519
 21
-6.452248959329444
 31
0.0
210
0.0
220
0.0
230
1.0
 40
0.0105844308312523
 41
5.0894970099628
 42
5.126574307705431
  0
LINE
  5
1916E
330
1F
100
AcDbEntity
  8
AM_0
100
AcDbLine
 10
0.2185988271128281
 20
-57.83533293104117
 30
0.0
 11
-0.0005086266565399
 21
-55.76667065896876
 31
0.0
  0
ELLIPSE
  5
1916F
330
1F
100
AcDbEntity
  8
AM_0
100
AcDbEllipse
 10
0.3979354081109818
 20
-55.80062941848334
 30
0.0
 11
-0.3984553001312856
 21
0.03511942193839843
 31
0.0
210
0.0
220
0.0
230
1.0
 40
0.1214388637169112
 41
6.241691057689658
 42
8.336086160082964
  0
LINE
  5
19170
330
1F
100
AcDbEntity
  8
AM_0
100
AcDbLine
 10
0.2185988271108954
 20
-57.83533293109096
 30
0.0
 11
0.3574426795281624
 21
-58.92084562784217
 31
0.0
  0
LINE
  5
19171
330
1F
100
AcDbEntity
  8
AM_0
100
AcDbLine
 10
5.42862586204285
 20
-55.97838214015209
 30
0.0
 11
3.209782139148786
 21
-55.92412171549384
 31
0.0
  0
LINE
  5
19172
330
1F
100
AcDbEntity
  8
AM_0
100
AcDbLine
 10
2.932732445950421
 20
-59.13113838308297
 30
0.0
 11
2.932589766467629
 21
-59.02371361607024
 31
0.0
  0
LINE
  5
19173
330
1F
100
AcDbEntity
  8
AM_0
100
AcDbLine
 10
2.932589766467629
 20
-59.02371361607024
 30
0.0
 11
3.063312891799171
 21
-57.54056499735364
 31
0.0
  0
LINE
  5
19174
330
1F
100
AcDbEntity
  8
AM_0
100
AcDbLine
 10
3.063312891799171
 20
-57.54056499735364
 30
0.0
 11
3.209782139148786
 21
-55.92412171549384
 31
0.0
  0
LINE
  5
19175
330
1F
100
AcDbEntity
  8
AM_0
100
AcDbLine
 10
3.209782139148729
 20
-55.92412171549424
 30
0.0
 11
3.209950201256277
 21
-56.05065730702663
 31
0.0
  0
ELLIPSE
  5
19176
330
1F
100
AcDbEntity
  8
AM_0
100
AcDbEllipse
 10
3.160124619035969
 20
-55.81452818200475
 30
0.0
 11
-0.5643256411740109
 21
-6.499997171568053
 31
0.0
210
0.0
220
0.0
230
1.0
 40
0.0107452051714573
 41
1.036256411686392
 42
1.535393665798598
  0
SPLINE
  5
19177
330
1F
100
AcDbEntity
  8
AM_0
100
AcDbSpline
210
0.0
220
0.0
230
1.0
 70
     8
 71
     3
 72
    14
 73
    10
 74
     0
 42
0.0000000001
 43
0.0000000001
 40
20.23759124194095
 40
20.23759124194095
 40
20.23759124194095
 40
20.23759124194095
 40
20.2579725557655
 40
20.2579725557655
 40
21.86889787528931
 40
21.86889787528931
 40
23.47982319481312
 40
23.47982319481312
 40
24.58198893422719
 40
24.58198893422719
 40
24.58198893422719
 40
24.58198893422719
 10
11.00059419818905
 20
-55.91980184448354
 30
0.0
 10
10.99362391241374
 20
-55.92183970333937
 30
0.0
 10
10.98665118422315
 20
-55.92387074569555
 30
0.0
 10
10.42836589854761
 20
-56.08588763370946
 30
0.0
 10
9.861768364696843
 20
-56.20303423853906
 30
0.0
 10
8.735419940036366
 20
-56.35514626130677
 30
0.0
 10
8.175653627736949
 20
-56.38999536168214
 30
0.0
 10
7.2712899414243
 20
-56.38999536168214
 30
0.0
 10
6.905009224110188
 20
-56.37391068008444
 30
0.0
 10
6.541113837768364
 20
-56.34215497175498
 30
0.0
  0
ELLIPSE
  5
19178
330
1F
100
AcDbEntity
  8
AM_0
100
AcDbEllipse
 10
0.7509114004447497
 20
-44.27618920748458
 30
0.0
 11
16.46707410899589
 21
-5.095250783897394
 31
0.0
210
0.0
220
0.0
230
1.0
 40
0.5799901139601642
 41
4.942957024661749
 42
5.258956631384862
  0
SPLINE
  5
19179
330
1F
100
AcDbEntity
  8
AM_0
100
AcDbSpline
210
0.0
220
0.0
230
1.0
 70
     8
 71
     3
 72
    12
 73
     8
 74
     0
 42
0.0000000001
 43
0.0000000001
 40
3.349680994984138
 40
3.349680994984138
 40
3.349680994984138
 40
3.349680994984138
 40
5.000594304755719
 40
5.000594304755719
 40
7.500891457133578
 40
7.500891457133578
 40
7.885021767805957
 40
7.885021767805957
 40
7.885021767805957
 40
7.885021767805957
 10
7.093098713838515
 20
-53.81720684799845
 30
0.0
 10
6.588439941628906
 20
-53.93952802349932
 30
0.0
 10
6.079017687718022
 20
-54.03660058400416
 30
0.0
 10
4.805669441562714
 20
-54.22394764190656
 30
0.0
 10
4.032201928329471
 20
-54.28610385455281
 30
0.0
 10
3.180154369222066
 20
-54.30969878814599
 30
0.0
 10
3.067108181592346
 20
-54.31188964652094
 30
0.0
 10
2.954699106578858
 20
-54.31316775000258
 30
0.0
  0
ELLIPSE
  5
1917A
330
1F
100
AcDbEntity
  8
AM_0
100
AcDbEllipse
 10
1.205047860385093
 20
-44.42468744702759
 30
0.0
 11
-0.2356792292816382
 21
-10.10942089195734
 31
0.0
210
0.0
220
0.0
230
0.9999999999999998
 40
0.8573497867863598
 41
0.0052133585640906
 42
0.230373549358824
  0
ELLIPSE
  5
1917B
330
1F
100
AcDbEntity
  8
AM_0
100
AcDbEllipse
 10
0.8975661791416201
 20
-54.67377200711937
 30
0.0
 11
-0.3984553001312856
 21
0.03511942193839843
 31
0.0
210
0.0
220
0.0
230
1.0
 40
0.1214388637169112
 41
4.147295955296544
 42
6.241691057689729
  0
LINE
  5
1917C
330
1F
100
AcDbEntity
  8
AM_0
100
AcDbLine
 10
0.5411993611413095
 20
-54.62101188056133
 30
0.0
 11
0.53564019596962
 21
-54.55546062018956
 31
0.0
  0
LINE
  5
1917D
330
1F
100
AcDbEntity
  8
AM_0
100
AcDbLine
 10
1.637150294566709
 20
-54.73860622100003
 30
0.0
 11
0.53564019596962
 21
-54.55546062018956
 31
0.0
  0
LINE
  5
1917E
330
1F
100
AcDbEntity
  8
AM_0
100
AcDbLine
 10
0.5356401959695631
 20
-54.55546062018956
 30
0.0
 11
0.5482634747825728
 21
-54.52699032550228
 31
0.0
  0
LINE
  5
1917F
330
1F
100
AcDbEntity
  8
AM_0
100
AcDbLine
 10
0.5482634747825728
 20
-54.52699032550228
 30
0.0
 11
1.014557423203371
 21
-54.53502436069542
 31
0.0
  0
ELLIPSE
  5
19180
330
1F
100
AcDbEntity
  8
AM_0
100
AcDbEllipse
 10
14.6450997482437
 20
-49.81452818200475
 30
0.0
 11
11.34555704628461
 21
4.269136613696088
 31
0.0
210
0.0
220
0.0
230
1.0
 40
0.1254094100849946
 41
3.937881059295356
 42
4.47200457850622
  0
LINE
  5
19181
330
1F
100
AcDbEntity
  8
AM_0
100
AcDbLine
 10
6.785141630256305
 20
-55.08381321134957
 30
0.0
 11
6.550494395621172
 21
-55.55553686786513
 31
0.0
  0
SPLINE
  5
19182
330
1F
100
AcDbEntity
  8
AM_0
100
AcDbSpline
210
0.0
220
0.0
230
1.0
 70
     8
 71
     3
 72
     8
 73
     4
 74
     0
 42
0.0000000001
 43
0.0000000001
 40
1.327011630901579
 40
1.327011630901579
 40
1.327011630901579
 40
1.327011630901579
 40
1.588882119816186
 40
1.588882119816186
 40
1.588882119816186
 40
1.588882119816186
 10
9.04315988662853
 20
-54.4548580315184
 30
0.0
 10
8.959762070036447
 20
-54.48202790160784
 30
0.0
 10
8.873782125643231
 20
-54.51175396700043
 30
0.0
 10
8.787070751622593
 20
-54.54315656178662
 30
0.0
  0
ELLIPSE
  5
19183
330
1F
100
AcDbEntity
  8
AM_0
100
AcDbEllipse
 10
4.043909802408393
 20
-45.35296790429706
 30
0.0
 11
11.47017275802616
 21
-1.235751694373739
 31
0.0
210
0.0
220
0.0
230
1.0
 40
0.8603529575614458
 41
5.045088925811802
 42
5.229196410099203
  0
SPLINE
  5
19184
330
1F
100
AcDbEntity
  8
AM_0
100
AcDbSpline
210
0.0
220
0.0
230
1.0
 70
     8
 71
     3
 72
    16
 73
    12
 74
     0
 42
0.0000000001
 43
0.0000000001
 40
-3.21706260663352
 40
-3.21706260663352
 40
-3.21706260663352
 40
-3.21706260663352
 40
-3.013527064357746
 40
-3.013527064357746
 40
-2.715006205642659
 40
-2.715006205642659
 40
-2.416485346927574
 40
-2.416485346927574
 40
-1.795563529742493
 40
-1.795563529742493
 40
-1.328462959426317
 40
-1.328462959426317
 40
-1.328462959426317
 40
-1.328462959426317
 10
8.573101852887533
 20
-55.55337335714611
 30
0.0
 10
8.643103834915735
 20
-55.53923924268096
 30
0.0
 10
8.71355748364914
 20
-55.52309171741555
 30
0.0
 10
8.885640914222506
 20
-55.47865089647607
 30
0.0
 10
8.986633715714277
 20
-55.44812281246638
 30
0.0
 10
9.179306036862556
 20
-55.38098778476635
 30
0.0
 10
9.270985364492788
 20
-55.3443783958061
 30
0.0
 10
9.530574156807234
 20
-55.22787737254905
 30
0.0
 10
9.699324247527272
 20
-55.13159557182061
 30
0.0
 10
9.939926956033276
 20
-54.95280443874819
 30
0.0
 10
10.02590736588257
 20
-54.87292610456197
 30
0.0
 10
10.08973679048057
 20
-54.79707857859543
 30
0.0
  0
ELLIPSE
  5
19185
330
1F
100
AcDbEntity
  8
AM_0
100
AcDbEllipse
 10
8.671104511519218
 20
-55.15016988630791
 30
0.0
 11
1.547106270908793
 21
0.7160829801005512
 31
0.0
210
0.0
220
0.0
230
1.0
 40
0.2996533946399089
 41
5.713689298319104
 42
7.475648615782793
  0
ELLIPSE
  5
19186
330
1F
100
AcDbEntity
  8
AM_0
100
AcDbEllipse
 10
16.9994572841735
 20
-56.54557129261602
 30
0.0
 11
-9.881383235106345
 21
-4.790835521850589
 31
0.0
210
0.0
220
0.0
230
1.0
 40
0.3205420979009038
 41
4.990252571201983
 42
5.093637852409575
  0
LINE
  5
19187
330
1F
100
AcDbEntity
  8
AM_0
100
AcDbLine
 10
25.2494572841735
 20
-61.31452818200475
 30
0.0
 11
25.2494572841735
 21
-50.31452818200475
 31
0.0
  0
LINE
  5
19188
330
1F
100
AcDbEntity
  8
AM_0
100
AcDbLine
 10
24.9994572841735
 20
-61.31452818200475
 30
0.0
 11
24.9994572841735
 21
-50.31452818200475
 31
0.0
  0
SPLINE
  5
19189
330
1F
100
AcDbEntity
  8
AM_0
100
AcDbSpline
210
0.0
220
0.0
230
1.0
 70
     8
 71
     3
 72
    33
 73
    29
 74
     0
 42
0.0000000001
 43
0.0000000001
 40
-1.299345701639491
 40
-1.299345701639491
 40
-1.299345701639491
 40
-1.299345701639491
 40
-1.274032593939324
 40
-1.274032593939324
 40
-0.6370162969696622
 40
-0.6370162969696622
 40
0.0
 40
0.0
 40
0.0
 40
0.6370162969696619
 40
0.6370162969696619
 40
1.274032593939324
 40
1.274032593939324
 40
1.911048890908986
 40
1.911048890908986
 40
2.548065187878648
 40
2.548065187878648
 40
3.229064623841093
 40
3.229064623841093
 40
3.910064059803538
 40
3.910064059803538
 40
4.567072840859305
 40
4.567072840859305
 40
5.224081621915071
 40
5.224081621915071
 40
5.881090402970838
 40
5.881090402970838
 40
6.538099184026605
 40
6.538099184026605
 40
6.538099184026605
 40
6.538099184026605
 10
21.56345717858761
 20
-54.51943614123624
 30
0.0
 10
21.56703531357374
 20
-54.52737548036973
 30
0.0
 10
21.57058085834689
 20
-54.53533123690997
 30
0.0
 10
21.66249370700274
 20
-54.74391550611651
 30
0.0
 10
21.7300276525761
 20
-54.95528159357369
 30
0.0
 10
21.81911933847835
 20
-55.38441767580858
 30
0.0
 10
21.84068646693277
 20
-55.60218941634818
 30
0.0
 10
21.84068646693277
 20
-55.81452818200475
 30
0.0
 10
21.84068646693277
 20
-56.02686694766132
 30
0.0
 10
21.81911933847835
 20
-56.24463868820092
 30
0.0
 10
21.7300276525761
 20
-56.67377477043581
 30
0.0
 10
21.66249370700274
 20
-56.88514085789299
 30
0.0
 10
21.48569351639713
 20
-57.2863659215524
 30
0.0
 10
21.37619789061318
 20
-57.47667277156947
 30
0.0
 10
21.12588018169305
 20
-57.82551681754975
 30
0.0
 10
20.98504684757069
 20
-57.98408085679515
 30
0.0
 10
20.67975475969485
 20
-58.27341459466456
 30
0.0
 10
20.49269350295793
 20
-58.4206587257062
 30
0.0
 10
20.09252350612832
 20
-58.67874196612777
 30
0.0
 10
19.87953327469376
 20
-58.78991830227423
 30
0.0
 10
19.48411506262465
 20
-58.96448992309703
 30
0.0
 10
19.2750546253115
 20
-59.04148930435528
 30
0.0
 10
18.8377989517009
 20
-59.17306259041308
 30
0.0
 10
18.60961266259778
 20
-59.22768739722389
 30
0.0
 10
18.14646122139362
 20
-59.31340610698143
 30
0.0
 10
17.91137177925117
 20
-59.3445529017732
 30
0.0
 10
17.44737099762114
 20
-59.38484037980086
 30
0.0
 10
17.21846021119205
 20
-59.39398344782384
 30
0.0
 10
16.9994572841735
 20
-59.39398344782384
 30
0.0
  0
LINE
  5
1918A
330
1F
100
AcDbEntity
  8
AM_0
100
AcDbLine
 10
16.9994572841735
 20
-61.31452818200475
 30
0.0
 11
24.9994572841735
 21
-61.31452818200475
 31
0.0
  0
LINE
  5
1918B
330
1F
100
AcDbEntity
  8
AM_0
100
AcDbLine
 10
16.9994572841735
 20
-61.56452818200475
 30
0.0
 11
16.9994572841735
 21
-61.31452818200475
 31
0.0
  0
LINE
  5
1918C
330
1F
100
AcDbEntity
  8
AM_0
100
AcDbLine
 10
16.2494572841735
 20
-62.30370185821343
 30
0.0
 11
16.2494572841735
 21
-60.47775933541087
 31
0.0
  0
LINE
  5
1918D
330
1F
100
AcDbEntity
  8
AM_0
100
AcDbLine
 10
16.9994572841735
 20
-61.56452818200475
 30
0.0
 11
16.29287149910101
 21
-62.27111396707724
 31
0.0
  0
SPLINE
  5
1918E
330
1F
100
AcDbEntity
  8
AM_0
100
AcDbSpline
210
0.0
220
0.0
230
1.0
 70
     8
 71
     3
 72
     8
 73
     4
 74
     0
 42
0.0000000001
 43
0.0000000001
 40
-9.450127264074602
 40
-9.450127264074602
 40
-9.450127264074602
 40
-9.450127264074602
 40
-9.074546101869238
 40
-9.074546101869238
 40
-9.074546101869238
 40
-9.074546101869238
 10
16.2494572841735
 20
-62.30370185821343
 30
0.0
 10
16.26403324800259
 20
-62.29640171726973
 30
0.0
 10
16.27852128053638
 20
-62.28546418564187
 30
0.0
 10
16.29287149910095
 20
-62.27111396707724
 30
0.0
  0
SPLINE
  5
1918F
330
1F
100
AcDbEntity
  8
AM_0
100
AcDbSpline
210
0.0
220
0.0
230
1.0
 70
     8
 71
     3
 72
    10
 73
     6
 74
     0
 42
0.0000000001
 43
0.0000000001
 40
11.18663947952806
 40
11.18663947952806
 40
11.18663947952806
 40
11.18663947952806
 40
11.76202634912363
 40
11.76202634912363
 40
12.45969403619164
 40
12.45969403619164
 40
12.45969403619164
 40
12.45969403619164
 10
16.9994572841735
 20
-59.39398344782384
 30
0.0
 10
16.89548919048463
 20
-59.56099672060302
 30
0.0
 10
16.78684293612713
 20
-59.72634107794434
 30
0.0
 10
16.53791497789911
 20
-60.08845135119188
 30
0.0
 10
16.39584193991954
 20
-60.28440717627134
 30
0.0
 10
16.2494572841735
 20
-60.47775933541087
 30
0.0
  0
LINE
  5
19190
330
1F
100
AcDbEntity
  8
AM_0
100
AcDbLine
 10
16.9994572841735
 20
-61.31452818200475
 30
0.0
 11
16.9994572841735
 21
-59.39398344782384
 31
0.0
  0
SPLINE
  5
19191
330
1F
100
AcDbEntity
  8
AM_0
100
AcDbSpline
210
0.0
220
0.0
230
1.0
 70
    28
 71
     2
 72
     6
 73
     3
 74
     0
 42
0.0000000001
 43
0.0000000001
 40
0.0
 40
0.0
 40
0.0
 40
0.7632067745941296
 40
0.7632067745941296
 40
0.7632067745941296
 10
24.9994572841735
 20
-61.31452818200475
 30
0.0
 41
1.0
 10
25.10234468719778
 20
-61.31452818200478
 30
0.0
 41
1.001887252317323
 10
25.2494572841735
 20
-61.31452818200475
 30
0.0
 41
1.0
  0
LINE
  5
19192
330
1F
100
AcDbEntity
  8
AM_0
100
AcDbLine
 10
22.33781887841957
 20
-50.31452818200475
 30
0.0
 11
24.9994572841735
 21
-50.31452818200475
 31
0.0
  0
SPLINE
  5
19193
330
1F
100
AcDbEntity
  8
AM_0
100
AcDbSpline
210
0.0
220
0.0
230
1.0
 70
     8
 71
     3
 72
    32
 73
    28
 74
     0
 42
0.0000000001
 43
0.0000000001
 40
3.386867410655446
 40
3.386867410655446
 40
3.386867410655446
 40
3.386867410655446
 40
3.986060856630277
 40
3.986060856630277
 40
4.998960010543327
 40
4.998960010543327
 40
5.418593789869783
 40
5.418593789869783
 40
5.838227569196239
 40
5.838227569196239
 40
6.257861348522695
 40
6.257861348522695
 40
6.677495127849152
 40
6.677495127849152
 40
7.097128907175609
 40
7.097128907175609
 40
7.516762686502066
 40
7.516762686502066
 40
7.936396465828523
 40
7.936396465828523
 40
8.35603024515498
 40
8.35603024515498
 40
9.36892939906803
 40
9.36892939906803
 40
10.38182855298108
 40
10.38182855298108
 40
10.81132309243601
 40
10.81132309243601
 40
10.81132309243601
 40
10.81132309243601
 10
22.33781887841957
 20
-50.31452818200475
 30
0.0
 10
22.51006864376535
 20
-50.3471413518653
 30
0.0
 10
22.67316386034537
 20
-50.38648662514706
 30
0.0
 10
23.08092475824964
 20
-50.51483302804942
 30
0.0
 10
23.30414813644421
 20
-50.61947616607958
 30
0.0
 10
23.55935127327251
 20
-50.81124292002428
 30
0.0
 10
23.62995188944336
 20
-50.87526607944423
 30
0.0
 10
23.75463569990149
 20
-51.01843439970949
 30
0.0
 10
23.80871394143429
 20
-51.09760636950122
 30
0.0
 10
23.89546805405649
 20
-51.26833526024407
 30
0.0
 10
23.92819079479722
 20
-51.36000920067849
 30
0.0
 10
23.97096671672961
 20
-51.55071740565276
 30
0.0
 10
23.98101781160955
 20
-51.64975555985652
 30
0.0
 10
23.98101781160955
 20
-51.84757282050768
 30
0.0
 10
23.97096671672961
 20
-51.95398438041511
 30
0.0
 10
23.92819079479722
 20
-52.17569025998657
 30
0.0
 10
23.89546805405649
 20
-52.29098163631883
 30
0.0
 10
23.80871394143429
 20
-52.52303948054251
 30
0.0
 10
23.75463569990149
 20
-52.63993069590899
 30
0.0
 10
23.62995188944336
 20
-52.86761884418829
 30
0.0
 10
23.55935127327251
 20
-52.97840163100099
 30
0.0
 10
23.30414813644421
 20
-53.33352640471148
 30
0.0
 10
23.08092475824964
 20
-53.57221065772134
 30
0.0
 10
22.56852160161355
 20
-54.00001204604925
 30
0.0
 10
22.27921964935234
 20
-54.18894202484492
 30
0.0
 10
21.83721732112753
 20
-54.40807946359084
 30
0.0
 10
21.70174149907456
 20
-54.46712947423814
 30
0.0
 10
21.56345717858761
 20
-54.51943614123624
 30
0.0
  0
LINE
  5
19195
330
1F
100
AcDbEntity
  8
AM_0
100
AcDbLine
 10
16.94704880558282
 20
-50.31452818200475
 30
0.0
 11
19.38330542178085
 21
-50.31452818200475
 31
0.0
  0
ELLIPSE
  5
19196
330
1F
100
AcDbEntity
  8
AM_0
100
AcDbEllipse
 10
5.524770345038121
 20
-55.81452818200475
 30
0.0
 11
-14.49710067025256
 21
-5.455007895278333
 31
0.0
210
0.0
220
0.0
230
1.0
 40
0.1254094100849947
 41
3.759262717390846
 42
3.894515206108532
  0
LINE
  5
19197
330
1F
100
AcDbEntity
  8
AM_0
100
AcDbLine
 10
19.38330542178085
 20
-50.31452818200475
 30
0.0
 11
19.96399057494574
 21
-50.31452818200475
 31
0.0
  0
SPLINE
  5
19198
330
1F
100
AcDbEntity
  8
AM_0
100
AcDbSpline
210
0.0
220
0.0
230
1.0
 70
     8
 71
     3
 72
    14
 73
    10
 74
     0
 42
0.0000000001
 43
0.0000000001
 40
4.398741584532346
 40
4.398741584532346
 40
4.398741584532346
 40
4.398741584532346
 40
4.781970903975992
 40
4.781970903975992
 40
5.338226633150732
 40
5.338226633150732
 40
5.894482362325473
 40
5.894482362325473
 40
6.064660701679938
 40
6.064660701679938
 40
6.064660701679938
 40
6.064660701679938
 10
21.56345717858761
 20
-54.51943614123624
 30
0.0
 10
21.44833165827305
 20
-54.56466369333415
 30
0.0
 10
21.32929374086137
 20
-54.60461156578916
 30
0.0
 10
21.03146085291729
 20
-54.68800158541015
 30
0.0
 10
20.84975084842364
 20
-54.7248335793474
 30
0.0
 10
20.48609007697218
 20
-54.77277067738461
 30
0.0
 10
20.30413932092625
 20
-54.78387774978157
 30
0.0
 10
20.07415024796688
 20
-54.78387774978157
 30
0.0
 10
20.01941910417031
 20
-54.78285289627709
 30
0.0
 10
19.96399057494574
 20
-54.78073227767104
 30
0.0
  0
LINE
  5
19199
330
1F
100
AcDbEntity
  8
AM_0
100
AcDbLine
 10
19.96399057494574
 20
-50.31452818200475
 30
0.0
 11
22.33781887841957
 21
-50.31452818200475
 31
0.0
  0
SPLINE
  5
1919A
330
1F
100
AcDbEntity
  8
AM_0
100
AcDbSpline
210
0.0
220
0.0
230
1.0
 70
    28
 71
     2
 72
     6
 73
     3
 74
     0
 42
0.0000000001
 43
0.0000000001
 40
0.0
 40
0.0
 40
0.0
 40
0.7632067745941296
 40
0.7632067745941296
 40
0.7632067745941296
 10
24.9994572841735
 20
-50.31452818200475
 30
0.0
 41
1.0
 10
25.10234468719752
 20
-50.31452818200474
 30
0.0
 41
1.001887252317323
 10
25.2494572841735
 20
-50.31452818200475
 30
0.0
 41
1.0
  0
SPLINE
  5
1919B
330
1F
100
AcDbEntity
  8
AM_0
100
AcDbSpline
210
0.0
220
0.0
230
1.0
 70
     8
 71
     3
 72
    18
 73
    14
 74
     0
 42
0.0000000001
 43
0.0000000001
 40
1.026443429749797
 40
1.026443429749797
 40
1.026443429749797
 40
1.026443429749797
 40
1.923815279515564
 40
1.923815279515564
 40
2.885722919273347
 40
2.885722919273347
 40
3.847630559031129
 40
3.847630559031129
 40
5.741945949029734
 40
5.741945949029734
 40
7.636261339028341
 40
7.636261339028341
 40
8.021561314351894
 40
8.021561314351894
 40
8.021561314351894
 40
8.021561314351894
 10
19.96399057494574
 20
2.050473410669412
 30
0.0
 10
19.65839088548245
 20
2.145333677182663
 30
0.0
 10
19.34272916122853
 20
2.22702977151576
 30
0.0
 10
18.68203293939138
 20
2.36360829809442
 30
0.0
 10
18.33634150307472
 20
2.416140036383041
 30
0.0
 10
17.65537123659868
 20
2.48433120045857
 30
0.0
 10
17.32009316409273
 20
2.500000000000028
 30
0.0
 10
16.36801882084063
 20
2.500000000000028
 30
0.0
 10
15.71739031610184
 20
2.439197092265857
 30
0.0
 10
14.42847504939601
 20
2.186143970768541
 30
0.0
 10
13.79015612333018
 20
1.99396670997865
 30
0.0
 10
13.05660059242234
 20
1.690858399625228
 30
0.0
 10
12.93375267624555
 20
1.637174522050913
 30
0.0
 10
12.81221396964719
 20
1.581133928367905
 30
0.0
  0
ELLIPSE
  5
1919C
330
1F
100
AcDbEntity
  8
AM_0
100
AcDbEllipse
 10
23.47854112778674
 20
1.500000000000025
 30
0.0
 11
11.33812066901618
 21
-1.868985322848923
 31
0.0
210
0.0
220
0.0
230
1.0
 40
0.3610403027276591
 41
1.999101947198284
 42
3.551867535161348
  0
ELLIPSE
  5
1919D
330
1F
100
AcDbEntity
  8
AM_0
100
AcDbEllipse
 10
12.75990349018076
 20
12.76929625251981
 30
0.0
 11
-2.980120882708895
 21
3.274669624637872
 31
0.0
210
0.0
220
0.0
230
1.0
 40
0.8671604247285815
 41
2.260116518632678
 42
3.105439277879267
  0
SPLINE
  5
1919E
330
1F
100
AcDbEntity
  8
AM_0
100
AcDbSpline
210
0.0
220
0.0
230
1.0
 70
     8
 71
     3
 72
    32
 73
    28
 74
     0
 42
0.0000000001
 43
0.0000000001
 40
0.9478659275413041
 40
0.9478659275413041
 40
0.9478659275413041
 40
0.9478659275413041
 40
1.905011301595584
 40
1.905011301595584
 40
2.862156675649864
 40
2.862156675649864
 40
3.819302049704143
 40
3.819302049704143
 40
4.776447423758423
 40
4.776447423758423
 40
5.163971836667514
 40
5.163971836667514
 40
5.551496249576604
 40
5.551496249576604
 40
5.939020662485694
 40
5.939020662485694
 40
6.326545075394785
 40
6.326545075394785
 40
6.714069488303876
 40
6.714069488303876
 40
7.101593901212967
 40
7.101593901212967
 40
7.489118314122058
 40
7.489118314122058
 40
7.876642727031148
 40
7.876642727031148
 40
8.180631293058717
 40
8.180631293058717
 40
8.180631293058717
 40
8.180631293058717
 10
12.46399057494574
 20
12.55082326225929
 30
0.0
 10
12.78303903296387
 20
12.55082326225929
 30
0.0
 10
13.11093351180017
 20
12.54188888805484
 30
0.0
 10
13.75425913512657
 20
12.500713532606
 30
0.0
 10
14.06970328163061
 20
12.46841899627671
 30
0.0
 10
14.66056857637176
 20
12.37002410146422
 30
0.0
 10
14.93645453376138
 20
12.30372138226974
 30
0.0
 10
15.42580181876241
 20
12.12413818759731
 30
0.0
 10
15.63938683161001
 20
12.01080230223366
 30
0.0
 10
15.8817782572383
 20
11.81013845792771
 30
0.0
 10
15.94784904262446
 20
11.74487887560056
 30
0.0
 10
16.0646563731064
 20
11.60055582205851
 30
0.0
 10
16.11538591642017
 20
11.52146884719721
 30
0.0
 10
16.19682064370278
 20
11.35247013591399
 30
0.0
 10
16.22756778917216
 20
11.26244479957253
 30
0.0
 10
16.26776859931823
 20
11.07653064545721
 30
0.0
 10
16.27721997108409
 20
10.98063835577639
 30
0.0
 10
16.27721997108409
 20
10.7901948721732
 30
0.0
 10
16.26776859931823
 20
10.68829241545146
 30
0.0
 10
16.22756778917216
 20
10.4771227749101
 30
0.0
 10
16.19682064370278
 20
10.36785810536136
 30
0.0
 10
16.11538591642017
 20
10.14893737945127
 30
0.0
 10
16.0646563731064
 20
10.03916278354464
 30
0.0
 10
15.94784904262446
 20
9.826139593535826
 30
0.0
 10
15.8817782572383
 20
9.722901703107509
 30
0.0
 10
15.75712548491464
 20
9.550415486075535
 30
0.0
 10
15.6981915825196
 20
9.476009827447539
 30
0.0
 10
15.6354359040559
 20
9.403357747928878
 30
0.0
  0
LINE
  5
1919F
330
1F
100
AcDbEntity
  8
AM_0
100
AcDbLine
 10
3.579352388027985
 20
12.75000000000003
 30
0.0
 11
15.94767124584558
 21
12.75000000000003
 31
0.0
  0
LINE
  5
191A1
330
1F
100
AcDbEntity
  8
AM_0
100
AcDbLine
 10
9.110744466519634
 20
4.469231025237889
 30
0.0
 11
0.5788983996968113
 21
0.0452541198419567
 31
0.0
  0
LINE
  5
191A2
330
1F
100
AcDbEntity
  8
AM_0
100
AcDbLine
 10
0.0000000000001137
 20
0.413509696781432
 30
0.0
 11
0.4996307710306951
 21
9.947032732212337
 31
0.0
  0
ELLIPSE
  5
191A3
330
1F
100
AcDbEntity
  8
AM_0
100
AcDbEllipse
 10
7.179223993695985
 20
-0.3640782741838962
 30
0.0
 11
8.914167239366908
 21
4.532051298811227
 31
0.0
210
0.0
220
0.0
230
1.0
 40
0.3400794815178526
 41
1.313286433927247
 42
1.594330396741995
  0
ELLIPSE
  5
191A4
330
1F
100
AcDbEntity
  8
AM_0
100
AcDbEllipse
 10
9.582447803242474
 20
7.000000000000028
 30
0.0
 11
74.30131456486291
 21
0.7983855622697704
 31
0.0
210
0.0
220
0.0
230
1.0
 40
0.0868192093785677
 41
4.625585019794077
 42
4.670512228165525
  0
ELLIPSE
  5
191A5
330
1F
100
AcDbEntity
  8
AM_0
100
AcDbEllipse
 10
0.3979354081109818
 20
0.3970395652585239
 30
0.0
 11
0.324977822775118
 21
0.2332153826494816
 31
0.0
210
0.0
220
0.0
230
0.9999999999999999
 40
0.9887657446192053
 41
2.472273597372902
 42
4.566668699766209
  0
LINE
  5
191A7
330
1F
100
AcDbEntity
  8
AM_0
100
AcDbLine
 10
3.209802530476566
 20
1.409444123238785
 30
0.0
 11
3.209950201256277
 21
0.5042904131791772
 31
0.0
  0
ELLIPSE
  5
191A8
330
1F
100
AcDbEntity
  8
AM_0
100
AcDbEllipse
 10
3.160124619035969
 20
7.000000000000028
 30
0.0
 11
-0.07090445807499091
 21
6.499997086376432
 31
0.0
210
0.0
220
0.0
230
1.0
 40
0.0867990168908958
 41
2.646656576874168
 42
3.104310264308674
  0
SPLINE
  5
191A9
330
1F
100
AcDbEntity
  8
AM_0
100
AcDbSpline
210
0.0
220
0.0
230
1.0
 70
     8
 71
     3
 72
    14
 73
    10
 74
     0
 42
0.0000000001
 43
0.0000000001
 40
20.23759124194095
 40
20.23759124194095
 40
20.23759124194095
 40
20.23759124194095
 40
20.2579725557655
 40
20.2579725557655
 40
21.86889787528931
 40
21.86889787528931
 40
23.47982319481312
 40
23.47982319481312
 40
24.58198893422719
 40
24.58198893422719
 40
24.58198893422719
 40
24.58198893422719
 10
11.00059419818905
 20
0.5008525592970443
 30
0.0
 10
10.99362391241374
 20
0.5008855686828895
 30
0.0
 10
10.98665118422315
 20
0.5009194248136453
 30
0.0
 10
10.42836589854761
 20
0.5036958496326349
 30
0.0
 10
9.861768364696843
 20
0.5111728898780541
 30
0.0
 10
8.735419940036366
 20
0.5220723757944654
 30
0.0
 10
8.175653627736949
 20
0.5255241505498418
 30
0.0
 10
7.2712899414243
 20
0.5255241505498418
 30
0.0
 10
6.905009224110188
 20
0.5240362621033512
 30
0.0
 10
6.541113837768364
 20
0.5214500101691613
 30
0.0
  0
SPLINE
  5
191AA
330
1F
100
AcDbEntity
  8
AM_0
100
AcDbSpline
210
0.0
220
0.0
230
1.0
 70
     8
 71
     3
 72
    10
 73
     6
 74
     0
 42
0.0000000001
 43
0.0000000001
 40
35.66404045851092
 40
35.66404045851092
 40
35.66404045851092
 40
35.66404045851092
 40
36.06219674417969
 40
36.06219674417969
 40
36.79662507680046
 40
36.79662507680046
 40
36.79662507680046
 40
36.79662507680046
 10
11.89738777114411
 20
1.10051665216784
 30
0.0
 10
11.79344502268822
 20
1.038854876550744
 30
0.0
 10
11.68865388154092
 20
0.9741382119663342
 30
0.0
 10
11.3894961388994
 20
0.7814001487503504
 30
0.0
 10
11.19421162196062
 20
0.6460226405676224
 30
0.0
 10
11.00059419818905
 20
0.5008525592970443
 30
0.0
  0
ARC
  5
191AB
330
1F
100
AcDbEntity
  8
AM_0
100
AcDbCircle
 10
16.9994572841735
 20
-7.499999999999975
 30
0.0
 40
10.0
100
AcDbArc
 50
114.7540753699541
 51
120.677615646926
  0
LINE
  5
191AC
330
1F
100
AcDbEntity
  8
AM_0
100
AcDbLine
 10
1.114538595666659
 20
10.2658779145832
 30
0.0
 11
9.146753891458843
 21
5.156331784548229
 31
0.0
  0
ELLIPSE
  5
191AD
330
1F
100
AcDbEntity
  8
AM_0
100
AcDbEllipse
 10
0.7509114004447497
 20
12.13737605713186
 30
0.0
 11
16.7134525868304
 21
-10.79189820515321
 31
0.0
210
0.0
220
0.0
230
1.0
 40
0.0692310771998823
 41
4.810059223281316
 42
5.126058830004429
  0
SPLINE
  5
191AE
330
1F
100
AcDbEntity
  8
AM_0
100
AcDbSpline
210
0.0
220
0.0
230
1.0
 70
     8
 71
     3
 72
    12
 73
     8
 74
     0
 42
0.0000000001
 43
0.0000000001
 40
3.349680994984138
 40
3.349680994984138
 40
3.349680994984138
 40
3.349680994984138
 40
5.000594304755719
 40
5.000594304755719
 40
7.500891457133578
 40
7.500891457133578
 40
7.885021767805957
 40
7.885021767805957
 40
7.885021767805957
 40
7.885021767805957
 10
7.093098713838515
 20
10.44365287541265
 30
0.0
 10
6.588439941628906
 20
10.68175098332566
 30
0.0
 10
6.079017687718022
 20
10.92300004154558
 30
0.0
 10
4.805669441562714
 20
11.52475093001644
 30
0.0
 10
4.032201928329471
 20
11.88912063452202
 30
0.0
 10
3.180154369222066
 20
12.28498570337504
 30
0.0
 10
3.067108181592346
 20
12.33739013063749
 30
0.0
 10
2.954699106578858
 20
12.38935625980523
 30
0.0
  0
LINE
  5
191AF
330
1F
100
AcDbEntity
  8
AM_0
100
AcDbLine
 10
3.234368158575137
 20
12.55082326225929
 30
0.0
 11
12.46399057494574
 21
12.55082326225929
 31
0.0
  0
LINE
  5
191B3
330
1F
100
AcDbEntity
  8
AM_0
100
AcDbLine
 10
1.014557423201723
 20
11.26921493664142
 30
0.0
 11
2.954699106578858
 21
12.38935625980523
 31
0.0
  0
ELLIPSE
  5
191B4
330
1F
100
AcDbEntity
  8
AM_0
100
AcDbEllipse
 10
0.8975661791416201
 20
9.930562600689486
 30
0.0
 11
0.3249778227751179
 21
0.2332153826494816
 31
0.0
210
0.0
220
0.0
230
1.0
 40
0.9887657446192053
 41
0.3778784949797886
 42
2.472273597372973
  0
LINE
  5
191B5
330
1F
100
AcDbEntity
  8
AM_0
100
AcDbLine
 10
0.6846542654921564
 20
10.26388518176248
 30
0.0
 11
0.53564019596962
 21
10.63413349152256
 31
0.0
  0
LINE
  5
191B6
330
1F
100
AcDbEntity
  8
AM_0
100
AcDbLine
 10
1.637150294566709
 20
9.933428087817845
 30
0.0
 11
0.53564019596962
 21
10.63413349152256
 31
0.0
  0
LINE
  5
191B8
330
1F
100
AcDbEntity
  8
AM_0
100
AcDbLine
 10
0.5550188489085599
 20
11.00390021707023
 30
0.0
 11
1.014557423203371
 21
11.26921493664239
 31
0.0
  0
LINE
  5
191B9
330
1F
100
AcDbEntity
  8
AM_0
100
AcDbLine
 10
2.954699106578914
 20
12.38935625980523
 30
0.0
 11
3.234368158575137
 21
12.55082326225929
 31
0.0
  0
LINE
  5
191BA
330
1F
100
AcDbEntity
  8
AM_0
100
AcDbLine
 10
3.234368158575137
 20
12.55082326225929
 30
0.0
 11
3.579352388027985
 21
12.75000000000003
 31
0.0
  0
ELLIPSE
  5
191BB
330
1F
100
AcDbEntity
  8
AM_0
100
AcDbEllipse
 10
14.6450997482437
 20
12.50000000000003
 30
0.0
 11
11.33812066901618
 21
-1.868985322848923
 31
0.0
210
0.0
220
0.0
230
1.0
 40
0.3610403027276591
 41
4.044479537395272
 42
4.578603056606136
  0
ELLIPSE
  5
191BC
330
1F
100
AcDbEntity
  8
AM_0
100
AcDbEllipse
 10
8.929781474933805
 20
4.821016470654456
 30
0.0
 11
0.324977822775118
 21
0.2332153826494816
 31
0.0
210
0.0
220
0.0
230
0.9999999999999999
 40
0.9887657446192053
 41
4.566668699766114
 42
6.661063802159474
  0
LINE
  5
191BD
330
1F
100
AcDbEntity
  8
AM_0
100
AcDbLine
 10
7.958986780375369
 20
3.721681689323248
 30
0.0
 11
7.773057701713356
 21
3.775606772314518
 31
0.0
  0
LINE
  5
191BE
330
1F
100
AcDbEntity
  8
AM_0
100
AcDbLine
 10
6.785141630256305
 20
6.739839715421567
 30
0.0
 11
6.55049439562157
 21
6.807894544135877
 31
0.0
  0
SPLINE
  5
191BF
330
1F
100
AcDbEntity
  8
AM_0
100
AcDbSpline
210
0.0
220
0.0
230
1.0
 70
     8
 71
     3
 72
     8
 73
     4
 74
     0
 42
0.0000000001
 43
0.0000000001
 40
1.327011630901579
 40
1.327011630901579
 40
1.327011630901579
 40
1.327011630901579
 40
1.588882119816186
 40
1.588882119816186
 40
1.588882119816186
 40
1.588882119816186
 10
9.04315988662853
 20
6.526273407043107
 30
0.0
 10
8.959762070036447
 20
6.547626703134995
 30
0.0
 10
8.873782125643231
 20
6.562761603366255
 30
0.0
 10
8.787070751622593
 20
6.571017724113801
 30
0.0
  0
ELLIPSE
  5
191C0
330
1F
100
AcDbEntity
  8
AM_0
100
AcDbEllipse
 10
4.043909802408393
 20
5.733320787874504
 30
0.0
 11
11.5191941957143
 21
-0.5718458482327556
 31
0.0
210
0.0
220
0.0
230
0.9999999999999999
 40
0.1017491545840128
 41
1.151466951595652
 42
1.335574435883052
  0
ELLIPSE
  5
191C1
330
1F
100
AcDbEntity
  8
AM_0
100
AcDbEllipse
 10
5.610448514169946
 20
2.68679623275483
 30
0.0
 11
11.51919419571448
 21
-0.5718458482331135
 31
0.0
210
0.0
220
0.0
230
1.0
 40
0.1017491545840086
 41
1.315734687387849
 42
1.370530079791406
  0
SPLINE
  5
191C2
330
1F
100
AcDbEntity
  8
AM_0
100
AcDbSpline
210
0.0
220
0.0
230
1.0
 70
     8
 71
     3
 72
    16
 73
    12
 74
     0
 42
0.0000000001
 43
0.0000000001
 40
-3.21706260663352
 40
-3.21706260663352
 40
-3.21706260663352
 40
-3.21706260663352
 40
-3.013527064357746
 40
-3.013527064357746
 40
-2.715006205642659
 40
-2.715006205642659
 40
-2.416485346927574
 40
-2.416485346927574
 40
-1.795563529742493
 40
-1.795563529742493
 40
-1.328462959426317
 40
-1.328462959426317
 40
-1.328462959426317
 40
-1.328462959426317
 10
8.573101852887533
 20
3.676665854958458
 30
0.0
 10
8.643103834915735
 20
3.671326561634999
 30
0.0
 10
8.71355748364914
 20
3.670493446830449
 30
0.0
 10
8.885640914222506
 20
3.679385064829887
 30
0.0
 10
8.986633715714277
 20
3.694287199938742
 30
0.0
 10
9.179306036862556
 20
3.740612880494439
 30
0.0
 10
9.270985364492788
 20
3.77203368084372
 30
0.0
 10
9.530574156807234
 20
3.885927085505671
 30
0.0
 10
9.699324247527272
 20
3.99941723979822
 30
0.0
 10
9.939926956033276
 20
4.244736715827287
 30
0.0
 10
10.02590736588257
 20
4.364867677311167
 30
0.0
 10
10.08973679048057
 20
4.490944045267554
 30
0.0
  0
ELLIPSE
  5
191C3
330
1F
100
AcDbEntity
  8
AM_0
100
AcDbEllipse
 10
8.671104511519218
 20
5.136357614027588
 30
0.0
 11
-1.537630763556232
 21
0.2987914728171975
 31
0.0
210
0.0
220
0.0
230
1.0
 40
0.9182274662968236
 41
2.886484160524517
 42
4.648443477988206
  0
ELLIPSE
  5
191C4
330
1F
100
AcDbEntity
  8
AM_0
100
AcDbEllipse
 10
8.325245018649696
 20
5.618301230704731
 30
0.0
 11
1.218666835406693
 21
0.8745576849355562
 31
0.0
210
0.0
220
0.0
230
1.0
 40
0.9887657446192053
 41
4.194005145982363
 42
6.040442489495566
  0
LINE
  5
191C5
330
1F
100
AcDbEntity
  8
AM_0
100
AcDbLine
 10
25.2494572841735
 20
1.000000000000025
 30
0.0
 11
25.2494572841735
 21
4.602084238343675
 31
0.0
  0
LINE
  5
191C6
330
1F
100
AcDbEntity
  8
AM_0
100
AcDbLine
 10
24.9994572841735
 20
1.250000000000025
 30
0.0
 11
24.9994572841735
 21
5.322949016875182
 31
0.0
  0
SPLINE
  5
191C7
330
1F
100
AcDbEntity
  8
AM_0
100
AcDbSpline
210
0.0
220
0.0
230
1.0
 70
     8
 71
     3
 72
    32
 73
    28
 74
     0
 42
0.0000000001
 43
0.0000000001
 40
3.386867410655446
 40
3.386867410655446
 40
3.386867410655446
 40
3.386867410655446
 40
3.986060856630277
 40
3.986060856630277
 40
4.998960010543327
 40
4.998960010543327
 40
5.418593789869783
 40
5.418593789869783
 40
5.838227569196239
 40
5.838227569196239
 40
6.257861348522695
 40
6.257861348522695
 40
6.677495127849152
 40
6.677495127849152
 40
7.097128907175609
 40
7.097128907175609
 40
7.516762686502066
 40
7.516762686502066
 40
7.936396465828523
 40
7.936396465828523
 40
8.35603024515498
 40
8.35603024515498
 40
9.36892939906803
 40
9.36892939906803
 40
10.38182855298108
 40
10.38182855298108
 40
10.81132309243601
 40
10.81132309243601
 40
10.81132309243601
 40
10.81132309243601
 10
22.33781887841957
 20
5.322949016875185
 30
0.0
 10
22.51006864376535
 20
5.215991961879269
 30
0.0
 10
22.67316386034537
 20
5.098118860563517
 30
0.0
 10
23.08092475824964
 20
4.757682475716617
 30
0.0
 10
23.30414813644421
 20
4.518998222706809
 30
0.0
 10
23.55935127327251
 20
4.163873448996323
 30
0.0
 10
23.62995188944336
 20
4.053090662183561
 30
0.0
 10
23.75463569990149
 20
3.825402513904262
 30
0.0
 10
23.80871394143429
 20
3.70851129853784
 30
0.0
 10
23.89546805405649
 20
3.476453454314108
 30
0.0
 10
23.92819079479722
 20
3.361162077981842
 30
0.0
 10
23.97096671672961
 20
3.139456198410382
 30
0.0
 10
23.98101781160955
 20
3.033044638502954
 30
0.0
 10
23.98101781160955
 20
2.835227377851791
 30
0.0
 10
23.97096671672961
 20
2.736189223648037
 30
0.0
 10
23.92819079479722
 20
2.545481018673822
 30
0.0
 10
23.89546805405649
 20
2.453807078239404
 30
0.0
 10
23.80871394143429
 20
2.283078187496496
 30
0.0
 10
23.75463569990149
 20
2.203906217704823
 30
0.0
 10
23.62995188944336
 20
2.060737897439505
 30
0.0
 10
23.55935127327251
 20
1.996714738019616
 30
0.0
 10
23.30414813644421
 20
1.804947984074854
 30
0.0
 10
23.08092475824964
 20
1.700304846044698
 30
0.0
 10
22.56852160161355
 20
1.539021352879814
 30
0.0
 10
22.27921964935234
 20
1.482272814604158
 30
0.0
 10
21.83721732112753
 20
1.424252778222893
 30
0.0
 10
21.70174149907456
 20
1.409839096765012
 30
0.0
 10
21.56345717858761
 20
1.397747184753456
 30
0.0
  0
LINE
  5
191C9
330
1F
100
AcDbEntity
  8
AM_0
100
AcDbLine
 10
21.84068646693277
 20
1.250000000000028
 30
0.0
 11
24.9994572841735
 21
1.250000000000025
 31
0.0
  0
SPLINE
  5
191CA
330
1F
100
AcDbEntity
  8
AM_0
100
AcDbSpline
210
0.0
220
0.0
230
1.0
 70
     8
 71
     3
 72
    12
 73
     8
 74
     0
 42
0.0000000001
 43
0.0000000001
 40
-1.299345701639491
 40
-1.299345701639491
 40
-1.299345701639491
 40
-1.299345701639491
 40
-1.274032593939324
 40
-1.274032593939324
 40
-0.6370162969696622
 40
-0.6370162969696622
 40
0.0
 40
0.0
 40
0.0
 40
0.0
 10
21.56345717858761
 20
1.397747184753456
 30
0.0
 10
21.56703531357374
 20
1.395911820434918
 30
0.0
 10
21.57058085834689
 20
1.394090457783335
 30
0.0
 10
21.66249370700274
 20
1.346805592593483
 30
0.0
 10
21.7300276525761
 20
1.310463917298677
 30
0.0
 10
21.81911933847835
 20
1.262044744593339
 30
0.0
 10
21.84068646693277
 20
1.250000000000028
 30
0.0
 10
21.84068646693277
 20
1.250000000000028
 30
0.0
  0
SPLINE
  5
191CB
330
1F
100
AcDbEntity
  8
AM_0
100
AcDbSpline
210
0.0
220
0.0
230
1.0
 70
     8
 71
     3
 72
    14
 73
    10
 74
     0
 42
0.0000000001
 43
0.0000000001
 40
4.398741584532346
 40
4.398741584532346
 40
4.398741584532346
 40
4.398741584532346
 40
4.781970903975992
 40
4.781970903975992
 40
5.338226633150732
 40
5.338226633150732
 40
5.894482362325473
 40
5.894482362325473
 40
6.064660701679938
 40
6.064660701679938
 40
6.064660701679938
 40
6.064660701679938
 10
21.56345717858761
 20
1.397747184753456
 30
0.0
 10
21.44833165827305
 20
1.456799532684869
 30
0.0
 10
21.32929374086137
 20
1.515012625592846
 30
0.0
 10
21.03146085291729
 20
1.653181775251738
 30
0.0
 10
20.84975084842364
 20
1.731112774294189
 30
0.0
 10
20.48609007697218
 20
1.874518406379167
 30
0.0
 10
20.30413932092625
 20
1.939992409130156
 30
0.0
 10
20.07415024796688
 20
2.015749105052606
 30
0.0
 10
20.01941910417031
 20
2.033268010153762
 30
0.0
 10
19.96399057494574
 20
2.050473410669412
 30
0.0
  0
LINE
  5
191CC
330
1F
100
AcDbEntity
  8
AM_0
100
AcDbLine
 10
24.9994572841735
 20
1.250000000000025
 30
0.0
 11
25.2494572841735
 21
1.000000000000025
 31
0.0
  0
LINE
  5
191CD
330
1F
100
AcDbEntity
  8
AM_0
100
AcDbLine
 10
22.33781887841957
 20
5.322949016875185
 30
0.0
 11
24.9994572841735
 21
5.322949016875182
 31
0.0
  0
LINE
  5
191CE
330
1F
100
AcDbEntity
  8
AM_0
100
AcDbLine
 10
24.9994572841735
 20
8.67705098312487
 30
0.0
 11
16.94704880558282
 21
8.67705098312487
 31
0.0
  0
LINE
  5
191CF
330
1F
100
AcDbEntity
  8
AM_0
100
AcDbLine
 10
17.96399057506091
 20
12.60182120710786
 30
0.0
 11
24.9994572841735
 21
12.60182120710786
 31
0.0
  0
LINE
  5
191D0
330
1F
100
AcDbEntity
  8
AM_0
100
AcDbLine
 10
24.9994572841735
 20
11.82040440760673
 30
0.0
 11
17.96399057506091
 21
11.82040440760673
 31
0.0
  0
LINE
  5
191D1
330
1F
100
AcDbEntity
  8
AM_0
100
AcDbLine
 10
16.94704880558282
 20
8.67705098312487
 30
0.0
 11
19.38330542178085
 21
6.000000000000028
 31
0.0
  0
ELLIPSE
  5
191D2
330
1F
100
AcDbEntity
  8
AM_0
100
AcDbEllipse
 10
5.524770345038121
 20
7.000000000000028
 30
0.0
 11
-14.48759863263179
 21
2.388147912529179
 31
0.0
210
0.0
220
0.0
230
0.9999999999999999
 40
0.3610403027276593
 41
3.86586119549076
 42
4.001113684208445
  0
LINE
  5
191D3
330
1F
100
AcDbEntity
  8
AM_0
100
AcDbLine
 10
19.38330542178085
 20
6.000000000000028
 30
0.0
 11
19.96399057494574
 21
6.000000000000028
 31
0.0
  0
ARC
  5
191D4
330
1F
100
AcDbEntity
  8
AM_0
100
AcDbCircle
 10
19.96399057494574
 20
1.500000000000027
 30
0.0
 40
4.5
100
AcDbArc
 50
58.16213144424697
 51
90.0
  0
SPLINE
  5
191D5
330
1F
100
AcDbEntity
  8
AM_0
100
AcDbSpline
210
0.0
220
0.0
230
1.0
 70
     8
 71
     3
 72
    28
 73
    24
 74
     0
 42
0.0000000001
 43
0.0000000001
 40
-6.860635597454901
 40
-6.860635597454901
 40
-6.860635597454901
 40
-6.860635597454901
 40
-6.43164858047667
 40
-6.43164858047667
 40
-6.002661563498439
 40
-6.002661563498439
 40
-5.573674546520207
 40
-5.573674546520207
 40
-5.144687529541976
 40
-5.144687529541976
 40
-4.716095096838339
 40
-4.716095096838339
 40
-4.287502664134705
 40
-4.287502664134705
 40
-3.85891023143107
 40
-3.85891023143107
 40
-3.430317798727435
 40
-3.430317798727435
 40
-3.0017253660238
 40
-3.0017253660238
 40
-2.573132933320165
 40
-2.573132933320165
 40
-2.433448975036669
 40
-2.433448975036669
 40
-2.433448975036669
 40
-2.433448975036669
 10
17.96399057506091
 20
11.82040440760673
 30
0.0
 10
17.82099490273487
 20
11.82040440760673
 30
0.0
 10
17.67368069537571
 20
11.82867903863152
 30
0.0
 10
17.38170461264292
 20
11.86232897180682
 30
0.0
 10
17.2370367229517
 20
11.88767300878882
 30
0.0
 10
16.96040575668468
 20
11.95164867236482
 30
0.0
 10
16.82819331108095
 20
11.99028076449386
 30
0.0
 10
16.58403179409032
 20
12.07447842213364
 30
0.0
 10
16.47208076709745
 20
12.11999106648423
 30
0.0
 10
16.27401100234823
 20
12.21055040496756
 30
0.0
 10
16.18086772065402
 20
12.25884919098635
 30
0.0
 10
16.01619811542042
 20
12.35516929870553
 30
0.0
 10
15.94465915615655
 20
12.4031442703139
 30
0.0
 10
15.8293616043938
 20
12.49269085933886
 30
0.0
 10
15.78551138286429
 20
12.53430917984124
 30
0.0
 10
15.72781730926778
 20
12.60688841802417
 30
0.0
 10
15.71399057506091
 20
12.63783648151994
 30
0.0
 10
15.71399057506091
 20
12.68745267812053
 30
0.0
 10
15.72781730926778
 20
12.70765045568603
 30
0.0
 10
15.78551138286429
 20
12.73648108890964
 30
0.0
 10
15.8293616043938
 20
12.7451283387102
 30
0.0
 10
15.90579888093657
 20
12.74948600063939
 30
0.0
 10
15.9260472449451
 20
12.75000000000003
 30
0.0
 10
15.94767124584558
 20
12.75000000000003
 30
0.0
  0
SPLINE
  5
191D6
330
1F
100
AcDbEntity
  8
AM_0
100
AcDbSpline
210
0.0
220
0.0
230
1.0
 70
     8
 71
     3
 72
    14
 73
    10
 74
     0
 42
0.0000000001
 43
0.0000000001
 40
11.25562428249757
 40
11.25562428249757
 40
11.25562428249757
 40
11.25562428249757
 40
11.54516868203251
 40
11.54516868203251
 40
11.97398040636215
 40
11.97398040636215
 40
12.40191958407273
 40
12.40191958407273
 40
12.71307023483169
 40
12.71307023483169
 40
12.71307023483169
 40
12.71307023483169
 10
15.94767124584558
 20
12.75000000000003
 30
0.0
 10
15.9925158013466
 20
12.75000000000003
 30
0.0
 10
16.04331275995236
 20
12.74803437821688
 30
0.0
 10
16.18151808980053
 20
12.73948177307059
 30
0.0
 10
16.27488646838054
 20
12.73112952284296
 30
0.0
 10
16.47326873330883
 20
12.71191772781222
 30
0.0
 10
16.58523951749288
 20
12.70034357431703
 30
0.0
 10
16.79610018155012
 20
12.67986744850285
 30
0.0
 10
16.890198951782
 20
12.67111997602208
 30
0.0
 10
16.98811684842457
 20
12.66297092226981
 30
0.0
  0
SPLINE
  5
191D7
330
1F
100
AcDbEntity
  8
AM_0
100
AcDbSpline
210
0.0
220
0.0
230
1.0
 70
     8
 71
     3
 72
     8
 73
     4
 74
     0
 42
0.0000000001
 43
0.0000000001
 40
1.789821052910247
 40
1.789821052910247
 40
1.789821052910247
 40
1.789821052910247
 40
1.807749055406827
 40
1.807749055406827
 40
1.807749055406827
 40
1.807749055406827
 10
16.98811684842457
 20
12.66297092226981
 30
0.0
 10
16.99189616145333
 20
12.65863710855663
 30
0.0
 10
16.99567671782705
 20
12.65430132738632
 30
0.0
 10
16.9994572841735
 20
12.64996502439638
 30
0.0
  0
SPLINE
  5
191D8
330
1F
100
AcDbEntity
  8
AM_0
100
AcDbSpline
210
0.0
220
0.0
230
1.0
 70
     8
 71
     3
 72
    12
 73
     8
 74
     0
 42
0.0000000001
 43
0.0000000001
 40
-0.9617545177664965
 40
-0.9617545177664965
 40
-0.9617545177664965
 40
-0.9617545177664965
 40
-0.857974033956447
 40
-0.857974033956447
 40
-0.4289870169782244
 40
-0.4289870169782244
 40
0.0
 40
0.0
 40
0.0
 40
0.0
 10
16.9994572841735
 20
12.64996502439638
 30
0.0
 10
17.03215110817899
 20
12.64688506774567
 30
0.0
 10
17.06525997598061
 20
12.64388251850622
 30
0.0
 10
17.2370367229517
 20
12.62900954223679
 30
0.0
 10
17.38170461264286
 20
12.61889224123618
 30
0.0
 10
17.67368069537571
 20
12.60528567049019
 30
0.0
 10
17.82099490273487
 20
12.60182120710786
 30
0.0
 10
17.96399057506091
 20
12.60182120710786
 30
0.0
  0
LINE
  5
191D9
330
1F
100
AcDbEntity
  8
AM_0
100
AcDbLine
 10
24.9994572841735
 20
8.67705098312487
 30
0.0
 11
24.9994572841735
 21
11.82040440760673
 31
0.0
  0
LINE
  5
191DA
330
1F
100
AcDbEntity
  8
AM_0
100
AcDbLine
 10
25.2494572841735
 20
9.397915761656376
 30
0.0
 11
25.2494572841735
 21
12.08693892622639
 31
0.0
  0
SPLINE
  5
191DB
330
1F
100
AcDbEntity
  8
AM_0
100
AcDbSpline
210
0.0
220
0.0
230
1.0
 70
    12
 71
     2
 72
     6
 73
     3
 74
     0
 42
0.0000000001
 43
0.0000000001
 40
0.0
 40
0.0
 40
0.0
 40
0.7632067745941296
 40
0.7632067745941296
 40
0.7632067745941296
 10
24.9994572841735
 20
5.322949016875182
 30
0.0
 41
1.0
 10
25.10234468719752
 20
4.970185401849133
 30
0.0
 41
1.001887252317323
 10
25.2494572841735
 20
4.602084238343675
 30
0.0
 41
1.0
  0
SPLINE
  5
191DC
330
1F
100
AcDbEntity
  8
AM_0
100
AcDbSpline
210
0.0
220
0.0
230
1.0
 70
    12
 71
     2
 72
     6
 73
     3
 74
     0
 42
0.0000000001
 43
0.0000000001
 40
0.0
 40
0.0
 40
0.0
 40
0.7632067745941296
 40
0.7632067745941296
 40
0.7632067745941296
 10
25.2494572841735
 20
9.397915761656376
 30
0.0
 41
1.0
 10
25.10234468719752
 20
9.029814598150916
 30
0.0
 41
1.001887252317323
 10
24.9994572841735
 20
8.67705098312487
 30
0.0
 41
1.0
  0
SPLINE
  5
191DD
330
1F
100
AcDbEntity
  8
AM_0
100
AcDbSpline
210
0.0
220
0.0
230
1.0
 70
    12
 71
     2
 72
     6
 73
     3
 74
     0
 42
0.0000000001
 43
0.0000000001
 40
0.0
 40
0.0
 40
0.0
 40
0.3684419925851877
 40
0.3684419925851877
 40
0.3684419925851877
 10
24.9994572841735
 20
12.60182120710786
 30
0.0
 41
1.0
 10
25.12134028890072
 20
12.7322529928173
 30
0.0
 41
1.000265381806608
 10
25.2494572841735
 20
12.86835572572752
 30
0.0
 41
1.0
  0
SPLINE
  5
191DE
330
1F
100
AcDbEntity
  8
AM_0
100
AcDbSpline
210
0.0
220
0.0
230
1.0
 70
    12
 71
     2
 72
     6
 73
     3
 74
     0
 42
0.0000000001
 43
0.0000000001
 40
0.0
 40
0.0
 40
0.0
 40
0.3684419925851877
 40
0.3684419925851877
 40
0.3684419925851877
 10
25.2494572841735
 20
12.08693892622639
 30
0.0
 41
1.0
 10
25.12134028889943
 20
11.95083619331459
 30
0.0
 41
1.000265381787965
 10
24.9994572841735
 20
11.82040440760673
 30
0.0
 41
1.0
  0
SPLINE
  5
191DF
330
1F
100
AcDbEntity
  8
AM_0
100
AcDbSpline
210
0.0
220
0.0
230
1.0
 70
     8
 71
     3
 72
    22
 73
    18
 74
     0
 42
0.0000000001
 43
0.0000000001
 40
3.426790370566058
 40
3.426790370566058
 40
3.426790370566058
 40
3.426790370566058
 40
3.854975096072203
 40
3.854975096072203
 40
4.283159821578348
 40
4.283159821578348
 40
4.711344547084494
 40
4.711344547084494
 40
5.139529272590639
 40
5.139529272590639
 40
5.568042139726009
 40
5.568042139726009
 40
5.996555006861378
 40
5.996555006861378
 40
6.425067873996747
 40
6.425067873996747
 40
6.853580741132117
 40
6.853580741132117
 40
6.853580741132117
 40
6.853580741132117
 10
44.21399057506091
 20
12.90884651807326
 30
0.0
 10
44.21399057506091
 20
12.88406201897695
 30
0.0
 10
44.20019017276957
 20
12.85336455401076
 30
0.0
 10
44.14256055279367
 20
12.78174547307074
 30
0.0
 10
44.09874807664409
 20
12.74083619471159
 30
0.0
 10
43.98349326190464
 20
12.6530623086011
 30
0.0
 10
43.91195935573802
 20
12.60615219116269
 30
0.0
 10
43.7472435858412
 20
12.51214301923792
 30
0.0
 10
43.65404918052502
 20
12.46508908037586
 30
0.0
 10
43.45583656338391
 20
12.37698759304109
 30
0.0
 10
43.34381107231098
 20
12.33278597357369
 30
0.0
 10
43.09951350952218
 20
12.25112898172258
 30
0.0
 10
42.96724012218118
 20
12.21372435896435
 30
0.0
 10
42.69055418801088
 20
12.15185077928063
 30
0.0
 10
42.54589468285502
 20
12.12737981910535
 30
0.0
 10
42.2540344722193
 20
12.09490960725386
 30
0.0
 10
42.10682819743937
 20
12.08693892622634
 30
0.0
 10
41.96399057506091
 20
12.08693892622634
 30
0.0
  0
SPLINE
  5
191E0
330
1F
100
AcDbEntity
  8
AM_0
100
AcDbSpline
210
0.0
220
0.0
230
1.0
 70
     8
 71
     3
 72
    22
 73
    18
 74
     0
 42
0.0000000001
 43
0.0000000001
 40
0.0
 40
0.0
 40
0.0
 40
0.0
 40
0.4285128671353693
 40
0.4285128671353693
 40
0.8570257342707386
 40
0.8570257342707386
 40
1.285538601406108
 40
1.285538601406108
 40
1.714051468541477
 40
1.714051468541477
 40
2.142236194047622
 40
2.142236194047622
 40
2.570420919553768
 40
2.570420919553768
 40
2.998605645059913
 40
2.998605645059913
 40
3.426790370566058
 40
3.426790370566058
 40
3.426790370566058
 40
3.426790370566058
 10
41.96399057506091
 20
12.86835572572752
 30
0.0
 10
42.10682819743937
 20
12.86835572572752
 30
0.0
 10
42.2540344722193
 20
12.87152676188182
 30
0.0
 10
42.54589468285502
 20
12.88397702086777
 30
0.0
 10
42.69055418801082
 20
12.89323391681344
 30
0.0
 10
42.96724012218118
 20
12.91509515638378
 30
0.0
 10
43.09951350952218
 20
12.92766978114062
 30
0.0
 10
43.34381107231098
 20
12.95213290124209
 30
0.0
 10
43.45583656338391
 20
12.96396515429782
 30
0.0
 10
43.65404918052502
 20
12.98322812211827
 30
0.0
 10
43.74724358584115
 20
12.99138861079896
 30
0.0
 10
43.91195935573802
 20
13.00054740371777
 30
0.0
 10
43.98349326190464
 20
13.0015001000302
 30
0.0
 10
44.09874807664409
 20
12.99314303023825
 30
0.0
 10
44.14256055279367
 20
12.98379356877276
 30
0.0
 10
44.20019017276957
 20
12.95404447294183
 30
0.0
 10
44.21399057506091
 20
12.93363101716957
 30
0.0
 10
44.21399057506091
 20
12.90884651807326
 30
0.0
  0
LINE
  5
19374
330
1F
100
AcDbEntity
  8
AM_0
100
AcDbLine
 10
150.0
 20
-60.81452818200476
 30
0.0
 11
150.0
 21
-50.81452818200476
 31
0.0
  0
LINE
  5
19375
330
1F
100
AcDbEntity
  8
AM_0
100
AcDbLine
 10
149.0
 20
-61.31452818200482
 30
0.0
 11
149.0
 21
-50.31452818200476
 31
0.0
  0
LINE
  5
19376
330
1F
100
AcDbEntity
  8
AM_0
100
AcDbLine
 10
150.0
 20
-60.81452818200476
 30
0.0
 11
149.5
 21
-61.31452818200476
 31
0.0
  0
SPLINE
  5
19377
330
1F
100
AcDbEntity
  8
AM_0
100
AcDbSpline
210
0.0
220
0.0
230
1.0
 70
    28
 71
     2
 72
     6
 73
     3
 74
     0
 42
0.0000000001
 43
0.0000000001
 40
0.0
 40
0.0
 40
0.0
 40
2.449489742783073
 40
2.449489742783073
 40
2.449489742783073
 10
149.0
 20
-61.31452818200476
 30
0.0
 41
1.0
 10
149.5
 20
-61.31452818200476
 30
0.0
 41
1.045454545454537
 10
149.5
 20
-61.31452818200476
 30
0.0
 41
1.045454545454537
  0
LINE
  5
19378
330
1F
100
AcDbEntity
  8
AM_0
100
AcDbLine
 10
150.0
 20
-50.81452818200476
 30
0.0
 11
149.5
 21
-50.31452818200476
 31
0.0
  0
SPLINE
  5
19379
330
1F
100
AcDbEntity
  8
AM_0
100
AcDbSpline
210
0.0
220
0.0
230
1.0
 70
    28
 71
     2
 72
     6
 73
     3
 74
     0
 42
0.0000000001
 43
0.0000000001
 40
0.0
 40
0.0
 40
0.0
 40
2.449489742783103
 40
2.449489742783103
 40
2.449489742783103
 10
149.0
 20
-50.31452818200476
 30
0.0
 41
1.0
 10
149.5000000000001
 20
-50.31452818200472
 30
0.0
 41
1.045454545454537
 10
149.5000000000001
 20
-50.31452818200472
 30
0.0
 41
1.045454545454537
  0
LINE
  5
1937A
330
1F
100
AcDbEntity
  8
AM_0
100
AcDbLine
 10
150.0
 20
1.999999999999982
 30
0.0
 11
150.0
 21
11.99999999999998
 31
0.0
  0
LINE
  5
1937B
330
1F
100
AcDbEntity
  8
AM_0
100
AcDbLine
 10
149.0
 20
0.9999999999999822
 30
0.0
 11
149.0
 21
4.602084238343689
 31
0.0
  0
LINE
  5
1937C
330
1F
100
AcDbEntity
  8
AM_0
100
AcDbLine
 10
150.0
 20
1.999999999999982
 30
0.0
 11
149.0
 21
0.9999999999999822
 31
0.0
  0
LINE
  5
1937D
330
1F
100
AcDbEntity
  8
AM_0
100
AcDbLine
 10
149.0
 20
9.397915761656275
 30
0.0
 11
149.0
 21
12.99999999999998
 31
0.0
  0
SPLINE
  5
1937E
330
1F
100
AcDbEntity
  8
AM_0
100
AcDbSpline
210
0.0
220
0.0
230
1.0
 70
    12
 71
     2
 72
     6
 73
     3
 74
     0
 42
0.0000000001
 43
0.0000000001
 40
0.0
 40
0.0
 40
0.0
 40
4.898979485566207
 40
4.898979485566207
 40
4.898979485566207
 10
149.0
 20
4.602084238343689
 30
0.0
 41
1.0
 10
149.9583333333332
 20
6.999999999999982
 30
0.0
 41
1.090909090909074
 10
149.0
 20
9.397915761656275
 30
0.0
 41
1.0
  0
LINE
  5
1937F
330
1F
100
AcDbEntity
  8
AM_0
100
AcDbLine
 10
150.0
 20
11.99999999999998
 30
0.0
 11
149.0
 21
12.99999999999998
 31
0.0
  0
LINE
  5
194F8
330
1F
100
AcDbEntity
  8
AM_0
100
AcDbLine
 10
111.7494572841735
 20
1.000000000000014
 30
0.0
 11
149.0000000000001
 21
1.000000000000011
 31
0.0
  0
LINE
  5
194F9
330
1F
100
AcDbEntity
  8
AM_0
100
AcDbLine
 10
111.7494572841735
 20
4.602084238343664
 30
0.0
 11
149.0000000000001
 21
4.602084238343661
 31
0.0
  0
LINE
  5
194FC
330
1F
100
AcDbEntity
  8
AM_0
100
AcDbLine
 10
90.74945728417345
 20
9.397915761656368
 30
0.0
 11
25.2494572841735
 21
9.397915761656376
 31
0.0
  0
LINE
  5
194FD
330
1F
100
AcDbEntity
  8
AM_0
100
AcDbLine
 10
111.7494572841735
 20
13.00000000000002
 30
0.0
 11
149.0000000000001
 21
13.00000000000001
 31
0.0
  0
LINE
  5
1B93B
330
1F
100
AcDbEntity
  8
AM_4
100
AcDbLine
 10
0.0
 20
0.4203050234313537
 30
0.0
 11
0.0
 21
0.0
 31
0.0
  0
LINE
  5
1B9B9
330
1F
100
AcDbEntity
  8
AM_0
100
AcDbLine
 10
0.53564019596962
 20
10.63413349152256
 30
0.0
 11
0.5550188489085599
 21
11.00390021707023
 31
0.0
  0
DIMENSION
  5
1B9E9
330
1F
100
AcDbEntity
  8
AM_5
100
AcDbDimension
  2
*D9
 10
0.4996307710306951
 20
9.947032732212337
 30
0.0
 11
-18.23783870027517
 21
19.19583534969646
 31
0.0
 70
    34
 71
     5
 42
1.623156204354719
  3
AM_JIS$2
100
AcDb2LineAngularDimension
 13
-3.164978512548657
 23
0.0000000000000284
 33
0.0
 14
0.3936705454162279
 24
0.0000000000000284
 34
0.0
 15
0.0000000000001137
 25
0.413509696781432
 35
0.0
 16
-10.84925776149324
 26
20.36372874323301
 36
0.0
  0
DIMENSION
  5
1BA89
330
1F
100
AcDbEntity
  8
AM_5
100
AcDbDimension
  2
*D10
 10
-7.95269007595158
 20
0.0000000000000023
 30
0.0
 11
-7.95269007595158
 21
3.500000000000001
 31
0.0
 70
   160
 71
     5
 42
7.000000000000001
  3
AM_JIS$0
100
AcDbAlignedDimension
 13
-2.166091167792331
 23
7.000000000000002
 33
0.0
 14
0.0
 24
0.0
 34
0.0
 50
90.0
100
AcDbRotatedDimension
1001
ACAD
1000
DSTYLE
1002
{
1070
   271
1070
     0
1002
}
  0
DIMENSION
  5
1BABD
330
1F
100
AcDbEntity
  8
AM_5
100
AcDbDimension
  2
*D11
 10
-46.51623640489407
 20
9.946880325117526
 30
0.0
 11
-49.60728775324293
 21
-16.20426261098322
 31
0.0
 70
   162
 71
     5
 42
0.1176535835916068
  3
AM_JIS$2
100
AcDb2LineAngularDimension
 13
-47.69408901814296
 23
-3.588845057297469
 33
0.0
 14
-47.69408901814296
 24
17.50552737384306
 34
0.0
 15
-47.64309381625805
 25
0.4133572896866227
 35
0.0
 16
-48.33313175638102
 26
-16.30440741034854
 36
0.0
1001
ACAD
1000
DSTYLE
1002
{
1070
   179
1070
     0
1070
   271
1070
     0
1002
}
  0
DIMENSION
  5
1BB10
330
1F
100
AcDbEntity
  8
AM_5
100
AcDbDimension
  2
*D12
 10
150.0
 20
-31.02920205908514
 30
0.0
 11
75.0
 21
-27.62920205908514
 31
0.0
 70
    32
 71
     5
 42
150.0
  3
AM_JIS$0
100
AcDbAlignedDimension
 13
0.0
 23
0.0000000000000284
 33
0.0
 14
150.0
 24
1.999999999999982
 34
0.0
100
AcDbRotatedDimension
1001
ACAD
1000
DSTYLE
1002
{
1070
   179
1070
     0
1070
   271
1070
     0
1002
}
  0
ENDSEC
  0
SECTION
  2
OBJECTS
  0
DICTIONARY
  5
C
330
0
100
AcDbDictionary
281
     1
  3
ACAD_COLOR
350
1A2B6
  3
ACAD_GROUP
350
D
  3
ACAD_LAYOUT
350
1A
  3
ACAD_MATERIAL
350
1A2B5
  3
ACAD_MLINESTYLE
350
17
  3
ACAD_PLOTSETTINGS
350
19
  3
ACAD_PLOTSTYLENAME
350
E
  3
ACAD_TABLESTYLE
350
1A2B7
  3
AcAmCatalogState
350
1B35A
  3
ACDBHEADERROUNDTRIPXREC
350
1BD6B
  3
AcDbVariableDictionary
350
30
  3
ACDMSYSVARMGR
350
1B31E
  3
ACGREF_MASTER
350
1B316
  3
ACGREFACAD_MASTER
350
1B33C
  3
AcmDictionary
350
4D
  3
ACME_BOM_MANAGER_NAME
350
1B310
  3
ACME_COMMAND_HISTORY
350
1B30D
  3
ACME_SCOPE_NAME
350
1B30C
  3
ACMESTATEMGR
350
1B315
  3
AcmeSysVarManager
350
1B30E
  3
AcmSystemVariableManager
350
1B361
  3
AD_APPL
350
1B347
  3
ADSYSVARMGR
350
1B346
  3
AmdtNamedDwgMgr
350
1B339
  3
AMG
350
3F
  3
AMGSNAPSETTINGS
350
73
  3
AMI_MASTER
350
1B33F
  3
ASE_INDEX_DICTIONARY
350
1B6AD
  3
AUTOCAD_ASSEMBLIES_PROJECT
350
1B34F
  3
Designer_Assemblies_SysVars
350
1B34A
  3
DWGPROPS
350
1BD6E
  3
eng_data
350
2A40
  3
FILENAME
350
2916
  3
GREFAM_MODULE
350
1B340
  3
line_dic_data
350
2A3E
  3
table_dic_data
350
1688
  3
ZWKSIZE
350
2918
  0
DICTIONARY
  5
1A33D
330
2
100
AcDbDictionary
280
     1
281
     1
  3
ACAD_LAYERSTATES
360
1A33E
  0
DICTIONARY
  5
165
330
1F
100
AcDbDictionary
280
     1
281
     1
  0
DICTIONARY
  5
1A2B6
102
{ACAD_REACTORS
330
C
102
}
330
C
100
AcDbDictionary
281
     1
  0
DICTIONARY
  5
D
102
{ACAD_REACTORS
330
C
102
}
330
C
100
AcDbDictionary
281
     1
  0
DICTIONARY
  5
1A
102
{ACAD_REACTORS
330
C
102
}
330
C
100
AcDbDictionary
281
     1
  3
Model
350
22
  3
ﾚｲｱｳﾄ1
350
1E
  3
ﾚｲｱｳﾄ2
350
26
  0
DICTIONARY
  5
1A2B5
102
{ACAD_REACTORS
330
C
102
}
330
C
100
AcDbDictionary
281
     1
  0
DICTIONARY
  5
17
102
{ACAD_REACTORS
330
C
102
}
330
C
100
AcDbDictionary
281
     1
  3
Standard
350
18
  0
DICTIONARY
  5
19
102
{ACAD_REACTORS
330
C
102
}
330
C
100
AcDbDictionary
281
     1
  0
ACDBDICTIONARYWDFLT
  5
E
102
{ACAD_REACTORS
330
C
102
}
330
C
100
AcDbDictionary
281
     1
  3
Normal
350
F
100
AcDbDictionaryWithDefault
340
F
  0
DICTIONARY
  5
1A2B7
102
{ACAD_REACTORS
330
C
102
}
330
C
100
AcDbDictionary
281
     1
  3
Standard
350
1A2B8
  0
ACAD_PROXY_OBJECT
  5
1B35A
102
{ACAD_REACTORS
330
C
102
}
330
C
100
AcDbProxyObject
 90
      499
 91
      571
 95
       25
 70
     0
 93
      368
310
3FFFFFFFE00A02814028EA31D2E20A1A0A226991818182E4B34482AC8E746FA41B7C1A1C1B3A7A4400A077EB75F2
  0
DICTIONARY
  5
1BD6B
102
{ACAD_REACTORS
330
C
102
}
330
C
100
AcDbDictionary
281
     1
  3
COLORDICT
350
1BD6C
  3
MATERIALDICT
350
1BD6D
  0
DICTIONARY
  5
30
102
{ACAD_REACTORS
330
C
102
}
330
C
100
AcDbDictionary
281
     1
  3
CTABLESTYLE
350
1B2F9
  3
HIDETEXT
350
1BD6A
  3
INDEXCTL
350
1BD69
  3
PROJECTNAME
350
1B2FA
  0
ACAD_PROXY_OBJECT
  5
1B31E
102
{ACAD_REACTORS
330
C
102
}
330
C
100
AcDbProxyObject
 90
      499
 91
      507
 95
       25
 70
     0
 93
      240
310
4C51A47A0000000000000000000000000000000000000000000000000000
330
1B31F
330
1B320
330
1B321
330
1B322
330
1B323
330
1B324
330
1B325
330
1B326
330
1B327
330
1B328
330
1B329
330
1B32A
330
1B32B
330
1B32C
330
1B32D
330
1B32E
330
1B32F
330
1B330
330
1B331
330
1B332
330
1B333
330
1B334
330
1B335
330
1B336
330
1B337
330
1B338
 94
        0
  0
ACAD_PROXY_OBJECT
  5
1B316
102
{ACAD_REACTORS
330
C
102
}
330
C
100
AcDbProxyObject
 90
      499
 91
      535
 95
       25
 70
     0
 93
       34
310
0400004280
  0
ACAD_PROXY_OBJECT
  5
1B33C
102
{ACAD_REACTORS
330
C
102
}
330
C
100
AcDbProxyObject
 90
      499
 91
      541
 95
       25
 70
     0
 93
      114
310
04000041C080000000000000000000
  0
DICTIONARY
  5
4D
102
{ACAD_REACTORS
330
C
102
}
330
C
100
AcDbDictionary
281
     1
  3
AcmBOMDATA
350
1B359
  3
AcmStdDictionary
350
17E
  3
AMDTSECTSYM_ARROWCOLOR
350
1A312
  0
ACAD_PROXY_OBJECT
  5
1B310
102
{ACAD_REACTORS
330
C
102
}
330
C
100
AcDbProxyObject
 90
      499
 91
      510
 95
       25
 70
     0
 93
       50
310
00010040400000
330
0
330
0
330
1B311
 94
        0
  0
ACAD_PROXY_OBJECT
  5
1B30D
102
{ACAD_REACTORS
330
C
102
}
330
C
100
AcDbProxyObject
 90
      499
 91
      505
 95
       25
 70
     0
 93
     4868
310
478050C475249505F535452455443488050653454C4543548050C475249505F535452455443488050653454C4543548050653454C454354805055153415645404052D4D5347202D205050413A2020206465736B746F702E6172782046696C6556657273696F6E3A20392E322E302E34014390535115149154D15511109353D
310
1102014213880B4815539113C05084E202D20554E444F014115539113E014115539113E014154155491D1601415454D05591501014B5354D1C80B481414104E88080819195CDADD1BDC0B985C9E08119A5B1955995C9CDA5BDB8E880E4B8C8B8C0B8D0050E414D4454524553455444424D4F4440805084E202D20554E444F0
310
14213880B4815539113C0504554E444F80504554E444F805055153415645404052D4D5347202D205050413A2020206465736B746F702E6172782046696C6556657273696F6E3A20392E322E302E34014390535115149154D15511109353D1102014213880B4815539113C05084E202D20554E444F014115539113E01411553
310
9113E01419493D510551160142111493D411D153D36014311D4925417D4D514915510D22014194D1531150D5201411353D591601411693D3D3601415454D05591501014B5354D1C80B481414104E88080819195CDADD1BDC0B985C9E08119A5B1955995C9CDA5BDB8E880E4B8C8B8C0B8D0050E414D4454524553455444424
310
D4F4440805084E202D20554E444F014213880B4815539113C0504554E444F80504554E444F805055055524745805055153415645404052D4D5347202D205050413A2020206465736B746F702E6172782046696C6556657273696F6E3A20392E322E302E340
  0
ACAD_PROXY_OBJECT
  5
1B30C
102
{ACAD_REACTORS
330
C
102
}
330
C
100
AcDbProxyObject
 90
      499
 91
      504
 95
       25
 70
     0
 93
      562
310
09000046408000000000000000001314D600000000000000000000000000000000000000000000000000000000000000000000000000000000000000000000000000AAA406AA80
360
1B30F
360
1B311
360
1B317
360
1B318
360
1B319
360
1B31A
360
1B31B
360
1B31C
360
1B31F
360
1B320
360
1B321
360
1B322
360
1B323
360
1B324
360
1B325
360
1B326
360
1B327
360
1B328
360
1B329
360
1B32A
360
1B32B
360
1B32C
360
1B32D
360
1B32E
360
1B32F
360
1B330
360
1B331
360
1B332
360
1B333
360
1B334
360
1B335
360
1B336
360
1B337
360
1B338
360
1B342
360
1B343
360
1B344
360
1B345
360
1B34B
360
1B34C
360
1B34D
360
1B34E
360
1B353
360
1B354
360
1B355
360
1B356
360
1B357
360
1B358
360
1B362
 94
        0
  0
ACAD_PROXY_OBJECT
  5
1B315
102
{ACAD_REACTORS
330
C
102
}
330
C
100
AcDbProxyObject
 90
      499
 91
      515
 95
       25
 70
     0
 93
       50
310
09000042641280
  0
ACAD_PROXY_OBJECT
  5
1B30E
102
{ACAD_REACTORS
330
C
102
}
330
C
100
AcDbProxyObject
 90
      499
 91
      507
 95
       25
 70
     0
 93
       32
310
90140A00
330
1B30F
 94
        0
  0
ACAD_PROXY_OBJECT
  5
1B361
102
{ACAD_REACTORS
330
C
102
}
330
C
100
AcDbProxyObject
 90
      499
 91
      507
 95
       25
 70
     0
 93
       32
310
90140A00
330
1B362
 94
        0
  0
ACAD_PROXY_OBJECT
  5
1B347
102
{ACAD_REACTORS
330
C
102
}
330
C
100
AcDbProxyObject
 90
      499
 91
      551
 95
       25
 70
     0
 93
       42
310
000900004040
330
1B342
 94
        0
  0
ACAD_PROXY_OBJECT
  5
1B346
102
{ACAD_REACTORS
330
C
102
}
330
C
100
AcDbProxyObject
 90
      499
 91
      507
 95
       25
 70
     0
 93
        8
310
AA
  0
ACAD_PROXY_OBJECT
  5
1B339
102
{ACAD_REACTORS
330
C
102
}
330
C
100
AcDbProxyObject
 90
      499
 91
      540
 95
       25
 70
     0
 93
       42
310
000100005E80
330
1B317
 94
        0
  0
DICTIONARY
  5
3F
102
{ACAD_REACTORS
330
C
102
}
330
C
100
AcDbDictionary
281
     1
  3
AcMgSettings
350
1B308
  3
AMGLAYCFG
350
1B364
  0
DICTIONARY
  5
73
102
{ACAD_REACTORS
330
C
102
}
330
C
100
AcDbDictionary
281
     1
  0
ACAD_PROXY_OBJECT
  5
1B33F
102
{ACAD_REACTORS
330
C
102
}
330
C
100
AcDbProxyObject
 90
      499
 91
      544
 95
       25
 70
     0
 93
       34
310
0500004280
  0
DICTIONARY
  5
1B6AD
102
{ACAD_REACTORS
330
C
102
}
330
C
100
AcDbDictionary
281
     1
  3
ASEBlockHierarchyIndexRecord
350
1B6AE
1001
DCO15
1040
1562580926.953
  0
ACAD_PROXY_OBJECT
  5
1B34F
102
{ACAD_REACTORS
330
C
102
}
330
C
100
AcDbProxyObject
 90
      499
 91
      554
 95
       25
 70
     0
 93
       98
310
0900004E400000000000000000
330
1B356
330
0
330
1B357
330
0
330
0
330
0
330
0
330
0
 94
        0
  0
ACAD_PROXY_OBJECT
  5
1B34A
102
{ACAD_REACTORS
330
C
102
}
330
C
100
AcDbProxyObject
 90
      499
 91
      507
 95
       25
 70
     0
 93
       56
310
90441600000000
330
1B34B
330
1B34C
330
1B34D
330
1B34E
 94
        0
  0
XRECORD
  5
1BD6E
102
{ACAD_REACTORS
330
C
102
}
330
C
100
AcDbXrecord
280
     1
  1
DWGPROPS COOKIE
  2

  3

  4

  6

  7

  8

  9

300
AmdtFileType=84
301
=
302
=
303
=
304
=
305
=
306
=
307
=
308
=
309
=
 40
0.0
 41
2451943.235431667
 42
2455482.2251114
  1

 90
        1
  0
DICTIONARY
  5
2A40
102
{ACAD_REACTORS
330
C
102
}
330
C
100
AcDbDictionary
281
     1
  3
eng_id
350
2A41
  0
DICTIONARY
  5
2916
102
{ACAD_REACTORS
330
C
102
}
330
C
100
AcDbDictionary
281
     1
  3
FILENAME
350
2917
  0
ACAD_PROXY_OBJECT
  5
1B340
102
{ACAD_REACTORS
330
C
102
}
330
C
100
AcDbProxyObject
 90
      499
 91
      545
 95
       25
 70
     0
 93
        8
310
05
  0
DICTIONARY
  5
2A3E
102
{ACAD_REACTORS
330
C
102
}
330
C
100
AcDbDictionary
281
     1
  3
line_data
350
2A3F
  0
DICTIONARY
  5
1688
102
{ACAD_REACTORS
330
C
102
}
330
C
100
AcDbDictionary
281
     1
  3
input_data
350
168A
  3
table_data
350
1689
  0
DICTIONARY
  5
2918
102
{ACAD_REACTORS
330
C
102
}
330
C
100
AcDbDictionary
281
     1
  3
ZWKSIZE
350
2919
  0
DICTIONARY
  5
1A33E
102
{ACAD_REACTORS
330
1A33D
102
}
330
1A33D
100
AcDbDictionary
281
     1
  0
LAYOUT
  5
22
102
{ACAD_REACTORS
330
1A
102
}
330
1A
100
AcDbPlotSettings
  1

  2
RICOH imagio MF1530 RP-GL_2.pc3
  4
A3
  6
AM_VIEW1
 40
5.323416709899902
 41
7.270748615264893
 42
5.28106689453125
 43
7.313079833984375
 44
419.9889831542969
 45
296.9683227539063
 46
0.0
 47
0.0
 48
0.0
 49
0.0
140
420.0
141
297.0
142
1.0
143
1.051757465406634
 70
 11952
 72
     1
 73
     0
 74
     4
  7
sei_cad.ctb
 75
     0
147
0.9507895431133232
148
0.0
149
0.0
100
AcDbLayout
  1
Model
 70
     1
 71
     0
 10
0.0
 20
0.0
 11
12.0
 21
9.0
 12
0.0
 22
0.0
 32
0.0
 14
0.0
 24
0.0
 34
0.0
 15
0.0
 25
0.0
 35
0.0
146
0.0
 13
0.0
 23
0.0
 33
0.0
 16
1.0
 26
0.0
 36
0.0
 17
0.0
 27
1.0
 37
0.0
 76
     0
330
1F
  0
LAYOUT
  5
1E
102
{ACAD_REACTORS
330
1A
102
}
330
1A
100
AcDbPlotSettings
  1

  2
Canon LASER SHOT LBP-2030
  4

  6

 40
0.0
 41
0.0
 42
0.0
 43
0.0
 44
0.0
 45
0.0
 46
0.0
 47
0.0
 48
0.0
 49
0.0
140
0.0
141
0.0
142
1.0
143
1.0
 70
   688
 72
     0
 73
     0
 74
     5
  7
sei_cad.ctb
 75
    16
147
1.0
148
0.0
149
0.0
100
AcDbLayout
  1
ﾚｲｱｳﾄ1
 70
     1
 71
     1
 10
0.0
 20
0.0
 11
420.0
 21
297.0
 12
0.0
 22
0.0
 32
0.0
 14
1.000000000000000E+20
 24
1.000000000000000E+20
 34
1.000000000000000E+20
 15
-1.000000000000000E+20
 25
-1.000000000000000E+20
 35
-1.000000000000000E+20
146
0.0
 13
0.0
 23
0.0
 33
0.0
 16
1.0
 26
0.0
 36
0.0
 17
0.0
 27
1.0
 37
0.0
 76
     0
330
1B
  0
LAYOUT
  5
26
102
{ACAD_REACTORS
330
1A
102
}
330
1A
100
AcDbPlotSettings
  1

  2
Canon LASER SHOT LBP-2030
  4

  6

 40
0.0
 41
0.0
 42
0.0
 43
0.0
 44
0.0
 45
0.0
 46
0.0
 47
0.0
 48
0.0
 49
0.0
140
0.0
141
0.0
142
1.0
143
1.0
 70
   688
 72
     0
 73
     0
 74
     5
  7
sei_cad.ctb
 75
    16
147
1.0
148
0.0
149
0.0
100
AcDbLayout
  1
ﾚｲｱｳﾄ2
 70
     1
 71
     2
 10
0.0
 20
0.0
 11
12.0
 21
9.0
 12
0.0
 22
0.0
 32
0.0
 14
0.0
 24
0.0
 34
0.0
 15
0.0
 25
0.0
 35
0.0
146
0.0
 13
0.0
 23
0.0
 33
0.0
 16
1.0
 26
0.0
 36
0.0
 17
0.0
 27
1.0
 37
0.0
 76
     0
330
23
  0
MLINESTYLE
  5
18
102
{ACAD_REACTORS
330
17
102
}
330
17
100
AcDbMlineStyle
  2
STANDARD
 70
     0
  3

 62
   256
 51
90.0
 52
90.0
 71
     2
 49
0.5
 62
   256
  6
BYLAYER
 49
-0.5
 62
   256
  6
BYLAYER
  0
ACDBPLACEHOLDER
  5
F
102
{ACAD_REACTORS
330
E
102
}
330
E
  0
TABLESTYLE
  5
1A2B8
102
{ACAD_REACTORS
330
1A2B7
102
}
330
1A2B7
100
AcDbTableStyle
  3
Standard
 70
     0
 71
     0
 40
1.5
 41
1.5
280
     0
281
     0
  7
STANDARD
140
4.5
170
     2
 62
     0
 63
     7
283
     0
274
    -2
284
     1
 64
     0
275
    -2
285
     1
 65
     0
276
    -2
286
     1
 66
     0
277
    -2
287
     1
 67
     0
278
    -2
288
     1
 68
     0
279
    -2
289
     1
 69
     0
  7
STANDARD
140
6.0
170
     5
 62
     0
 63
     7
283
     0
274
    -2
284
     1
 64
     0
275
    -2
285
     1
 65
     0
276
    -2
286
     1
 66
     0
277
    -2
287
     1
 67
     0
278
    -2
288
     1
 68
     0
279
    -2
289
     1
 69
     0
  7
STANDARD
140
4.5
170
     5
 62
     0
 63
     7
283
     0
274
    -2
284
     1
 64
     0
275
    -2
285
     1
 65
     0
276
    -2
286
     1
 66
     0
277
    -2
287
     1
 67
     0
278
    -2
288
     1
 68
     0
279
    -2
289
     1
 69
     0
  0
XRECORD
  5
1BD6C
102
{ACAD_REACTORS
330
1BD6B
102
}
330
1BD6B
100
AcDbXrecord
280
     1
340
1A2B6
  0
XRECORD
  5
1BD6D
102
{ACAD_REACTORS
330
1BD6B
102
}
330
1BD6B
100
AcDbXrecord
280
     1
340
1A2B5
  0
DICTIONARYVAR
  5
1B2F9
102
{ACAD_REACTORS
330
30
102
}
330
30
100
DictionaryVariables
280
     0
  1
STANDARD
  0
DICTIONARYVAR
  5
1BD6A
102
{ACAD_REACTORS
330
30
102
}
330
30
100
DictionaryVariables
280
     0
  1
0
  0
DICTIONARYVAR
  5
1BD69
102
{ACAD_REACTORS
330
30
102
}
330
30
100
DictionaryVariables
280
     0
  1
1
  0
DICTIONARYVAR
  5
1B2FA
102
{ACAD_REACTORS
330
30
102
}
330
30
100
DictionaryVariables
280
     0
  1

  0
ACAD_PROXY_OBJECT
  5
1B359
102
{ACAD_REACTORS
330
4D
102
}
330
4D
100
AcDbProxyObject
 90
      499
 91
      520
 95
       25
 70
     0
 93
       76
310
90100057356C1D7741A0
  0
DICTIONARY
  5
17E
102
{ACAD_REACTORS
330
4D
102
}
330
4D
100
AcDbDictionary
281
     1
  3
ISO
350
1B363
  3
JIS
350
1B691
  0
XRECORD
  5
1A312
102
{ACAD_REACTORS
330
4D
102
}
330
4D
100
AcDbXrecord
280
     1
 90
-1023410169
  0
ACAD_PROXY_OBJECT
  5
1B30F
330
1B30C
100
AcDbProxyObject
 90
      499
 91
      509
 95
       25
 70
     0
 93
      156
310
000101439050D35154D6535093D314D256915080
330
1B30C
 94
        0
  0
ACAD_PROXY_OBJECT
  5
1B311
330
1B30C
100
AcDbProxyObject
 90
      499
 91
      511
 95
       25
 70
     0
 93
      120
310
000101422565255A6557080C402B00
330
1B30C
330
0
330
0
 94
        0
  0
ACAD_PROXY_OBJECT
  5
1B317
330
1B30C
100
AcDbProxyObject
 90
      499
 91
      536
 95
       25
 70
     0
 93
      358
310
0001014124FEA55D00507392E322E302E32014124FEA55D00507392E322E302E3240501000041505391D311658
330
1B30C
330
1B318
330
1B31E
 94
        0
  0
ACAD_PROXY_OBJECT
  5
1B318
330
1B30C
100
AcDbProxyObject
 90
      499
 91
      537
 95
       25
 70
     0
 93
       56
310
000190240E0000
330
1B30C
330
1B319
330
1B31B
 94
        0
  0
ACAD_PROXY_OBJECT
  5
1B319
330
1B30C
100
AcDbProxyObject
 90
      499
 91
      538
 95
       25
 70
     0
 93
       48
310
0001AA000000
330
1B30C
330
1E
330
1B31A
330
0
 94
        0
  0
ACAD_PROXY_OBJECT
  5
1B31A
330
1B30C
100
AcDbProxyObject
 90
      499
 91
      539
 95
       25
 70
     0
 93
       28
310
0001AAA0
330
1B30C
 94
        0
  0
ACAD_PROXY_OBJECT
  5
1B31B
330
1B30C
100
AcDbProxyObject
 90
      499
 91
      538
 95
       25
 70
     0
 93
       48
310
0001AA000000
330
1B30C
330
26
330
1B31C
330
0
 94
        0
  0
ACAD_PROXY_OBJECT
  5
1B31C
330
1B30C
100
AcDbProxyObject
 90
      499
 91
      539
 95
       25
 70
     0
 93
       28
310
0001AAA0
330
1B30C
 94
        0
  0
ACAD_PROXY_OBJECT
  5
1B31F
330
1B30C
100
AcDbProxyObject
 90
      499
 91
      509
 95
       25
 70
     0
 93
      108
310
000101421053521310D05310D010
330
1B30C
 94
        0
  0
ACAD_PROXY_OBJECT
  5
1B320
330
1B30C
100
AcDbProxyObject
 90
      499
 91
      509
 95
       25
 70
     0
 93
      124
310
00010142905354915554D15112535010
330
1B30C
 94
        0
  0
ACAD_PROXY_OBJECT
  5
1B321
330
1B30C
100
AcDbProxyObject
 90
      499
 91
      509
 95
       25
 70
     0
 93
      132
310
00010143105354D150D51253D391125360
330
1B30C
 94
        0
  0
ACAD_PROXY_OBJECT
  5
1B322
330
1B30C
100
AcDbProxyObject
 90
      499
 91
      509
 95
       25
 70
     0
 93
      124
310
00010142905355941093D49111549010
330
1B30C
 94
        0
  0
ACAD_PROXY_OBJECT
  5
1B323
330
1B30C
100
AcDbProxyObject
 90
      499
 91
      509
 95
       25
 70
     0
 93
      116
310
0001014290535115D1D0D3D313D4A0
330
1B30C
 94
        0
  0
ACAD_PROXY_OBJECT
  5
1B324
330
1B30C
100
AcDbProxyObject
 90
      499
 91
      509
 95
       25
 70
     0
 93
      148
310
00010143505355925155D49151949154D21010
330
1B30C
 94
        0
  0
ACAD_PROXY_OBJECT
  5
1B325
330
1B30C
100
AcDbProxyObject
 90
      499
 91
      509
 95
       25
 70
     0
 93
      172
310
00010144105350539393D51154149154D15495915010
330
1B30C
 94
        0
  0
ACAD_PROXY_OBJECT
  5
1B326
330
1B30C
100
AcDbProxyObject
 90
      499
 91
      509
 95
       25
 70
     0
 93
      172
310
00010144105350555513D11253505494905391D15010
330
1B30C
 94
        0
  0
ACAD_PROXY_OBJECT
  5
1B327
330
1B30C
100
AcDbProxyObject
 90
      499
 91
      509
 95
       25
 70
     0
 93
      124
310
00010142D05351561514915191125360
330
1B30C
 94
        0
  0
ACAD_PROXY_OBJECT
  5
1B328
330
1B30C
100
AcDbProxyObject
 90
      499
 91
      509
 95
       25
 70
     0
 93
      132
310
00010142D05355105410539393D5115010
330
1B30C
 94
        0
  0
ACAD_PROXY_OBJECT
  5
1B329
330
1B30C
100
AcDbProxyObject
 90
      499
 91
      509
 95
       25
 70
     0
 93
      108
310
00010142105350555513D0D31010
330
1B30C
 94
        0
  0
ACAD_PROXY_OBJECT
  5
1B32A
330
1B30C
100
AcDbProxyObject
 90
      499
 91
      509
 95
       25
 70
     0
 93
      108
310
00010142105350D3119150551050
330
1B30C
 94
        0
  0
ACAD_PROXY_OBJECT
  5
1B32B
330
1B30C
100
AcDbProxyObject
 90
      499
 91
      509
 95
       25
 70
     0
 93
      108
310
00010142105350D315925155D3F0
330
1B30C
 94
        0
  0
ACAD_PROXY_OBJECT
  5
1B32C
330
1B30C
100
AcDbProxyObject
 90
      499
 91
      509
 95
       25
 70
     0
 93
      148
310
0001014350535212511156915493D112535010
330
1B30C
 94
        0
  0
ACAD_PROXY_OBJECT
  5
1B32D
330
1B30C
100
AcDbProxyObject
 90
      499
 91
      509
 95
       25
 70
     0
 93
      124
310
00010142905352105510D21254D3D010
330
1B30C
 94
        0
  0
ACAD_PROXY_OBJECT
  5
1B32E
330
1B30C
100
AcDbProxyObject
 90
      499
 91
      509
 95
       25
 70
     0
 93
      148
310
00010143905354D25391D31152105513105660
330
1B30C
 94
        0
  0
ACAD_PROXY_OBJECT
  5
1B32F
330
1B30C
100
AcDbProxyObject
 90
      499
 91
      509
 95
       25
 70
     0
 93
      124
310
00010142D0535115D1D193111254D420
330
1B30C
 94
        0
  0
ACAD_PROXY_OBJECT
  5
1B330
330
1B30C
100
AcDbProxyObject
 90
      499
 91
      509
 95
       25
 70
     0
 93
      100
310
00010142105350555513D213A0
330
1B30C
 94
        0
  0
ACAD_PROXY_OBJECT
  5
1B331
330
1B30C
100
AcDbProxyObject
 90
      499
 91
      509
 95
       25
 70
     0
 93
      116
310
000101425053521390D3D553951010
330
1B30C
 94
        0
  0
ACAD_PROXY_OBJECT
  5
1B332
330
1B30C
100
AcDbProxyObject
 90
      499
 91
      509
 95
       25
 70
     0
 93
      108
310
0001014210535213941493D29010
330
1B30C
 94
        0
  0
ACAD_PROXY_OBJECT
  5
1B333
330
1B30C
100
AcDbProxyObject
 90
      499
 91
      509
 95
       25
 70
     0
 93
      108
310
0001014210535213951654115070
330
1B30C
 94
        0
  0
ACAD_PROXY_OBJECT
  5
1B334
330
1B30C
100
AcDbProxyObject
 90
      499
 91
      509
 95
       25
 70
     0
 93
      108
310
000101421053521395925155D0F0
330
1B30C
 94
        0
  0
ACAD_PROXY_OBJECT
  5
1B335
330
1B30C
100
AcDbProxyObject
 90
      499
 91
      509
 95
       25
 70
     0
 93
      140
310
00010143505354D150D51253D390D3D41660
330
1B30C
 94
        0
  0
ACAD_PROXY_OBJECT
  5
1B336
330
1B30C
100
AcDbProxyObject
 90
      499
 91
      509
 95
       25
 70
     0
 93
      108
310
00010142105350D3141493D29030
330
1B30C
 94
        0
  0
ACAD_PROXY_OBJECT
  5
1B337
330
1B30C
100
AcDbProxyObject
 90
      499
 91
      508
 95
       25
 70
     0
 93
      212
310
00010143905350555513D2105510D21493D500000000000002E400
330
1B30C
 94
        0
  0
ACAD_PROXY_OBJECT
  5
1B338
330
1B30C
100
AcDbProxyObject
 90
      499
 91
      509
 95
       25
 70
     0
 93
      156
310
00010143905350555513D2105510D21111551010
330
1B30C
 94
        0
  0
ACAD_PROXY_OBJECT
  5
1B342
330
1B30C
100
AcDbProxyObject
 90
      499
 91
      547
 95
       25
 70
     0
 93
      698
310
0001000000009AA6A9AA4051E467269204D61722033312030373A30373A313820323030362028555443290141CE4B8C8B8C0B8C80518547565204F63742031322031343A32343A303920323031300141CE4B8C8B8C0B8C80
330
1B30C
330
1B343
330
1B344
330
1B346
330
0
 94
        0
  0
ACAD_PROXY_OBJECT
  5
1B343
330
1B30C
100
AcDbProxyObject
 90
      499
 91
      548
 95
       25
 70
     0
 93
       70
310
0001AAA80820000000
330
1B30C
330
1B343
330
1B343
 94
        0
  0
ACAD_PROXY_OBJECT
  5
1B344
330
1B30C
100
AcDbProxyObject
 90
      499
 91
      549
 95
       25
 70
     0
 93
       48
310
000100000000
330
1B30C
330
0
330
1B345
330
0
330
0
 94
        0
  0
ACAD_PROXY_OBJECT
  5
1B345
330
1B30C
100
AcDbProxyObject
 90
      499
 91
      550
 95
       25
 70
     0
 93
       40
310
000100AAAA
330
1B30C
330
0
 94
        0
  0
ACAD_PROXY_OBJECT
  5
1B34B
330
1B30C
100
AcDbProxyObject
 90
      499
 91
      522
 95
       25
 70
     0
 93
      180
310
00010143105050D3D35411119390535140504434F4D500
330
1B30C
 94
        0
  0
ACAD_PROXY_OBJECT
  5
1B34C
330
1B30C
100
AcDbProxyObject
 90
      499
 91
      522
 95
       25
 70
     0
 93
      212
310
0001014390505193D311115491119390535140506466F6C6465720
330
1B30C
 94
        0
  0
ACAD_PROXY_OBJECT
  5
1B34D
330
1B30C
100
AcDbProxyObject
 90
      499
 91
      522
 95
       25
 70
     0
 93
      180
310
00010143105050539393D1119390535140504284156290
330
1B30C
 94
        0
  0
ACAD_PROXY_OBJECT
  5
1B34E
330
1B30C
100
AcDbProxyObject
 90
      499
 91
      522
 95
       25
 70
     0
 93
      436
310
00010143905050D3D35415925155D31254D50052295BD96CA0A90B396CA0A894591A496CA0A8DB691A496CA0A89BA96CA0A95E28F95310
330
1B30C
 94
        0
  0
ACAD_PROXY_OBJECT
  5
1B353
330
1B30C
100
AcDbProxyObject
 90
      499
 91
      555
 95
       25
 70
     0
 93
       32
310
00010000
330
1B30C
340
1B350
330
1B355
330
1B350
 94
        0
  0
ACAD_PROXY_OBJECT
  5
1B354
330
1B30C
100
AcDbProxyObject
 90
      499
 91
      556
 95
       25
 70
     0
 93
       18
310
000180
330
1B30C
 94
        0
  0
ACAD_PROXY_OBJECT
  5
1B355
330
1B30C
100
AcDbProxyObject
 90
      499
 91
      557
 95
       25
 70
     0
 93
      194
310
00010143561094150B4C8C4C9488120C4D1050055401550000
330
1B30C
330
1B353
330
1B354
 94
        0
  0
ACAD_PROXY_OBJECT
  5
1B356
330
1B30C
100
AcDbProxyObject
 90
      499
 91
      558
 95
       25
 70
     0
 93
      178
310
000100AAAAAA95A1D4476F8AD2106C6A38EC80F43DC840
330
1B30C
330
1B355
 94
        0
  0
ACAD_PROXY_OBJECT
  5
1B357
330
1B30C
100
AcDbProxyObject
 90
      499
 91
      559
 95
       25
 70
     0
 93
      108
310
000190140A000000000000AAAAA0
330
1B30C
330
1B358
330
1B358
330
1B358
330
1B358
330
1B358
330
0
 94
        0
  0
ACAD_PROXY_OBJECT
  5
1B358
330
1B30C
100
AcDbProxyObject
 90
      499
 91
      560
 95
       25
 70
     0
 93
       51
310
00010000AAAA80
330
1B30C
330
1B357
330
1B355
 94
        0
  0
ACAD_PROXY_OBJECT
  5
1B362
330
1B30C
100
AcDbProxyObject
 90
      499
 91
      522
 95
       25
 70
     0
 93
      140
310
00010142105350D55494D5110050349534F0
330
1B30C
 94
        0
  0
DICTIONARY
  5
1B308
102
{ACAD_REACTORS
330
3F
102
}
330
3F
100
AcDbDictionary
281
     1
  3
DWGSETTINGS
350
1B309
  3
TRANSSETTINGS
350
1B30A
  0
ACAD_PROXY_OBJECT
  5
1B364
102
{ACAD_REACTORS
330
3F
102
}
330
3F
100
AcDbProxyObject
 90
      499
 91
      519
 95
       25
 70
     0
 93
    17944
310
41502491013041105357CC201C00030C0132441013141105357CC603800030C0132441013241105357CCA01400030C0132441013341105357CCE01800030C01199013441105357CD200C00030C01199013541105357CD600C00030C01199013641105357CDA00800030C01239013741105357CDE01000030C0119901384110
310
5357CE200400030C01199013941105357CE63F400030C0241102324141505357CC4C201C00030C0132902344141505357CC4C600C00030C0119902495041505357CC4CA01C00030C013240902304E41505357CC13A01C00030C0132902314E41505357CC53A03800030C0132902324E41505357CC93A01400030C013290233
310
4E41505357CCD3A01800030C0119902344E41505357CD13A00C00030C0119902354E41505357CD53A00C00030C0119902364E41505357CD93A00800030C0123902374E41505357CDD3A01000030C0119902384E41505357CE13A00400030C0119902394E41505357CE53A3F400030C024110332414E41905357CC4C13A01C0
310
0030C013290334414E41905357CC4C53A00C00030C011990349504E41905357CC4C93A01C00030C0132409044B4C494E41505357D0D3200400030C011942504494E464F42105357D410549151A01000030C011942D055241484D3541905357D093D4A01C00030C0132425045649455742105357D5925155D4E00400030C011
310
942D06424548494E4441905357D25395A3F400030C0243505545241494C41505357D514A00C00030C01194250348494441905357D21251201C00030C01194250356495341905357D59254E01C00030C01324250650415244494D42505357D41054911253600C00030C01194250652454644494D42505357D49151911253601
310
000030C0119425534110921395901398000000C0003FFFFFFFE415092139594D06424548494E448000000C0003FFFFFFFE411093D48C9055241484D358010000C300466411093D48CD055241484D358020000C30048E411093D48D5055241484D358000000C0003FFFFFFFE4110D0530C901348000000C0003FFFFFFFE4110
310
D0530CD01348020000C30048E4110D0530D501348070000C3004CA4110D0530DD013481E0000C30051A4110D15393901378000000C0003FFFFFFFE4110D15395D01378000000C0003FFFFFFFE4110D312539044B4C494E8000000C0003FFFFFFFE4110D3D38C501308000000C0003FFFFFFFD034110D3D38C901318000000C
310
0003FFFFFFFD034110D3D38CD01328000000C0003FFFFFFFD034110D3D38D101328000000C0003FFFFFFFD034111115510501348000000C0003FFFFFFFE4111125051D01358000000C0003FFFFFFFE4111125312501358000000C0003FFFFFFFE411112535410650415244494D8000000C0003FFFFFFFE4111125354906524
310
54644494D8000000C0003FFFFFFFE4111915353901388000000C0003FFFFFFFE415191535413901388030000C3003FFFFFFFE4151915354D410234418000000C0003FFFFFFFE4151915354D510234418030000C300466415191535593901328000000C0003FFFFFFFE415191535595101328030000C3004664112105510D01
310
388000000C0003FFFFFFFD014112125113901338000000C0003FFFFFFFD034112125115D01338000000C0003FFFFFFFD034112131253901348000000C0003FFFFFFFD01411213D0D3901378000000C0003FFFFFFFE411213D0D5D01378000000C0003FFFFFFFE4112539193D04494E464F8000000C0003FFFFFFFE41131150
310
51101358000000C0003FFFFFFFE419397D0921395902394E8000000C0003FFFFFFFE419397D0D3D38C502304E8000000C0003FFFFFFFD03419397D0D3D38C902314E8000000C0003FFFFFFFD03419397D0D3D38CD02324E8000000C0003FFFFFFFD03419397D0D3D38D102324E8000000C0003FFFFFFFD03419397D0D15393
310
902374E8000000C0003FFFFFFFE419397D0D15395D02374E8000000C0003FFFFFFFE419397D1125312502354E8000000C0003FFFFFFFE419397D2105510D02384E8000000C0003FFFFFFFD01419397D2125113902334E8000000C0003FFFFFFFD03419397D2125115D02334E8000000C0003FFFFFFFD03419397D311505110
310
2354E8000000C0003FFFFFFFE419397D391D25410349504E8000000C0003FFFFFFFE419397D412105390334414E8000000C0003FFFFFFFE419397D510D3D3902304E8000000C0003FFFFFFFD03419397D5121312502344E8000000C0003FFFFFFFD01419397D5131153902304E8000000C0003FFFFFFFD03419397D5941312
310
50332414E8000000C0003FFFFFFFE411391D25410249508000000C0003FFFFFFFE411410530C9055241484D358010000C300466411410530CD055241484D358020000C30048E411410530D5055241484D358000000C0003FFFFFFFE411412105390234418000000C0003FFFFFFFE411413D4D3901358000000C0003FFFFFFF
310
E411490D1D3901378000000C0003FFFFFFFE411490D1D5D01378000000C0003FFFFFFFE4114D09492D01348000000C0003FFFFFFFD014114D150D5101348000000C0003FFFFFFFD014114D6508CD01358020000C30048E411354D653501358020000C30048E411510D3D3901308000000C0003FFFFFFFD0341151213125013
310
48000000C0003FFFFFFFD01411512550C9055241484D358010000C300466411512550CD055241484D358020000C30048E411512550D5055241484D358000000C0003FFFFFFFE4115131153901308000000C0003FFFFFFFD03415514905253105545241494C8000000C0003FFFFFFFE4115149312501348000000C0003FFFFF
310
FFD01411516150C501368030000C300466411516150C901368030000C300466411516150CD01368000000C0003FFFFFFFE411516150D501368070000C3004CA411516150DD013681E0000C30051A4115925155D04564945578000000C0003FFFFFFFE41159151121034849448000000C0003FFFFFFFD024115915115903564
310
9538000000C0003FFFFFFFD02411594131250232418000000C0003FFFFFFFE4116925690501348000000C0003FFFFFFFD01AAA3F400030C01013F90A405194092340D1941119415324191941D3243932479467F6
340
16
340
16
340
16
340
43
340
16
340
16
340
16
340
44
340
16
340
16
340
44
340
45
340
16
340
16
340
16
340
16
340
43
340
16
340
16
340
16
340
44
340
16
340
16
340
44
340
45
340
16
340
46
340
16
340
16
340
16
340
16
340
16
340
43
340
16
340
16
340
16
340
15
340
15
340
15
340
15
340
15
340
15
340
15
340
15
340
15
340
48
340
15
340
15
340
15
340
15
340
15
340
15
340
15
340
15
340
15
340
15
340
15
340
15
340
15
340
16
340
15
340
15
340
15
340
15
340
47
340
15
340
15
340
48
340
15
340
15
340
15
340
15
340
15
340
15
340
15
340
15
340
48
340
15
340
15
340
15
340
47
340
15
340
15
340
15
340
15
340
15
340
15
340
15
340
15
340
15
340
15
340
15
340
15
340
15
340
15
340
48
340
15
340
15
340
15
340
15
340
15
340
15
340
15
340
15
340
15
340
15
340
15
340
15
340
15
340
15
340
15
340
15
340
15
340
15
340
15
340
15
340
15
340
15
340
4B
 94
        0
  0
XRECORD
  5
1B6AE
102
{ACAD_REACTORS
330
1B6AD
102
}
330
1B6AD
100
AcDbXrecord
280
     1
330
0
330
0
330
0
330
0
330
0
330
0
330
0
330
0
330
0
330
0
330
0
330
0
330
0
330
0
330
0
330
0
330
0
330
0
330
0
330
0
330
0
330
0
330
0
330
0
330
0
330
0
330
0
330
0
330
0
330
0
330
0
330
0
330
0
330
0
330
0
330
0
330
0
330
0
330
0
330
0
330
0
330
0
330
0
330
0
330
0
330
0
330
0
330
0
330
0
330
0
330
0
330
0
330
0
330
0
330
0
330
0
330
0
330
0
330
0
330
0
330
0
330
0
330
0
330
0
330
0
330
0
330
0
330
0
330
0
330
0
330
0
330
0
330
0
330
0
330
0
330
0
330
0
330
0
330
0
330
0
330
0
330
0
330
0
330
0
330
0
330
0
  0
XRECORD
  5
2A41
102
{ACAD_REACTORS
330
2A40
102
}
330
2A40
100
AcDbXrecord
280
     1
  1
LINE
  0

  0
XRECORD
  5
2917
102
{ACAD_REACTORS
330
2916
102
}
330
2916
100
AcDbXrecord
280
     1
  1
25000259__00___
  0

  0
XRECORD
  5
2A3F
102
{ACAD_REACTORS
330
2A3E
102
}
330
2A3E
100
AcDbXrecord
280
     1
  1
110 ^M^J ^M^J ^M^J ^M^J ^M^J ^M^J ^M^J ^M^J ^M^J ^M^J ^M^Jボーリングクイル ^M^J鋼 ^M^J特型 ^M^J直付け ^M^Jストレート ^M^J25 ^M^J2 ^M^J ^M^Jアルミ ^M^J ^M^J
  0

  0
XRECORD
  5
168A
102
{ACAD_REACTORS
330
1688
102
}
330
1688
100
AcDbXrecord
280
     1
  1
1,,,,,,,,,^M^J2,,,,,,,,,^M^J3,,,,,,,,,^M^J4,,,,,,,,,^M^J5,,,,,,,,,^M^J6,,,,,,,,,^M^J7,,,,,,,,,^M^J8,,,,,,,,,^M^J9,,,,,,,,,^M^J10,,,,,,,,,
  0

  0
XRECORD
  5
1689
102
{ACAD_REACTORS
330
1688
102
}
330
1688
100
AcDbXrecord
280
     1
  1
10,10
  0

  0
XRECORD
  5
2919
102
{ACAD_REACTORS
330
2918
102
}
330
2918
100
AcDbXrecord
280
     1
  1
3
  0

  0
ACAD_PROXY_OBJECT
  5
1B363
102
{ACAD_REACTORS
330
17E
102
}
330
17E
100
AcDbProxyObject
 90
      499
 91
      576
 95
       25
 70
     0
 93
     2497
310
5DC0000000000000C408030000C30040D254D3D01640600800030C0200800030C000000000000000C40C88A2085A0B6B23A22B233B2A9BA3220480A1C82C6DAA6EAE4CCA8CAF0E8A6E8C88120284A0B1B6A321A329BA3220480A1A82C6DAAECAD8C8D2DCCEA6E8C8812028420B1B6A4B229BA3220480A1682C6DA88C2E8EAD
310
AA6E8C88120284A0B1B6A127A6A9BA3220480A2082DAC8E888CAE8C2D2D8A6F2DAA6E8C88120288A0B6B23A29B2B1BA34B7B729BCB6A9BA3220480A2282DAC8E886CADCE8CAE498D2DCCAA6E8C88120288A0B6B23A2A343932B0B22634B732A9BA3220480A1682DAC8E89CDEE8CAA6E8C88120285A0B1A0B6B3A630BCA9BA3
310
220480A1682C682DACE88D2DAA6E8C88120288A0B1A0B6B3A437B632A1B430B93A29BA3220480A1A82C682DACEA8D2E8D8CAA6E8C8812032048080
340
1A334
360
1B365
360
1B366
360
1B367
360
1B368
360
1B369
360
1B36A
360
1B36B
360
1B36C
360
1B36D
360
1B36E
360
1B36F
360
1B370
360
1B376
360
1B377
360
1B378
360
1B379
340
0
340
0
 94
        0
  0
ACAD_PROXY_OBJECT
  5
1B691
102
{ACAD_REACTORS
330
17E
102
}
330
17E
100
AcDbProxyObject
 90
      499
 91
      526
 95
       25
 70
     0
 93
     2379
310
5DC33333333333309408000000C00040D29254D01640600800030C0200800030C003333333333330940C8121E8720B1B6A9BAB9332A32BC3A29BA3220480A1282C6DA8C868CA6E8C88120286A0B1B6ABB2B63234B733A9BA3220480A1082C6DA92C8A6E8C88120285A0B1B6A230BA3AB6A9BA3220480A1282C6DA849E9AA6E
310
8C88120286A0B1A0B6B3AA34BA3632A9BA3220480A2082DAC8E888CAE8C2D2D8A6F2DAA6E8C88120288A0B6B23A29B2B1BA34B7B729BCB6A9BA3220480A2282DAC8E886CADCE8CAE498D2DCCAA6E8C88120288A0B6B23A2A343932B0B22634B732A9BA3220480A1682DAC8E89CDEE8CAA6E8C88120285A0B1A0B6B3A630BCA
310
9BA3220480A1682C682DACE88D2DAA6E8C88120288A0B1A0B6B3A437B632A1B430B93A29BA3220480C812020
340
180
360
1B692
360
1B693
360
1B694
360
1B695
360
1B696
360
1B697
360
1B698
360
1B699
360
1B69A
360
1B69B
360
1B69C
360
1B69D
360
1B6A3
360
1B6A4
360
1B6A5
340
0
340
0
 94
        0
  0
ACAD_PROXY_OBJECT
  5
1B309
102
{ACAD_REACTORS
330
1B308
102
}
330
1B308
100
AcDbProxyObject
 90
      499
 91
      518
 95
       25
 70
     0
 93
     2340
310
4050B44574753455454494E4753A1286829C8E82A4A482B282A106660F8686AF86C608321A2A720A723A0A849A1ABE1C983E18999AA0C868A9C889282940000000000000488083A1A2A72224A0A9A0A8418983E19183E199820E868A9C8892A6A894000000000000010808321A2A72622A7250000000000000122020C868A9
310
C9E8C8C940000000000000488084A1A624A720A92920ACA0A809BA108698929C8AA8B2A082A0AB098929C8A84A22BA3AAA9A1A0A622A50A0E9882A6A89E849482A02608426A0A5A2AB24A2ABA7E8120CA0A68682988A0C00800010652455649534941501304154D0D0531150540CC4E8C50954494D455354414D504A0F8E14
310
642792B734141D5915494D253D3905414C4D4B8C0C1107B44574753455454494E4753454E447D0
  0
ACAD_PROXY_OBJECT
  5
1B30A
102
{ACAD_REACTORS
330
1B308
102
}
330
1B308
100
AcDbProxyObject
 90
      499
 91
      518
 95
       25
 70
     0
 93
      852
310
4050D5452414E5353455454494E4753A2488A482AE929C8EA8A4829CA69882A8929E9C0C00800050D4F524947494E414C4C595F4F4E0600400008529A7AAA921A2A620A723A0A81A52827212AAA0A48AA68AA4AC8A0C0080001107B44574753455454494E4753454E447D0
  0
ACAD_PROXY_OBJECT
  5
1B365
330
1B363
100
AcDbProxyObject
 90
      499
 91
      577
 95
       25
 70
     0
 93
       13
310
5DD8
  0
ACAD_PROXY_OBJECT
  5
1B366
330
1B363
100
AcDbProxyObject
 90
      499
 91
      578
 95
       25
 70
     0
 93
       96
310
5DEA0E80A0280A0280A0280F
  0
ACAD_PROXY_OBJECT
  5
1B367
330
1B363
100
AcDbProxyObject
 90
      499
 91
      579
 95
       25
 70
     0
 93
      272
310
5DD0E4050140501405014050140501405014050140D01405012C0000000000000040
340
1A335
 94
        0
  0
ACAD_PROXY_OBJECT
  5
1B368
330
1B363
100
AcDbProxyObject
 90
      499
 91
      580
 95
       25
 70
     0
 93
      497
310
5DE8666666666667A67E199999999999E99FD22405014050140501405014050140501405014050140501405014050140501405014050140501405014050100
340
1A331
 94
        0
  0
ACAD_PROXY_OBJECT
  5
1B369
330
1B363
100
AcDbProxyObject
 90
      499
 91
      581
 95
       25
 70
     0
 93
       10
310
5DC0
  0
ACAD_PROXY_OBJECT
  5
1B36A
330
1B363
100
AcDbProxyObject
 90
      499
 91
      582
 95
       25
 70
     0
 93
      257
310
5DE290EA22A7D90F49F80000000000001081400000000000004204010000618000
340
1A332
340
1A333
 94
        0
  0
ACAD_PROXY_OBJECT
  5
1B36B
330
1B363
100
AcDbProxyObject
 90
      499
 91
      583
 95
       25
 70
     0
 93
    13013
310
5DD0E411255115350141236025B690140501406901000000000000091013347454E545241434F2C4A504E2C302C8D8096DA2C47454E54524154582C25732C2847454E4D53472067656E647767203232322940690120281A8AA2CA0282484A4BE52028120280A0320200000000000012202668E8A9CA8A482869E5894A09C58
310
605921292F94588E8A9CA8A482A8B0584AE658508E8A9C9AA68E40CECADCC8EECE406464665280D202405044E414D454050496BC914F4051C40640A80000000000004E404CD1D15395149050D3CB1294138B0C0B25AF2453CB11D15395149055160B095CCB0A11D1539354D1C819D95B991DD9C80C8C8D8A50192C3D494628
310
4953424C414E4B28504152543A4E414D45292C424C4F434B3A4E414D452C504152543A4E414D452940480A0A888AA686A480A09251B1DBE80A3A80C81D0000000000100A28099A3A2A72A2920A1A7962528271618164946C76F9623A2A72A2920AA2C1612B9961423A2A726A9A39033B2B7323BB39019189B94A0348090142
310
14D51053911054911014122D2E29A50147501904A000000000000125013347454E545241434F2C4A504E2C302C8B4B8A692C47454E54524154582C25732C2847454E4D53472067656E64776720323138294069012028426A0AA22A924A0A62028246EF4BDFA028EA0320B40000000000001CA02668E8A9CA8A482869E5894A
310
09C5860591BBD2F7E588E8A9CA8A482A8B0584AE658508E8A9C9AA68E40CECADCC8EECE406464625280D202405044E4F544540504928D8B4C4051D40641A80000000000003E404CD1D15395149050D3CB1294138B0C0B24A362D30B11D15395149055160B095CCB0A11D1539354D1C819D95B991DD9C80C8C8D4A501240480
310
A0CAC8A9C889EA480A1106F1072706BF02B680A3A80C83D00000000000007C809BA3A2A72A2920A1A79625282716181641BC41C9C1AFC0AD9623A2A72A2920AA2C1612B9961423A2A726A9A39033B2B7323BB39019191A14A0248090141911154D0D48C90141A43825AF880C90147501908A000000000020145013447454E5
310
45241434F2C4A504E2C302C90E096BE20322C47454E54524154582C25732C2847454E4D53472067656E6477672033362940490120284A9AA20A72220A922192028345A5C53490192028EA03213400000000000024A026A8E8A9CA8A482869E5894A09C586059169714D24064588E8A9CA8A482A8B0584AE658508E8A9C9AA6
310
8E40CECADCC8EECE4064646052809202405094D4154455249414C32405068DDE97BF20324051D40642A8713D0AD7A37045404D11D15395149050D3CB1294138B0C0B2377A5EFC80C8B11D15395149055160B095CCB0A11D1539354D1C819D95B991DD9C80D0C0A501240480A089A82A6A680A091D7F2F9480A3A80A0485A06
310
8100000000000007C809923A2A72A2920A1A796252827161816475FCBE51623A2A72A2920AA2C1612B9961423A2A726A9A39033B2B7323BB3901A1914A024809014154149250D150141226FE29A501475014090C409020000000000000F9013247454E545241434F2C4A504E2C302C89BF8A692C47454E54524154582C2573
310
2C2847454E4D53472067656E6477672034332940490120281A224A6A02824850CB202028EA028121A81A040000000000001F202648E8A9CA8A482869E5894A09C58605921432C80588E8A9CA8A482A8B0584AE658508E8A9C9AA68E40CECADCC8EECE406868528092024050E445020000000000000510201C00030C0001018
310
0000000000003E400000000000000F901073D3C4954454D3E4050180000000000003E400000000000000F901073D3C4954454D3E40501800000000000034400000000000000D101073D3C4954454D3E40501800000000000034400000000000000D101073D3C4954454D3E405029010000000000000F9000000000000003E4
310
041CF4F125511534F901418F4F1455164F9014060000000000000F9000000000000003E4041CF4F125511534F9014060000000000000D100000000000000344041CF4F125511534F901901000000000000000F9000000000000003E40A2200000000000008204018000618048220681A048120280C88214844882034852034
310
8452028521485214814000000000000F0BF0000000000003C2FD018020000C3008070000C3003373333333333B0FCCDCCCCCCCCCCEC3F000000000000031012034164050341105901A000000000000062040100006180401000061804008000618008098A02808
340
0
340
0
 94
        0
  0
ACAD_PROXY_OBJECT
  5
1B36C
330
1B363
100
AcDbProxyObject
 90
      499
 91
      584
 95
       25
 70
     0
 93
      898
310
5DC4000000000000144048CF4F11115510525317D3105091530F880A0F11115510525317D05094D4D0D053114F8A51141C9A9999999999B93F26A666666666724FC000000000000E03F400000000000000400000000000000510000000000000024408070000C300000000000000051000
340
16
340
1A334
 94
        0
  0
ACAD_PROXY_OBJECT
  5
1B36D
330
1B363
100
AcDbProxyObject
 90
      499
 91
      585
 95
       25
 70
     0
 93
      823
310
5DC0B00000000000002880959E9E29A2A1AA24A7A72FA620A122A62FA324A929AA1F169E29A2A1AA24A7A72FA620A122A62FA620A9AA1F000000000000048803FFFE01C00030C0088C0380006180000000000000048800000000000000A2000000000000002880
340
652
340
1A334
 94
        0
  0
ACAD_PROXY_OBJECT
  5
1B36E
330
1B363
100
AcDbProxyObject
 90
      499
 91
      586
 95
       25
 70
     0
 93
      152
310
5DE80000000000000840A3D0A5723F0BD1F200
  0
ACAD_PROXY_OBJECT
  5
1B36F
330
1B363
100
AcDbProxyObject
 90
      499
 91
      587
 95
       25
 70
     0
 93
       14
310
5DE0
340
0
 94
        0
  0
ACAD_PROXY_OBJECT
  5
1B370
330
1B363
100
AcDbProxyObject
 90
      499
 91
      588
 95
       25
 70
     0
 93
     8619
310
5DD084050BA4050AA405024050E836583938376838C815B836720314043A013D2525633C486F6C653A63746469613E2078203C486F6C653A637464657074683E20555C503C696628657175616C28486F6C653A7461707065642C223022292C22252563222C486F6C653A6E6F6D696E616C202220782022293E3C6966286571
310
75616C28486F6C653A7461707065642C223022292C486F6C653A6469612C486F6C653A706974636864657363293E3C696628657175616C28486F6C653A7461707065642C223122292C22207820222C2222293E3C696628657175616C28486F6C653A7461707065642C223122292C486F6C653A74617064657074682C222229
310
3E203C696628657175616C28486F6C653A7465726D696E6174696F6E2C223022292C22202F20222C2222293E3C696628657175616C28486F6C653A7465726D696E6174696F6E2C223022292C486F6C653A64657074682C2222293E406901405034050E836583938376838C815B836720314043B013D2525633C486F6C653A6
310
3746469613E2078203C486F6C653A6374616E676C653E2525645C503C696628657175616C28486F6C653A7461707065642C223022292C22252563222C486F6C653A6E6F6D696E616C202220782022293E3C696628657175616C28486F6C653A7461707065642C223022292C486F6C653A6469612C486F6C653A70697463686
310
4657363293E3C696628657175616C28486F6C653A7461707065642C223122292C22207820222C2222293E3C696628657175616C28486F6C653A7461707065642C223122292C486F6C653A74617064657074682C2222293E203C696628657175616C28486F6C653A7465726D696E6174696F6E2C223022292C22202F20222C2
310
222293E3C696628657175616C28486F6C653A7465726D696E6174696F6E2C223022292C486F6C653A64657074682C2222293E406901405014050E836583938376838C815B8367203140416013D3C696628657175616C28486F6C653A7461707065642C223022292C22252563222C486F6C653A6E6F6D696E616C2022207820
310
22293E3C696628657175616C28486F6C653A7461707065642C223022292C486F6C653A6469612C486F6C653A706974636864657363293E3C696628657175616C28486F6C653A7461707065642C223122292C22207820222C2222293E3C696628657175616C28486F6C653A7461707065642C223122292C486F6C653A746170
310
64657074682C2222293E203C696628657175616C28486F6C653A7465726D696E6174696F6E2C223022292C22202F20222C2222293E3C696628657175616C28486F6C653A7465726D696E6174696F6E2C223022292C486F6C653A64657074682C2222293E4069014051E4090E836583938376838C815B83672032405173D3C5
310
35444503A444553433E203C535444503A5354443E40690E836583938376838C815B836720314050C3D3C535444503A444553433E40690240515AAABBA120
360
1B374
330
1B374
360
1B375
330
1B375
360
1B373
330
1B373
360
1B372
360
1B371
330
1B372
330
1B371
 94
        0
  0
ACAD_PROXY_OBJECT
  5
1B376
330
1B363
100
AcDbProxyObject
 90
      499
 91
      568
 95
       25
 70
     0
 93
       26
310
5DD02A80
340
1B364
 94
        0
  0
ACAD_PROXY_OBJECT
  5
1B377
330
1B363
100
AcDbProxyObject
 90
      499
 91
      569
 95
       25
 70
     0
 93
      250
310
5DD020000000000000A1000000000000002440408F0F9023C3E409A0DCFFFF80
340
1A336
340
0
340
0
340
1A337
340
1A338
340
1A339
340
1A33A
340
1A33B
340
1A33C
340
0
 94
        0
  0
ACAD_PROXY_OBJECT
  5
1B378
330
1B363
100
AcDbProxyObject
 90
      499
 91
      589
 95
       25
 70
     0
 93
    13889
310
5DD1D003FFFFFFFD030300030000000000000310200800030C01030300030000000000000310200800030C00050C8DC0955782CC838A83588367014ED1D15395149050D3CB1294138B0C0B23702555E0B320E2A0D620D9CB11D15395149055160B095CCB0A11D1539354D1C819D95B991A5B5E880CCC0A78000C0000000000
310
00000000000000000000010000000000000310200800030C010000000000000310200800030C020143CF4F111959985D5B1D151A5D1B194F8050A8C8A8365815B8375838B014E51D15395149050D3CB1294138B0C0B2322A0D96056E0DD60E2CB11D15395149055160B095CCB0A11D1539354D1C819D95B991A5B5E880CCC4
310
A78000C000000000000000000000000000000010000000000000310200800030C010000000000000310200800030C020143CF4F111959985D5B1D151A5D1B194F90D44111409034110541D0C4350F4050E44D03449074510F000141232D24D7C053247454E545241434F2C4A504E2C302C8CB4935F2C47454E54524154582C
310
25732C2847454E4D53472067656E64696D7A20312900010104002214000281464500A608E8A9CA8A482869E5894A09C5860591914588E8A9CA8A482A8B0584AE658508E8A9C9AA68E40CECADCC8D2DAF4406452029E9E9E27B934B3B4B71F1E24A31427A91424A9A12620A7259427B934B3B4B7149624A9A12620A7259424B
310
A32B6949496111116111711149F1E24BA32B69F00808200111A000140560052F47454E545241434F2C4A504E2C302C582C47454E54524154582C25732C2847454E4D53472067656E64696D7A20332900010100002054000280AC80A5E8E8A9CA8A482869E5894A09C586058B2588E8A9CA8A482A8B0584AE658508E8A9C9AA
310
68E40CECADCC8D2DAF4406852000202000040E800050152014BD1D15395149050D3CB1294138B0C0B148B11D15395149055160B095CCB0A11D1539354D1C819D95B991A5B5E880D8A400040400008250000A0507A6029823A2A72A2920A1A79625282716181641E99623A2A72A2920AA2C1612B9961423A2A726A9A39033B2
310
B73234B6BD101B948000808180105A000140A0F4C053047454E545241434F2C4A504E2C302C83D32C47454E54524154582C25732C2847454E4D53472067656E64696D7A203829000101010020F400028248704B5F00A668E8A9CA8A482869E5894A09C58605921C12D7C588E8A9CA8A482A8B0584AE658508E8A9C9AA68E40
310
CECADCC8D2DAF440646052000200080043280005048B4B8A69014CD1D15395149050D3CB1294138B0C0B22D2E29A4B11D15395149055160B095CCB0A11D1539354D1C819D95B991A5B5E880C8C4A4000400100086D0000A09196926BE029923A2A72A2920A1A796252827161816465A49AF9623A2A72A2920AA2C1612B9961
310
423A2A726A9A39033B2B73234B6BD10189480A02620202080043E80005048D8096DA014CD1D15395149050D3CB1294138B0C0B236025B68B11D15395149055160B095CCB0A11D1539354D1C819D95B991A5B5E880C4D0A4000404140280D0000A190687072706CD06C5069D06B0029DA3A2A72A2920A1A7962528271618164
310
1A1C1C9C1B341B141A741AC1623A2A72A2920AA2C1612B9961423A2A726A9A39033B2B73234B6BD10189A94800080828050EA000143A322A0D0E0E4E0D9A0D8A0D3A0D60053D47454E545241434F2C4A504E2C302C8C8A8343839383668362834E83582C47454E54524154582C25732C2847454E4D53472067656E64696D7A
310
2031372900010105002274000281464500A628E8A9CA8A482869E5894A09C5860591914588E8A9CA8A482A8B0584AE658508E8A9C9AA68E40CECADCC8D2DAF440626C52000202080044A8000504909497CA014CD1D15395149050D3CB1294138B0C0B242525F28B11D15395149055160B095CCB0A11D1539354D1C819D95B9
310
91A5B5E880C4E4A400040418008A521E000000000000001CA040C00000000000034408080000000000006881010000000000000D102040000000000001A204080000000000003440818000000000000728103000000000000125020600000000004028A040000000000000034408000000000000004881000000000000000D
310
102000000000000001A204000000000000003440818000000000000508143C0000000000000039408180000000000006881030000000000000D102060000000000001A2040C00000000000034408180000000000006881030000000000000E5020600000000000024A040C0000000000805140800000000000000688100000
310
00000000009102000000000000001A2040000000000000034408180000000000006881030000000000000A10284220000000878000002020000008380000020400000081800000208000000828000002028900000000
340
0
340
0
340
0
340
0
340
1A334
340
1A334
 94
        0
  0
ACAD_PROXY_OBJECT
  5
1B379
330
1B363
100
AcDbProxyObject
 90
      499
 91
      561
 95
       25
 70
     0
 93
     7018
310
5DD9740D254D3D0649534F5F4133429254D3D7D5125513115051349534F5F42525F5265766973696F6E6C69737446111413478342028323937783834316D6D2920421254D3D7D04D1E0D11141327835202835393478323130326D6D29421254D3D7D04C9E0D51141337837202834323078323038306D6D29421254D3D7D04C
310
DE0DD1141347839202832393778313839326D6D29421254D3D7D04D1E0E50E41312028353934783834316D6D29419254D3D7D04C51141327834202835393478313638326D6D29421254D3D7D04C9E0D11141347838202832393778313638326D6D29421254D3D7D04D1E0E10E41332028323937783432306D6D29419254D3D
310
7D04CD104130202838343078313138396D6D2920419254D3D7D04C11141347835202832393778313035316D6D29421254D3D7D04D1E0D51141347836202832393778313236316D6D29421254D3D7D04D1E0D91141347837202832393778313437316D6D29421254D3D7D04D1E0DD1141327833202835393478313236316D6D
310
29421254D3D7D04C9E0CD1141337834202834323078313138396D6D29421254D3D7D04CDE0D110413478332028323937783633306D6D29421254D3D7D04D1E0CD1141337835202834323078313438366D6D29421254D3D7D04CDE0D51141337836202834323078313738336D6D29421254D3D7D04CDE0D9104133783320283
310
43230783839316D6D29421254D3D7D04CDE0CD0E41322028343230783539346D6D29419254D3D7D04C9124130783220283131383978313638326D6D29421254D3D7D04C1E0C90E41342028323937783231306D6D29419254D3D7D04D1124130783320283131383978323532336D6D29421254D3D7D04C1E0CD114131783420
310
2838343178323337386D6D29421254D3D7D04C5E0D11141317833202838343178313738336D6D29421254D3D7D04C5E0CD02431254D3C82557247A25E4C81050A49534F5F5449544C4541431254D3C82557247A25E4C81090A49534F5F5449544C45424110E979A97F0838A835883675F42525F44D254D3D7D09497D4995D9
310
A5CDA5BDB9B1A5CDD10E979A97F0838A835883675F54525F44D254D3D7D51497D4995D9A5CDA5BDB9B1A5CDD10E979A97F0838A835883675F424C5F44D254D3D7D09317D4995D9A5CDA5BDB9B1A5CDD10E979A97F0838A835883675F544C5F44D254D3D7D51317D4995D9A5CDA5BDB9B1A5CDD00
  0
ACAD_PROXY_OBJECT
  5
1B692
330
1B691
100
AcDbProxyObject
 90
      499
 91
      527
 95
       25
 70
     0
 93
       86
310
5DEA0C80A0280A0280A034
  0
ACAD_PROXY_OBJECT
  5
1B693
330
1B691
100
AcDbProxyObject
 90
      499
 91
      528
 95
       25
 70
     0
 93
      282
310
5DD0E4050140501405014050140501405014050141101405014041000000000000001000
340
187
 94
        0
  0
ACAD_PROXY_OBJECT
  5
1B694
330
1B691
100
AcDbProxyObject
 90
      499
 91
      529
 95
       25
 70
     0
 93
      323
310
5DCC199999999999E99F91740501405014050140501405014050140501405014050140501405014040
340
0
 94
        0
  0
ACAD_PROXY_OBJECT
  5
1B695
330
1B691
100
AcDbProxyObject
 90
      499
 91
      530
 95
       25
 70
     0
 93
       10
310
5DC0
  0
ACAD_PROXY_OBJECT
  5
1B696
330
1B691
100
AcDbProxyObject
 90
      499
 91
      531
 95
       25
 70
     0
 93
      257
310
5DE0C16A22A7D90F49F80000000000001081400000000000004204010000618000
340
188
340
189
 94
        0
  0
ACAD_PROXY_OBJECT
  5
1B697
330
1B691
100
AcDbProxyObject
 90
      499
 91
      532
 95
       25
 70
     0
 93
     5277
310
5DD06411255115350141236025B6901405014069010000000000000910240690120281A8AA2CA0282484A4BE52028120280A032020000000000001220480D202405044E414D454050496BC914F4051C40640A80000000000004E4090193C3D3C4946284953424C414E4B28504152543A4E414D45292C424C4F434B3A4E414D
310
452C504152543A4E414D45293E3C41435F44455343524950544E3E40480A109A82A88AA492829880A091BBD2F7E80A3A80C81D0E27A15AF46E08A81203480901411393D5115014124A363B7D0147501904A0000000000000F902406428F4F1050D7D393D5114F901202832B22A72227A92028366EF6EE06F582028EA0320B4
310
0000000000001F20480C879E9E20A1AFAB27222FA620A122A61F20240506445020000000000000490201C00030C00010180000000000003E400000000000000F901073D3C4954454D3E4050180000000000003E400000000000000F901073D3C4954454D3E40501800000000000034400000000000000D101073D3C4954454
310
D3E40501800000000000034400000000000000D101073D3C4954454D3E405029010000000000000F9000000000000003E4041CF4F125511534F901418F4F1455164F9014060000000000000F9000000000000003E4041CF4F125511534F901800000000000034400000000000000D101073D3C4954454D3E40640400000000
310
0000003E400000000000000F90288800000000000020810000001800120881A068120480A032208521122080D21480D211480A1485214852050000000000003C2FC000000000000F0BF40600800030C0200400030C00CDCCCCCCCCCCEC3F3373333333333B0FC3333333333330940C80D069014090341504901A1999999999
310
9984A040100006180400800061804010000618008098A02808
340
0
340
0
 94
        0
  0
ACAD_PROXY_OBJECT
  5
1B698
330
1B691
100
AcDbProxyObject
 90
      499
 91
      561
 95
       25
 70
     0
 93
     3042
310
5DD9740D29254D064A49535F413342929254D7D512551311505134A49535F42525F5265766973696F6E6C6973744190F4134522028323937783231306D6D2941D29254D7D04D1490E41312028353934783834316D6D2941929254D7D04C50F41344C2028323130783239376D6D2941D29254D7D04D1310E413320283239377
310
83432306D6D2941929254D7D04CD0E41322028343230783539346D6D2941929254D7D04C90F4130202838343178313138396D6D2941929254D7D04C10243129254C82557247A25E4C81050A4A49535F5449544C454143129254C82557247A25E4C81090A4A49535F5449544C45424110E979A97F0838A835883675F42525F4
310
4D29254D7D09497D4995D9A5CDA5BDB9B1A5CDD10E979A97F0838A835883675F54525F44D29254D7D51497D4995D9A5CDA5BDB9B1A5CDD10E979A97F0838A835883675F424C5F44D29254D7D09317D4995D9A5CDA5BDB9B1A5CDD10E979A97F0838A835883675F544C5F44D29254D7D51317D4995D9A5CDA5BDB9B1A5CDD00
  0
ACAD_PROXY_OBJECT
  5
1B699
330
1B691
100
AcDbProxyObject
 90
      499
 91
      562
 95
       25
 70
     0
 93
      898
310
5DC4000000000000124048CF4F11115510525317D3105091530F880A0F11115510525317D05094D4D0D053114F8A50241C9A9999999999B93F26A666666666724FC000000000000E03F400000000000000400000000000000510000000000000024408070000C300000000000000049000
340
16
340
180
 94
        0
  0
ACAD_PROXY_OBJECT
  5
1B69A
330
1B691
100
AcDbProxyObject
 90
      499
 91
      563
 95
       25
 70
     0
 93
      823
310
5DC0B00000000000002480959E9E29A2A1AA24A7A72FA620A122A62FA324A929AA1F169E29A2A1AA24A7A72FA620A122A62FA620A9AA1F000000000000048803FFFE01C00030C008140380006180000000000000048800000000000000A2000000000000002480
340
652
340
180
 94
        0
  0
ACAD_PROXY_OBJECT
  5
1B69B
330
1B691
100
AcDbProxyObject
 90
      499
 91
      564
 95
       25
 70
     0
 93
      152
310
5DE8273108AC1C5A0640A3D0A5723F0BD1F200
  0
ACAD_PROXY_OBJECT
  5
1B69C
330
1B691
100
AcDbProxyObject
 90
      499
 91
      565
 95
       25
 70
     0
 93
       14
310
5DE0
340
0
 94
        0
  0
ACAD_PROXY_OBJECT
  5
1B69D
330
1B691
100
AcDbProxyObject
 90
      499
 91
      566
 95
       25
 70
     0
 93
     6059
310
5DD084050BA4050AA405024050E836583938376838C815B83672031405983D3C486F6C653A6469613E3C696628657175616C28486F6C653A7465726D696E6174696F6E2C223022292C2220905B82B320222C22208368838A838B22293E3C696628657175616C28486F6C653A7465726D696E6174696F6E2C223022292C486F
310
6C653A64657074682C2222293E2C203C486F6C653A63746469613E2082B482AE82E882CC905B82B3203C486F6C653A637464657074683E406901405034050E836583938376838C815B83672031405EF3D3C486F6C653A6374616E676C653E252564202525633C486F6C653A63746469613E208E4D8C8A2C203C69662865717
310
5616C28486F6C653A7461707065642C223022292C22252563222C486F6C653A6E6F6D696E616C202220782022293E3C696628657175616C28486F6C653A7461707065642C223022292C486F6C653A6469612C486F6C653A706974636864657363293E203C696628657175616C28486F6C653A7465726D696E6174696F6E2C2
310
23022292C22905B82B320222C222022293E3C696628657175616C28486F6C653A7465726D696E6174696F6E2C223022292C486F6C653A64657074682C2222293E406901405014050E836583938376838C815B83672031405C73D3C696628657175616C28486F6C653A7461707065642C223022292C22252563222C486F6C65
310
3A6E6F6D696E616C202220782022293E3C696628657175616C28486F6C653A7461707065642C223022292C486F6C653A6469612C486F6C653A706974636864657363293E203C696628657175616C28486F6C653A7465726D696E6174696F6E2C223022292C22905B82B320222C222022293E3C696628657175616C28486F6C
310
653A7465726D696E6174696F6E2C223022292C486F6C653A64657074682C2222293E4069014051E4090E836583938376838C815B83672032405173D3C535444503A444553433E203C535444503A5354443E40690E836583938376838C815B836720314050C3D3C535444503A444553433E40690240515AAABBA120
360
1B69E
330
1B69E
360
1B69F
330
1B69F
360
1B6A0
330
1B6A0
360
1B6A1
360
1B6A2
330
1B6A1
330
1B6A2
 94
        0
  0
ACAD_PROXY_OBJECT
  5
1B6A3
330
1B691
100
AcDbProxyObject
 90
      499
 91
      568
 95
       25
 70
     0
 93
       26
310
5DD02A80
340
0
 94
        0
  0
ACAD_PROXY_OBJECT
  5
1B6A4
330
1B691
100
AcDbProxyObject
 90
      499
 91
      569
 95
       25
 70
     0
 93
      250
310
5DD020000000000000A1000000000000002440408F0F9023C3E409A0DCFFFF80
340
58
340
1B97
340
1B98
340
5F
340
60
340
61
340
62
340
63
340
68
340
0
 94
        0
  0
ACAD_PROXY_OBJECT
  5
1B6A5
330
1B691
100
AcDbProxyObject
 90
      499
 91
      570
 95
       25
 70
     0
 93
    13889
310
5DD1D003FFFFFFFD030300030CCCCCCCCCCCC250200800030C01030300030CCCCCCCCCCCC250200800030C00050C8DC0955782CC838A83588367014ED1D15395149050D3CB1294138B0C0B23702555E0B320E2A0D620D9CB11D15395149055160B095CCB0A11D1539354D1C819D95B991A5B5E880CCC0A78000C0000000000
310
00000000000000000000010CCCCCCCCCCCC250200800030C010CCCCCCCCCCCC250200800030C020143CF4F111959985D5B1D151A5D1B194F8050A8C8A8365815B8375838B014E51D15395149050D3CB1294138B0C0B2322A0D96056E0DD60E2CB11D15395149055160B095CCB0A11D1539354D1C819D95B991A5B5E880CCC4
310
A78000C000000000000000000000000000000010CCCCCCCCCCCC250200800030C010CCCCCCCCCCCC250200800030C020143CF4F111959985D5B1D151A5D1B194F90D44111409034110541D0C4350F4050E44D03449074510F000141232D24D7C053247454E545241434F2C4A504E2C302C8CB4935F2C47454E54524154582C
310
25732C2847454E4D53472067656E64696D7A20312900010104002214000281464500A608E8A9CA8A482869E5894A09C5860591914588E8A9CA8A482A8B0584AE658508E8A9C9AA68E40CECADCC8D2DAF4406452029E9E9E27B934B3B4B71F1E24A31427A91424A9A12620A7259427B934B3B4B7149624A9A12620A7259424B
310
A32B6949496111116111711149F1E24BA32B69F00808200111A000140560052F47454E545241434F2C4A504E2C302C582C47454E54524154582C25732C2847454E4D53472067656E64696D7A20332900010100002054000280AC80A5E8E8A9CA8A482869E5894A09C586058B2588E8A9CA8A482A8B0584AE658508E8A9C9AA
310
68E40CECADCC8D2DAF4406852000202000040E800050152014BD1D15395149050D3CB1294138B0C0B148B11D15395149055160B095CCB0A11D1539354D1C819D95B991A5B5E880D8A400040400008250000A0507A6029823A2A72A2920A1A79625282716181641E99623A2A72A2920AA2C1612B9961423A2A726A9A39033B2
310
B73234B6BD101B948000808180105A000140A0F4C053047454E545241434F2C4A504E2C302C83D32C47454E54524154582C25732C2847454E4D53472067656E64696D7A203829000101010020F400028248704B5F00A668E8A9CA8A482869E5894A09C58605921C12D7C588E8A9CA8A482A8B0584AE658508E8A9C9AA68E40
310
CECADCC8D2DAF440646052000200080043280005048B4B8A69014CD1D15395149050D3CB1294138B0C0B22D2E29A4B11D15395149055160B095CCB0A11D1539354D1C819D95B991A5B5E880C8C4A4000400100086D0000A09196926BE029923A2A72A2920A1A796252827161816465A49AF9623A2A72A2920AA2C1612B9961
310
423A2A726A9A39033B2B73234B6BD10189480A02620202080043E80005048D8096DA014CD1D15395149050D3CB1294138B0C0B236025B68B11D15395149055160B095CCB0A11D1539354D1C819D95B991A5B5E880C4D0A4000404140280D0000A190687072706CD06C5069D06B0029DA3A2A72A2920A1A7962528271618164
310
1A1C1C9C1B341B141A741AC1623A2A72A2920AA2C1612B9961423A2A726A9A39033B2B73234B6BD10189A94800080820050EA000143A322A0D0E0E4E0D9A0D8A0D3A0D60053D47454E545241434F2C4A504E2C302C8C8A8343839383668362834E83582C47454E54524154582C25732C2847454E4D53472067656E64696D7A
310
2031372900010105002274000281464500A628E8A9CA8A482869E5894A09C5860591914588E8A9CA8A482A8B0584AE658508E8A9C9AA68E40CECADCC8D2DAF440626C52000202080044A8000504909497CA014CD1D15395149050D3CB1294138B0C0B242525F28B11D15395149055160B095CCB0A11D1539354D1C819D95B9
310
91A5B5E880C4E4A400040418008A521E000000000000001CA040C00000000000034408080000000000006881010000000000000D102040000000000001A204080000000000003440818000000000000728103000000000000125020600000000004028A040000000000000034408000000000000004881000000000000000D
310
102000000000000001A204000000000000003440818000000000000508143C0000000000000039408180000000000006881030000000000000D102060000000000001A2040C00000000000034408180000000000006881030000000000000E5020600000000000024A040C0000000000805140800000000000000688100000
310
00000000009102000000000000001A2040000000000000034408180000000000006881030000000000000A10284220000000878000002020000008380000020400000081800000208000000828000002028900000000
340
0
340
0
340
0
340
0
340
180
340
180
 94
        0
  0
ACAD_PROXY_OBJECT
  5
1B374
330
1B370
100
AcDbProxyObject
 90
      499
 91
      567
 95
       25
 70
     0
 93
     2680
310
5DE0143A0D960E4E0DDA0E32056E0D9C80C4043A013D2525633C486F6C653A63746469613E2078203C486F6C653A637464657074683E20555C503C696628657175616C28486F6C653A7461707065642C223022292C22252563222C486F6C653A6E6F6D696E616C202220782022293E3C696628657175616C28486F6C653A74
310
61707065642C223022292C486F6C653A6469612C486F6C653A706974636864657363293E3C696628657175616C28486F6C653A7461707065642C223122292C22207820222C2222293E3C696628657175616C28486F6C653A7461707065642C223122292C486F6C653A74617064657074682C2222293E203C69662865717561
310
6C28486F6C653A7465726D696E6174696F6E2C223022292C22202F20222C2222293E3C696628657175616C28486F6C653A7465726D696E6174696F6E2C223022292C486F6C653A64657074682C2222293E
  0
ACAD_PROXY_OBJECT
  5
1B375
330
1B370
100
AcDbProxyObject
 90
      499
 91
      567
 95
       25
 70
     0
 93
     2688
310
5DE0143A0D960E4E0DDA0E32056E0D9C80C4043B013D2525633C486F6C653A63746469613E2078203C486F6C653A6374616E676C653E2525645C503C696628657175616C28486F6C653A7461707065642C223022292C22252563222C486F6C653A6E6F6D696E616C202220782022293E3C696628657175616C28486F6C653A
310
7461707065642C223022292C486F6C653A6469612C486F6C653A706974636864657363293E3C696628657175616C28486F6C653A7461707065642C223122292C22207820222C2222293E3C696628657175616C28486F6C653A7461707065642C223122292C486F6C653A74617064657074682C2222293E203C696628657175
310
616C28486F6C653A7465726D696E6174696F6E2C223022292C22202F20222C2222293E3C696628657175616C28486F6C653A7465726D696E6174696F6E2C223022292C486F6C653A64657074682C2222293E
  0
ACAD_PROXY_OBJECT
  5
1B373
330
1B370
100
AcDbProxyObject
 90
      499
 91
      567
 95
       25
 70
     0
 93
     2392
310
5DE0143A0D960E4E0DDA0E32056E0D9C80C40416013D3C696628657175616C28486F6C653A7461707065642C223022292C22252563222C486F6C653A6E6F6D696E616C202220782022293E3C696628657175616C28486F6C653A7461707065642C223022292C486F6C653A6469612C486F6C653A706974636864657363293E
310
3C696628657175616C28486F6C653A7461707065642C223122292C22207820222C2222293E3C696628657175616C28486F6C653A7461707065642C223122292C486F6C653A74617064657074682C2222293E203C696628657175616C28486F6C653A7465726D696E6174696F6E2C223022292C22202F20222C2222293E3C69
310
6628657175616C28486F6C653A7465726D696E6174696F6E2C223022292C486F6C653A64657074682C2222293E
  0
ACAD_PROXY_OBJECT
  5
1B372
330
1B370
100
AcDbProxyObject
 90
      499
 91
      567
 95
       25
 70
     0
 93
      344
310
5DE0143A0D960E4E0DDA0E32056E0D9C80C805173D3C535444503A444553433E203C535444503A5354443E
  0
ACAD_PROXY_OBJECT
  5
1B371
330
1B370
100
AcDbProxyObject
 90
      499
 91
      567
 95
       25
 70
     0
 93
      256
310
5DE0143A0D960E4E0DDA0E32056E0D9C80C4050C3D3C535444503A444553433E
  0
ACAD_PROXY_OBJECT
  5
1B69E
330
1B69D
100
AcDbProxyObject
 90
      499
 91
      567
 95
       25
 70
     0
 93
     1376
310
5DE0143A0D960E4E0DDA0E32056E0D9C80C405983D3C486F6C653A6469613E3C696628657175616C28486F6C653A7465726D696E6174696F6E2C223022292C2220905B82B320222C22208368838A838B22293E3C696628657175616C28486F6C653A7465726D696E6174696F6E2C223022292C486F6C653A64657074682C22
310
22293E2C203C486F6C653A63746469613E2082B482AE82E882CC905B82B3203C486F6C653A637464657074683E
  0
ACAD_PROXY_OBJECT
  5
1B69F
330
1B69D
100
AcDbProxyObject
 90
      499
 91
      567
 95
       25
 70
     0
 93
     2072
310
5DE0143A0D960E4E0DDA0E32056E0D9C80C405EF3D3C486F6C653A6374616E676C653E252564202525633C486F6C653A63746469613E208E4D8C8A2C203C696628657175616C28486F6C653A7461707065642C223022292C22252563222C486F6C653A6E6F6D696E616C202220782022293E3C696628657175616C28486F6C
310
653A7461707065642C223022292C486F6C653A6469612C486F6C653A706974636864657363293E203C696628657175616C28486F6C653A7465726D696E6174696F6E2C223022292C22905B82B320222C222022293E3C696628657175616C28486F6C653A7465726D696E6174696F6E2C223022292C486F6C653A6465707468
310
2C2222293E
  0
ACAD_PROXY_OBJECT
  5
1B6A0
330
1B69D
100
AcDbProxyObject
 90
      499
 91
      567
 95
       25
 70
     0
 93
     1752
310
5DE0143A0D960E4E0DDA0E32056E0D9C80C405C73D3C696628657175616C28486F6C653A7461707065642C223022292C22252563222C486F6C653A6E6F6D696E616C202220782022293E3C696628657175616C28486F6C653A7461707065642C223022292C486F6C653A6469612C486F6C653A706974636864657363293E20
310
3C696628657175616C28486F6C653A7465726D696E6174696F6E2C223022292C22905B82B320222C222022293E3C696628657175616C28486F6C653A7465726D696E6174696F6E2C223022292C486F6C653A64657074682C2222293E
  0
ACAD_PROXY_OBJECT
  5
1B6A1
330
1B69D
100
AcDbProxyObject
 90
      499
 91
      567
 95
       25
 70
     0
 93
      344
310
5DE0143A0D960E4E0DDA0E32056E0D9C80C805173D3C535444503A444553433E203C535444503A5354443E
  0
ACAD_PROXY_OBJECT
  5
1B6A2
330
1B69D
100
AcDbProxyObject
 90
      499
 91
      567
 95
       25
 70
     0
 93
      256
310
5DE0143A0D960E4E0DDA0E32056E0D9C80C4050C3D3C535444503A444553433E
  0
ENDSEC
  0
EOF
