  0
SECTION
  2
HEADER
  9
$ACADVER
  1
AC1015
  9
$ACADMAINTVER
 70
     6
  9
$DWGCODEPAGE
  3
ANSI_932
  9
$INSBASE
 10
0.0
 20
0.0
 30
0.0
  9
$EXTMIN
 10
-88.73075762522049
 20
-117.207693407236
 30
0.0
  9
$EXTMAX
 10
206.7511956964343
 20
33.57292500201996
 30
0.0
  9
$LIMMIN
 10
0.0
 20
0.0
  9
$LIMMAX
 10
420.0
 20
297.0
  9
$ORTHOMODE
 70
     0
  9
$REGENMODE
 70
     1
  9
$FILLMODE
 70
     1
  9
$QTEXTMODE
 70
     0
  9
$MIRRTEXT
 70
     1
  9
$LTSCALE
 40
1.0
  9
$ATTMODE
 70
     1
  9
$TEXTSIZE
 40
4.0
  9
$TRACEWID
 40
1.0
  9
$TEXTSTYLE
  7
STANDARD
  9
$CLAYER
  8
AM_0
  9
$CELTYPE
  6
ByLayer
  9
$CECOLOR
 62
   256
  9
$CELTSCALE
 40
1.0
  9
$DISPSILH
 70
     0
  9
$DIMSCALE
 40
1.0
  9
$DIMASZ
 40
2.5
  9
$DIMEXO
 40
0.0
  9
$DIMDLI
 40
10.0
  9
$DIMRND
 40
0.0
  9
$DIMDLE
 40
0.0
  9
$DIMEXE
 40
1.0
  9
$DIMTP
 40
0.1
  9
$DIMTM
 40
0.1000000001
  9
$DIMTXT
 40
3.8
  9
$DIMCEN
 40
0.0
  9
$DIMTSZ
 40
0.0
  9
$DIMTOL
 70
     0
  9
$DIMLIM
 70
     0
  9
$DIMTIH
 70
     0
  9
$DIMTOH
 70
     0
  9
$DIMSE1
 70
     0
  9
$DIMSE2
 70
     0
  9
$DIMTAD
 70
     3
  9
$DIMZIN
 70
     1
  9
$DIMBLK
  1
Open30
  9
$DIMASO
 70
     1
  9
$DIMSHO
 70
     1
  9
$DIMPOST
  1

  9
$DIMAPOST
  1
"
  9
$DIMALT
 70
     0
  9
$DIMALTD
 70
     2
  9
$DIMALTF
 40
0.0393701
  9
$DIMLFAC
 40
1.0
  9
$DIMTOFL
 70
     1
  9
$DIMTVP
 40
0.0
  9
$DIMTIX
 70
     0
  9
$DIMSOXD
 70
     0
  9
$DIMSAH
 70
     0
  9
$DIMBLK1
  1

  9
$DIMBLK2
  1

  9
$DIMSTYLE
  2
AM_JIS
  9
$DIMCLRD
 70
   256
  9
$DIMCLRE
 70
   256
  9
$DIMCLRT
 70
     2
  9
$DIMTFAC
 40
0.71
  9
$DIMGAP
 40
1.5
  9
$DIMJUST
 70
     0
  9
$DIMSD1
 70
     0
  9
$DIMSD2
 70
     0
  9
$DIMTOLJ
 70
     0
  9
$DIMTZIN
 70
     8
  9
$DIMALTZ
 70
     0
  9
$DIMALTTZ
 70
     0
  9
$DIMUPT
 70
     0
  9
$DIMDEC
 70
     0
  9
$DIMTDEC
 70
     3
  9
$DIMALTU
 70
     2
  9
$DIMALTTD
 70
     2
  9
$DIMTXSTY
  7
STANDARD
  9
$DIMAUNIT
 70
     1
  9
$DIMADEC
 70
     0
  9
$DIMALTRND
 40
0.0
  9
$DIMAZIN
 70
     2
  9
$DIMDSEP
 70
    46
  9
$DIMATFIT
 70
     3
  9
$DIMFRAC
 70
     0
  9
$DIMLDRBLK
  1
Open30
  9
$DIMLUNIT
 70
     2
  9
$DIMLWD
 70
    -1
  9
$DIMLWE
 70
    -1
  9
$DIMTMOVE
 70
     0
  9
$LUNITS
 70
     2
  9
$LUPREC
 70
     4
  9
$SKETCHINC
 40
1.0
  9
$FILLETRAD
 40
0.2
  9
$AUNITS
 70
     0
  9
$AUPREC
 70
     4
  9
$MENU
  1
.
  9
$ELEVATION
 40
0.0
  9
$PELEVATION
 40
0.0
  9
$THICKNESS
 40
0.0
  9
$LIMCHECK
 70
     0
  9
$CHAMFERA
 40
2.0
  9
$CHAMFERB
 40
2.0
  9
$CHAMFERC
 40
20.0
  9
$CHAMFERD
 40
0.0
  9
$SKPOLY
 70
     0
  9
$TDCREATE
 40
2451943.610431667
  9
$TDUCREATE
 40
2451943.235431667
  9
$TDUPDATE
 40
2455482.599990405
  9
$TDUUPDATE
 40
2455482.224990405
  9
$TDINDWG
 40
1.5371218056
  9
$TDUSRTIMER
 40
1.5371216319
  9
$USRTIMER
 70
     1
  9
$ANGBASE
 50
0.0
  9
$ANGDIR
 70
     0
  9
$PDMODE
 70
     0
  9
$PDSIZE
 40
0.0
  9
$PLINEWID
 40
0.0
  9
$SPLFRAME
 70
     0
  9
$SPLINETYPE
 70
     6
  9
$SPLINESEGS
 70
     8
  9
$HANDSEED
  5
169FB
  9
$SURFTAB1
 70
     6
  9
$SURFTAB2
 70
     6
  9
$SURFTYPE
 70
     6
  9
$SURFU
 70
     6
  9
$SURFV
 70
     6
  9
$UCSBASE
  2

  9
$UCSNAME
  2

  9
$UCSORG
 10
0.0
 20
0.0
 30
0.0
  9
$UCSXDIR
 10
1.0
 20
0.0
 30
0.0
  9
$UCSYDIR
 10
0.0
 20
1.0
 30
0.0
  9
$UCSORTHOREF
  2

  9
$UCSORTHOVIEW
 70
     0
  9
$UCSORGTOP
 10
0.0
 20
0.0
 30
0.0
  9
$UCSORGBOTTOM
 10
0.0
 20
0.0
 30
0.0
  9
$UCSORGLEFT
 10
0.0
 20
0.0
 30
0.0
  9
$UCSORGRIGHT
 10
0.0
 20
0.0
 30
0.0
  9
$UCSORGFRONT
 10
0.0
 20
0.0
 30
0.0
  9
$UCSORGBACK
 10
0.0
 20
0.0
 30
0.0
  9
$PUCSBASE
  2

  9
$PUCSNAME
  2

  9
$PUCSORG
 10
0.0
 20
0.0
 30
0.0
  9
$PUCSXDIR
 10
1.0
 20
0.0
 30
0.0
  9
$PUCSYDIR
 10
0.0
 20
1.0
 30
0.0
  9
$PUCSORTHOREF
  2

  9
$PUCSORTHOVIEW
 70
     0
  9
$PUCSORGTOP
 10
0.0
 20
0.0
 30
0.0
  9
$PUCSORGBOTTOM
 10
0.0
 20
0.0
 30
0.0
  9
$PUCSORGLEFT
 10
0.0
 20
0.0
 30
0.0
  9
$PUCSORGRIGHT
 10
0.0
 20
0.0
 30
0.0
  9
$PUCSORGFRONT
 10
0.0
 20
0.0
 30
0.0
  9
$PUCSORGBACK
 10
0.0
 20
0.0
 30
0.0
  9
$USERI1
 70
     0
  9
$USERI2
 70
     0
  9
$USERI3
 70
     0
  9
$USERI4
 70
     0
  9
$USERI5
 70
     0
  9
$USERR1
 40
0.0
  9
$USERR2
 40
0.0
  9
$USERR3
 40
0.0
  9
$USERR4
 40
0.0
  9
$USERR5
 40
0.0
  9
$WORLDVIEW
 70
     1
  9
$SHADEDGE
 70
     3
  9
$SHADEDIF
 70
    70
  9
$TILEMODE
 70
     1
  9
$MAXACTVP
 70
    64
  9
$PINSBASE
 10
0.0
 20
0.0
 30
0.0
  9
$PLIMCHECK
 70
     0
  9
$PEXTMIN
 10
1.000000000000000E+20
 20
1.000000000000000E+20
 30
1.000000000000000E+20
  9
$PEXTMAX
 10
-1.000000000000000E+20
 20
-1.000000000000000E+20
 30
-1.000000000000000E+20
  9
$PLIMMIN
 10
0.0
 20
0.0
  9
$PLIMMAX
 10
420.0
 20
297.0
  9
$UNITMODE
 70
     0
  9
$VISRETAIN
 70
     1
  9
$PLINEGEN
 70
     0
  9
$PSLTSCALE
 70
     1
  9
$TREEDEPTH
 70
  3020
  9
$CMLSTYLE
  2
Standard
  9
$CMLJUST
 70
     0
  9
$CMLSCALE
 40
20.0
  9
$PROXYGRAPHICS
 70
     1
  9
$MEASUREMENT
 70
     1
  9
$CELWEIGHT
370
    -1
  9
$ENDCAPS
280
     0
  9
$JOINSTYLE
280
     0
  9
$LWDISPLAY
290
     0
  9
$INSUNITS
 70
     4
  9
$HYPERLINKBASE
  1

  9
$STYLESHEET
  1
sei_cad.ctb
  9
$XEDIT
290
     1
  9
$CEPSNTYPE
380
     0
  9
$PSTYLEMODE
290
     1
  9
$FINGERPRINTGUID
  2
{C77AB3BE-9CA2-11D3-BAF3-006094EB760E}
  9
$VERSIONGUID
  2
{FAFBCF19-D41E-4DA7-B0DE-9C9440131A0D}
  9
$EXTNAMES
290
     1
  9
$PSVPSCALE
 40
0.0
  9
$OLESTARTUP
290
     0
  0
ENDSEC
  0
SECTION
  2
CLASSES
  0
CLASS
  1
ACDBDICTIONARYWDFLT
  2
AcDbDictionaryWithDefault
  3
ObjectDBX Classes
 90
        0
280
     0
281
     0
  0
CLASS
  1
ACDBPLACEHOLDER
  2
AcDbPlaceHolder
  3
ObjectDBX Classes
 90
        0
280
     0
281
     0
  0
CLASS
  1
LAYOUT
  2
AcDbLayout
  3
ObjectDBX Classes
 90
        0
280
     0
281
     0
  0
CLASS
  1
ACME_DOCUMENT
  2
AcMeDbDoc
  3
AcMeServices
 90
        0
280
     1
281
     0
  0
CLASS
  1
ACMESCOPE
  2
AcMeScope
  3
AcMeServices
 90
        0
280
     1
281
     0
  0
CLASS
  1
ACMECOMMANDHISTORY
  2
AcMeCommandHistory
  3
AcMeServices
 90
        0
280
     1
281
     0
  0
CLASS
  1
DICTIONARYVAR
  2
AcDbDictionaryVar
  3
ObjectDBX Classes
 90
        0
280
     0
281
     0
  0
CLASS
  1
ACIMSYSVARMAN
  2
AcImSysVarManager
  3
AcMeServices
 90
        0
280
     1
281
     0
  0
CLASS
  1
ACIMREALSYSVAR
  2
AcImRealSysVar
  3
AcMeServices
 90
        0
280
     1
281
     0
  0
CLASS
  1
ACIMINTSYSVAR
  2
AcImIntSysVar
  3
AcMeServices
 90
        0
280
     1
281
     0
  0
CLASS
  1
ACMEDRAWINGMAN
  2
AcMeDrawingMan
  3
AcMeServices
 90
        0
280
     1
281
     0
  0
CLASS
  1
ACMEVIEW
  2
AcMeView
  3
AcMeServices
 90
        0
280
     1
281
     0
  0
CLASS
  1
ACDBENTITYCACHE
  2
AcMeEntityCache
  3
AcMeServices
 90
        0
280
     1
281
     0
  0
CLASS
  1
GSMANAGER
  2
AcMeGSManager
  3
AcMeServices
 90
        0
280
     1
281
     0
  0
CLASS
  1
AMDTINTERNALREACTOR
  2
AmdtInternalReactor
  3
AcMeServices
 90
        0
280
     1
281
     0
  0
CLASS
  1
ACMESTATEMGR
  2
AcMeStateMgr
  3
AcMeServices
 90
        0
280
     1
281
     0
  0
CLASS
  1
ACME_DATABASE
  2
AcMeDbDatabase
  3
AcMeServices
 90
        0
280
     1
281
     0
  0
CLASS
  1
ACRFINSADJUSTERMGR
  2
AcRfInsAdjusterMgr
  3
AcMeServices
 90
        0
280
     1
281
     0
  0
CLASS
  1
AMGSETTINGSOBJ
  2
AmgSettingsObj
  3
"AcadM|Product Description: AutoCAD Mechanical 2000|Company: Autodesk"
 90
        0
280
     1
281
     0
  0
CLASS
  1
AMGOBJPROPCFG
  2
AmgObjPropCfg
  3
"AmgLay|Product Description: AutoCAD Mechanical 2000|Company: Autodesk"
 90
        1
280
     1
281
     0
  0
CLASS
  1
ACMDATADICTIONARY
  2
AcmDataDictionary
  3
"AcmSymBB|Product Description: AutoCAD Mechanical 2004 DX|Company: Autodesk"
 90
        0
280
     1
281
     0
  0
CLASS
  1
ACMDATAENTRYBLOCK
  2
AcmDataEntryBlock
  3
"AcmSymBB|Product Description: AutoCAD Mechanical 2004 DX|Company: Autodesk"
 90
        0
280
     1
281
     0
  0
CLASS
  1
ACIMSTRSYSVAR
  2
AcImStrSysVar
  3
AcMeServices
 90
        0
280
     1
281
     0
  0
CLASS
  1
ACAMGFILTERDAT
  2
AcAmgFilterDat
  3
"AcadM|Product Description: AutoCAD Mechanical 2000|Company: Autodesk"
 90
        0
280
     1
281
     0
  0
CLASS
  1
LAYER_INDEX
  2
AcDbLayerIndex
  3
ObjectDBX Classes
 90
        0
280
     0
281
     0
  0
CLASS
  1
IDBUFFER
  2
AcDbIdBuffer
  3
ObjectDBX Classes
 90
        0
280
     0
281
     0
  0
CLASS
  1
ACMSTANDARDJIS
  2
AcmStandardJIS
  3
"Amdt_StdImp|Product Description: AutoCAD Mechanical 2004 DX|Company: Autodesk"
 90
        0
280
     1
281
     0
  0
CLASS
  1
ACMSURFSTANDARDJIS
  2
AcmSurfTextStdJIS
  3
"Amdt_StdImp|Product Description: AutoCAD Mechanical 2004 DX|Company: Autodesk"
 90
        0
280
     1
281
     0
  0
CLASS
  1
ACMFCFSTANDARDJIS
  2
AcmFCFStdJIS
  3
"Amdt_StdImp|Product Description: AutoCAD Mechanical 2004 DX|Company: Autodesk"
 90
        0
280
     1
281
     0
  0
CLASS
  1
ACMWELDSTANDARDJIS
  2
AcmWeldingStdJIS
  3
"Amdt_StdImp|Product Description: AutoCAD Mechanical 2004 DX|Company: Autodesk"
 90
        0
280
     1
281
     0
  0
CLASS
  1
ACMIDSTANDARDJIS
  2
AcmIdStdJIS
  3
"Amdt_StdImp|Product Description: AutoCAD Mechanical 2004 DX|Company: Autodesk"
 90
        0
280
     1
281
     0
  0
CLASS
  1
ACMDATUMSTANDARDJIS
  2
AcmDatumStdJIS
  3
"Amdt_StdImp|Product Description: AutoCAD Mechanical 2004 DX|Company: Autodesk"
 90
        0
280
     1
281
     0
  0
CLASS
  1
ACMBOMSTANDARDJIS
  2
AcmBOMStdJIS
  3
"Amdt_StdImp|Product Description: AutoCAD Mechanical 2004 DX|Company: Autodesk"
 90
        0
280
     1
281
     0
  0
CLASS
  1
AMDTNOTE
  2
AmdtNote
  3
"AcmSymBB|Product Description: AutoCAD Mechanical 2004 DX|Company: Autodesk"
 90
     1023
280
     1
281
     1
  0
CLASS
  1
TABLESTYLE
  2
AcDbTableStyle
  3
ObjectDBX Classes
 90
     2047
280
     0
281
     0
  0
CLASS
  1
ACGREFMASTER
  2
AcGrefMaster
  3
AcAttribServices
 90
        0
280
     1
281
     0
  0
CLASS
  1
AM_DRAWING_MGR
  2
AcDmDwgMgr
  3
AcMechDwgViewMgmt
 90
        0
280
     1
281
     0
  0
CLASS
  1
AM_DWG_DOCUMENT
  2
AcDmDwgDocument
  3
AcMechDwgViewMgmt
 90
        0
280
     1
281
     0
  0
CLASS
  1
AM_DWG_SHEET
  2
AcDmSheet
  3
AcMechDwgViewMgmt
 90
        0
280
     1
281
     0
  0
CLASS
  1
AM_VIEWDIMPARMAP
  2
AcDmViewDimParMap
  3
AcMechDwgViewMgmt
 90
        0
280
     1
281
     0
  0
CLASS
  1
AM_DWGMGR_NAME
  2
AcDmDwgMgrName
  3
AcMechDwgViewMgmt
 90
        0
280
     1
281
     0
  0
CLASS
  1
ACGREFACADMASTER
  2
AcGrefacadMaster
  3
AcGrefServices
 90
        0
280
     1
281
     0
  0
CLASS
  1
AMDTMENUSTATEMGR
  2
AmdtMenuStateMgr
  3
McadcomServices
 90
        0
280
     1
281
     0
  0
CLASS
  1
AMDTMCOMMENUSTATE
  2
AmdtMcomMenuState
  3
McadcomServices
 90
        0
280
     1
281
     0
  0
CLASS
  1
AMIMASTER
  2
AmiMaster
  3
AmiServices
 90
        0
280
     1
281
     0
  0
CLASS
  1
MAPIAMMOUDLE
  2
MApiAmModule
  3
MApiAmServices
 90
        0
280
     1
281
     0
  0
CLASS
  1
AMDTADMENUSTATE
  2
AmdtAdMenuState
  3
DesignerServices
 90
        0
280
     1
281
     0
  0
CLASS
  1
ADAPPL
  2
AcAdAppl
  3
DesignerServices
 90
        0
280
     1
281
     0
  0
CLASS
  1
DEPMGR
  2
AcAdDepMgr
  3
DesignerServices
 90
        0
280
     1
281
     0
  0
CLASS
  1
PARAMMGR
  2
AcAdParamMgr
  3
DesignerServices
 90
        0
280
     1
281
     0
  0
CLASS
  1
PARAMSCOPE
  2
AcAdParamScope
  3
DesignerServices
 90
        0
280
     1
281
     0
  0
CLASS
  1
NAMEDAPPL
  2
AcAdNamedAppl
  3
DesignerServices
 90
        0
280
     1
281
     0
  0
CLASS
  1
AMDTDMMENUSTATE
  2
AmdtDmMenuState
  3
AcMechDwgViewMgmt
 90
        0
280
     1
281
     0
  0
CLASS
  1
AMDTAMMENUSTATE
  2
AmdtAmMenuState
  3
DesignerAssemblies
 90
        0
280
     1
281
     0
  0
CLASS
  1
ACAMPROJECT
  2
AcAmProject
  3
DesignerAssemblies
 90
        0
280
     1
281
     0
  0
CLASS
  1
ACAMGRCOMPDEF
  2
AcAmGrCompDef
  3
DesignerAssemblies
 90
        0
280
     1
281
     0
  0
CLASS
  1
ACCMCONTEXT
  2
AcCmContext
  3
DesignerAssemblies
 90
        0
280
     1
281
     0
  0
CLASS
  1
ACAMCOMPDEF
  2
AcAmCompDef
  3
DesignerAssemblies
 90
        0
280
     1
281
     0
  0
CLASS
  1
ACAMCOMPDEFMGR
  2
AcAmCompDefMgr
  3
DesignerAssemblies
 90
        0
280
     1
281
     0
  0
CLASS
  1
AMCONTEXTMGR
  2
AcAmContextMgr
  3
DesignerAssemblies
 90
        0
280
     1
281
     0
  0
CLASS
  1
ACAMCONTEXTMODELER
  2
AcAmContextModeler
  3
DesignerAssemblies
 90
        0
280
     1
281
     0
  0
CLASS
  1
ACAMGTITLESTD
  2
AcAmgTitleStd
  3
"TITLEAPP"
 90
        0
280
     1
281
     0
  0
CLASS
  1
ACMDETAILSTANDARDJIS
  2
AmdtDetailSymStdJIS
  3
"Amdt_StdImp|Product Description: AutoCAD Mechanical 2004 DX|Company: Autodesk"
 90
        0
280
     1
281
     0
  0
CLASS
  1
ACMSECTIONSTANDARDJIS
  2
AmdtSectionSymStdJIS
  3
"Amdt_StdImp|Product Description: AutoCAD Mechanical 2004 DX|Company: Autodesk"
 90
        0
280
     1
281
     0
  0
CLASS
  1
ACMCENTERLINESTANDARDJIS
  2
AmdtCenterLineStdJIS
  3
"Amdt_StdImp|Product Description: AutoCAD Mechanical 2004 DX|Company: Autodesk"
 90
        0
280
     1
281
     0
  0
CLASS
  1
ACMTHREADLINESTANDARDJIS
  2
AmdtThreadLineStdJIS
  3
"Amdt_StdImp|Product Description: AutoCAD Mechanical 2004 DX|Company: Autodesk"
 90
        0
280
     1
281
     0
  0
CLASS
  1
ACMNOTESTANDARDJIS
  2
AmdtNoteStdJIS
  3
"Amdt_StdImp|Product Description: AutoCAD Mechanical 2004 DX|Company: Autodesk"
 90
        0
280
     1
281
     0
  0
CLASS
  1
AMDTNOTETEMPLATEDB
  2
AmdtNoteTemplateDB
  3
AMDT_STDIMP_MODULE_NAME
 90
        0
280
     1
281
     0
  0
CLASS
  1
ACAMGLAYSTD
  2
AcAmgLayStd
  3
"AcAmgLayStd|Product Description: AutoCAD Mechanical 2000|Company: Autodesk"
 90
        0
280
     1
281
     0
  0
CLASS
  1
ACAMGDIMSTD
  2
AcAmgDimStd
  3
"AcAmgDimStd|Product Description: AutoCAD Mechanical 2000|Company: Autodesk"
 90
        0
280
     1
281
     0
  0
CLASS
  1
ACAMGHOLECHARTSTDJIS
  2
AcAmgHoleChartStdJIS
  3
ACMSYMBB_MODULE_NAME
 90
        0
280
     1
281
     0
  0
CLASS
  1
CATALOGSTATE
  2
AcAmCatalogState
  3
DesignerAssemblies
 90
        0
280
     1
281
     0
  0
CLASS
  1
ACAMGRCOMPDEFSET
  2
AcAmGrCompDefSet
  3
DesignerAssemblies
 90
        0
280
     1
281
     0
  0
CLASS
  1
AMDTBROWSERDBTAB
  2
AmdtBrowserDbTab
  3
McadcomServices
 90
        0
280
     1
281
     0
  0
CLASS
  1
CBROWSERAPPOBJECT
  2
CBrowserAppObject
  3
McadcomServices
 90
        0
280
     1
281
     0
  0
CLASS
  1
DM_PLACEHOLDER
  2
AcDmSelsetPlaceholder
  3
AcMechDwgViewMgmt
 90
        0
280
     1
281
     0
  0
CLASS
  1
SORTENTSTABLE
  2
AcDbSortentsTable
  3
ObjectDBX Classes
 90
        0
280
     0
281
     0
  0
ENDSEC
  0
SECTION
  2
TABLES
  0
TABLE
  2
VPORT
  5
8
330
0
100
AcDbSymbolTable
 70
     4
  0
VPORT
  5
169F3
330
8
100
AcDbSymbolTableRecord
100
AcDbViewportTableRecord
  2
*Active
 70
     0
 10
0.0
 20
0.0
 11
1.0
 21
1.0
 12
80.63678181409941
 22
-49.60066523771258
 13
0.0
 23
0.0
 14
2.5
 24
2.5
 15
10.0
 25
10.0
 16
0.0
 26
0.0
 36
1.0
 17
0.0
 27
0.0
 37
0.0
 40
242.8300735323406
 41
1.610603290676417
 42
50.0
 43
0.0
 44
0.0
 50
0.0
 51
0.0
 71
    16
 72
  2000
 73
     1
 74
     3
 75
     0
 76
     0
 77
     0
 78
     0
281
     0
 65
     1
110
0.0
120
0.0
130
0.0
111
1.0
121
0.0
131
0.0
112
0.0
122
1.0
132
0.0
 79
     0
146
0.0
  0
ENDTAB
  0
TABLE
  2
LTYPE
  5
5
330
0
100
AcDbSymbolTable
 70
    13
  0
LTYPE
  5
14
330
5
100
AcDbSymbolTableRecord
100
AcDbLinetypeTableRecord
  2
ByBlock
 70
     0
  3

 72
    65
 73
     0
 40
0.0
  0
LTYPE
  5
15
330
5
100
AcDbSymbolTableRecord
100
AcDbLinetypeTableRecord
  2
ByLayer
 70
     0
  3

 72
    65
 73
     0
 40
0.0
  0
LTYPE
  5
16
330
5
100
AcDbSymbolTableRecord
100
AcDbLinetypeTableRecord
  2
Continuous
 70
     0
  3
Solid line
 72
    65
 73
     0
 40
0.0
  0
LTYPE
  5
43
330
5
100
AcDbSymbolTableRecord
100
AcDbLinetypeTableRecord
  2
AM_ISO02W050
 70
     0
  3
__ __ __ __ __ __ __ __ __ __ __ __ __ __ __
 72
    65
 73
     2
 40
7.5
 49
6.0
 74
     0
 49
-1.5
 74
     0
  0
LTYPE
  5
44
330
5
100
AcDbSymbolTableRecord
100
AcDbLinetypeTableRecord
  2
AM_ISO08W050
 70
     0
  3
____ . ____ . ____ . ____ . ____ . ____ . ____
 72
    65
 73
     4
 40
18.0
 49
12.0
 74
     0
 49
-1.5
 74
     0
 49
3.0
 74
     0
 49
-1.5
 74
     0
  0
LTYPE
  5
45
330
5
100
AcDbSymbolTableRecord
100
AcDbLinetypeTableRecord
  2
AM_ISO09W050
 70
     0
  3
_____ . . _____ . . _____ . . ____ .. ____
 72
    65
 73
     6
 40
22.5
 49
12.0
 74
     0
 49
-1.5
 74
     0
 49
3.0
 74
     0
 49
-1.5
 74
     0
 49
3.0
 74
     0
 49
-1.5
 74
     0
  0
LTYPE
  5
46
330
5
100
AcDbSymbolTableRecord
100
AcDbLinetypeTableRecord
  2
Amconstr
 70
     0
  3
_______________________
 72
    65
 73
     2
 40
9999.0
 49
9999.0
 74
     0
 49
0.0
 74
     0
  0
LTYPE
  5
47
330
5
100
AcDbSymbolTableRecord
100
AcDbLinetypeTableRecord
  2
AM_ISO02W050x2
 70
     0
  3
 _ _ _ _ _ _ _ _ _ _ _ _
 72
    65
 73
     2
 40
3.75
 49
3.0
 74
     0
 49
-0.75
 74
     0
  0
LTYPE
  5
48
330
5
100
AcDbSymbolTableRecord
100
AcDbLinetypeTableRecord
  2
AM_ISO08W050x2
 70
     0
  3
__ . __ . __ . __ . __ . __
 72
    65
 73
     4
 40
9.0
 49
6.0
 74
     0
 49
-0.75
 74
     0
 49
1.5
 74
     0
 49
-0.75
 74
     0
  0
LTYPE
  5
4B
330
5
100
AcDbSymbolTableRecord
100
AcDbLinetypeTableRecord
  2
Amzigzag
 70
     0
  3
/\/-/\/-/\/-/\/-/\/-/\/
 72
    65
 73
     2
 40
11.0001
 49
0.0001
 74
     4
 75
   135
340
4A
 46
0.04
 50
0.0
 44
0.0
 45
0.0
 49
-11.0
 74
     0
  0
LTYPE
  5
188
330
5
100
AcDbSymbolTableRecord
100
AcDbLinetypeTableRecord
  2
ACJISTGB
 70
     0
  3
__ . . __ . .
 72
    65
 73
     6
 40
9.0
 49
4.0
 74
     0
 49
-1.0
 74
     0
 49
1.0
 74
     0
 49
-1.0
 74
     0
 49
1.0
 74
     0
 49
-1.0
 74
     0
  0
LTYPE
  5
189
330
5
100
AcDbSymbolTableRecord
100
AcDbLinetypeTableRecord
  2
ACJISTGL
 70
     0
  3
_ _ _ _ _
 72
    65
 73
     2
 40
3.0
 49
2.0
 74
     0
 49
-1.0
 74
     0
  0
LTYPE
  5
652
330
5
100
AcDbSymbolTableRecord
100
AcDbLinetypeTableRecord
  2
CENTER
 70
     0
  3
____ _ ____ _ ____ _ ____ _ ____ _ ____ _ ____
 72
    65
 73
     4
 40
17.5
 49
13.0
 74
     0
 49
-1.5
 74
     0
 49
1.5
 74
     0
 49
-1.5
 74
     0
  0
LTYPE
  5
12AB
330
5
100
AcDbSymbolTableRecord
100
AcDbLinetypeTableRecord
  2
HIDDEN
 70
     0
  3
Hidden __ __ __ __ __ __ __ __ __ __ __ __ __ _
 72
    65
 73
     2
 40
0.375
 49
0.25
 74
     0
 49
-0.125
 74
     0
  0
LTYPE
  5
12AC
330
5
100
AcDbSymbolTableRecord
100
AcDbLinetypeTableRecord
  2
PHANTOM2
 70
     0
  3
Phantom (.5x) ___ _ _ ___ _ _ ___ _ _ ___ _ _
 72
    65
 73
     6
 40
1.25
 49
0.625
 74
     0
 49
-0.125
 74
     0
 49
0.125
 74
     0
 49
-0.125
 74
     0
 49
0.125
 74
     0
 49
-0.125
 74
     0
  0
ENDTAB
  0
TABLE
  2
LAYER
  5
2
102
{ACAD_XDICTIONARY
360
163F9
102
}
330
0
100
AcDbSymbolTable
 70
     7
  0
LAYER
  5
10
330
2
100
AcDbSymbolTableRecord
100
AcDbLayerTableRecord
  2
0
 70
     0
 62
     7
  6
Continuous
370
    -3
390
F
  0
LAYER
  5
7D
330
2
100
AcDbSymbolTableRecord
100
AcDbLayerTableRecord
  2
AM_5
 70
     0
 62
     3
  6
Continuous
370
    13
390
F
  0
LAYER
  5
7F
330
2
100
AcDbSymbolTableRecord
100
AcDbLayerTableRecord
  2
Defpoints
 70
     0
 62
     7
  6
Continuous
290
     0
370
    -3
390
F
  0
LAYER
  5
12B1
330
2
100
AcDbSymbolTableRecord
100
AcDbLayerTableRecord
  2
AM_0
 70
     0
 62
     7
  6
Continuous
370
    30
390
F
  0
LAYER
  5
1AFF
330
2
100
AcDbSymbolTableRecord
100
AcDbLayerTableRecord
  2
AM_7
 70
     0
 62
     4
  6
AM_ISO08W050
370
    13
390
F
  0
LAYER
  5
361D
330
2
100
AcDbSymbolTableRecord
100
AcDbLayerTableRecord
  2
AM_11
 70
     0
 62
     3
  6
AM_ISO09W050
370
    13
390
F
  0
ENDTAB
  0
TABLE
  2
STYLE
  5
3
330
0
100
AcDbSymbolTable
 70
     4
  0
STYLE
  5
11
330
3
100
AcDbSymbolTableRecord
100
AcDbTextStyleTableRecord
  2
STANDARD
 70
     0
 40
0.0
 41
1.0
 50
0.0
 71
     0
 42
4.0
  3
ISOCP.SHX
  4
EXTFONT.SHX
  0
STYLE
  5
4A
330
3
100
AcDbSymbolTableRecord
100
AcDbTextStyleTableRecord
  2

 70
     1
 40
0.0
 41
1.0
 50
0.0
 71
     0
 42
2.5
  3
ltypeshp.shx
  4

  0
STYLE
  5
180
330
3
100
AcDbSymbolTableRecord
100
AcDbTextStyleTableRecord
  2
ACJISTS
 70
     0
 40
1.0
 41
1.0
 50
0.0
 71
     0
 42
2.5
  3
isocp.shx
  4
bigfont.shx
  0
STYLE
  5
187
330
3
100
AcDbSymbolTableRecord
100
AcDbTextStyleTableRecord
  2
ACJISGDT
 70
     0
 40
0.0
 41
1.0
 50
0.0
 71
     0
 42
2.5
  3
amgdt.shx
  4

  0
ENDTAB
  0
TABLE
  2
VIEW
  5
6
330
0
100
AcDbSymbolTable
 70
     6
  0
VIEW
  5
A30
330
6
100
AcDbSymbolTableRecord
100
AcDbViewTableRecord
  2
AM_VIEW1
 70
     0
 40
148.5
 10
108.6929657794677
 20
222.75
 41
217.3859315589354
 11
0.0
 21
0.0
 31
1.0
 12
0.0
 22
0.0
 32
0.0
 42
50.0
 43
0.0
 44
0.0
 50
0.0
 71
    16
281
     0
 72
     0
  0
VIEW
  5
A31
330
6
100
AcDbSymbolTableRecord
100
AcDbViewTableRecord
  2
AM_VIEW2
 70
     0
 40
148.5
 10
311.3070342205323
 20
222.75
 41
217.3859315589354
 11
0.0
 21
0.0
 31
1.0
 12
0.0
 22
0.0
 32
0.0
 42
50.0
 43
0.0
 44
0.0
 50
0.0
 71
    16
281
     0
 72
     0
  0
VIEW
  5
A32
330
6
100
AcDbSymbolTableRecord
100
AcDbViewTableRecord
  2
AM_VIEW3
 70
     0
 40
148.5
 10
108.6929657794677
 20
74.25
 41
217.3859315589354
 11
0.0
 21
0.0
 31
1.0
 12
0.0
 22
0.0
 32
0.0
 42
50.0
 43
0.0
 44
0.0
 50
0.0
 71
    16
281
     0
 72
     0
  0
VIEW
  5
A33
330
6
100
AcDbSymbolTableRecord
100
AcDbViewTableRecord
  2
AM_VIEW4
 70
     0
 40
148.5
 10
311.3070342205323
 20
74.25
 41
217.3859315589354
 11
0.0
 21
0.0
 31
1.0
 12
0.0
 22
0.0
 32
0.0
 42
50.0
 43
0.0
 44
0.0
 50
0.0
 71
    16
281
     0
 72
     0
  0
VIEW
  5
A34
330
6
100
AcDbSymbolTableRecord
100
AcDbViewTableRecord
  2
AM_VIEW5
 70
     0
 40
148.5
 10
210.0
 20
148.5
 41
217.3859315589353
 11
0.0
 21
0.0
 31
1.0
 12
0.0
 22
0.0
 32
0.0
 42
50.0
 43
0.0
 44
0.0
 50
0.0
 71
    16
281
     0
 72
     0
  0
VIEW
  5
A35
330
6
100
AcDbSymbolTableRecord
100
AcDbViewTableRecord
  2
AM_VIEW6
 70
     0
 40
296.99703
 10
210.0
 20
148.5
 41
434.7675153992395
 11
0.0
 21
0.0
 31
1.0
 12
0.0
 22
0.0
 32
0.0
 42
50.0
 43
0.0
 44
0.0
 50
0.0
 71
    16
281
     0
 72
     0
  0
ENDTAB
  0
TABLE
  2
UCS
  5
7
330
0
100
AcDbSymbolTable
 70
     0
  0
ENDTAB
  0
TABLE
  2
APPID
  5
9
330
0
100
AcDbSymbolTable
 70
    42
  0
APPID
  5
12
330
9
100
AcDbSymbolTableRecord
100
AcDbRegAppTableRecord
  2
ACAD
 70
     0
  0
APPID
  5
2C
330
9
100
AcDbSymbolTableRecord
100
AcDbRegAppTableRecord
  2
MCAD_NO_VIS
 70
     0
  0
APPID
  5
2D
330
9
100
AcDbSymbolTableRecord
100
AcDbRegAppTableRecord
  2
ACAD_TEMP_GRAPHIC
 70
     0
  0
APPID
  5
B9
330
9
100
AcDbSymbolTableRecord
100
AcDbRegAppTableRecord
  2
GENIUS_GENDTOL_13
 70
     0
  0
APPID
  5
359
330
9
100
AcDbSymbolTableRecord
100
AcDbRegAppTableRecord
  2
GENIUS_GENREC_14
 70
     0
  0
APPID
  5
35A
330
9
100
AcDbSymbolTableRecord
100
AcDbRegAppTableRecord
  2
GENIUS_GENODEF_13
 70
     0
  0
APPID
  5
35B
330
9
100
AcDbSymbolTableRecord
100
AcDbRegAppTableRecord
  2
GENIUS_GENOBJ-N-REC_13
 70
     0
  0
APPID
  5
667
330
9
100
AcDbSymbolTableRecord
100
AcDbRegAppTableRecord
  2
GENIUS_GENCFG_13
 70
     0
  0
APPID
  5
668
330
9
100
AcDbSymbolTableRecord
100
AcDbRegAppTableRecord
  2
GENIUS_GENCFG0_13
 70
     0
  0
APPID
  5
669
330
9
100
AcDbSymbolTableRecord
100
AcDbRegAppTableRecord
  2
GENIUS_GENCFG1_13
 70
     0
  0
APPID
  5
66A
330
9
100
AcDbSymbolTableRecord
100
AcDbRegAppTableRecord
  2
GENIUS_GENCFG2_13
 70
     0
  0
APPID
  5
66B
330
9
100
AcDbSymbolTableRecord
100
AcDbRegAppTableRecord
  2
GENIUS_GENCFG3_13
 70
     0
  0
APPID
  5
66C
330
9
100
AcDbSymbolTableRecord
100
AcDbRegAppTableRecord
  2
GENIUS_GENCFG4_13
 70
     0
  0
APPID
  5
A76
330
9
100
AcDbSymbolTableRecord
100
AcDbRegAppTableRecord
  2
GENIUS_GENBLLY_14
 70
     0
  0
APPID
  5
A77
330
9
100
AcDbSymbolTableRecord
100
AcDbRegAppTableRecord
  2
GENIUS_GENOBJ-N-CEN_13
 70
     0
  0
APPID
  5
A83
330
9
100
AcDbSymbolTableRecord
100
AcDbRegAppTableRecord
  2
GENIUS_GENTRA_14
 70
     0
  0
APPID
  5
A8D
330
9
100
AcDbSymbolTableRecord
100
AcDbRegAppTableRecord
  2
GENIUS_GENOBJ-N-TIT_13
 70
     0
  0
APPID
  5
A8E
330
9
100
AcDbSymbolTableRecord
100
AcDbRegAppTableRecord
  2
GENIUS_GENTITLE_13
 70
     0
  0
APPID
  5
A8F
330
9
100
AcDbSymbolTableRecord
100
AcDbRegAppTableRecord
  2
GENIUS_GENOENT_13
 70
     0
  0
APPID
  5
A90
330
9
100
AcDbSymbolTableRecord
100
AcDbRegAppTableRecord
  2
GENIUS_GENOREF_13
 70
     0
  0
APPID
  5
A91
330
9
100
AcDbSymbolTableRecord
100
AcDbRegAppTableRecord
  2
GENIUS_GENOLIS_13
 70
     0
  0
APPID
  5
A92
330
9
100
AcDbSymbolTableRecord
100
AcDbRegAppTableRecord
  2
GENIUS_GENZVEED_13
 70
     0
  0
APPID
  5
A93
330
9
100
AcDbSymbolTableRecord
100
AcDbRegAppTableRecord
  2
GENIUS_GENSCREG_15
 70
     0
  0
APPID
  5
A94
330
9
100
AcDbSymbolTableRecord
100
AcDbRegAppTableRecord
  2
GENIUS_GENOBJ-N-SDF_13
 70
     0
  0
APPID
  5
12B5
330
9
100
AcDbSymbolTableRecord
100
AcDbRegAppTableRecord
  2
GENIUS_GENOBJ-N-RSBK_13
 70
     0
  0
APPID
  5
12B6
330
9
100
AcDbSymbolTableRecord
100
AcDbRegAppTableRecord
  2
GENIUS_GENOBJ-N-LIB_13
 70
     0
  0
APPID
  5
12B7
330
9
100
AcDbSymbolTableRecord
100
AcDbRegAppTableRecord
  2
GENIUS_GENSCALE_13
 70
     0
  0
APPID
  5
12B8
330
9
100
AcDbSymbolTableRecord
100
AcDbRegAppTableRecord
  2
GENIUS_GENOBJ-N-HTC_13
 70
     0
  0
APPID
  5
12B9
330
9
100
AcDbSymbolTableRecord
100
AcDbRegAppTableRecord
  2
GENIUS_GENHATCH_13
 70
     0
  0
APPID
  5
1687
330
9
100
AcDbSymbolTableRecord
100
AcDbRegAppTableRecord
  2
BASE_TYPE
 70
     0
  0
APPID
  5
1ABF
330
9
100
AcDbSymbolTableRecord
100
AcDbRegAppTableRecord
  2
GENIUS_GENFIL_13
 70
     0
  0
APPID
  5
1AC0
330
9
100
AcDbSymbolTableRecord
100
AcDbRegAppTableRecord
  2
GENIUS_GENOBJ-N-CHA_13
 70
     0
  0
APPID
  5
1AE7
330
9
100
AcDbSymbolTableRecord
100
AcDbRegAppTableRecord
  2
GENIUS_GENOBJ-N-FIL_13
 70
     0
  0
APPID
  5
20E9
330
9
100
AcDbSymbolTableRecord
100
AcDbRegAppTableRecord
  2
GENIUS_GENDIMSH_14
 70
     0
  0
APPID
  5
15E82
330
9
100
AcDbSymbolTableRecord
100
AcDbRegAppTableRecord
  2
AD_DRAW
 70
     0
  0
APPID
  5
15E85
330
9
100
AcDbSymbolTableRecord
100
AcDbRegAppTableRecord
  2
ACATTRIBSERVICES
 70
     0
  0
APPID
  5
15EA3
330
9
100
AcDbSymbolTableRecord
100
AcDbRegAppTableRecord
  2
DESIGNERASSEMBLIES
 70
     0
  0
APPID
  5
15EB6
330
9
100
AcDbSymbolTableRecord
100
AcDbRegAppTableRecord
  2
ACADM_DIM_EDIT
 70
     0
  0
APPID
  5
15EB7
330
9
100
AcDbSymbolTableRecord
100
AcDbRegAppTableRecord
  2
AMDT_DM_ADJ
 70
     0
  0
APPID
  5
16052
330
9
100
AcDbSymbolTableRecord
100
AcDbRegAppTableRecord
  2
DCO15
 70
     0
  0
APPID
  5
1620A
330
9
100
AcDbSymbolTableRecord
100
AcDbRegAppTableRecord
  2
ACAD_DSTYLE_DIMTEXT_FILL
 70
     0
  0
APPID
  5
1620B
330
9
100
AcDbSymbolTableRecord
100
AcDbRegAppTableRecord
  2
ACAD_PSEXT
 70
     0
  0
ENDTAB
  0
TABLE
  2
DIMSTYLE
  5
A
330
0
100
AcDbSymbolTable
 70
    10
100
AcDbDimStyleTable
  0
DIMSTYLE
105
58
330
A
100
AcDbSymbolTableRecord
100
AcDbDimStyleTableRecord
  2
AM_JIS
 70
     0
  4
"
 41
2.5
 42
0.0
 43
10.0
 44
1.0
 47
0.1
 48
0.1000000001
 73
     0
 74
     0
 77
     3
 78
     1
 79
     2
140
3.8
141
0.0
143
0.0393701
146
0.71
147
1.5
172
     1
176
   256
177
   256
178
     2
179
     2
271
     3
272
     3
275
     1
283
     0
284
     8
340
11
341
59
342
59
371
    -1
372
    -1
  0
DIMSTYLE
105
5F
102
{ACAD_REACTORS
330
166D2
330
166F9
102
}
330
A
100
AcDbSymbolTableRecord
100
AcDbDimStyleTableRecord
  2
AM_JIS$3
 70
     0
  4
"
 41
2.5
 42
0.0
 43
10.0
 44
1.0
 47
0.1
 48
0.1000000001
 73
     0
 77
     3
 78
     1
 79
     2
140
3.8
141
0.0
143
0.0393701
146
0.71
147
1.5
172
     1
176
   256
177
   256
178
     2
179
     2
271
     3
272
     3
275
     1
283
     0
284
     8
288
     1
289
     0
340
11
341
59
342
59
371
    -1
372
    -1
  0
DIMSTYLE
105
60
330
A
100
AcDbSymbolTableRecord
100
AcDbDimStyleTableRecord
  2
AM_JIS$4
 70
     0
  4
"
 41
2.5
 42
0.0
 43
10.0
 44
1.0
 47
0.1
 48
0.1000000001
 73
     0
 77
     3
 78
     1
 79
     2
140
3.8
141
0.0
143
0.0393701
146
0.71
147
1.5
172
     1
176
   256
177
   256
178
     2
179
     2
271
     3
272
     3
275
     1
283
     0
284
     8
288
     1
289
     0
340
11
341
59
342
59
371
    -1
372
    -1
  0
DIMSTYLE
105
61
330
A
100
AcDbSymbolTableRecord
100
AcDbDimStyleTableRecord
  2
AM_JIS$6
 70
     0
  4
"
 41
2.5
 42
0.0
 43
10.0
 44
1.0
 47
0.1
 48
0.1000000001
 73
     0
 74
     0
 78
     1
 79
     2
140
3.8
141
0.0
143
0.0393701
146
0.71
147
1.5
172
     1
176
   256
177
   256
178
     2
179
     2
271
     3
272
     3
275
     1
283
     0
284
     8
340
11
341
59
342
59
371
    -1
372
    -1
  0
DIMSTYLE
105
62
330
A
100
AcDbSymbolTableRecord
100
AcDbDimStyleTableRecord
  2
AM_JIS$7
 70
     0
  4
"
 41
2.5
 42
0.0
 43
10.0
 44
1.0
 47
0.1
 48
0.1000000001
 73
     0
 74
     0
 77
     3
 78
     1
 79
     2
140
5.0
141
0.0
143
0.0393701
146
0.71
147
1.5
172
     1
176
   256
177
   256
178
     2
179
     2
271
     3
272
     3
275
     1
283
     0
284
     8
340
11
341
59
342
59
371
    -1
372
    -1
  0
DIMSTYLE
105
63
330
A
100
AcDbSymbolTableRecord
100
AcDbDimStyleTableRecord
  2
AM_JIS$SF
 70
     0
  4
"
 41
2.5
 42
1.0
 43
10.0
 44
1.0
 47
0.1
 48
0.1
 73
     0
 74
     0
 75
     1
 76
     1
 77
     3
 78
     8
 79
     2
140
3.5
141
0.0
143
0.0393701
146
0.71
147
1.5
176
   256
177
   256
178
     2
271
     2
272
     3
274
     4
340
11
341
59
342
59
343
59
344
59
371
    -1
372
    -1
  0
DIMSTYLE
105
68
330
A
100
AcDbSymbolTableRecord
100
AcDbDimStyleTableRecord
  2
AM_JIS$SH
 70
     0
  4
"
 41
2.5
 42
1.0
 43
10.0
 44
1.0
 47
0.1
 48
0.1
 73
     0
 74
     0
 75
     1
 76
     1
 77
     3
 78
     8
 79
     2
140
3.5
141
0.0
143
0.0393701
144
2.0
146
0.71
147
1.5
173
     1
176
   256
177
   256
178
     2
271
     2
272
     3
274
     4
340
11
341
59
342
59
343
64
344
59
371
    -1
372
    -1
  0
DIMSTYLE
105
65F
330
A
100
AcDbSymbolTableRecord
100
AcDbDimStyleTableRecord
  2
STANDARD
 70
     0
340
11
  0
DIMSTYLE
105
1B97
102
{ACAD_REACTORS
330
10C41
330
16458
330
1658F
330
165EE
102
}
330
A
100
AcDbSymbolTableRecord
100
AcDbDimStyleTableRecord
  2
AM_JIS$0
 70
     0
  4
"
 41
2.5
 42
0.0
 43
10.0
 44
1.0
 47
0.1
 48
0.1000000001
 73
     0
 74
     0
 77
     3
 78
     1
 79
     2
140
3.8
141
0.0
143
0.0393701
146
0.71
147
1.5
172
     1
176
     3
177
     3
178
     2
271
     3
272
     3
275
     1
283
     0
284
     8
289
     0
340
11
341
59
342
59
371
    13
372
    13
  0
DIMSTYLE
105
1B98
102
{ACAD_REACTORS
330
164F3
330
165A9
330
1674D
102
}
330
A
100
AcDbSymbolTableRecord
100
AcDbDimStyleTableRecord
  2
AM_JIS$2
 70
     0
  4
"
 41
2.5
 42
0.0
 43
10.0
 44
1.0
 47
0.1
 48
0.1000000001
 73
     0
 74
     0
 77
     3
 78
     1
 79
     2
140
3.8
141
0.0
143
0.0393701
146
0.71
147
1.5
172
     1
176
     3
177
     3
178
     2
271
     3
272
     3
275
     1
283
     0
284
     8
289
     0
340
11
341
59
342
59
371
    13
372
    13
  0
ENDTAB
  0
TABLE
  2
BLOCK_RECORD
  5
1
330
0
100
AcDbSymbolTable
 70
    13
  0
BLOCK_RECORD
  5
1F
102
{ACAD_XDICTIONARY
360
165
102
}
330
1
100
AcDbSymbolTableRecord
100
AcDbBlockTableRecord
  2
*Model_Space
340
22
  0
BLOCK_RECORD
  5
1B
330
1
100
AcDbSymbolTableRecord
100
AcDbBlockTableRecord
  2
*Paper_Space
340
1E
  0
BLOCK_RECORD
  5
23
330
1
100
AcDbSymbolTableRecord
100
AcDbBlockTableRecord
  2
*Paper_Space0
340
26
  0
BLOCK_RECORD
  5
59
330
1
100
AcDbSymbolTableRecord
100
AcDbBlockTableRecord
  2
_Open30
340
0
102
{BLKREFS
331
1697C
331
1697D
331
16985
331
16986
331
16990
331
16991
331
1699B
331
1699C
331
169A4
331
169A5
331
169AF
331
169B0
331
169B9
331
169BA
331
169C2
331
169C3
331
169CC
331
169CD
102
}
  0
BLOCK_RECORD
  5
64
330
1
100
AcDbSymbolTableRecord
100
AcDbBlockTableRecord
  2
GENAXEH
340
0
  0
BLOCK_RECORD
  5
10C42
330
1
100
AcDbSymbolTableRecord
100
AcDbBlockTableRecord
  2
*D3
340
0
  0
BLOCK_RECORD
  5
15E9A
330
1
100
AcDbSymbolTableRecord
100
AcDbBlockTableRecord
  2
*U4
340
0
  0
BLOCK_RECORD
  5
16459
330
1
100
AcDbSymbolTableRecord
100
AcDbBlockTableRecord
  2
*D5
340
0
  0
BLOCK_RECORD
  5
164F4
330
1
100
AcDbSymbolTableRecord
100
AcDbBlockTableRecord
  2
*D6
340
0
  0
BLOCK_RECORD
  5
16590
330
1
100
AcDbSymbolTableRecord
100
AcDbBlockTableRecord
  2
*D7
340
0
  0
BLOCK_RECORD
  5
165AA
330
1
100
AcDbSymbolTableRecord
100
AcDbBlockTableRecord
  2
*D8
340
0
  0
BLOCK_RECORD
  5
165EF
330
1
100
AcDbSymbolTableRecord
100
AcDbBlockTableRecord
  2
*D9
340
0
  0
BLOCK_RECORD
  5
166D3
330
1
100
AcDbSymbolTableRecord
100
AcDbBlockTableRecord
  2
*D10
340
0
  0
BLOCK_RECORD
  5
166FA
330
1
100
AcDbSymbolTableRecord
100
AcDbBlockTableRecord
  2
*D11
340
0
  0
BLOCK_RECORD
  5
1674E
330
1
100
AcDbSymbolTableRecord
100
AcDbBlockTableRecord
  2
*D12
340
0
  0
ENDTAB
  0
ENDSEC
  0
SECTION
  2
BLOCKS
  0
BLOCK
  5
20
330
1F
100
AcDbEntity
  8
0
100
AcDbBlockBegin
  2
*Model_Space
 70
     0
 71
     0
 10
0.0
 20
0.0
 30
0.0
  3
*Model_Space
  1

  0
ENDBLK
  5
21
330
1F
100
AcDbEntity
  8
0
100
AcDbBlockEnd
  0
BLOCK
  5
1C
330
1B
100
AcDbEntity
 67
     1
  8
0
100
AcDbBlockBegin
  2
*Paper_Space
 70
     0
 71
     0
 10
0.0
 20
0.0
 30
0.0
  3
*Paper_Space
  1

  0
ENDBLK
  5
1D
330
1B
100
AcDbEntity
 67
     1
  8
0
100
AcDbBlockEnd
  0
BLOCK
  5
24
330
23
100
AcDbEntity
  8
0
100
AcDbBlockBegin
  2
*Paper_Space0
 70
     0
 71
     0
 10
0.0
 20
0.0
 30
0.0
  3
*Paper_Space0
  1

  0
ENDBLK
  5
25
330
23
100
AcDbEntity
  8
0
100
AcDbBlockEnd
  0
BLOCK
  5
5D
330
59
100
AcDbEntity
  8
0
100
AcDbBlockBegin
  2
_Open30
 70
     0
 71
     0
 10
0.0
 20
0.0
 30
0.0
  3
_Open30
  1

  0
LINE
  5
5A
330
59
100
AcDbEntity
  8
0
 62
     0
370
    -2
100
AcDbLine
 10
-1.0
 20
0.26794919
 30
0.0
 11
0.0
 21
0.0
 31
0.0
  0
LINE
  5
5B
330
59
100
AcDbEntity
  8
0
 62
     0
370
    -2
100
AcDbLine
 10
0.0
 20
0.0
 30
0.0
 11
-1.0
 21
-0.26794919
 31
0.0
  0
LINE
  5
5C
330
59
100
AcDbEntity
  8
0
 62
     0
370
    -2
100
AcDbLine
 10
0.0
 20
0.0
 30
0.0
 11
-1.0
 21
0.0
 31
0.0
  0
ENDBLK
  5
5E
330
59
100
AcDbEntity
  8
0
100
AcDbBlockEnd
  0
BLOCK
  5
66
330
64
100
AcDbEntity
  8
0
100
AcDbBlockBegin
  2
GENAXEH
 70
     0
 71
     0
 10
0.0
 20
0.0
 30
0.0
  3
GENAXEH
  1

  0
LINE
  5
65
330
64
100
AcDbEntity
  8
0
100
AcDbLine
 10
-1.0
 20
0.0
 30
0.0
 11
1.0
 21
0.0
 31
0.0
  0
ENDBLK
  5
67
330
64
100
AcDbEntity
  8
0
100
AcDbBlockEnd
  0
BLOCK
  5
10C4C
330
10C42
100
AcDbEntity
  8
0
100
AcDbBlockBegin
  2
*D3
 70
     1
 71
     0
 10
0.0
 20
0.0
 30
0.0
  3
*D3
  1

  0
LINE
  5
16979
330
10C42
100
AcDbEntity
  8
AM_5
 62
     3
370
    13
100
AcDbLine
 10
17.99999999999977
 20
-76.91140833546598
 30
0.0
 11
17.99999999999977
 21
-90.2035229750752
 31
0.0
  0
LINE
  5
1697A
330
10C42
100
AcDbEntity
  8
AM_5
 62
     3
370
    13
100
AcDbLine
 10
0.0
 20
-69.41140833546592
 30
0.0
 11
-0.0000000000000013
 21
-90.2035229750752
 31
0.0
  0
LINE
  5
1697B
330
10C42
100
AcDbEntity
  8
AM_5
 62
     3
370
    13
100
AcDbLine
 10
15.49999999999977
 20
-89.2035229750752
 30
0.0
 11
2.499999999999999
 21
-89.2035229750752
 31
0.0
  0
INSERT
  5
1697C
330
10C42
100
AcDbEntity
  8
AM_5
 62
     3
370
    13
100
AcDbBlockReference
  2
_Open30
 10
17.99999999999977
 20
-89.2035229750752
 30
0.0
 41
2.5
 42
2.5
 43
2.5
  0
INSERT
  5
1697D
330
10C42
100
AcDbEntity
  8
AM_5
 62
     3
370
    13
100
AcDbBlockReference
  2
_Open30
 10
-0.0000000000000012
 20
-89.2035229750752
 30
0.0
 41
2.5
 42
2.5
 43
2.5
 50
180.0
  0
MTEXT
  5
1697E
330
10C42
100
AcDbEntity
  8
AM_5
 62
     2
100
AcDbMText
 10
8.999999999999886
 20
-85.8035229750752
 30
0.0
 40
3.8
 41
0.0
 71
     5
 72
     1
  1
18
 73
     1
 44
1.0
  0
POINT
  5
1697F
330
10C42
100
AcDbEntity
  8
Defpoints
 62
     0
100
AcDbPoint
 10
17.99999999999977
 20
-76.91140833546598
 30
0.0
  0
POINT
  5
16980
330
10C42
100
AcDbEntity
  8
Defpoints
 62
     0
100
AcDbPoint
 10
0.0
 20
-69.41140833546592
 30
0.0
  0
POINT
  5
16981
330
10C42
100
AcDbEntity
  8
Defpoints
 62
     0
100
AcDbPoint
 10
-0.0000000000000012
 20
-89.2035229750752
 30
0.0
  0
ENDBLK
  5
10C4D
330
10C42
100
AcDbEntity
  8
0
100
AcDbBlockEnd
  0
BLOCK
  5
15E9B
330
15E9A
100
AcDbEntity
  8
0
100
AcDbBlockBegin
  2
*U4
 70
     1
 71
     0
 10
0.0
 20
0.0
 30
0.0
  3
*U4
  1

  0
ENDBLK
  5
15E9C
330
15E9A
100
AcDbEntity
  8
0
100
AcDbBlockEnd
  0
BLOCK
  5
16486
330
16459
100
AcDbEntity
  8
0
100
AcDbBlockBegin
  2
*D5
 70
     1
 71
     0
 10
0.0
 20
0.0
 30
0.0
  3
*D5
  1

  0
LINE
  5
16982
330
16459
100
AcDbEntity
  8
AM_5
 62
     3
370
    13
100
AcDbLine
 10
92.49999999999966
 20
7.216117818584905
 30
0.0
 11
92.49999999999966
 21
-13.43553938149151
 31
0.0
  0
LINE
  5
16983
330
16459
100
AcDbEntity
  8
AM_5
 62
     3
370
    13
100
AcDbLine
 10
107.4999999999997
 20
7.216117818584877
 30
0.0
 11
107.4999999999997
 21
-13.43553938149151
 31
0.0
  0
LINE
  5
16984
330
16459
100
AcDbEntity
  8
AM_5
 62
     3
370
    13
100
AcDbLine
 10
94.99999999999966
 20
-12.43553938149151
 30
0.0
 11
104.9999999999997
 21
-12.43553938149151
 31
0.0
  0
INSERT
  5
16985
330
16459
100
AcDbEntity
  8
AM_5
 62
     3
370
    13
100
AcDbBlockReference
  2
_Open30
 10
92.49999999999966
 20
-12.43553938149151
 30
0.0
 41
2.5
 42
2.5
 43
2.5
 50
180.0
  0
INSERT
  5
16986
330
16459
100
AcDbEntity
  8
AM_5
 62
     3
370
    13
100
AcDbBlockReference
  2
_Open30
 10
107.4999999999997
 20
-12.43553938149151
 30
0.0
 41
2.5
 42
2.5
 43
2.5
  0
MTEXT
  5
16987
330
16459
100
AcDbEntity
  8
AM_5
 62
     2
100
AcDbMText
 10
99.99999999999966
 20
-9.035539381491509
 30
0.0
 40
3.8
 41
0.0
 71
     5
 72
     1
  1
15
 73
     1
 44
1.0
  0
POINT
  5
16988
330
16459
100
AcDbEntity
  8
Defpoints
 62
     0
100
AcDbPoint
 10
92.49999999999966
 20
7.216117818584905
 30
0.0
  0
POINT
  5
16989
330
16459
100
AcDbEntity
  8
Defpoints
 62
     0
100
AcDbPoint
 10
107.4999999999997
 20
7.216117818584877
 30
0.0
  0
POINT
  5
1698A
330
16459
100
AcDbEntity
  8
Defpoints
 62
     0
100
AcDbPoint
 10
107.4999999999997
 20
-12.43553938149151
 30
0.0
  0
ENDBLK
  5
16487
330
16459
100
AcDbEntity
  8
0
100
AcDbBlockEnd
  0
BLOCK
  5
16540
330
164F4
100
AcDbEntity
  8
0
100
AcDbBlockBegin
  2
*D6
 70
     1
 71
     0
 10
0.0
 20
0.0
 30
0.0
  3
*D6
  1

  0
LINE
  5
1698B
330
164F4
100
AcDbEntity
  8
AM_5
 62
     3
370
    13
100
AcDbLine
 10
-3.448632220920104
 20
-69.10969211146522
 30
0.0
 11
-15.55892612757054
 21
-68.05017868266599
 31
0.0
  0
LINE
  5
1698C
330
164F4
100
AcDbEntity
  8
AM_5
 62
     3
370
    13
100
AcDbLine
 10
-3.023854710452731
 20
-69.41140833546592
 30
0.0
 11
-15.61835869772683
 21
-69.41140833546592
 31
0.0
  0
ARC
  5
1698D
330
164F4
100
AcDbEntity
  8
AM_5
 62
     3
370
    13
100
AcDbCircle
 10
-0.0000000000012506
 20
-69.41140833546594
 30
0.0
 40
14.61835869772558
100
AcDbArc
 50
155.3788394630876
 51
165.1894197315432
  0
ARC
  5
1698E
330
164F4
100
AcDbEntity
  8
AM_5
 62
     3
370
    13
100
AcDbCircle
 10
-0.0000000000012506
 20
-69.41140833546594
 30
0.0
 40
14.61835869772558
100
AcDbArc
 50
189.8105802684556
 51
199.6211605369112
  0
ARC
  5
1698F
330
164F4
100
AcDbEntity
  8
AM_5
 62
     3
370
    13
100
AcDbCircle
 10
-0.0000000000012506
 20
-69.41140833546594
 30
0.0
 40
14.61835869772558
100
AcDbArc
 50
174.9999999999987
 51
180.0
  0
INSERT
  5
16990
330
164F4
100
AcDbEntity
  8
AM_5
 62
     3
370
    13
100
AcDbBlockReference
  2
_Open30
 10
-14.5627314294788
 20
-68.13733442541366
 30
0.0
 41
2.5
 42
2.5
 43
2.5
 50
260.0947098657709
  0
INSERT
  5
16991
330
164F4
100
AcDbEntity
  8
AM_5
 62
     3
370
    13
100
AcDbBlockReference
  2
_Open30
 10
-14.61835869772683
 20
-69.41140833546594
 30
0.0
 41
2.5
 42
2.5
 43
2.5
 50
94.90529013422781
  0
MTEXT
  5
16992
330
164F4
100
AcDbEntity
  8
AM_5
 62
     2
100
AcDbMText
 10
-16.44709365873277
 20
-62.05244371122591
 30
0.0
 40
3.8
 41
0.0
 71
     5
 72
     1
  1
5°
 11
0.4084148144508281
 21
0.9127964391566696
 31
0.0
 73
     1
 44
1.0
  0
POINT
  5
16993
330
164F4
100
AcDbEntity
  8
Defpoints
 62
     0
100
AcDbPoint
 10
-14.61217440228139
 20
-68.98623748425655
 30
0.0
  0
POINT
  5
16994
330
164F4
100
AcDbEntity
  8
Defpoints
 62
     0
100
AcDbPoint
 10
-3.448632220920104
 20
-69.10969211146522
 30
0.0
  0
POINT
  5
16995
330
164F4
100
AcDbEntity
  8
Defpoints
 62
     0
100
AcDbPoint
 10
-3.023854710452731
 20
-69.41140833546592
 30
0.0
  0
POINT
  5
16996
330
164F4
100
AcDbEntity
  8
Defpoints
 62
     0
100
AcDbPoint
 10
206.7511956964342
 20
-69.41140833546599
 30
0.0
  0
POINT
  5
16997
330
164F4
100
AcDbEntity
  8
Defpoints
 62
     0
100
AcDbPoint
 10
-0.0000000000013642
 20
-69.41140833546592
 30
0.0
  0
ENDBLK
  5
16541
330
164F4
100
AcDbEntity
  8
0
100
AcDbBlockEnd
  0
BLOCK
  5
165A6
330
16590
100
AcDbEntity
  8
0
100
AcDbBlockBegin
  2
*D7
 70
     1
 71
     0
 10
0.0
 20
0.0
 30
0.0
  3
*D7
  1

  0
LINE
  5
16998
330
16590
100
AcDbEntity
  8
AM_5
 62
     3
370
    13
100
AcDbLine
 10
-3.41554845196606
 20
9.999999999999993
 30
0.0
 11
-11.37389939822356
 21
9.999999999999995
 31
0.0
  0
LINE
  5
16999
330
16590
100
AcDbEntity
  8
AM_5
 62
     3
370
    13
100
AcDbLine
 10
-2.12986850650293
 20
0.0
 30
0.0
 11
-11.37389939822356
 21
0.0000000000000026
 31
0.0
  0
LINE
  5
1699A
330
16590
100
AcDbEntity
  8
AM_5
 62
     3
370
    13
100
AcDbLine
 10
-10.37389939822356
 20
7.499999999999996
 30
0.0
 11
-10.37389939822356
 21
2.500000000000002
 31
0.0
  0
INSERT
  5
1699B
330
16590
100
AcDbEntity
  8
AM_5
 62
     3
370
    13
100
AcDbBlockReference
  2
_Open30
 10
-10.37389939822356
 20
9.999999999999995
 30
0.0
 41
2.5
 42
2.5
 43
2.5
 50
90.0
  0
INSERT
  5
1699C
330
16590
100
AcDbEntity
  8
AM_5
 62
     3
370
    13
100
AcDbBlockReference
  2
_Open30
 10
-10.37389939822356
 20
0.0000000000000023
 30
0.0
 41
2.5
 42
2.5
 43
2.5
 50
270.0
  0
MTEXT
  5
1699D
330
16590
100
AcDbEntity
  8
AM_5
 62
     2
100
AcDbMText
 10
-13.77389939822356
 20
4.999999999999997
 30
0.0
 40
3.8
 41
0.0
 71
     5
 72
     1
  1
10
 11
6.123031769111886E-17
 21
1.0
 31
0.0
 73
     1
 44
1.0
  0
POINT
  5
1699E
330
16590
100
AcDbEntity
  8
Defpoints
 62
     0
100
AcDbPoint
 10
-3.41554845196606
 20
9.999999999999993
 30
0.0
  0
POINT
  5
1699F
330
16590
100
AcDbEntity
  8
Defpoints
 62
     0
100
AcDbPoint
 10
-2.12986850650293
 20
0.0
 30
0.0
  0
POINT
  5
169A0
330
16590
100
AcDbEntity
  8
Defpoints
 62
     0
100
AcDbPoint
 10
-10.37389939822356
 20
0.0000000000000023
 30
0.0
  0
ENDBLK
  5
165A7
330
16590
100
AcDbEntity
  8
0
100
AcDbBlockEnd
  0
BLOCK
  5
165D3
330
165AA
100
AcDbEntity
  8
0
100
AcDbBlockBegin
  2
*D8
 70
     1
 71
     0
 10
0.0
 20
0.0
 30
0.0
  3
*D8
  1

  0
LINE
  5
169A1
330
165AA
100
AcDbEntity
  8
AM_5
 62
     3
370
    13
100
AcDbLine
 10
0.5034184515751576
 20
10.01484105049158
 30
0.0
 11
1.314265225221204
 21
25.48671917123541
 31
0.0
  0
LINE
  5
169A2
330
165AA
100
AcDbEntity
  8
AM_5
 62
     3
370
    13
100
AcDbLine
 10
-2.12986850650293
 20
0.0
 30
0.0
 11
-25.54313289604391
 21
-0.0000000000000266
 31
0.0
  0
ARC
  5
169A3
330
165AA
100
AcDbEntity
  8
AM_5
 62
     3
370
    13
100
AcDbCircle
 10
-0.0214371277537192
 20
0.0
 30
0.0
 40
24.52169576829019
100
AcDbArc
 50
92.84386809447075
 51
174.1561319055294
  0
INSERT
  5
169A4
330
165AA
100
AcDbEntity
  8
AM_5
 62
     3
370
    13
100
AcDbBlockReference
  2
_Open30
 10
1.26192926897826
 20
24.48808963648084
 30
0.0
 41
2.5
 42
2.5
 43
2.5
 50
359.9219340472354
  0
INSERT
  5
169A5
330
165AA
100
AcDbEntity
  8
AM_5
 62
     3
370
    13
100
AcDbBlockReference
  2
_Open30
 10
-24.54313289604391
 20
-0.0000000000000266
 30
0.0
 41
2.5
 42
2.5
 43
2.5
 50
267.0780659527648
  0
MTEXT
  5
169A6
330
165AA
100
AcDbEntity
  8
AM_5
 62
     2
100
AcDbMText
 10
-19.24146417098523
 20
20.25368250551993
 30
0.0
 40
3.8
 41
0.0
 71
     5
 72
     1
  1
93°
 11
0.7253743710122866
 21
0.688354575693755
 31
0.0
 73
     1
 44
1.0
  0
POINT
  5
169A7
330
165AA
100
AcDbEntity
  8
Defpoints
 62
     0
100
AcDbPoint
 10
-11.53367596225311
 20
21.65137225143074
 30
0.0
  0
POINT
  5
169A8
330
165AA
100
AcDbEntity
  8
Defpoints
 62
     0
100
AcDbPoint
 10
0.3972656262079681
 20
0.0
 30
0.0
  0
POINT
  5
169A9
330
165AA
100
AcDbEntity
  8
Defpoints
 62
     0
100
AcDbPoint
 10
0.0005497774761807
 20
0.4195351440318689
 30
0.0
  0
POINT
  5
169AA
330
165AA
100
AcDbEntity
  8
Defpoints
 62
     0
100
AcDbPoint
 10
0.5034184515751576
 20
10.01484105049158
 30
0.0
  0
POINT
  5
169AB
330
165AA
100
AcDbEntity
  8
Defpoints
 62
     0
100
AcDbPoint
 10
-2.12986850650293
 20
0.0
 30
0.0
  0
ENDBLK
  5
165D4
330
165AA
100
AcDbEntity
  8
0
100
AcDbBlockEnd
  0
BLOCK
  5
16605
330
165EF
100
AcDbEntity
  8
0
100
AcDbBlockBegin
  2
*D9
 70
     1
 71
     0
 10
0.0
 20
0.0
 30
0.0
  3
*D9
  1

  0
LINE
  5
169AC
330
165EF
100
AcDbEntity
  8
AM_5
 62
     3
370
    13
100
AcDbLine
 10
0.0
 20
0.0
 30
0.0
 11
-0.0000000000000023
 21
-38.31042461320843
 31
0.0
  0
LINE
  5
169AD
330
165EF
100
AcDbEntity
  8
AM_5
 62
     3
370
    13
100
AcDbLine
 10
200.0000000000001
 20
2.999999999999943
 30
0.0
 11
200.0000000000001
 21
-38.31042461320843
 31
0.0
  0
LINE
  5
169AE
330
165EF
100
AcDbEntity
  8
AM_5
 62
     3
370
    13
100
AcDbLine
 10
2.499999999999998
 20
-37.31042461320843
 30
0.0
 11
197.5000000000001
 21
-37.31042461320843
 31
0.0
  0
INSERT
  5
169AF
330
165EF
100
AcDbEntity
  8
AM_5
 62
     3
370
    13
100
AcDbBlockReference
  2
_Open30
 10
-0.0000000000000023
 20
-37.31042461320843
 30
0.0
 41
2.5
 42
2.5
 43
2.5
 50
180.0
  0
INSERT
  5
169B0
330
165EF
100
AcDbEntity
  8
AM_5
 62
     3
370
    13
100
AcDbBlockReference
  2
_Open30
 10
200.0000000000001
 20
-37.31042461320843
 30
0.0
 41
2.5
 42
2.5
 43
2.5
  0
MTEXT
  5
169B1
330
165EF
100
AcDbEntity
  8
AM_5
 62
     2
100
AcDbMText
 10
100.2910570655371
 20
-33.9100505974604
 30
0.0
 40
3.8
 41
0.0
 71
     5
 72
     1
  1
200
 73
     1
 44
1.0
  0
POINT
  5
169B2
330
165EF
100
AcDbEntity
  8
Defpoints
 62
     0
100
AcDbPoint
 10
0.0
 20
0.0
 30
0.0
  0
POINT
  5
169B3
330
165EF
100
AcDbEntity
  8
Defpoints
 62
     0
100
AcDbPoint
 10
200.0000000000001
 20
2.999999999999943
 30
0.0
  0
POINT
  5
169B4
330
165EF
100
AcDbEntity
  8
Defpoints
 62
     0
100
AcDbPoint
 10
200.0000000000001
 20
-37.31042461320843
 30
0.0
  0
ENDBLK
  5
16606
330
165EF
100
AcDbEntity
  8
0
100
AcDbBlockEnd
  0
BLOCK
  5
166F3
330
166D3
100
AcDbEntity
  8
0
100
AcDbBlockBegin
  2
*D10
 70
     1
 71
     0
 10
0.0
 20
0.0
 30
0.0
  3
*D10
  1

  0
LINE
  5
169B5
330
166D3
100
AcDbEntity
  8
AM_5
100
AcDbLine
 10
96.5085979715511
 20
0.0974694206103806
 30
0.0
 11
95.67731177430139
 21
-2.260275955434732
 31
0.0
  0
LINE
  5
169B6
330
166D3
100
AcDbEntity
  8
AM_5
100
AcDbLine
 10
103.4914020284487
 20
19.90253057938933
 30
0.0
 11
106.4494656746045
 21
28.29237382091761
 31
0.0
  0
LINE
  5
169B7
330
166D3
100
AcDbEntity
  8
AM_5
100
AcDbLine
 10
106.4494656746045
 20
28.29237382091761
 30
0.0
 11
114.9779696116124
 21
28.2923738209176
 31
0.0
  0
LINE
  5
169B8
330
166D3
100
AcDbEntity
  8
AM_5
100
AcDbLine
 10
97.33988416880081
 20
2.455214796655497
 30
0.0
 11
102.6601158311989
 21
17.54478520334422
 31
0.0
  0
INSERT
  5
169B9
330
166D3
100
AcDbEntity
  8
AM_5
100
AcDbBlockReference
  2
_Open30
 10
97.33988416880081
 20
2.455214796655497
 30
0.0
 41
2.5
 42
2.5
 43
2.5
 50
70.57853462422291
  0
INSERT
  5
169BA
330
166D3
100
AcDbEntity
  8
AM_5
100
AcDbBlockReference
  2
_Open30
 10
102.6601158311989
 20
17.54478520334422
 30
0.0
 41
2.5
 42
2.5
 43
2.5
 50
250.5785346242229
  0
MTEXT
  5
169BB
330
166D3
100
AcDbEntity
  8
AM_5
 62
     2
100
AcDbMText
 10
111.4637176431085
 20
31.6923738209176
 30
0.0
 40
3.8
 41
0.0
 71
     5
 72
     1
  1
\U+220516
 73
     1
 44
1.0
  0
POINT
  5
169BC
330
166D3
100
AcDbEntity
  8
Defpoints
 62
     0
100
AcDbPoint
 10
102.6601158311989
 20
17.54478520334422
 30
0.0
  0
POINT
  5
169BD
330
166D3
100
AcDbEntity
  8
Defpoints
 62
     0
100
AcDbPoint
 10
97.33988416880081
 20
2.455214796655497
 30
0.0
  0
ENDBLK
  5
166F4
330
166D3
100
AcDbEntity
  8
0
100
AcDbBlockEnd
  0
BLOCK
  5
16733
330
166FA
100
AcDbEntity
  8
0
100
AcDbBlockBegin
  2
*D11
 70
     1
 71
     0
 10
0.0
 20
0.0
 30
0.0
  3
*D11
  1

  0
LINE
  5
169BE
330
166FA
100
AcDbEntity
  8
AM_5
100
AcDbLine
 10
-44.2825071884716
 20
19.25471236545348
 30
0.0
 11
-42.57489733546599
 21
21.08065557101005
 31
0.0
  0
LINE
  5
169BF
330
166FA
100
AcDbEntity
  8
AM_5
100
AcDbLine
 10
-61.35860571852778
 20
0.9952803098876473
 30
0.0
 11
-64.86303161573144
 21
-2.751994071969946
 31
0.0
  0
LINE
  5
169C0
330
166FA
100
AcDbEntity
  8
AM_5
100
AcDbLine
 10
-64.86303161573144
 20
-2.751994071969946
 30
0.0
 11
-88.73075762522049
 21
-2.751994071969939
 31
0.0
  0
LINE
  5
169C1
330
166FA
100
AcDbEntity
  8
AM_5
100
AcDbLine
 10
-45.9901170414772
 20
17.42876915989692
 30
0.0
 11
-59.65099586552217
 21
2.82122351544421
 31
0.0
  0
INSERT
  5
169C2
330
166FA
100
AcDbEntity
  8
AM_5
100
AcDbBlockReference
  2
_Open30
 10
-45.9901170414772
 20
17.42876915989692
 30
0.0
 41
2.5
 42
2.5
 43
2.5
 50
226.9180322824233
  0
INSERT
  5
169C3
330
166FA
100
AcDbEntity
  8
AM_5
100
AcDbBlockReference
  2
_Open30
 10
-59.65099586552217
 20
2.82122351544421
 30
0.0
 41
2.5
 42
2.5
 43
2.5
 50
46.91803228242331
  0
MTEXT
  5
169C4
330
166FA
100
AcDbEntity
  8
AM_5
 62
     2
100
AcDbMText
 10
-77.54689462047597
 20
3.815046610444751
 30
0.0
 40
3.8
 41
0.0
 71
     5
 72
     1
  1
最小加工径\P\U+220520
 73
     1
 44
1.0
  0
POINT
  5
169C5
330
166FA
100
AcDbEntity
  8
Defpoints
 62
     0
100
AcDbPoint
 10
-59.65099586552217
 20
2.82122351544421
 30
0.0
  0
POINT
  5
169C6
330
166FA
100
AcDbEntity
  8
Defpoints
 62
     0
100
AcDbPoint
 10
-45.9901170414772
 20
17.42876915989692
 30
0.0
  0
ENDBLK
  5
16734
330
166FA
100
AcDbEntity
  8
0
100
AcDbBlockEnd
  0
BLOCK
  5
1677D
330
1674E
100
AcDbEntity
  8
0
100
AcDbBlockBegin
  2
*D12
 70
     1
 71
     0
 10
0.0
 20
0.0
 30
0.0
  3
*D12
  1

  0
LINE
  5
169C7
330
1674E
100
AcDbEntity
  8
AM_5
 62
     3
370
    13
100
AcDbLine
 10
-52.82055645349965
 20
-0.062473201106986
 30
0.0
 11
-53.3796019847329
 21
-18.49111819884321
 31
0.0
  0
LINE
  5
169C8
330
1674E
100
AcDbEntity
  8
AM_5
 62
     3
370
    13
100
AcDbLine
 10
-52.82055645349965
 20
-4.105045467911626
 30
0.0
 11
-52.82055645349965
 21
-18.4995957629001
 31
0.0
  0
ARC
  5
169C9
330
1674E
100
AcDbEntity
  8
AM_5
 62
     3
370
    13
100
AcDbCircle
 10
-52.82055645349965
 20
-0.062473201106986
 30
0.0
 40
17.43712256179311
100
AcDbArc
 50
251.8190692779371
 51
260.0407477751471
  0
ARC
  5
169CA
330
1674E
100
AcDbEntity
  8
AM_5
 62
     3
370
    13
100
AcDbCircle
 10
-52.82055645349965
 20
-0.062473201106986
 30
0.0
 40
17.43712256179311
100
AcDbArc
 50
278.22167849721
 51
286.44335699442
  0
ARC
  5
169CB
330
1674E
100
AcDbEntity
  8
AM_5
 62
     3
370
    13
100
AcDbCircle
 10
-52.82055645349965
 20
-0.062473201106986
 30
0.0
 40
17.43712256179311
100
AcDbArc
 50
268.2624262723571
 51
270.0
  0
INSERT
  5
169CC
330
1674E
100
AcDbEntity
  8
AM_5
 62
     3
370
    13
100
AcDbBlockReference
  2
_Open30
 10
-53.34928025045145
 20
-17.49157800834053
 30
0.0
 41
2.5
 42
2.5
 43
2.5
 50
354.1515870237521
  0
INSERT
  5
169CD
330
1674E
100
AcDbEntity
  8
AM_5
 62
     3
370
    13
100
AcDbBlockReference
  2
_Open30
 10
-52.82055645349966
 20
-17.4995957629001
 30
0.0
 41
2.5
 42
2.5
 43
2.5
 50
184.110839248605
  0
MTEXT
  5
169CE
330
1674E
100
AcDbEntity
  8
AM_5
 62
     2
100
AcDbMText
 10
-57.80431433840239
 20
-13.18468593713472
 30
0.0
 40
3.8
 41
0.0
 71
     5
 72
     1
  1
2°
 11
0.9348470333412767
 21
-0.3550507347591523
 31
0.0
 73
     1
 44
1.0
  0
POINT
  5
169CF
330
1674E
100
AcDbEntity
  8
Defpoints
 62
     0
100
AcDbPoint
 10
-52.99682173452841
 20
-17.4987048405897
 30
0.0
  0
POINT
  5
169D0
330
1674E
100
AcDbEntity
  8
Defpoints
 62
     0
100
AcDbPoint
 10
-52.82055645349965
 20
22.59843621816346
 30
0.0
  0
POINT
  5
169D1
330
1674E
100
AcDbEntity
  8
Defpoints
 62
     0
100
AcDbPoint
 10
-52.80593694918151
 20
0.4194511504348455
 30
0.0
  0
POINT
  5
169D2
330
1674E
100
AcDbEntity
  8
Defpoints
 62
     0
100
AcDbPoint
 10
-52.51485679171572
 20
10.01475705689461
 30
0.0
  0
POINT
  5
169D3
330
1674E
100
AcDbEntity
  8
Defpoints
 62
     0
100
AcDbPoint
 10
-52.82055645349965
 20
-4.105045467911626
 30
0.0
  0
ENDBLK
  5
1677E
330
1674E
100
AcDbEntity
  8
0
100
AcDbBlockEnd
  0
ENDSEC
  0
SECTION
  2
ENTITIES
  0
LINE
  5
EA92
330
1F
100
AcDbEntity
  8
AM_0
100
AcDbLine
 10
199.0000000000001
 20
7.216117818584962
 30
0.0
 11
112.4999999999997
 21
7.216117818584991
 31
0.0
  0
LINE
  5
EACB
330
1F
100
AcDbEntity
  8
AM_0
100
AcDbLine
 10
200.0000000000001
 20
2.999999999999943
 30
0.0
 11
200.0000000000001
 21
16.99999999999988
 31
0.0
  0
SPLINE
  5
EACC
330
1F
100
AcDbEntity
  8
AM_0
100
AcDbSpline
210
0.0
220
0.0
230
1.0
 70
    12
 71
     2
 72
     6
 73
     3
 74
     0
 42
0.0000000001
 43
0.0000000001
 40
0.0
 40
0.0
 40
0.0
 40
5.656854249492205
 40
5.656854249492205
 40
5.656854249492205
 10
199.0000000000001
 20
12.7838821814148
 30
0.0
 41
1.0
 10
199.96875
 20
9.999999999999886
 30
0.0
 41
1.066666666666671
 10
199.0000000000001
 20
7.216117818584962
 30
0.0
 41
1.0
  0
LINE
  5
EACD
330
1F
100
AcDbEntity
  8
AM_0
100
AcDbLine
 10
199.0000000000001
 20
1.999999999999943
 30
0.0
 11
199.0000000000001
 21
7.216117818584962
 31
0.0
  0
LINE
  5
EACE
330
1F
100
AcDbEntity
  8
AM_0
100
AcDbLine
 10
200.0000000000001
 20
2.999999999999943
 30
0.0
 11
199.0000000000001
 21
1.999999999999943
 31
0.0
  0
LINE
  5
EACF
330
1F
100
AcDbEntity
  8
AM_0
100
AcDbLine
 10
199.0000000000001
 20
12.7838821814148
 30
0.0
 11
199.0000000000001
 21
17.99999999999988
 31
0.0
  0
LINE
  5
EAD0
330
1F
100
AcDbEntity
  8
AM_0
100
AcDbLine
 10
200.0000000000001
 20
16.99999999999988
 30
0.0
 11
199.0000000000001
 21
17.99999999999988
 31
0.0
  0
LINE
  5
EB5E
330
1F
100
AcDbEntity
  8
AM_0
100
AcDbLine
 10
198.9999999999999
 20
-61.91140833546604
 30
0.0
 11
99.99999999999972
 21
-61.91140833546589
 31
0.0
  0
LINE
  5
EB7E
330
1F
100
AcDbEntity
  8
AM_0
100
AcDbLine
 10
200.0
 20
-76.41140833546601
 30
0.0
 11
200.0
 21
-62.41140833546604
 31
0.0
  0
LINE
  5
EB7F
330
1F
100
AcDbEntity
  8
AM_0
100
AcDbLine
 10
199.0
 20
-76.91140833546609
 30
0.0
 11
199.0
 21
-61.91140833546604
 31
0.0
  0
LINE
  5
EB80
330
1F
100
AcDbEntity
  8
AM_0
100
AcDbLine
 10
200.0
 20
-76.41140833546601
 30
0.0
 11
199.5
 21
-76.91140833546604
 31
0.0
  0
SPLINE
  5
EB81
330
1F
100
AcDbEntity
  8
AM_0
100
AcDbSpline
210
0.0
220
0.0
230
1.0
 70
    28
 71
     2
 72
     6
 73
     3
 74
     0
 42
0.0000000001
 43
0.0000000001
 40
0.0
 40
0.0
 40
0.0
 40
2.828427124746073
 40
2.828427124746073
 40
2.828427124746073
 10
199.0
 20
-76.91140833546604
 30
0.0
 41
1.0
 10
199.5000000000002
 20
-76.91140833546601
 30
0.0
 41
1.033333333333335
 10
199.5
 20
-76.91140833546601
 30
0.0
 41
1.033333333333335
  0
LINE
  5
EB82
330
1F
100
AcDbEntity
  8
AM_0
100
AcDbLine
 10
200.0
 20
-62.41140833546604
 30
0.0
 11
199.5
 21
-61.91140833546604
 31
0.0
  0
SPLINE
  5
EB83
330
1F
100
AcDbEntity
  8
AM_0
100
AcDbSpline
210
0.0
220
0.0
230
1.0
 70
    28
 71
     2
 72
     6
 73
     3
 74
     0
 42
0.0000000001
 43
0.0000000001
 40
2.828427124746073
 40
2.828427124746073
 40
2.828427124746073
 40
5.656854249492205
 40
5.656854249492205
 40
5.656854249492205
 10
199.5
 20
-61.91140833546604
 30
0.0
 41
1.033333333333335
 10
199.4999999999999
 20
-61.91140833546606
 30
0.0
 41
1.033333333333336
 10
199.0
 20
-61.91140833546604
 30
0.0
 41
1.0
  0
LINE
  5
EF21
330
1F
100
AcDbEntity
  8
AM_7
100
AcDbLine
 10
206.7511956964343
 20
9.999999999999908
 30
0.0
 11
-3.41554845196606
 21
9.999999999999993
 31
0.0
1001
GENIUS_GENODEF_13
1002
{
1000
HIER
1070
     0
1002
}
1002
{
1000
MANEDIT
1070
     0
1002
}
1002
{
1000
NOSEL
1070
     0
1002
}
1002
{
1000
BEHIND
1070
     0
1002
}
1002
{
1000
REACTOR
1002
}
1001
GENIUS_GENOBJ-N-CEN_13
1002
{
1000
OWNER
1000
GEN
1002
}
  0
ARC
  5
EF22
330
1F
100
AcDbEntity
  8
AM_0
100
AcDbCircle
 10
99.99999999999972
 20
9.99999999999995
 30
0.0
 40
8.0
100
AcDbArc
 50
200.3641348063178
 51
339.6358651936822
  0
ARC
  5
EF34
330
1F
100
AcDbEntity
  8
AM_0
100
AcDbCircle
 10
99.99999999999972
 20
9.99999999999995
 30
0.0
 40
8.0
100
AcDbArc
 50
20.36413480631778
 51
159.6358651936822
  0
LINE
  5
EF46
330
1F
100
AcDbEntity
  8
AM_0
100
AcDbLine
 10
112.4999999999997
 20
17.99999999999992
 30
0.0
 11
199.0000000000001
 21
17.99999999999988
 31
0.0
  0
LINE
  5
EF47
330
1F
100
AcDbEntity
  8
AM_0
100
AcDbLine
 10
112.4999999999997
 20
12.78388218141485
 30
0.0
 11
199.0000000000001
 21
12.7838821814148
 31
0.0
  0
LINE
  5
EF49
330
1F
100
AcDbEntity
  8
AM_0
100
AcDbLine
 10
112.4999999999997
 20
1.999999999999972
 30
0.0
 11
199.0000000000001
 21
1.999999999999972
 31
0.0
  0
LINE
  5
EF4A
330
1F
100
AcDbEntity
  8
AM_0
100
AcDbLine
 10
107.4999999999997
 20
12.78388218141496
 30
0.0
 11
107.4999999999997
 21
7.216117818584934
 31
0.0
  0
LINE
  5
EF4B
330
1F
100
AcDbEntity
  8
AM_0
100
AcDbLine
 10
92.49999999999966
 20
12.78388218141496
 30
0.0
 11
92.49999999999966
 21
7.216117818584934
 31
0.0
  0
LINE
  5
EF61
330
1F
100
AcDbEntity
  8
AM_7
  6
AM_ISO08W050x2
100
AcDbLine
 10
99.99999999999972
 20
21.20813857451876
 30
0.0
 11
99.99999999999972
 21
-1.18390459050093
 31
0.0
1001
GENIUS_GENODEF_13
1002
{
1000
HIER
1070
     0
1002
}
1002
{
1000
MANEDIT
1070
     0
1002
}
1002
{
1000
NOSEL
1070
     0
1002
}
1002
{
1000
BEHIND
1070
     0
1002
}
1002
{
1000
REACTOR
1002
}
1001
GENIUS_GENOBJ-N-CEN_13
1002
{
1000
OWNER
1000
GEN
1002
}
  0
LINE
  5
EF96
330
1F
100
AcDbEntity
  8
AM_7
100
AcDbLine
 10
-3.023854710452724
 20
-69.41140833546592
 30
0.0
 11
206.7511956964342
 21
-69.41140833546598
 31
0.0
1001
GENIUS_GENODEF_13
1002
{
1000
HIER
1070
     0
1002
}
1002
{
1000
MANEDIT
1070
     0
1002
}
1002
{
1000
NOSEL
1070
     0
1002
}
1002
{
1000
BEHIND
1070
     0
1002
}
1002
{
1000
REACTOR
1002
}
1001
GENIUS_GENOBJ-N-CEN_13
1002
{
1000
OWNER
1000
GEN
1002
}
  0
LINE
  5
EF99
330
1F
100
AcDbEntity
  8
AM_0
100
AcDbLine
 10
99.99999999999972
 20
-76.91140833546587
 30
0.0
 11
198.9999999999999
 21
-76.91140833546604
 31
0.0
  0
LINE
  5
EFA0
330
1F
100
AcDbEntity
  8
AM_5
100
AcDbLine
 10
0.3972656262079681
 20
0.0
 30
0.0
 11
-2.12986850650293
 21
0.0
 31
0.0
  0
ARC
  5
EFB8
330
1F
100
AcDbEntity
  8
AM_0
100
AcDbCircle
 10
4.415131313068514
 20
5.640208224212003
 30
0.0
 40
0.2499999999998634
100
AcDbArc
 50
316.9722150900681
 51
103.0277849099401
  0
ARC
  5
EFB9
330
1F
100
AcDbEntity
  8
AM_0
100
AcDbCircle
 10
4.415131313068514
 20
4.480208224212205
 30
0.0
 40
0.2499999999998634
100
AcDbArc
 50
256.9722150900631
 51
43.02778490993651
  0
CIRCLE
  5
EFBA
330
1F
100
AcDbEntity
  8
AM_0
100
AcDbCircle
 10
3.410541844678733
 20
5.060208224212076
 30
0.0
 40
2.15
  0
CIRCLE
  5
EFBC
330
1F
100
AcDbEntity
  8
AM_0
100
AcDbCircle
 10
3.410541844678733
 20
5.060208224212076
 30
0.0
 40
1.803589838486232
  0
ARC
  5
EFBD
330
1F
100
AcDbEntity
  8
AM_0
100
AcDbCircle
 10
5.036500768384713
 20
5.060208224212076
 30
0.0
 40
0.6
100
AcDbArc
 50
136.9722150900634
 51
223.0277849099365
  0
ARC
  5
EFBE
330
1F
100
AcDbEntity
  8
AM_0
100
AcDbCircle
 10
3.410541844678733
 20
6.220208224211874
 30
0.0
 40
0.2499999999998634
100
AcDbArc
 50
16.97221509006815
 51
163.0277849099318
  0
ARC
  5
EFBF
330
1F
100
AcDbEntity
  8
AM_0
100
AcDbCircle
 10
2.405952376288951
 20
5.640208224212003
 30
0.0
 40
0.2499999999998634
100
AcDbArc
 50
76.97221509006819
 51
223.0277849099412
  0
ARC
  5
EFC0
330
1F
100
AcDbEntity
  8
AM_0
100
AcDbCircle
 10
2.597562382825799
 20
6.468329957651449
 30
0.0
 40
0.6
100
AcDbArc
 50
256.9722150900631
 51
343.0277849099371
  0
ARC
  5
EFC1
330
1F
100
AcDbEntity
  8
AM_0
100
AcDbCircle
 10
2.405952376288951
 20
4.480208224212205
 30
0.0
 40
0.2499999999998634
100
AcDbArc
 50
136.9722150900634
 51
283.0277849099369
  0
ARC
  5
EFC2
330
1F
100
AcDbEntity
  8
AM_0
100
AcDbCircle
 10
3.410541844678733
 20
3.900208224212335
 30
0.0
 40
0.2499999999998634
100
AcDbArc
 50
196.9722150900682
 51
343.0277849099334
  0
ARC
  5
EFC3
330
1F
100
AcDbEntity
  8
AM_0
100
AcDbCircle
 10
2.597562382825799
 20
3.652086490772703
 30
0.0
 40
0.6
100
AcDbArc
 50
16.97221509006296
 51
103.0277849099349
  0
ARC
  5
EFC4
330
1F
100
AcDbEntity
  8
AM_0
100
AcDbCircle
 10
1.784582920972753
 20
5.060208224212076
 30
0.0
 40
0.6
100
AcDbArc
 50
316.9722150900635
 51
43.02778490993651
  0
ARC
  5
EFC5
330
1F
100
AcDbEntity
  8
AM_0
100
AcDbCircle
 10
4.223521306531779
 20
3.65208649077276
 30
0.0
 40
0.6
100
AcDbArc
 50
76.97221509006315
 51
163.0277849099371
  0
ARC
  5
EFC6
330
1F
100
AcDbEntity
  8
AM_0
100
AcDbCircle
 10
4.223521306531779
 20
6.468329957651392
 30
0.0
 40
0.6
100
AcDbArc
 50
196.972215090063
 51
283.027784909935
  0
LINE
  5
EFDE
330
1F
100
AcDbEntity
  8
AM_7
  6
AM_ISO08W050x2
100
AcDbLine
 10
3.410541844678733
 20
1.093871949145822
 30
0.0
 11
3.410541844678733
 21
9.344483584540214
 31
0.0
1001
GENIUS_GENODEF_13
1002
{
1000
HIER
1070
     0
1002
}
1002
{
1000
MANEDIT
1070
     0
1002
}
1002
{
1000
NOSEL
1070
     0
1002
}
1002
{
1000
BEHIND
1070
     0
1002
}
1002
{
1000
REACTOR
1002
}
1001
GENIUS_GENOBJ-N-CEN_13
1002
{
1000
OWNER
1000
GEN
1002
}
  0
LINE
  5
EFE4
330
1F
100
AcDbEntity
  8
AM_7
  6
AM_ISO08W050x2
100
AcDbLine
 10
6.416802073687904
 20
5.060208224212076
 30
0.0
 11
-0.500067311891371
 21
5.06020822421209
 31
0.0
1001
GENIUS_GENODEF_13
1002
{
1000
HIER
1070
     0
1002
}
1002
{
1000
MANEDIT
1070
     0
1002
}
1002
{
1000
NOSEL
1070
     0
1002
}
1002
{
1000
BEHIND
1070
     0
1002
}
1002
{
1000
REACTOR
1002
}
1001
GENIUS_GENOBJ-N-CEN_13
1002
{
1000
OWNER
1000
GEN
1002
}
  0
CIRCLE
  5
F002
330
1F
100
AcDbEntity
  8
AM_11
  6
ACJISTGB
100
AcDbCircle
 10
-52.82055645349965
 20
10.12499633767057
 30
0.0
 40
10.0
  0
LINE
  5
F020
330
1F
100
AcDbEntity
  8
AM_7
  6
AM_ISO08W050x2
100
AcDbLine
 10
-52.82055645349965
 20
22.59843621816346
 30
0.0
 11
-52.82055645349965
 21
-4.105045467911623
 31
0.0
1001
GENIUS_GENODEF_13
1002
{
1000
HIER
1070
     0
1002
}
1002
{
1000
MANEDIT
1070
     0
1002
}
1002
{
1000
NOSEL
1070
     0
1002
}
1002
{
1000
BEHIND
1070
     0
1002
}
1002
{
1000
REACTOR
1002
}
1001
GENIUS_GENOBJ-N-CEN_13
1002
{
1000
OWNER
1000
GEN
1002
}
  0
LINE
  5
F032
330
1F
100
AcDbEntity
  8
AM_7
  6
AM_ISO08W050x2
100
AcDbLine
 10
-65.86701771606977
 20
9.999996337670467
 30
0.0
 11
-39.33653493758993
 21
9.99999633767046
 31
0.0
1001
GENIUS_GENODEF_13
1002
{
1000
HIER
1070
     0
1002
}
1002
{
1000
MANEDIT
1070
     0
1002
}
1002
{
1000
NOSEL
1070
     0
1002
}
1002
{
1000
BEHIND
1070
     0
1002
}
1002
{
1000
REACTOR
1002
}
1001
GENIUS_GENOBJ-N-CEN_13
1002
{
1000
OWNER
1000
GEN
1002
}
  0
DIMENSION
  5
10C41
330
1F
100
AcDbEntity
  8
AM_5
100
AcDbDimension
  2
*D3
 10
-0.0000000000000012
 20
-89.2035229750752
 30
0.0
 11
8.999999999999886
 21
-85.8035229750752
 31
0.0
 70
    32
  1
<>
 71
     5
 42
17.99999999999977
  3
AM_JIS$0
100
AcDbAlignedDimension
 13
17.99999999999977
 23
-76.91140833546598
 33
0.0
 14
0.0
 24
-69.41140833546592
 34
0.0
100
AcDbRotatedDimension
1001
GENIUS_GENDTOL_13
1000

1000
h7
1000

1040
0.0
1001
ACAD
1000
DSTYLE
1002
{
1070
   271
1070
     0
1002
}
  0
LINE
  5
11408
330
1F
100
AcDbEntity
  8
AM_5
100
AcDbLine
 10
-3.448632220920104
 20
-69.10969211146522
 30
0.0
 11
-0.0000000000013642
 21
-69.41140833546592
 31
0.0
  0
ELLIPSE
  5
11CF1
330
1F
100
AcDbEntity
  8
AM_11
  6
ACJISTGB
100
AcDbEllipse
 10
6.446046508288191
 20
-69.41140833546598
 30
0.0
 11
19.56893852107767
 21
7.469803318136497
 31
0.0
210
0.0
220
0.0
230
1.0
 40
0.0912091595722708
 41
-1.140432518940493
 42
0.0175646441857331
  0
LINE
  5
136DD
330
1F
100
AcDbEntity
  8
AM_0
100
AcDbLine
 10
27.24999999999977
 20
-76.91140833546587
 30
0.0
 11
99.99999999999972
 21
-76.91140833546587
 31
0.0
  0
LINE
  5
136DE
330
1F
100
AcDbEntity
  8
AM_0
100
AcDbLine
 10
99.99999999999972
 20
-61.91140833546589
 30
0.0
 11
29.73990228902983
 21
-61.91140833546587
 31
0.0
  0
LINE
  5
136DF
330
1F
100
AcDbEntity
  8
AM_0
100
AcDbLine
 10
58.62328496395287
 20
17.9999999999999
 30
0.0
 11
87.49999999999966
 21
17.99999999999989
 31
0.0
  0
LINE
  5
136E0
330
1F
100
AcDbEntity
  8
AM_0
100
AcDbLine
 10
27.24999999999966
 20
2.000000000000014
 30
0.0
 11
87.49999999999966
 21
2.0
 31
0.0
  0
LINE
  5
136E1
330
1F
100
AcDbEntity
  8
AM_0
100
AcDbLine
 10
27.24999999999977
 20
12.78388218141483
 30
0.0
 11
87.49999999999966
 21
12.78388218141482
 31
0.0
  0
LINE
  5
136E2
330
1F
100
AcDbEntity
  8
AM_0
100
AcDbLine
 10
87.49999999999966
 20
7.216117818584962
 30
0.0
 11
29.7399022890296
 21
7.216117818584976
 31
0.0
  0
LINE
  5
136E5
330
1F
100
AcDbEntity
  8
AM_0
100
AcDbLine
 10
55.96430699015366
 20
16.78258523496835
 30
0.0
 11
27.24999999999977
 21
16.78258523496835
 31
0.0
  0
LINE
  5
136E6
330
1F
100
AcDbEntity
  8
AM_0
100
AcDbLine
 10
27.24999999999977
 20
17.8244743009699
 30
0.0
 11
55.96430699015366
 21
17.8244743009699
 31
0.0
  0
LINE
  5
136E9
330
1F
100
AcDbEntity
  8
AM_0
100
AcDbLine
 10
1.439878668415645
 20
-78.63095279275873
 30
0.0
 11
13.79999999999984
 21
-78.63095279275873
 31
0.0
  0
SPLINE
  5
136EA
330
1F
100
AcDbEntity
  8
AM_0
100
AcDbSpline
210
0.0
220
0.0
230
1.0
 70
     8
 71
     3
 72
    20
 73
    16
 74
     0
 42
0.0000000001
 43
0.0000000001
 40
13.75287347028783
 40
13.75287347028783
 40
13.75287347028783
 40
13.75287347028783
 40
13.79305993572931
 40
13.79305993572931
 40
14.73252436578133
 40
14.73252436578133
 40
15.67198879583336
 40
15.67198879583336
 40
16.71342860406229
 40
16.71342860406229
 40
17.75486841229122
 40
17.75486841229122
 40
18.79630822052015
 40
18.79630822052015
 40
19.33209944944574
 40
19.33209944944574
 40
19.33209944944574
 40
19.33209944944574
 10
13.79999999999984
 20
-74.4980707627987
 30
0.0
 10
13.78853933123969
 20
-74.4921913975285
 30
0.0
 10
13.7771257298117
 20
-74.48628637523825
 30
0.0
 10
13.50005211842608
 20
-74.34172904251489
 30
0.0
 10
13.22360295900069
 20
-74.16849211960476
 30
0.0
 10
12.71366960902947
 20
-73.77189539485556
 30
0.0
 10
12.48015256622591
 20
-73.5482803248282
 30
0.0
 10
12.07030416969803
 20
-73.07921257724388
 30
0.0
 10
11.87226047445938
 20
-72.80142358140631
 30
0.0
 10
11.52954534388448
 20
-72.19667574151384
 30
0.0
 10
11.38474014384724
 20
-71.86973155282692
 30
0.0
 10
11.155400539222
 20
-71.1878611471559
 30
0.0
 10
11.07053864394914
 20
-70.83236657388787
 30
0.0
 10
10.98668523124366
 20
-70.29120513251453
 30
0.0
 10
10.96594648219912
 20
-70.10689479827096
 30
0.0
 10
10.95257718100231
 20
-69.92397559902685
 30
0.0
  0
SPLINE
  5
136EB
330
1F
100
AcDbEntity
  8
AM_0
100
AcDbSpline
210
0.0
220
0.0
230
1.0
 70
     8
 71
     3
 72
    12
 73
     8
 74
     0
 42
0.0000000001
 43
0.0000000001
 40
22.26019161173728
 40
22.26019161173728
 40
22.26019161173728
 40
22.26019161173728
 40
22.65835279454108
 40
22.65835279454108
 40
24.0290004877688
 40
24.0290004877688
 40
24.5207029498545
 40
24.5207029498545
 40
24.5207029498545
 40
24.5207029498545
 10
10.95257718100231
 20
-69.92397559902685
 30
0.0
 10
11.0578844699711
 20
-69.89182740518515
 30
0.0
 10
11.16313070043668
 20
-69.85749235575571
 30
0.0
 10
11.62788693586003
 20
-69.69648167442711
 30
0.0
 10
12.01072587130216
 20
-69.53830513178684
 30
0.0
 10
12.54244769882632
 20
-69.27736697228772
 30
0.0
 10
12.68391956964524
 20
-69.20416370489562
 30
0.0
 10
12.82578089058518
 20
-69.12680602591132
 30
0.0
  0
ELLIPSE
  5
136ED
330
1F
100
AcDbEntity
  8
AM_0
100
AcDbEllipse
 10
0.5272913652116813
 20
-69.41140833546587
 30
0.0
 11
0.9603162446495204
 21
-9.249849440798348
 31
0.0
210
0.0
220
0.0
230
0.9999999999999999
 40
0.0549570576712038
 41
5.059474271887824
 42
6.196309561240246
  0
SPLINE
  5
136EE
330
1F
100
AcDbEntity
  8
AM_0
100
AcDbSpline
210
0.0
220
0.0
230
1.0
 70
    11
 71
     3
 72
    58
 73
    54
 74
     0
 42
0.0000000001
 43
0.0000000001
 40
0.0
 40
0.0
 40
0.0
 40
0.0
 40
0.285735439616287
 40
0.285735439616287
 40
0.5714708792325739
 40
0.5714708792325739
 40
0.8572063188488608
 40
0.8572063188488608
 40
1.142941758465148
 40
1.142941758465148
 40
1.452881114608906
 40
1.452881114608906
 40
1.762820470752664
 40
1.762820470752664
 40
2.072759826896422
 40
2.072759826896422
 40
2.38269918304018
 40
2.38269918304018
 40
3.060283277731589
 40
3.060283277731589
 40
3.737867372422997
 40
3.737867372422997
 40
4.359064172787367
 40
4.359064172787367
 40
4.669662572969552
 40
4.669662572969552
 40
4.980260973151736
 40
4.980260973151736
 40
5.259775812456892
 40
5.259775812456892
 40
5.539290651762049
 40
5.539290651762049
 40
6.098320330372362
 40
6.098320330372362
 40
6.794606220162584
 40
6.794606220162584
 40
7.490892109952807
 40
7.490892109952807
 40
7.815600095565342
 40
7.815600095565342
 40
8.140308081177878
 40
8.140308081177878
 40
8.465016066790415
 40
8.465016066790415
 40
8.789724052402951
 40
8.789724052402951
 40
9.072623639011052
 40
9.072623639011052
 40
9.355523225619155
 40
9.355523225619155
 40
9.638422812227258
 40
9.638422812227258
 40
9.921322398835361
 40
9.921322398835361
 40
9.921322398835361
 40
9.921322398835361
 10
2.651118549350258
 20
-78.157041112244
 30
0.0
 10
2.555873402811471
 20
-78.157041112244
 30
0.0
 10
2.45762131826848
 20
-78.15386451324798
 30
0.0
 10
2.263159555107677
 20
-78.14028353469826
 30
0.0
 10
2.166948628064915
 20
-78.12987784623417
 30
0.0
 10
1.983854741793721
 20
-78.101747090289
 30
0.0
 10
1.896788710773876
 20
-78.08397949292024
 30
0.0
 10
1.737512670993624
 20
-78.0418088542425
 30
0.0
 10
1.665307870851962
 20
-78.0173846604124
 30
0.0
 10
1.533979499101406
 20
-77.96170936234654
 30
0.0
 10
1.472083961897397
 20
-77.92822073409391
 30
0.0
 10
1.366762986462959
 20
-77.85297249618219
 30
0.0
 10
1.323325169215309
 20
-77.8111988402558
 30
0.0
 10
1.257138342452208
 20
-77.72139143652501
 30
0.0
 10
1.234323621866793
 20
-77.67327794095289
 30
0.0
 10
1.208376148514503
 20
-77.57389759055917
 30
0.0
 10
1.20523334098732
 20
-77.52262989615122
 30
0.0
 10
1.220210197542087
 20
-77.36132206440408
 30
0.0
 10
1.270812946273509
 20
-77.23565778022328
 30
0.0
 10
1.447112282422154
 20
-76.98542316385087
 30
0.0
 10
1.572584067615026
 20
-76.86104539911608
 30
0.0
 10
1.849232813512799
 20
-76.65858377321396
 30
0.0
 10
2.017487526950504
 20
-76.56309204907052
 30
0.0
 10
2.301962868762416
 20
-76.46035009629571
 30
0.0
 10
2.402107757457088
 20
-76.43273947879786
 30
0.0
 10
2.607020836073616
 20
-76.39536303316075
 30
0.0
 10
2.711800628423021
 20
-76.38563764111126
 30
0.0
 10
2.908505041585499
 20
-76.38563764111126
 30
0.0
 10
3.003457126523927
 20
-76.39355959365841
 30
0.0
 10
3.189150416197094
 20
-76.42564131667788
 30
0.0
 10
3.279898780037229
 20
-76.44977496580566
 30
0.0
 10
3.53623169642708
 20
-76.54143431903535
 30
0.0
 10
3.685804109075775
 20
-76.62892150237587
 30
0.0
 10
3.944626137892215
 20
-76.83051375132339
 30
0.0
 10
4.058973111065939
 20
-76.96302255321885
 30
0.0
 10
4.202797737600463
 20
-77.22698823400157
 30
0.0
 10
4.231950084494542
 20
-77.35826720427431
 30
0.0
 10
4.216465612908337
 20
-77.52504229010043
 30
0.0
 10
4.202826861164226
 20
-77.57827002011331
 30
0.0
 10
4.155340573587978
 20
-77.68063834715227
 30
0.0
 10
4.121488218744048
 20
-77.72978248480271
 30
0.0
 10
4.033802810465772
 20
-77.82087489287906
 30
0.0
 10
3.979897727960179
 20
-77.86289755497506
 30
0.0
 10
3.85510786882935
 20
-77.93809547786125
 30
0.0
 10
3.784210669295248
 20
-77.97128546905302
 30
0.0
 10
3.641443300425067
 20
-78.02464027307312
 30
0.0
 10
3.566603256980784
 20
-78.04750492457509
 30
0.0
 10
3.403723903941796
 20
-78.08719251815117
 30
0.0
 10
3.315686520900158
 20
-78.10403258350914
 30
0.0
 10
3.131871674108879
 20
-78.13083182625124
 30
0.0
 10
3.035941126401781
 20
-78.14082534926578
 30
0.0
 10
2.842715274935813
 20
-78.15392935346273
 30
0.0
 10
2.745418411552919
 20
-78.157041112244
 30
0.0
 10
2.651118549350258
 20
-78.157041112244
 30
0.0
  0
ELLIPSE
  5
136EF
330
1F
100
AcDbEntity
  8
AM_0
100
AcDbEllipse
 10
3.410541844678619
 20
-69.53319801158722
 30
0.0
 11
-1.49428674424113
 21
0.1307942123537674
 31
0.0
210
0.0
220
0.0
230
1.0
 40
0.0347688607281558
 41
1.192685027912557
 42
7.475870335092142
  0
LINE
  5
136F0
330
1F
100
AcDbEntity
  8
AM_0
100
AcDbLine
 10
6.468039862667297
 20
-69.87029400632702
 30
0.0
 11
0.5793211832140059
 21
-69.4605599559564
 31
0.0
  0
LINE
  5
136F1
330
1F
100
AcDbEntity
  8
AM_0
100
AcDbLine
 10
1.118432644635163
 20
-69.14850104840298
 30
0.0
 11
7.639832259795071
 21
-69.86705242233518
 31
0.0
  0
ELLIPSE
  5
136F2
330
1F
100
AcDbEntity
  8
AM_0
100
AcDbEllipse
 10
2.703406004834847
 20
-59.19033146401301
 30
0.0
 11
16.59837429199742
 21
-3.658149946829843
 31
0.0
210
0.0
220
0.0
230
0.9999999999999999
 40
0.5862043413448927
 41
4.893914792520235
 42
5.077889360961637
  0
LINE
  5
136F3
330
1F
100
AcDbEntity
  8
AM_0
100
AcDbLine
 10
6.46803986269731
 20
-69.87029400632906
 30
0.0
 11
3.013752364075458
 21
-69.62994643922701
 31
0.0
  0
ELLIPSE
  5
136F4
330
1F
100
AcDbEntity
  8
AM_0
100
AcDbEllipse
 10
3.940155907089206
 20
-69.41140833546587
 30
0.0
 11
105.7430439017847
 21
-9.244449650786571
 31
0.0
210
0.0
220
0.0
230
1.0
 40
0.0030299052854035
 41
4.703562131808268
 42
4.748222702881842
  0
LINE
  5
136F6
330
1F
100
AcDbEntity
  8
AM_0
100
AcDbLine
 10
0.2191526956341932
 20
-71.4810542358718
 30
0.0
 11
0.0000027560060971
 21
-69.3975260296935
 31
0.0
  0
LINE
  5
136F7
330
1F
100
AcDbEntity
  8
AM_0
100
AcDbLine
 10
0.3581260369743404
 20
-72.60621284907583
 30
0.0
 11
2.731418168482492
 21
-72.77134530839138
 31
0.0
  0
ELLIPSE
  5
136F8
330
1F
100
AcDbEntity
  8
AM_0
100
AcDbEllipse
 10
0.398478310408791
 20
-69.43230999765763
 30
0.0
 11
-0.3984764651309682
 21
0.0348784566276713
 31
0.0
210
0.0
220
0.0
230
1.0
 40
0.0347688607281558
 41
6.233692712483493
 42
8.3280878148767
  0
LINE
  5
136F9
330
1F
100
AcDbEntity
  8
AM_0
100
AcDbLine
 10
0.0005497774761807
 20
-69.39678883114772
 30
0.0
 11
0.5034184515751576
 21
-69.10570867368193
 31
0.0
  0
LINE
  5
136FA
330
1F
100
AcDbEntity
  8
AM_0
100
AcDbLine
 10
0.2191526956322605
 20
-71.48105423591241
 30
0.0
 11
0.3581260369743404
 21
-72.60621284907583
 31
0.0
  0
ELLIPSE
  5
136FB
330
1F
100
AcDbEntity
  8
AM_0
100
AcDbEllipse
 10
0.901346984507768
 20
-69.14122984019184
 30
0.0
 11
-0.3984764651309682
 21
0.0348784566276713
 31
0.0
210
0.0
220
0.0
230
1.0
 40
0.0347688607281558
 41
4.139297610090379
 42
6.23369271248335
  0
LINE
  5
136FC
330
1F
100
AcDbEntity
  8
AM_0
100
AcDbLine
 10
0.5396612389504298
 20
-69.08472992360015
 30
0.0
 11
3.590730052395543
 21
-69.42090771015478
 31
0.0
  0
LINE
  5
136FE
330
1F
100
AcDbEntity
  8
AM_0
100
AcDbLine
 10
0.5413106877751943
 20
-69.10377187422432
 30
0.0
 11
0.5396612389141637
 21
-69.08472992378682
 31
0.0
  0
ELLIPSE
  5
136FF
330
1F
100
AcDbEntity
  8
AM_0
100
AcDbEllipse
 10
-32.55141121969734
 20
-69.41140833546584
 30
0.0
 11
105.7430439574384
 21
-9.244449650779055
 31
0.0
210
0.0
220
0.0
230
1.0
 40
0.0030299052858607
 41
5.035612643777869
 42
5.052823205826083
  0
LINE
  5
13700
330
1F
100
AcDbEntity
  8
AM_0
100
AcDbLine
 10
3.013752364068409
 20
-69.62994643930892
 30
0.0
 11
2.978781475797064
 21
-69.65018896420816
 31
0.0
  0
ELLIPSE
  5
13701
330
1F
100
AcDbEntity
  8
AM_0
100
AcDbEllipse
 10
3.459666769389401
 20
-69.41140833546587
 30
0.0
 11
0.8277233176862636
 21
9.24990996725727
 31
0.0
210
0.0
220
0.0
230
1.0
 40
0.0493060098129833
 41
1.601025410304492
 42
1.950286484338534
  0
ELLIPSE
  5
13703
330
1F
100
AcDbEntity
  8
AM_0
100
AcDbEllipse
 10
8.218585117835232
 20
-60.05170756798179
 30
0.0
 11
-4.885377224301371
 21
-8.907248798795338
 31
0.0
210
0.0
220
0.0
230
1.0
 40
0.8549938137262391
 41
0.3756686064724131
 42
0.52731190373566
  0
ELLIPSE
  5
13704
330
1F
100
AcDbEntity
  8
AM_0
100
AcDbEllipse
 10
5.388230150879735
 20
-59.60965481061294
 30
0.0
 11
11.48295148589181
 21
-1.085102025663476
 31
0.0
210
0.0
220
0.0
230
1.0
 40
0.8664645170916783
 41
4.902350837916852
 42
5.089481537213628
  0
SPLINE
  5
13705
330
1F
100
AcDbEntity
  8
AM_0
100
AcDbSpline
210
0.0
220
0.0
230
1.0
 70
     8
 71
     3
 72
    12
 73
     8
 74
     0
 42
0.0000000001
 43
0.0000000001
 40
41.81959710796139
 40
41.81959710796139
 40
41.81959710796139
 40
41.81959710796139
 40
41.94527299112417
 40
41.94527299112417
 40
43.92136207712797
 40
43.92136207712797
 40
44.99903333803903
 40
44.99903333803903
 40
44.99903333803903
 40
44.99903333803903
 10
10.95257718100231
 20
-69.92397559902685
 30
0.0
 10
10.90913704971831
 20
-69.93158005142504
 30
0.0
 10
10.86568728363227
 20
-69.93894511074342
 30
0.0
 10
10.13899575716005
 20
-70.05812605569986
 30
0.0
 10
9.45488013600243
 20
-70.11050732244758
 30
0.0
 10
8.436960020364154
 20
-70.11050732244758
 30
0.0
 10
8.070512608428885
 20
-70.09509184305108
 30
0.0
 10
7.700520108319779
 20
-70.06278621954817
 30
0.0
  0
LINE
  5
13706
330
1F
100
AcDbEntity
  8
AM_0
100
AcDbLine
 10
6.553195949418182
 20
-69.74732290722147
 30
0.0
 11
6.633168058420552
 21
-69.58513689273087
 31
0.0
  0
ELLIPSE
  5
13708
330
1F
100
AcDbEntity
  8
AM_0
100
AcDbEllipse
 10
6.955075834250465
 20
-59.85436915308662
 30
0.0
 11
11.48295148589211
 21
-1.085102025663573
 31
0.0
210
0.0
220
0.0
230
1.0
 40
0.8664645170916553
 41
4.870019566738698
 42
4.932611245812936
  0
SPLINE
  5
13709
330
1F
100
AcDbEntity
  8
AM_0
100
AcDbSpline
210
0.0
220
0.0
230
1.0
 70
     8
 71
     3
 72
    33
 73
    29
 74
     0
 42
0.0000000001
 43
0.0000000001
 40
-1.551288481299876
 40
-1.551288481299876
 40
-1.551288481299876
 40
-1.551288481299876
 40
-1.132795606012575
 40
-1.132795606012575
 40
-0.5663978030062875
 40
-0.5663978030062875
 40
-0.2831989015031429
 40
-0.2831989015031429
 40
0.0
 40
0.0
 40
0.0
 40
0.2884295309828403
 40
0.2884295309828403
 40
0.5768590619656806
 40
0.5768590619656806
 40
0.8652885929485209
 40
0.8652885929485209
 40
1.153718123931361
 40
1.153718123931361
 40
1.747139977044097
 40
1.747139977044097
 40
2.340561830156833
 40
2.340561830156833
 40
2.629974800611793
 40
2.629974800611793
 40
2.919387771066753
 40
2.919387771066753
 40
3.113452821179092
 40
3.113452821179092
 40
3.113452821179092
 40
3.113452821179092
 10
8.742326550904295
 20
-69.25971450744743
 30
0.0
 10
8.88566602393098
 20
-69.22519087494493
 30
0.0
 10
9.026489101745597
 20
-69.19272475482268
 30
0.0
 10
9.331319621545163
 20
-69.12825181040392
 30
0.0
 10
9.509325537954851
 20
-69.09565407652616
 30
0.0
 10
9.737034086572635
 20
-69.0691959287654
 30
0.0
 10
9.806695537405858
 20
-69.06401400938569
 30
0.0
 10
9.928756098057306
 20
-69.06183968472203
 30
0.0
 10
9.981146065314192
 20
-69.06485737471002
 30
0.0
 10
10.02383956638835
 20
-69.07152536515361
 30
0.0
 10
10.06732160825186
 20
-69.07831651210381
 30
0.0
 10
10.1033226405898
 20
-69.08929663441376
 30
0.0
 10
10.15560303555401
 20
-69.1194405296655
 30
0.0
 10
10.17189524193259
 20
-69.13859382842202
 30
0.0
 10
10.18353167241628
 20
-69.18310143970086
 30
0.0
 10
10.17889589268282
 20
-69.20848035568167
 30
0.0
 10
10.15054341476991
 20
-69.26241773433173
 30
0.0
 10
10.12682379120258
 20
-69.29095967194672
 30
0.0
 10
10.03279343790621
 20
-69.37754863703151
 30
0.0
 10
9.92946517011012
 20
-69.44328008484655
 30
0.0
 10
9.659559591332254
 20
-69.56622348145714
 30
0.0
 10
9.492872010569386
 20
-69.62317245975459
 30
0.0
 10
9.235327310087314
 20
-69.69003556794792
 30
0.0
 10
9.143705229145894
 20
-69.71073453913022
 30
0.0
 10
8.951772061193992
 20
-69.74759443433555
 30
0.0
 10
8.851461976206338
 20
-69.76375892666579
 30
0.0
 10
8.682271274566006
 20
-69.78623049946083
 30
0.0
 10
8.613848229880091
 20
-69.79405524201138
 30
0.0
 10
8.545991194507451
 20
-69.80068307676527
 30
0.0
  0
SPLINE
  5
1370A
330
1F
100
AcDbEntity
  8
AM_0
100
AcDbSpline
210
0.0
220
0.0
230
1.0
 70
     8
 71
     3
 72
    10
 73
     6
 74
     0
 42
0.0000000001
 43
0.0000000001
 40
6.344754066707125
 40
6.344754066707125
 40
6.344754066707125
 40
6.344754066707125
 40
6.456086301711184
 40
6.456086301711184
 40
9.209889425590525
 40
9.209889425590525
 40
9.209889425590525
 40
9.209889425590525
 10
17.99999999999977
 20
-72.14968851920835
 30
0.0
 10
17.98851920934533
 20
-72.18523702843581
 30
0.0
 10
17.97683528117045
 20
-72.2207406059714
 30
0.0
 10
17.67099080736239
 20
-73.13324504579597
 30
0.0
 10
17.25347093016455
 20
-73.98230896572153
 30
0.0
 10
16.75886735000199
 20
-74.79272670743669
 30
0.0
  0
LINE
  5
1370B
330
1F
100
AcDbEntity
  8
AM_0
100
AcDbLine
 10
17.99999999999977
 20
-76.91140833546587
 30
0.0
 11
17.99999999999977
 21
-72.14968851920835
 31
0.0
  0
LINE
  5
1370C
330
1F
100
AcDbEntity
  8
AM_0
100
AcDbLine
 10
27.24999999999977
 20
-76.91140833546592
 30
0.0
 11
27.24999999999977
 21
-67.76594019470673
 31
0.0
  0
LINE
  5
1370D
330
1F
100
AcDbEntity
  8
AM_0
100
AcDbLine
 10
26.99999999999977
 20
-76.91140833546589
 30
0.0
 11
26.99999999999977
 21
-67.82606608745221
 31
0.0
  0
LINE
  5
1370E
330
1F
100
AcDbEntity
  8
AM_0
100
AcDbLine
 10
17.99999999999977
 20
-76.91140833546587
 30
0.0
 11
26.99999999999977
 21
-76.91140833546587
 31
0.0
  0
LINE
  5
1370F
330
1F
100
AcDbEntity
  8
AM_0
100
AcDbLine
 10
16.75886735000199
 20
-78.40254098546367
 30
0.0
 11
15.19940265745788
 21
-78.53897646723021
 31
0.0
  0
SPLINE
  5
13710
330
1F
100
AcDbEntity
  8
AM_0
100
AcDbSpline
210
0.0
220
0.0
230
1.0
 70
     8
 71
     3
 72
    16
 73
    12
 74
     0
 42
0.0000000001
 43
0.0000000001
 40
10.69501856240716
 40
10.69501856240716
 40
10.69501856240716
 40
10.69501856240716
 40
11.14387736632267
 40
11.14387736632267
 40
11.9117500083643
 40
11.9117500083643
 40
12.67962265040593
 40
12.67962265040593
 40
13.44749529244756
 40
13.44749529244756
 40
13.59162665627359
 40
13.59162665627359
 40
13.59162665627359
 40
13.59162665627359
 10
16.75886735000199
 20
-74.79272670743669
 30
0.0
 10
16.60381478151021
 20
-74.81038586608057
 30
0.0
 10
16.4508963922616
 20
-74.82291029456712
 30
0.0
 10
16.04686258710694
 20
-74.84412189244122
 30
0.0
 10
15.78093259649972
 20
-74.84482097475109
 30
0.0
 10
15.24432459986076
 20
-74.81476170189245
 30
0.0
 10
14.97364815379819
 20
-74.78399199360271
 30
0.0
 10
14.4437488704076
 20
-74.68894607371539
 30
0.0
 10
14.18429423384305
 20
-74.62458493203465
 30
0.0
 10
13.89125049259997
 20
-74.52967212502426
 30
0.0
 10
13.84538221702121
 20
-74.51413185578744
 30
0.0
 10
13.79999999999984
 20
-74.4980707627987
 30
0.0
  0
SPLINE
  5
13711
330
1F
100
AcDbEntity
  8
AM_0
100
AcDbSpline
210
0.0
220
0.0
230
1.0
 70
     8
 71
     3
 72
    10
 73
     6
 74
     0
 42
0.0000000001
 43
0.0000000001
 40
1.09892797740027
 40
1.09892797740027
 40
1.09892797740027
 40
1.09892797740027
 40
1.322584145497738
 40
1.322584145497738
 40
2.562167491255941
 40
2.562167491255941
 40
2.562167491255941
 40
2.562167491255941
 10
13.79999999999984
 20
-78.63095279275873
 30
0.0
 10
13.86983241973155
 20
-78.62788792918613
 30
0.0
 10
13.93999261839826
 20
-78.6245791533722
 30
0.0
 10
14.40084008078156
 20
-78.60131570471654
 30
0.0
 10
14.79986242014252
 20
-78.57391913287458
 30
0.0
 10
15.19940265745788
 20
-78.53897646723021
 30
0.0
  0
LINE
  5
13712
330
1F
100
AcDbEntity
  8
AM_0
100
AcDbLine
 10
13.79999999999984
 20
-78.63095279275873
 30
0.0
 11
13.79999999999984
 21
-74.4980707627987
 31
0.0
  0
LINE
  5
13713
330
1F
100
AcDbEntity
  8
AM_0
100
AcDbLine
 10
17.99999999999977
 20
-77.16140833546584
 30
0.0
 11
16.75886735000199
 21
-78.40254098546367
 31
0.0
  0
LINE
  5
13714
330
1F
100
AcDbEntity
  8
AM_0
100
AcDbLine
 10
17.99999999999977
 20
-77.16140833546584
 30
0.0
 11
17.99999999999977
 21
-76.91140833546587
 31
0.0
  0
LINE
  5
13715
330
1F
100
AcDbEntity
  8
AM_0
100
AcDbLine
 10
16.75886735000199
 20
-78.40254098546367
 30
0.0
 11
16.75886735000199
 21
-74.79272670743669
 31
0.0
  0
SPLINE
  5
13716
330
1F
100
AcDbEntity
  8
AM_0
100
AcDbSpline
210
0.0
220
0.0
230
1.0
 70
    28
 71
     2
 72
     6
 73
     3
 74
     0
 42
0.0000000001
 43
0.0000000001
 40
0.0
 40
0.0
 40
0.0
 40
0.8683077351809081
 40
0.8683077351809081
 40
0.8683077351809081
 10
26.99999999999977
 20
-76.91140833546587
 30
0.0
 41
1.0
 10
27.10306055405044
 20
-76.91140833546587
 30
0.0
 41
1.0013958980621
 10
27.24999999999977
 20
-76.91140833546587
 30
0.0
 41
1.0
  0
SPLINE
  5
13717
330
1F
100
AcDbEntity
  8
AM_0
100
AcDbSpline
210
0.0
220
0.0
230
1.0
 70
     8
 71
     3
 72
    31
 73
    27
 74
     0
 42
0.0000000001
 43
0.0000000001
 40
-1.522715588850255
 40
-1.522715588850255
 40
-1.522715588850255
 40
-1.522715588850255
 40
-1.494439558335969
 40
-1.494439558335969
 40
-0.996293038890645
 40
-0.996293038890645
 40
-0.4981465194453207
 40
-0.4981465194453207
 40
0.0
 40
0.0
 40
0.0
 40
0.498146519445323
 40
0.498146519445323
 40
0.9962930388906459
 40
0.9962930388906459
 40
1.494439558335969
 40
1.494439558335969
 40
1.992586077781292
 40
1.992586077781292
 40
2.473939222085203
 40
2.473939222085203
 40
2.955292366389115
 40
2.955292366389115
 40
3.377119384213305
 40
3.377119384213305
 40
3.687424484034432
 40
3.687424484034432
 40
3.687424484034432
 40
3.687424484034432
 10
19.8146999244567
 20
-67.91570577740424
 30
0.0
 10
19.82013448119119
 20
-67.92381041390439
 30
0.0
 10
19.82553087873498
 20
-67.93195206215148
 30
0.0
 10
19.92526946216196
 20
-68.08420343657252
 30
0.0
 10
20.00731563669547
 20
-68.23969602949381
 30
0.0
 10
20.13928168108726
 20
-68.56409927842111
 30
0.0
 10
20.18932602520874
 20
-68.73329416642059
 30
0.0
 10
20.25503929954334
 20
-69.07392335576395
 30
0.0
 10
20.27070328828495
 20
-69.24535949565075
 30
0.0
 10
20.27070328828495
 20
-69.41140833546587
 30
0.0
 10
20.27070328828495
 20
-69.57745717528098
 30
0.0
 10
20.25503929954334
 20
-69.74889331516778
 30
0.0
 10
20.18932602520874
 20
-70.08952250451114
 30
0.0
 10
20.13928168108726
 20
-70.25871739251062
 30
0.0
 10
20.00731563669547
 20
-70.58312064143794
 30
0.0
 10
19.92526946216196
 20
-70.73861323435924
 30
0.0
 10
19.73650692456795
 20
-71.02676005578402
 30
0.0
 10
19.6297828178956
 20
-71.1594189034453
 30
0.0
 10
19.40795449495738
 20
-71.39194019271542
 30
0.0
 10
19.27862592288534
 20
-71.50714391246962
 30
0.0
 10
19.00093916761341
 20
-71.71275688082332
 30
0.0
 10
18.8526265698157
 20
-71.80326861810042
 30
0.0
 10
18.5884220974184
 20
-71.94011131410284
 30
0.0
 10
18.45540831178562
 20
-71.99895945023536
 30
0.0
 10
18.21361610931172
 20
-72.08761249401073
 30
0.0
 10
18.10773809372051
 20
-72.12101907074265
 30
0.0
 10
17.99999999999977
 20
-72.14968851920835
 30
0.0
  0
ELLIPSE
  5
13719
330
1F
100
AcDbEntity
  8
AM_0
100
AcDbEllipse
 10
29.8379293286547
 20
-61.9177675812353
 30
0.0
 11
15.13369282820699
 21
5.821343542263535
 31
0.0
210
0.0
220
0.0
230
1.0
 40
0.0960279956234404
 41
1.814379171745805
 42
3.371397590761477
  0
SPLINE
  5
1371B
330
1F
100
AcDbEntity
  8
AM_0
100
AcDbSpline
210
0.0
220
0.0
230
1.0
 70
     8
 71
     3
 72
    14
 73
    10
 74
     0
 42
0.0000000001
 43
0.0000000001
 40
1.488840332876878
 40
1.488840332876878
 40
1.488840332876878
 40
1.488840332876878
 40
2.084322247225335
 40
2.084322247225335
 40
3.126483370838002
 40
3.126483370838002
 40
4.16864449445067
 40
4.16864449445067
 40
5.908102396196889
 40
5.908102396196889
 40
5.908102396196889
 40
5.908102396196889
 10
19.8146999244567
 20
-67.91570577740424
 30
0.0
 10
19.60889908424463
 20
-67.91728876519204
 30
0.0
 10
19.39980121082328
 20
-67.91780097437277
 30
0.0
 10
18.82058686370965
 20
-67.91770460206135
 30
0.0
 10
18.44708307138342
 20
-67.91605805890896
 30
0.0
 10
17.71048261592694
 20
-67.91354356718188
 30
0.0
 10
17.34738704120389
 20
-67.91268058251092
 30
0.0
 10
16.42018069941764
 20
-67.91268058251092
 30
0.0
 10
15.82331397146675
 20
-67.91552171931454
 30
0.0
 10
15.22942446250636
 20
-67.91710711400452
 30
0.0
  0
ELLIPSE
  5
1371C
330
1F
100
AcDbEntity
  8
AM_0
100
AcDbEllipse
 10
16.99999999999966
 20
-70.03364221490955
 30
0.0
 11
9.941640208049231
 21
4.412340070011552
 31
0.0
210
0.0
220
0.0
230
1.0
 40
0.2444940690526492
 41
1.640702838472917
 42
1.893313265030301
  0
LINE
  5
1371E
330
1F
100
AcDbEntity
  8
AM_0
100
AcDbLine
 10
23.26127481273397
 20
-61.91140833546587
 30
0.0
 11
25.64545645554881
 21
-61.91140833546587
 31
0.0
  0
LINE
  5
13724
330
1F
100
AcDbEntity
  8
AM_0
100
AcDbLine
 10
9.112643111924626
 20
4.430137176510883
 30
0.0
 11
0.5793211832140059
 21
0.0440928667895548
 31
0.0
  0
LINE
  5
13725
330
1F
100
AcDbEntity
  8
AM_0
100
AcDbLine
 10
0.0005497774761807
 20
0.4195351440318689
 30
0.0
 11
0.5034184515751576
 21
10.01484105049158
 31
0.0
  0
LINE
  5
13726
330
1F
100
AcDbEntity
  8
AM_0
100
AcDbLine
 10
3.007020042521162
 20
1.291906421292325
 30
0.0
 11
2.978781475797064
 21
0.7530824697450242
 31
0.0
  0
ELLIPSE
  5
13727
330
1F
100
AcDbEntity
  8
AM_0
100
AcDbEllipse
 10
3.459666769389401
 20
9.999999999999986
 30
0.0
 11
-0.4634024662881021
 21
-9.249907965340755
 31
0.0
210
0.0
220
0.0
230
1.0
 40
0.0890434846329954
 41
5.9843168297418
 42
6.261829193796835
  0
ELLIPSE
  5
13729
330
1F
100
AcDbEntity
  8
AM_0
100
AcDbEllipse
 10
3.940155907089206
 20
9.999999999999986
 30
0.0
 11
105.7430437867644
 21
0.3253264762184649
 31
0.0
210
0.0
220
0.0
230
1.0
 40
0.0874220843538273
 41
4.703028285594409
 42
4.747688856667983
  0
ELLIPSE
  5
1372A
330
1F
100
AcDbEntity
  8
AM_0
100
AcDbEllipse
 10
0.398478310408791
 20
0.3997581521516906
 30
0.0
 11
0.1482309230291915
 21
0.3715206501096729
 31
0.0
210
0.0
220
0.0
230
0.9999999999999998
 40
0.9955888461044971
 41
1.899415030981135
 42
3.993810133374341
  0
SPLINE
  5
1372B
330
1F
100
AcDbEntity
  8
AM_0
100
AcDbSpline
210
0.0
220
0.0
230
1.0
 70
     8
 71
     3
 72
    12
 73
     8
 74
     0
 42
0.0000000001
 43
0.0000000001
 40
41.81959710796139
 40
41.81959710796139
 40
41.81959710796139
 40
41.81959710796139
 40
41.94527299112417
 40
41.94527299112417
 40
43.92136207712797
 40
43.92136207712797
 40
44.99903333803903
 40
44.99903333803903
 40
44.99903333803903
 40
44.99903333803903
 10
10.95257718100231
 20
0.7642122804636671
 30
0.0
 10
10.90913704971831
 20
0.7646343119648833
 30
0.0
 10
10.86568728363227
 20
0.7650524685743818
 30
0.0
 10
10.13899575716005
 20
0.7719528351484968
 30
0.0
 10
9.45488013600243
 20
0.7764561796237643
 30
0.0
 10
8.436960020364154
 20
0.7764561796237643
 30
0.0
 10
8.070512608428885
 20
0.7752438668604071
 30
0.0
 10
7.700520108319779
 20
0.7729632680839558
 30
0.0
  0
LINE
  5
1372C
330
1F
100
AcDbEntity
  8
AM_0
100
AcDbLine
 10
17.99999999999977
 20
17.75000000000001
 30
0.0
 11
12.2398404230596
 21
17.75000000000001
 31
0.0
  0
LINE
  5
1372D
330
1F
100
AcDbEntity
  8
AM_0
100
AcDbLine
 10
11.98753209313304
 20
17.60432971779814
 30
0.0
 11
16.96430699262123
 21
17.60432971779814
 31
0.0
  0
ELLIPSE
  5
1372E
330
1F
100
AcDbEntity
  8
AM_0
100
AcDbEllipse
 10
19.38832604206823
 20
17.45298156518818
 30
0.0
 11
15.1264538169748
 21
-1.94269974914482
 31
0.0
210
0.0
220
0.0
230
1.0
 40
0.3752887285328832
 41
3.873973137735772
 42
4.599794271756161
  0
LINE
  5
13732
330
1F
100
AcDbEntity
  8
AM_0
100
AcDbLine
 10
1.118432644635163
 20
10.33095235209324
 30
0.0
 11
9.148885899246807
 21
5.121690755354862
 31
0.0
  0
ELLIPSE
  5
13734
330
1F
100
AcDbEntity
  8
AM_0
100
AcDbEllipse
 10
2.703406004834847
 20
11.83697141441805
 30
0.0
 11
16.69528873837559
 21
-11.141170568388
 31
0.0
210
0.0
220
0.0
230
1.0
 40
0.1051314691789506
 41
4.835473715257588
 42
5.019448283698989
  0
ELLIPSE
  5
13737
330
1F
100
AcDbEntity
  8
AM_0
100
AcDbEllipse
 10
0.901346984507768
 20
9.995064058611284
 30
0.0
 11
0.1482309230291915
 21
0.3715206501096729
 31
0.0
210
0.0
220
0.0
230
0.9999999999999998
 40
0.9955888461044971
 41
6.088205235767606
 42
8.182600338160578
  0
LINE
  5
13738
330
1F
100
AcDbEntity
  8
AM_0
100
AcDbLine
 10
0.5396612389504298
 20
10.70639462930128
 30
0.0
 11
3.590730052395543
 21
8.727201787383095
 31
0.0
  0
LINE
  5
13739
330
1F
100
AcDbEntity
  8
AM_0
100
AcDbLine
 10
0.6534257768777252
 20
10.30726925389026
 30
0.0
 11
0.5396612389504298
 21
10.70639462930128
 31
0.0
  0
ELLIPSE
  5
1373A
330
1F
100
AcDbEntity
  8
AM_0
100
AcDbEllipse
 10
8.218585117835232
 20
0.9949461714088699
 30
0.0
 11
-8.972397932920583
 21
-4.41724122266786
 31
0.0
210
0.0
220
0.0
230
0.9999999999999999
 40
0.2641056567008895
 41
4.626150669867956
 42
4.777793967131203
  0
ELLIPSE
  5
1373B
330
1F
100
AcDbEntity
  8
AM_0
100
AcDbEllipse
 10
5.388230150879735
 20
6.559004812056244
 30
0.0
 11
11.52136754730251
 21
-0.5960448939646713
 31
0.0
210
0.0
220
0.0
230
1.0
 40
0.0262726359354334
 41
1.276758828960905
 42
1.463889528257681
  0
LINE
  5
1373C
330
1F
100
AcDbEntity
  8
AM_0
100
AcDbLine
 10
6.553195949418182
 20
6.805484626506214
 30
0.0
 11
6.633168058420552
 21
6.796373442359723
 31
0.0
  0
ELLIPSE
  5
1373D
330
1F
100
AcDbEntity
  8
AM_0
100
AcDbEllipse
 10
8.931800239119411
 20
4.785802461873075
 30
0.0
 11
0.1482309230291915
 21
0.3715206501096729
 31
0.0
210
0.0
220
0.0
230
0.9999999999999998
 40
0.9955888461044971
 41
3.993810133374438
 42
6.088205235767487
  0
LINE
  5
1373E
330
1F
100
AcDbEntity
  8
AM_0
100
AcDbLine
 10
7.946436933411519
 20
3.830718566037675
 30
0.0
 11
8.24895354050102
 21
3.815683533395045
 31
0.0
  0
ELLIPSE
  5
1373F
330
1F
100
AcDbEntity
  8
AM_0
100
AcDbEllipse
 10
6.955075834250465
 20
3.478818275419101
 30
0.0
 11
11.52136754730282
 21
-0.5960448939652537
 31
0.0
210
0.0
220
0.0
230
1.0
 40
0.0262726359354289
 41
1.433629120361674
 42
1.496220799435912
  0
LINE
  5
13740
330
1F
100
AcDbEntity
  8
AM_0
100
AcDbLine
 10
7.829107842091503
 20
3.736264463358808
 30
0.0
 11
7.774724950429572
 21
3.742460280207084
 31
0.0
  0
ELLIPSE
  5
13741
330
1F
100
AcDbEntity
  8
AM_0
100
AcDbEllipse
 10
8.327421476814152
 20
5.312940951787212
 30
0.0
 11
0.5558659613594289
 21
1.393202437911176
 31
0.0
210
0.0
220
0.0
230
1.0
 40
0.9955888461044968
 41
3.470211357775806
 42
6.15843985086894
  0
SPLINE
  5
13742
330
1F
100
AcDbEntity
  8
AM_0
100
AcDbSpline
210
0.0
220
0.0
230
1.0
 70
     8
 71
     3
 72
    33
 73
    29
 74
     0
 42
0.0000000001
 43
0.0000000001
 40
-1.551288481299876
 40
-1.551288481299876
 40
-1.551288481299876
 40
-1.551288481299876
 40
-1.132795606012575
 40
-1.132795606012575
 40
-0.5663978030062875
 40
-0.5663978030062875
 40
-0.2831989015031429
 40
-0.2831989015031429
 40
0.0
 40
0.0
 40
0.0
 40
0.2884295309828403
 40
0.2884295309828403
 40
0.5768590619656806
 40
0.5768590619656806
 40
0.8652885929485209
 40
0.8652885929485209
 40
1.153718123931361
 40
1.153718123931361
 40
1.747139977044097
 40
1.747139977044097
 40
2.340561830156833
 40
2.340561830156833
 40
2.629974800611793
 40
2.629974800611793
 40
2.919387771066753
 40
2.919387771066753
 40
3.113452821179092
 40
3.113452821179092
 40
3.113452821179092
 40
3.113452821179092
 10
8.742326550904295
 20
6.675965219318769
 30
0.0
 10
8.88566602393098
 20
6.667405817885097
 30
0.0
 10
9.026489101745597
 20
6.638953301250652
 30
0.0
 10
9.331319621545163
 20
6.535510353518433
 30
0.0
 10
9.509325537954851
 20
6.438421045589351
 30
0.0
 10
9.737034086572635
 20
6.245097745593583
 30
0.0
 10
9.806695537405858
 20
6.172929750675806
 30
0.0
 10
9.928756098057306
 20
6.018324292280923
 30
0.0
 10
9.981146065314192
 20
5.93587946918872
 30
0.0
 10
10.02383956638835
 20
5.851950369720569
 30
0.0
 10
10.06732160825186
 20
5.766471115857215
 30
0.0
 10
10.1033226405898
 20
5.674388271740682
 30
0.0
 10
10.15560303555401
 20
5.483268540625161
 30
0.0
 10
10.17189524193259
 20
5.384233515355575
 30
0.0
 10
10.18353167241628
 20
5.186147134563569
 30
0.0
 10
10.17889589268282
 20
5.086908438213371
 30
0.0
 10
10.15054341476991
 20
4.894822363100573
 30
0.0
 10
10.12682379120258
 20
4.801970776321994
 30
0.0
 10
10.03279343790621
 20
4.537268079846641
 30
0.0
 10
9.92946517011012
 20
4.360807635415782
 30
0.0
 10
9.659559591332254
 20
4.061453046481304
 30
0.0
 10
9.492872010569386
 20
3.938550391298762
 30
0.0
 10
9.235327310087314
 20
3.812853315468161
 30
0.0
 10
9.143705229145894
 20
3.777649015312832
 30
0.0
 10
8.951772061193992
 20
3.724731902960016
 30
0.0
 10
8.851461976206338
 20
3.707017941980567
 30
0.0
 10
8.682271274566006
 20
3.694128369669969
 30
0.0
 10
8.613848229880091
 20
3.693412863311792
 30
0.0
 10
8.545991194507451
 20
3.697170159737951
 30
0.0
  0
LINE
  5
13748
330
1F
100
AcDbEntity
  8
AM_0
100
AcDbLine
 10
27.24999999999977
 20
12.78388218141483
 30
0.0
 11
27.24999999999977
 21
16.78258523496835
 31
0.0
  0
LINE
  5
13749
330
1F
100
AcDbEntity
  8
AM_0
100
AcDbLine
 10
26.99999999999977
 20
11.95256241897648
 30
0.0
 11
26.99999999999977
 21
16.51629762742256
 31
0.0
  0
ELLIPSE
  5
1374A
330
1F
100
AcDbEntity
  8
AM_0
100
AcDbEllipse
 10
6.446046508288191
 20
9.999999999999986
 30
0.0
 11
-19.53833618025904
 21
2.509320509312049
 31
0.0
210
0.0
220
0.0
230
1.0
 40
0.3752887285328833
 41
3.72600616976471
 42
3.904246161135034
  0
ELLIPSE
  5
1374B
330
1F
100
AcDbEntity
  8
AM_0
100
AcDbEllipse
 10
17.29318430697538
 20
17.68362837491692
 30
0.0
 11
-3.406751482251106
 21
4.857657816608178
 31
0.0
210
0.0
220
0.0
230
1.0
 40
0.8930817529931308
 41
2.416237075195018
 42
3.268842610923236
  0
LINE
  5
13757
330
1F
100
AcDbEntity
  8
AM_0
100
AcDbLine
 10
23.26127481273397
 20
11.95256241897648
 30
0.0
 11
26.99999999999989
 21
11.95256241897648
 31
0.0
  0
SPLINE
  5
13758
330
1F
100
AcDbEntity
  8
AM_0
100
AcDbSpline
210
0.0
220
0.0
230
1.0
 70
    12
 71
     2
 72
     6
 73
     3
 74
     0
 42
0.0000000001
 43
0.0000000001
 40
0.0
 40
0.0
 40
0.0
 40
0.8683077351809081
 40
0.8683077351809081
 40
0.8683077351809081
 10
26.99999999999977
 20
11.95256241897648
 30
0.0
 41
1.0
 10
27.10306055405044
 20
12.36162452430331
 30
0.0
 41
1.0013958980621
 10
27.24999999999977
 20
12.78388218141483
 30
0.0
 41
1.0
  0
LINE
  5
13759
330
1F
100
AcDbEntity
  8
AM_0
100
AcDbLine
 10
17.99999999999977
 20
17.7499999999999
 30
0.0
 11
21.28309569337444
 21
17.7499999999999
 31
0.0
  0
SPLINE
  5
1375A
330
1F
100
AcDbEntity
  8
AM_0
100
AcDbSpline
210
0.0
220
0.0
230
1.0
 70
     8
 71
     3
 72
    32
 73
    28
 74
     0
 42
0.0000000001
 43
0.0000000001
 40
0.9430327293305747
 40
0.9430327293305747
 40
0.9430327293305747
 40
0.9430327293305747
 40
2.277145922562797
 40
2.277145922562797
 40
3.611259115795019
 40
3.611259115795019
 40
4.94537230902724
 40
4.94537230902724
 40
6.279485502259462
 40
6.279485502259462
 40
6.829976230864771
 40
6.829976230864771
 40
7.380466959470081
 40
7.380466959470081
 40
7.93095768807539
 40
7.93095768807539
 40
8.481448416680699
 40
8.481448416680699
 40
9.031939145286009
 40
9.031939145286009
 40
9.582429873891318
 40
9.582429873891318
 40
10.13292060249663
 40
10.13292060249663
 40
10.68341133110194
 40
10.68341133110194
 40
11.33032104664598
 40
11.33032104664598
 40
11.33032104664598
 40
11.33032104664598
 10
16.96430699262123
 20
17.60432971779814
 30
0.0
 10
17.40901139036532
 20
17.60432971779814
 30
0.0
 10
17.86544417106859
 20
17.59503451528299
 30
0.0
 10
18.75972617313767
 20
17.55033482761088
 30
0.0
 10
19.19759316282784
 20
17.51482420552505
 30
0.0
 10
20.01658566977096
 20
17.40133663522876
 30
0.0
 10
20.39841687299895
 20
17.32303915654263
 30
0.0
 10
21.07486375515975
 20
17.10343728397608
 30
0.0
 10
21.36963900070452
 20
16.96200034867174
 30
0.0
 10
21.7061472625187
 20
16.7050453501064
 30
0.0
 10
21.79899980056985
 20
16.61971011427194
 30
0.0
 10
21.96301062294788
 20
16.4293893771107
 30
0.0
 10
22.03416156508911
 20
16.32436926618665
 30
0.0
 10
22.14831396233092
 20
16.0983778149555
 30
0.0
 10
22.19137609663562
 20
15.97725288406674
 30
0.0
 10
22.24766681045117
 20
15.72569363076458
 30
0.0
 10
22.26089260272693
 20
15.59525430855526
 30
0.0
 10
22.26089260272693
 20
15.33504552683964
 30
0.0
 10
22.24766681045117
 20
15.1952170277814
 30
0.0
 10
22.19137609663562
 20
14.90418225019285
 30
0.0
 10
22.14831396233092
 20
14.7529797447968
 30
0.0
 10
22.03416156508911
 20
14.4488895785653
 30
0.0
 10
21.96301062294788
 20
14.29583920931147
 30
0.0
 10
21.79899980056985
 20
13.99790992593042
 30
0.0
 10
21.7061472625187
 20
13.85304895444018
 30
0.0
 10
21.49234364177517
 20
13.55730558084453
 30
0.0
 10
21.36355856803152
 20
13.40145130054977
 30
0.0
 10
21.22294900536087
 20
13.25136141232896
 30
0.0
  0
LINE
  5
1375B
330
1F
100
AcDbEntity
  8
AM_0
100
AcDbLine
 10
23.96430699015377
 20
17.55818669342411
 30
0.0
 11
26.99999999999977
 21
17.55818669342411
 31
0.0
  0
LINE
  5
1375C
330
1F
100
AcDbEntity
  8
AM_0
100
AcDbLine
 10
26.99999999999977
 20
16.51629762742256
 30
0.0
 11
23.96430699015377
 21
16.51629762742256
 31
0.0
  0
SPLINE
  5
1375D
330
1F
100
AcDbEntity
  8
AM_0
100
AcDbSpline
210
0.0
220
0.0
230
1.0
 70
     8
 71
     3
 72
    38
 73
    34
 74
     0
 42
0.0000000001
 43
0.0000000001
 40
0.0
 40
0.0
 40
0.0
 40
0.0
 40
0.5718157009076221
 40
0.5718157009076221
 40
1.143631401815244
 40
1.143631401815244
 40
1.715447102722866
 40
1.715447102722866
 40
2.287262803630489
 40
2.287262803630489
 40
2.858576531122186
 40
2.858576531122186
 40
3.429890258613882
 40
3.429890258613882
 40
4.001203986105579
 40
4.001203986105579
 40
4.572517713597276
 40
4.572517713597276
 40
5.143831441088973
 40
5.143831441088973
 40
5.71514516858067
 40
5.71514516858067
 40
6.286458896072367
 40
6.286458896072367
 40
6.857772623564064
 40
6.857772623564064
 40
7.429588324471675
 40
7.429588324471675
 40
8.001404025379287
 40
8.001404025379287
 40
8.573219726286899
 40
8.573219726286899
 40
9.145035427194511
 40
9.145035427194511
 40
9.145035427194511
 40
9.145035427194511
 10
23.96430699015377
 20
16.51629762742256
 30
0.0
 10
23.77370175651788
 20
16.51629762742256
 30
0.0
 10
23.57732071821204
 20
16.52722475470985
 30
0.0
 10
23.18805983046059
 20
16.5716817320169
 30
0.0
 10
22.9951721219237
 20
16.60517085592598
 30
0.0
 10
22.6263113455625
 20
16.68974340241904
 30
0.0
 10
22.45000662904681
 20
16.74082799104799
 30
0.0
 10
22.12441022997837
 20
16.85221309627879
 30
0.0
 10
21.97511616060467
 20
16.91244379195213
 30
0.0
 10
21.71097312363338
 20
17.03234144966014
 30
0.0
 10
21.5867641506519
 20
17.09631060904191
 30
0.0
 10
21.3671885105889
 20
17.22394087483549
 30
0.0
 10
21.27180502653403
 20
17.28754059519169
 30
0.0
 10
21.11808996704735
 20
17.40632523223191
 30
0.0
 10
21.05963624213757
 20
17.46157199619485
 30
0.0
 10
20.98273340722426
 20
17.55801330592517
 30
0.0
 10
20.96430699015377
 20
17.59919088995953
 30
0.0
 10
20.96430699015377
 20
17.66532928172957
 30
0.0
 10
20.98273340722426
 20
17.69233391554293
 30
0.0
 10
21.05963624213757
 20
17.73109114818341
 30
0.0
 10
21.11808996704735
 20
17.74286274243652
 30
0.0
 10
21.27180502653403
 20
17.75224159293136
 30
0.0
 10
21.3671885105889
 20
17.74990133626012
 30
0.0
 10
21.5867641506519
 20
17.73535962867369
 30
0.0
 10
21.71097312363338
 20
17.7232204580949
 30
0.0
 10
21.97511616060478
 20
17.69505871441392
 30
0.0
 10
22.12441022997848
 20
17.67797042404523
 30
0.0
 10
22.45000662904681
 20
17.64282593509223
 30
0.0
 10
22.6263113455625
 20
17.6248471219413
 30
0.0
 10
22.99517212192382
 20
17.59363592680172
 30
0.0
 10
23.18805983046059
 20
17.58044468120592
 30
0.0
 10
23.57732071821215
 20
17.5627039693609
 30
0.0
 10
23.77370175651788
 20
17.55818669342411
 30
0.0
 10
23.96430699015377
 20
17.55818669342411
 30
0.0
  0
SPLINE
  5
1375E
330
1F
100
AcDbEntity
  8
AM_0
100
AcDbSpline
210
0.0
220
0.0
230
1.0
 70
    12
 71
     2
 72
     6
 73
     3
 74
     0
 42
0.0000000001
 43
0.0000000001
 40
0.0
 40
0.0
 40
0.0
 40
0.3682577903369525
 40
0.3682577903369525
 40
0.3682577903369525
 10
27.24999999999977
 20
16.78258523496835
 30
0.0
 41
1.0
 10
27.12267892892896
 20
16.64732803749122
 30
0.0
 41
1.000147402153863
 10
26.99999999999977
 20
16.51629762742256
 30
0.0
 41
1.0
  0
SPLINE
  5
1375F
330
1F
100
AcDbEntity
  8
AM_0
100
AcDbSpline
210
0.0
220
0.0
230
1.0
 70
    12
 71
     2
 72
     6
 73
     3
 74
     0
 42
0.0000000001
 43
0.0000000001
 40
0.0
 40
0.0
 40
0.0
 40
0.3682577903369518
 40
0.3682577903369518
 40
0.3682577903369518
 10
26.99999999999977
 20
17.55818669342411
 30
0.0
 41
1.0
 10
27.12267892892089
 20
17.68921710348388
 30
0.0
 41
1.000147402159699
 10
27.24999999999977
 20
17.8244743009699
 30
0.0
 41
1.0
  0
SPLINE
  5
13764
330
1F
100
AcDbEntity
  8
AM_0
100
AcDbSpline
210
0.0
220
0.0
230
1.0
 70
     8
 71
     3
 72
    38
 73
    34
 74
     0
 42
0.0000000001
 43
0.0000000001
 40
-9.138107654842809
 40
-9.138107654842809
 40
-9.138107654842809
 40
-9.138107654842809
 40
-8.566757165328973
 40
-8.566757165328973
 40
-7.995406675815136
 40
-7.995406675815136
 40
-7.4240561863013
 40
-7.4240561863013
 40
-6.852705696787465
 40
-6.852705696787465
 40
-6.28179272944594
 40
-6.28179272944594
 40
-5.710879762104414
 40
-5.710879762104414
 40
-5.139966794762888
 40
-5.139966794762888
 40
-4.569053827421362
 40
-4.569053827421362
 40
-3.998140860079836
 40
-3.998140860079836
 40
-3.427227892738308
 40
-3.427227892738308
 40
-2.856314925396783
 40
-2.856314925396783
 40
-2.285401958055257
 40
-2.285401958055257
 40
-1.714051468541442
 40
-1.714051468541442
 40
-1.14270097902763
 40
-1.14270097902763
 40
-0.5713504895138151
 40
-0.5713504895138151
 40
0.0
 40
0.0
 40
0.0
 40
0.0
 10
55.96430699015366
 20
17.8244743009699
 30
0.0
 10
56.15475715332502
 20
17.8244743009699
 30
0.0
 10
56.35103218636493
 20
17.82870234917563
 30
0.0
 10
56.74017913387922
 20
17.84530269449023
 30
0.0
 10
56.93305847408703
 20
17.85764522241784
 30
0.0
 10
57.30197305298077
 20
17.88679354184491
 30
0.0
 10
57.47833756943544
 20
17.90355970818742
 30
0.0
 10
57.80406765315377
 20
17.93617720165607
 30
0.0
 10
57.95343497458441
 20
17.95195353906367
 30
0.0
 10
58.21771846410582
 20
17.97763749615764
 30
0.0
 10
58.34197767119406
 20
17.98851814773191
 30
0.0
 10
58.5615986977233
 20
18.00072987162362
 30
0.0
 10
58.65697723927872
 20
18.0020001333735
 30
0.0
 10
58.81065032559798
 20
17.99085737365091
 30
0.0
 10
58.86906696046401
 20
17.9783914250303
 30
0.0
 10
58.94590645376525
 20
17.93872596392232
 30
0.0
 10
58.96430699015366
 20
17.9115080228927
 30
0.0
 10
58.96430699015366
 20
17.8454160253025
 30
0.0
 10
58.94590645376525
 20
17.80448607201426
 30
0.0
 10
58.86906696046401
 20
17.70899396409426
 30
0.0
 10
58.81065032559786
 20
17.65444825961534
 30
0.0
 10
58.65697723927872
 20
17.53741641146799
 30
0.0
 10
58.56159869772318
 20
17.47486958821686
 30
0.0
 10
58.34197767119406
 20
17.34952402565047
 30
0.0
 10
58.21771846410582
 20
17.28678544050105
 30
0.0
 10
57.95343497458441
 20
17.1693167907214
 30
0.0
 10
57.80406765315377
 20
17.11038129809812
 30
0.0
 10
57.47833756943544
 20
17.00150530896339
 30
0.0
 10
57.30197305298066
 20
16.951632478619
 30
0.0
 10
56.93305847408703
 20
16.86913437237412
 30
0.0
 10
56.74017913387911
 20
16.83650642547367
 30
0.0
 10
56.35103218636493
 20
16.7932128096718
 30
0.0
 10
56.15475715332502
 20
16.78258523496835
 30
0.0
 10
55.96430699015366
 20
16.78258523496835
 30
0.0
  0
LINE
  5
1398E
330
1F
100
AcDbEntity
  8
AM_5
100
AcDbLine
 10
0.0
 20
0.3985415730239765
 30
0.0
 11
0.0
 21
-2.378268473082756
 31
0.0
  0
ARC
  5
147AA
330
1F
100
AcDbEntity
  8
AM_0
100
AcDbCircle
 10
-52.82055645349965
 20
9.999996337670517
 30
0.0
 40
7.999999999999972
100
AcDbArc
 50
20.3641348063165
 51
57.97568716295761
  0
SPLINE
  5
147AB
330
1F
100
AcDbEntity
  8
AM_0
100
AcDbSpline
210
0.0
220
0.0
230
1.0
 70
     8
 71
     3
 72
    34
 73
    30
 74
     0
 42
0.0000000001
 43
0.0000000001
 40
4.939553602007996
 40
4.939553602007996
 40
4.939553602007996
 40
4.939553602007996
 40
5.052145944227302
 40
5.052145944227302
 40
6.421877741715014
 40
6.421877741715014
 40
6.996421144601015
 40
6.996421144601015
 40
7.570964547487018
 40
7.570964547487018
 40
8.14550795037302
 40
8.14550795037302
 40
8.72005135325902
 40
8.72005135325902
 40
9.29459475614502
 40
9.29459475614502
 40
9.869138159031023
 40
9.869138159031023
 40
10.44368156191703
 40
10.44368156191703
 40
11.01822496480303
 40
11.01822496480303
 40
12.38795676229074
 40
12.38795676229074
 40
13.75768855977845
 40
13.75768855977845
 40
15.12742035726616
 40
15.12742035726616
 40
16.49715215475387
 40
16.49715215475387
 40
16.49715215475387
 40
16.49715215475387
 10
-45.32055645349965
 20
7.216114156255486
 30
0.0
 10
-45.32925452484108
 20
7.19268086030084
 30
0.0
 10
-45.33816406859489
 20
7.169014485437316
 30
0.0
 10
-45.45831764649972
 20
6.854485665394265
 30
0.0
 10
-45.60167234004757
 20
6.530516441393644
 30
0.0
 10
-45.86309464495105
 20
6.047776373180824
 30
0.0
 10
-45.95104393509757
 20
5.895874972956023
 30
0.0
 10
-46.14747225426561
 20
5.583667353755033
 30
0.0
 10
-46.25598708565815
 20
5.423380450111978
 30
0.0
 10
-46.48975072369001
 20
5.105112814317437
 30
0.0
 10
-46.61515639410516
 20
4.946964117809699
 30
0.0
 10
-46.87581840932785
 20
4.642738260701691
 30
0.0
 10
-47.01107968102679
 20
4.496664853795579
 30
0.0
 10
-47.28107556055727
 20
4.224978655616525
 30
0.0
 10
-47.42630196546713
 20
4.088808383002544
 30
0.0
 10
-47.7288951222921
 20
3.826252789354754
 30
0.0
 10
-47.88625808983773
 20
3.699862564952042
 30
0.0
 10
-48.2030606229979
 20
3.464117190780172
 30
0.0
 10
-48.36266717072033
 20
3.354604132035007
 30
0.0
 10
-48.67364281272319
 20
3.156231169816493
 30
0.0
 10
-48.8249923686061
 20
3.067335585215375
 30
0.0
 10
-49.30609151507838
 20
2.802905620531448
 30
0.0
 10
-49.62915976204374
 20
2.6575318468837
 30
0.0
 10
-50.20903915838142
 20
2.431854225625131
 30
0.0
 10
-50.46560749585581
 20
2.351377940449112
 30
0.0
 10
-50.8839458615081
 20
2.234902766894521
 30
0.0
 10
-51.0458998362983
 20
2.198546278801047
 30
0.0
 10
-51.2604369546109
 20
2.152827663387967
 30
0.0
 10
-51.31291589088414
 20
2.143341837569579
 30
0.0
 10
-51.31291589088414
 20
2.143341837569579
 30
0.0
  0
ARC
  5
147AC
330
1F
100
AcDbEntity
  8
AM_0
100
AcDbCircle
 10
-45.32691569926908
 20
2.552977902858657
 30
0.0
 40
5.999999999999999
100
AcDbArc
 50
89.93927366471714
 51
179.1498576984474
  0
ELLIPSE
  5
147AD
330
1F
100
AcDbEntity
  8
AM_0
100
AcDbEllipse
 10
-46.1243156216359
 20
17.68362471258742
 30
0.0
 11
1.648588869148369
 21
5.699556988538211
 31
0.0
210
0.0
220
0.0
230
1.0
 40
0.3683400514402843
 41
3.081935257513433
 42
3.934540793241651
  0
SPLINE
  5
147AE
330
1F
100
AcDbEntity
  8
AM_0
100
AcDbSpline
210
0.0
220
0.0
230
1.0
 70
     8
 71
     3
 72
    32
 73
    28
 74
     0
 42
0.0000000001
 43
0.0000000001
 40
0.9430327293305747
 40
0.9430327293305747
 40
0.9430327293305747
 40
0.9430327293305747
 40
2.277145922562797
 40
2.277145922562797
 40
3.611259115795019
 40
3.611259115795019
 40
4.94537230902724
 40
4.94537230902724
 40
6.279485502259462
 40
6.279485502259462
 40
6.829976230864771
 40
6.829976230864771
 40
7.380466959470081
 40
7.380466959470081
 40
7.93095768807539
 40
7.93095768807539
 40
8.481448416680699
 40
8.481448416680699
 40
9.031939145286009
 40
9.031939145286009
 40
9.582429873891318
 40
9.582429873891318
 40
10.13292060249663
 40
10.13292060249663
 40
10.68341133110194
 40
10.68341133110194
 40
11.33032104664598
 40
11.33032104664598
 40
11.33032104664598
 40
11.33032104664598
 10
-51.32500654025364
 20
17.60432605546864
 30
0.0
 10
-51.32500654025364
 20
17.60432605546864
 30
0.0
 10
-51.27491960136979
 20
17.59503085295355
 30
0.0
 10
-51.06956055882154
 20
17.55033116528139
 30
0.0
 10
-50.91438896010936
 20
17.5148205431956
 30
0.0
 10
-50.51268244576193
 20
17.40133297289926
 30
0.0
 10
-50.26600045633779
 20
17.32303549421319
 30
0.0
 10
-49.70706362314127
 20
17.10343362164658
 30
0.0
 10
-49.39505401365295
 20
16.96199668634224
 30
0.0
 10
-48.93097083047303
 20
16.70504168777691
 30
0.0
 10
-48.78657199211705
 20
16.61970645194244
 30
0.0
 10
-48.48967376327767
 20
16.42938571478126
 30
0.0
 10
-48.33719250399463
 20
16.32436560385715
 30
0.0
 10
-48.03432737213245
 20
16.098374152626
 30
0.0
 10
-47.88378162435561
 20
15.97724922173725
 30
0.0
 10
-47.59411117920229
 20
15.72568996843508
 30
0.0
 10
-47.45499028221809
 20
15.59525064622576
 30
0.0
 10
-47.19619334801325
 20
15.33504186451014
 30
0.0
 10
-47.06651284983684
 20
15.1952133654519
 30
0.0
 10
-46.81653328476955
 20
14.90417858786341
 30
0.0
 10
-46.69622919748053
 20
14.75297608246731
 30
0.0
 10
-46.47188884237528
 20
14.4488859162358
 30
0.0
 10
-46.36769986693969
 20
14.29583554698197
 30
0.0
 10
-46.17899723477569
 20
13.99790626360097
 30
0.0
 10
-46.09444887031862
 20
13.85304529211069
 30
0.0
 10
-45.93279676024179
 20
13.55730191851503
 30
0.0
 10
-45.8549288575656
 20
13.40144763822027
 30
0.0
 10
-45.78556185745219
 20
13.25135774999946
 30
0.0
  0
LINE
  5
147AF
330
1F
100
AcDbEntity
  8
AM_0
100
AcDbLine
 10
-56.01536096710959
 20
0.8765746668381098
 30
0.0
 11
-56.06062458214399
 21
1.336021584605788
 31
0.0
  0
LINE
  5
147B0
330
1F
100
AcDbEntity
  8
AM_0
100
AcDbLine
 10
-52.8059369491815
 20
0.4194511504348384
 30
0.0
 11
-52.51485679171572
 21
10.0147570568946
 31
0.0
  0
LINE
  5
147B1
330
1F
100
AcDbEntity
  8
AM_0
100
AcDbLine
 10
-55.74716121871359
 20
9.717639795774062
 30
0.0
 11
-56.01536096710959
 21
0.8765746668381098
 31
0.0
  0
ARC
  5
147B2
330
1F
100
AcDbEntity
  8
AM_0
100
AcDbCircle
 10
-52.82055645349965
 20
9.999996337670517
 30
0.0
 40
9.249999999999972
100
AcDbArc
 50
184.650709004879
 51
249.8823745937421
  0
LINE
  5
147B3
330
1F
100
AcDbEntity
  8
AM_0
100
AcDbLine
 10
-54.89020235428427
 20
0.4712222713906158
 30
0.0
 11
-52.85600909252833
 21
-0.0000036623295046
 31
0.0
  0
LINE
  5
147B4
330
1F
100
AcDbEntity
  8
AM_0
100
AcDbLine
 10
-54.89020235394617
 20
0.4712222712687435
 30
0.0
 11
-56.01536096710959
 21
0.8765746668381098
 31
0.0
  0
ELLIPSE
  5
147B5
330
1F
100
AcDbEntity
  8
AM_0
100
AcDbEllipse
 10
-52.84145811569135
 20
0.399674158554717
 30
0.0
 11
0.01396065374498809
 21
0.3997563009472304
 31
0.0
210
0.0
220
0.0
230
1.0
 40
0.0871434210711438
 41
3.124588183298812
 42
4.764924867629295
  0
ARC
  5
147B6
330
1F
100
AcDbEntity
  8
AM_0
100
AcDbCircle
 10
-45.32691569926908
 20
17.45297790285874
 30
0.0
 40
5.999999999999999
100
AcDbArc
 50
203.0704333741398
 51
244.6569210348887
  0
ELLIPSE
  5
147B7
330
1F
100
AcDbEntity
  8
AM_0
100
AcDbEllipse
 10
-42.58215126470714
 20
12.18007695334224
 30
0.0
 11
10.02510347349345
 21
0.02501063756293821
 31
0.0
210
0.0
220
0.0
230
1.0
 40
0.4994437682975419
 41
2.67494604887959
 42
3.198544824477878
  0
ARC
  5
147B8
330
1F
100
AcDbEntity
  8
AM_0
100
AcDbCircle
 10
-52.82055645349965
 20
8.499996337670524
 30
0.0
 40
9.25
100
AcDbArc
 50
90.0
 51
160.6858534825921
  0
LINE
  5
147B9
330
1F
100
AcDbEntity
  8
AM_0
100
AcDbLine
 10
-54.59912219644377
 20
10.06652817790984
 30
0.0
 11
-52.53701166422638
 21
10.39469925847185
 31
0.0
  0
LINE
  5
147BA
330
1F
100
AcDbEntity
  8
AM_0
100
AcDbLine
 10
-55.73696657888286
 20
10.05370079228248
 30
0.0
 11
-54.21259368049812
 21
10.18399396613221
 31
0.0
  0
LINE
  5
147BB
330
1F
100
AcDbEntity
  8
AM_0
100
AcDbLine
 10
-52.48876328276072
 20
10.99999633767052
 30
0.0
 11
-61.54996014240987
 21
11.55940988213288
 31
0.0
  0
LINE
  5
147BC
330
1F
100
AcDbEntity
  8
AM_0
100
AcDbLine
 10
-56.00583333868701
 20
1.190647979407686
 30
0.0
 11
-55.73696657888286
 21
10.05370079228248
 31
0.0
  0
ARC
  5
147BD
330
1F
100
AcDbEntity
  8
AM_0
100
AcDbCircle
 10
-52.82055645349965
 20
8.499996337670524
 30
0.0
 40
9.249999999999998
100
AcDbArc
 50
160.6858534825921
 51
175.3492909951194
  0
LINE
  5
147BE
330
1F
100
AcDbEntity
  8
AM_0
100
AcDbLine
 10
-54.59912219647356
 20
10.06652817795509
 30
0.0
 11
-55.74716121871359
 21
9.717639795774062
 31
0.0
  0
SPLINE
  5
147BF
330
1F
100
AcDbEntity
  8
AM_0
100
AcDbSpline
210
0.0
220
0.0
230
1.0
 70
     8
 71
     3
 72
    23
 73
    19
 74
     0
 42
0.0000000001
 43
0.0000000001
 40
-1.316979402788566
 40
-1.316979402788566
 40
-1.316979402788566
 40
-1.316979402788566
 40
-1.132795606012575
 40
-1.132795606012575
 40
-0.5663978030062875
 40
-0.5663978030062875
 40
-0.2831989015031429
 40
-0.2831989015031429
 40
0.0
 40
0.0
 40
0.0
 40
0.2884295309828403
 40
0.2884295309828403
 40
0.5768590619656806
 40
0.5768590619656806
 40
0.8652885929485209
 40
0.8652885929485209
 40
0.9395052015628524
 40
0.9395052015628524
 40
0.9395052015628524
 40
0.9395052015628524
 10
-52.61332770123784
 20
6.768714770886504
 30
0.0
 10
-52.59957376320767
 20
6.755682320015524
 30
0.0
 10
-52.58653452462295
 20
6.739340185003272
 30
0.0
 10
-52.53739992843771
 20
6.660506691188999
 30
0.0
 10
-52.50480219455994
 20
6.563417383259917
 30
0.0
 10
-52.47834404679918
 20
6.370094083264149
 30
0.0
 10
-52.47316212741953
 20
6.297926088346372
 30
0.0
 10
-52.47098780275587
 20
6.143320629951546
 30
0.0
 10
-52.4740054927438
 20
6.060875806859286
 30
0.0
 10
-52.48067348318739
 20
5.976946707391136
 30
0.0
 10
-52.48746463013765
 20
5.891467453527781
 30
0.0
 10
-52.49844475244754
 20
5.799384609411305
 30
0.0
 10
-52.52858864769939
 20
5.608264878295728
 30
0.0
 10
-52.54774194645586
 20
5.509229853026142
 30
0.0
 10
-52.5922495577347
 20
5.311143472234136
 30
0.0
 10
-52.61762847371551
 20
5.211904775883937
 30
0.0
 10
-52.65153655185293
 20
5.091148635948031
 30
0.0
 10
-52.65858010523675
 20
5.066646839122967
 30
0.0
 10
-52.66569644552806
 20
5.042406369184107
 30
0.0
  0
SPLINE
  5
147C0
330
1F
100
AcDbEntity
  8
AM_0
100
AcDbSpline
210
0.0
220
0.0
230
1.0
 70
     8
 71
     3
 72
    10
 73
     6
 74
     0
 42
0.0000000001
 43
0.0000000001
 40
23.99869334832409
 40
23.99869334832409
 40
23.99869334832409
 40
23.99869334832409
 40
24.0290004877688
 40
24.0290004877688
 40
24.5207029498545
 40
24.5207029498545
 40
24.5207029498545
 40
24.5207029498545
 10
-52.76809867323323
 20
1.666770225072156
 30
0.0
 10
-52.76388489920703
 20
1.671278194710425
 30
0.0
 10
-52.75965505504598
 20
1.675772704679986
 30
0.0
 10
-52.68651509032156
 20
1.75294107255209
 30
0.0
 10
-52.6133118229294
 20
1.821959582722258
 30
0.0
 10
-52.53595414394511
 20
1.887124312261705
 30
0.0
  0
ELLIPSE
  5
147C1
330
1F
100
AcDbEntity
  8
AM_0
100
AcDbEllipse
 10
-53.44279033294333
 20
-7.200003662329493
 30
0.0
 11
-3.394302448100064
 21
-9.918534310314247
 31
0.0
210
0.0
220
0.0
230
0.9999999999999998
 40
0.3752887285328835
 41
3.447320005501119
 42
3.699930432058503
  0
SPLINE
  5
147C2
330
1F
100
AcDbEntity
  8
AM_0
100
AcDbSpline
210
0.0
220
0.0
230
1.0
 70
     8
 71
     3
 72
    12
 73
     8
 74
     0
 42
0.0000000001
 43
0.0000000001
 40
-1.522715588850255
 40
-1.522715588850255
 40
-1.522715588850255
 40
-1.522715588850255
 40
-1.494439558335969
 40
-1.494439558335969
 40
-0.996293038890645
 40
-0.996293038890645
 40
-0.8143875098256267
 40
-0.8143875098256267
 40
-0.8143875098256267
 40
-0.8143875098256267
 10
-51.32485389543808
 20
2.3956966422476
 30
0.0
 10
-51.33295853193829
 20
2.39410252759788
 30
0.0
 10
-51.34110018018532
 20
2.392514591777882
 30
0.0
 10
-51.49335155460631
 20
2.363075467478922
 30
0.0
 10
-51.6488441475276
 20
2.33733680316746
 30
0.0
 10
-51.87027608107007
 20
2.308245109734827
 30
0.0
 10
-51.93043890872866
 20
2.301053777979547
 30
0.0
 10
-51.99123454493156
 20
2.294496667177469
 30
0.0
  0
ARC
  5
147C3
330
1F
100
AcDbEntity
  8
AM_0
100
AcDbCircle
 10
-52.82055645349965
 20
9.999996337670517
 30
0.0
 40
7.999999999999972
100
AcDbArc
 50
273.1352315404342
 51
280.8626375839688
  0
SPLINE
  5
147C4
330
1F
100
AcDbEntity
  8
AM_0
100
AcDbSpline
210
0.0
220
0.0
230
1.0
 70
     8
 71
     3
 72
     8
 73
     4
 74
     0
 42
0.0000000001
 43
0.0000000001
 40
1.339204303423213
 40
1.339204303423213
 40
1.339204303423213
 40
1.339204303423213
 40
1.664246212870081
 40
1.664246212870081
 40
1.664246212870081
 40
1.664246212870081
 10
-51.31291589088414
 20
2.143341837569579
 30
0.0
 10
-51.31863174638852
 20
2.226867471770134
 30
0.0
 10
-51.32263671957799
 20
2.311144396630454
 30
0.0
 10
-51.32485389543797
 20
2.395696642247714
 30
0.0
  0
SPLINE
  5
147C5
330
1F
100
AcDbEntity
  8
AM_0
100
AcDbSpline
210
0.0
220
0.0
230
1.0
 70
     8
 71
     3
 72
    10
 73
     6
 74
     0
 42
0.0000000001
 43
0.0000000001
 40
1.488840332876878
 40
1.488840332876878
 40
1.488840332876878
 40
1.488840332876878
 40
2.084322247225335
 40
2.084322247225335
 40
2.477389712273234
 40
2.477389712273234
 40
2.477389712273234
 40
2.477389712273234
 10
-51.32485389543797
 20
2.3956966422476
 30
0.0
 10
-51.32643688322582
 20
2.456064055881967
 30
0.0
 10
-51.32694909240661
 20
2.510173761758011
 30
0.0
 10
-51.32689091807526
 20
2.58861884115916
 30
0.0
 10
-51.32664228377155
 20
2.61680102429321
 30
0.0
 10
-51.32625523203831
 20
2.642001329847204
 30
0.0
  0
ELLIPSE
  5
147C6
330
1F
100
AcDbEntity
  8
AM_0
100
AcDbEllipse
 10
-52.55037795822568
 20
9.994980065014254
 30
0.0
 11
0.01396065374498809
 21
0.3997563009472304
 31
0.0
210
0.0
220
0.0
230
1.0
 40
0.0871434210711438
 41
4.764924867629437
 42
6.300189777470573
  0
LINE
  5
147C7
330
1F
100
AcDbEntity
  8
AM_0
100
AcDbLine
 10
-52.49387804163393
 20
10.70631063570431
 30
0.0
 11
-52.54707924614945
 21
10.39309707023482
 31
0.0
  0
LINE
  5
147C8
330
1F
100
AcDbEntity
  8
AM_0
100
AcDbLine
 10
-54.21259368049789
 20
10.18399396613221
 30
0.0
 11
-54.22236156542465
 21
10.12648710904522
 31
0.0
  0
LINE
  5
147C9
330
1F
100
AcDbEntity
  8
AM_0
100
AcDbLine
 10
-52.49387804162814
 20
10.70631063573861
 30
0.0
 11
-52.48876328276072
 21
10.99999633767052
 31
0.0
  0
LINE
  5
147CA
330
1F
100
AcDbEntity
  8
AM_0
100
AcDbLine
 10
-54.21259368049812
 20
10.18399396613221
 30
0.0
 11
-52.49387804182072
 21
10.70631063568009
 31
0.0
  0
LINE
  5
147CB
330
1F
100
AcDbEntity
  8
AM_0
100
AcDbLine
 10
-52.59028964306333
 20
11.87010287371097
 30
0.0
 11
-52.48876328276072
 21
10.99999633767052
 31
0.0
  0
SPLINE
  5
147CC
330
1F
100
AcDbEntity
  8
AM_0
100
AcDbSpline
210
0.0
220
0.0
230
1.0
 70
     8
 71
     3
 72
    38
 73
    34
 74
     0
 42
0.0000000001
 43
0.0000000001
 40
-9.138107654842809
 40
-9.138107654842809
 40
-9.138107654842809
 40
-9.138107654842809
 40
-8.566757165328973
 40
-8.566757165328973
 40
-7.995406675815136
 40
-7.995406675815136
 40
-7.4240561863013
 40
-7.4240561863013
 40
-6.852705696787465
 40
-6.852705696787465
 40
-6.28179272944594
 40
-6.28179272944594
 40
-5.710879762104414
 40
-5.710879762104414
 40
-5.139966794762888
 40
-5.139966794762888
 40
-4.569053827421362
 40
-4.569053827421362
 40
-3.998140860079836
 40
-3.998140860079836
 40
-3.427227892738308
 40
-3.427227892738308
 40
-2.856314925396783
 40
-2.856314925396783
 40
-2.285401958055257
 40
-2.285401958055257
 40
-1.714051468541442
 40
-1.714051468541442
 40
-1.14270097902763
 40
-1.14270097902763
 40
-0.5713504895138151
 40
-0.5713504895138151
 40
0.0
 40
0.0
 40
0.0
 40
0.0
 10
-54.48717036003598
 20
17.8244706386404
 30
0.0
 10
-54.48717036003598
 20
17.8244706386404
 30
0.0
 10
-54.46771387732861
 20
17.82869868684613
 30
0.0
 10
-54.38674088685491
 20
17.84529903216073
 30
0.0
 10
-54.32525396891924
 20
17.8576415600884
 30
0.0
 10
-54.16412999231636
 20
17.88678987951541
 30
0.0
 10
-54.06437625494357
 20
17.90355604585798
 30
0.0
 10
-53.83565998562369
 20
17.93617353932657
 30
0.0
 10
-53.70668926375515
 20
17.95194987673417
 30
0.0
 10
-53.43380000080595
 20
17.97763383382814
 30
0.0
 10
-53.28025899399552
 20
17.98851448540247
 30
0.0
 10
-52.94732452226799
 20
18.00072620929418
 30
0.0
 10
-52.76793986070459
 20
18.001996471044
 30
0.0
 10
-52.39514714740392
 20
17.99085371132141
 30
0.0
 10
-52.2014162642912
 20
17.9783877627008
 30
0.0
 10
-51.81323606024762
 20
17.93872230159288
 30
0.0
 10
-51.61878420434198
 20
17.91150436056321
 30
0.0
 10
-51.24395785998649
 20
17.845412362973
 30
0.0
 10
-51.05192380180188
 20
17.80448240968476
 30
0.0
 10
-50.6735873418337
 20
17.70899030176476
 30
0.0
 10
-50.48727625502045
 20
17.6544445972859
 30
0.0
 10
-50.1331546449718
 20
17.53741274913855
 30
0.0
 10
-49.96502265732408
 20
17.47486592588736
 30
0.0
 10
-49.6563432465922
 20
17.34952036332097
 30
0.0
 10
-49.51578329751521
 20
17.28678177817155
 30
0.0
 10
-49.26813570151671
 20
17.1693131283919
 30
0.0
 10
-49.15233869106066
 20
17.11037763576862
 30
0.0
 10
-48.9485715403182
 20
17.00150164663389
 30
0.0
 10
-48.86056805602857
 20
16.95162881628951
 30
0.0
 10
-48.71913035657144
 20
16.86913071004462
 30
0.0
 10
-48.66557294668314
 20
16.83650276314418
 30
0.0
 10
-48.59516087753593
 20
16.7932091473423
 30
0.0
 10
-48.57832384196274
 20
16.78258157263885
 30
0.0
 10
-48.57832384196274
 20
16.78258157263885
 30
0.0
  0
ARC
  5
147CD
330
1F
100
AcDbEntity
  8
AM_0
100
AcDbCircle
 10
-52.82055645349965
 20
9.999996337670517
 30
0.0
 40
7.999999999999972
100
AcDbArc
 50
102.0243128370422
 51
126.4199137285634
  0
SPLINE
  5
147CE
330
1F
100
AcDbEntity
  8
AM_0
100
AcDbSpline
210
0.0
220
0.0
230
1.0
 70
    28
 71
     2
 72
     6
 73
     3
 74
     0
 42
0.0000000001
 43
0.0000000001
 40
0.0459894848492203
 40
0.0459894848492203
 40
0.0459894848492203
 40
0.3682577903369518
 40
0.3682577903369518
 40
0.3682577903369518
 10
-54.52834118182705
 20
17.59097930551788
 30
0.0
 41
1.000032218557855
 10
-54.50804181868364
 20
17.70610271466321
 30
0.0
 41
1.000128993996809
 10
-54.48717036003598
 20
17.8244706386404
 30
0.0
 41
1.0
  0
LINE
  5
147CF
330
1F
100
AcDbEntity
  8
AM_0
100
AcDbLine
 10
-50.84705870635514
 20
15.10180347689222
 30
0.0
 11
-51.54101032445112
 21
14.41034843773789
 31
0.0
  0
ARC
  5
147D0
330
1F
100
AcDbEntity
  8
AM_0
100
AcDbCircle
 10
-52.82055645349965
 20
9.999996337670517
 30
0.0
 40
7.749999999999972
100
AcDbArc
 50
78.87359479830055
 51
90.0
  0
ARC
  5
147D1
330
1F
100
AcDbEntity
  8
AM_0
100
AcDbCircle
 10
-45.32691569926908
 20
17.45297790285874
 30
0.0
 40
6.0
100
AcDbArc
 50
178.5545782920342
 51
203.0704333741398
  0
SPLINE
  5
147D2
330
1F
100
AcDbEntity
  8
AM_0
100
AcDbSpline
210
0.0
220
0.0
230
1.0
 70
    28
 71
     2
 72
     6
 73
     3
 74
     0
 42
0.0000000001
 43
0.0000000001
 40
0.0
 40
0.0
 40
0.0
 40
0.3682577903369525
 40
0.3682577903369525
 40
0.3682577903369525
 10
-48.57832384196274
 20
16.78258157263885
 30
0.0
 41
1.0
 10
-48.60217333521291
 20
16.64732437516172
 30
0.0
 41
1.000147402153863
 10
-48.62527753180132
 20
16.51629396509306
 30
0.0
 41
1.0
  0
ARC
  5
14816
330
1F
100
AcDbEntity
  8
AM_0
100
AcDbCircle
 10
-52.82055645349965
 20
9.999996337670517
 30
0.0
 40
7.749999999999972
100
AcDbArc
 50
14.59255060203196
 51
24.80494984800128
  0
SPLINE
  5
14817
330
1F
100
AcDbEntity
  8
AM_0
100
AcDbSpline
210
0.0
220
0.0
230
1.0
 70
    28
 71
     2
 72
     6
 73
     3
 74
     0
 42
0.0000000001
 43
0.0000000001
 40
0.0
 40
0.0
 40
0.0
 40
0.8683077351809081
 40
0.8683077351809081
 40
0.8683077351809081
 10
-45.32055645349965
 20
11.95255875664704
 30
0.0
 41
1.0
 10
-45.32055645349965
 20
12.36162086197388
 30
0.0
 41
1.0013958980621
 10
-45.32055645349965
 20
12.78387851908533
 30
0.0
 41
1.0
  0
LINE
  5
14818
330
1F
100
AcDbEntity
  8
AM_0
100
AcDbLine
 10
-45.32055645349965
 20
11.95255875664704
 30
0.0
 11
-45.32055645349965
 21
8.552974532857121
 31
0.0
  0
LINE
  5
14819
330
1F
100
AcDbEntity
  8
AM_0
100
AcDbLine
 10
-45.32055645349965
 20
8.552974532857121
 30
0.0
 11
-45.32055645349965
 21
7.216114156255486
 31
0.0
  0
LINE
  5
149B0
330
1F
100
AcDbEntity
  8
AM_0
100
AcDbLine
 10
7.653035839950121
 20
15.10180713922175
 30
0.0
 11
6.455400580985383
 21
14.41035210006741
 31
0.0
  0
LINE
  5
149B1
330
1F
100
AcDbEntity
  8
AM_0
100
AcDbLine
 10
11.98753209313293
 20
17.60432971779814
 30
0.0
 11
7.653035839950121
 21
15.10180713922163
 31
0.0
  0
LINE
  5
149B2
330
1F
100
AcDbEntity
  8
AM_0
100
AcDbLine
 10
11.98753209313293
 20
17.60432971779814
 30
0.0
 11
12.23984042305926
 21
17.7499999999999
 31
0.0
  0
LINE
  5
149B3
330
1F
100
AcDbEntity
  8
AM_0
100
AcDbLine
 10
6.455400580985383
 20
14.41035210006741
 30
0.0
 11
2.055566200389194
 21
11.8701065360405
 31
0.0
  0
LINE
  5
149B4
330
1F
100
AcDbEntity
  8
AM_0
100
AcDbLine
 10
2.055566200389194
 20
11.8701065360405
 30
0.0
 11
0.5552528460743815
 21
11.00390021705808
 31
0.0
  0
ELLIPSE
  5
149B8
330
1F
100
AcDbEntity
  8
AM_0
100
AcDbEllipse
 10
17.29318430697538
 20
-62.71516750360212
 30
0.0
 11
5.484995485290607
 21
2.262215650952903
 31
0.0
210
0.0
220
0.0
230
1.0
 40
0.2583226451081772
 41
4.546590141945171
 42
5.39919567767339
  0
ELLIPSE
  5
149BC
330
1F
100
AcDbEntity
  8
AM_0
100
AcDbEllipse
 10
2.592457055340105
 20
-59.17300314667335
 30
0.0
 11
0.1291729673423288
 21
10.02448852573553
 31
0.0
210
0.0
220
0.0
230
1.0
 40
0.8650298724057932
 41
3.094540560246797
 42
3.618139335845084
  0
LINE
  5
149CA
330
1F
100
AcDbEntity
  8
AM_0
100
AcDbLine
 10
2.055566200389308
 20
-69.18114152502955
 30
0.0
 11
0.5484974719694264
 21
-69.07961516472693
 31
0.0
  0
LINE
  5
149CE
330
1F
100
AcDbEntity
  8
AM_0
100
AcDbLine
 10
0.5396612389141637
 20
-69.08472992378682
 30
0.0
 11
0.5484974719694264
 21
-69.07961516472693
 31
0.0
  0
ELLIPSE
  5
149DF
330
1F
100
AcDbEntity
  8
AM_0
100
AcDbEllipse
 10
19.38832604206823
 20
-61.9177675812353
 30
0.0
 11
15.13369282820699
 21
5.821343542263535
 31
0.0
210
0.0
220
0.0
230
1.0
 40
0.0960279956234404
 41
3.788890395274782
 42
4.514711529294856
  0
LINE
  5
149E3
330
1F
100
AcDbEntity
  8
AM_0
100
AcDbLine
 10
7.653035839950235
 20
-67.43791058832136
 30
0.0
 11
6.455400580985497
 21
-68.13186220641723
 31
0.0
  0
ELLIPSE
  5
149F2
330
1F
100
AcDbEntity
  8
AM_0
100
AcDbEllipse
 10
6.446046508288191
 20
-69.41140833546587
 30
0.0
 11
-19.5476865697673
 21
-7.519235408757024
 31
0.0
210
0.0
220
0.0
230
1.0
 40
0.0960279956234404
 41
3.640923427303401
 42
3.819163418673727
  0
LINE
  5
151D0
330
1F
100
AcDbEntity
  8
AM_0
100
AcDbLine
 10
25.96430699262112
 20
-61.91140833546587
 30
0.0
 11
29.73990228902801
 21
-61.91140833546587
 31
0.0
  0
SPLINE
  5
151D1
330
1F
100
AcDbEntity
  8
AM_0
100
AcDbSpline
210
0.0
220
0.0
230
1.0
 70
     8
 71
     3
 72
    34
 73
    30
 74
     0
 42
0.0000000001
 43
0.0000000001
 40
3.702154273954818
 40
3.702154273954818
 40
3.702154273954818
 40
3.702154273954818
 40
3.887818990965983
 40
3.887818990965983
 40
5.183758654621311
 40
5.183758654621311
 40
5.757038600147787
 40
5.757038600147787
 40
6.330318545674262
 40
6.330318545674262
 40
6.903598491200738
 40
6.903598491200738
 40
7.476878436727214
 40
7.476878436727214
 40
8.05015838225369
 40
8.05015838225369
 40
8.623438327780166
 40
8.623438327780166
 40
9.196718273306642
 40
9.196718273306642
 40
9.769998218833118
 40
9.769998218833118
 40
11.06593788248845
 40
11.06593788248845
 40
12.36187754614377
 40
12.36187754614377
 40
13.6578172097991
 40
13.6578172097991
 40
13.96097543483512
 40
13.96097543483512
 40
13.96097543483512
 40
13.96097543483512
 10
29.73990228902801
 20
-61.91140833546587
 30
0.0
 10
29.78796135249206
 20
-61.92584452051915
 30
0.0
 10
29.83520542648114
 20
-61.94086106327404
 30
0.0
 10
30.20540633289181
 20
-62.06550985409416
 30
0.0
 10
30.48743559313277
 20
-62.2042408791956
 30
0.0
 10
30.81800370817598
 20
-62.45599975189333
 30
0.0
 10
30.91366546547818
 20
-62.54388206503529
 30
0.0
 10
31.08250137765901
 20
-62.74010429048479
 30
0.0
 10
31.15566957215674
 20
-62.84847977383782
 30
0.0
 10
31.27298995934518
 20
-63.08188948747846
 30
0.0
 10
31.31720471311508
 20
-63.20707968150373
 30
0.0
 10
31.37498308112674
 20
-63.4672467308576
 30
0.0
 10
31.3885443132607
 20
-63.60222843201922
 30
0.0
 10
31.3885443132607
 20
-63.87163057349721
 30
0.0
 10
31.37498308112674
 20
-64.01653345867982
 30
0.0
 10
31.31720471311508
 20
-64.31845477704638
 30
0.0
 10
31.27298995934518
 20
-64.47546948017816
 30
0.0
 10
31.15566957215674
 20
-64.79158661119226
 30
0.0
 10
31.08250137765901
 20
-64.95085503446671
 30
0.0
 10
30.91366546547818
 20
-65.26119886373596
 30
0.0
 10
30.81800370817598
 20
-65.41225487477863
 30
0.0
 10
30.48743559313277
 20
-65.87496160981027
 30
0.0
 10
30.20540633289181
 20
-66.1831595688256
 30
0.0
 10
29.55778670595362
 20
-66.74187186871973
 30
0.0
 10
29.19209375362459
 20
-66.99219345702727
 30
0.0
 10
28.40612444226156
 20
-67.40849973069624
 30
0.0
 10
27.9851358207867
 20
-67.57469048605805
 30
0.0
 10
27.45312011544911
 20
-67.71914767491552
 30
0.0
 10
27.35171097663317
 20
-67.74388228975954
 30
0.0
 10
27.24999999999977
 20
-67.76594019470673
 30
0.0
  0
ARC
  5
151D4
330
1F
100
AcDbEntity
  8
AM_0
100
AcDbCircle
 10
25.96430699262112
 20
2.552981565188205
 30
0.0
 40
5.99999662999849
100
AcDbArc
 50
51.00399250401793
 51
90.0
  0
SPLINE
  5
151D5
330
1F
100
AcDbEntity
  8
AM_0
100
AcDbSpline
210
0.0
220
0.0
230
1.0
 70
     8
 71
     3
 72
    34
 73
    30
 74
     0
 42
0.0000000001
 43
0.0000000001
 40
3.702154273954818
 40
3.702154273954818
 40
3.702154273954818
 40
3.702154273954818
 40
3.887818990965983
 40
3.887818990965983
 40
5.183758654621311
 40
5.183758654621311
 40
5.757038600147787
 40
5.757038600147787
 40
6.330318545674262
 40
6.330318545674262
 40
6.903598491200738
 40
6.903598491200738
 40
7.476878436727214
 40
7.476878436727214
 40
8.05015838225369
 40
8.05015838225369
 40
8.623438327780166
 40
8.623438327780166
 40
9.196718273306642
 40
9.196718273306642
 40
9.769998218833118
 40
9.769998218833118
 40
11.06593788248845
 40
11.06593788248845
 40
12.36187754614377
 40
12.36187754614377
 40
13.6578172097991
 40
13.6578172097991
 40
13.96097543483512
 40
13.96097543483512
 40
13.96097543483512
 40
13.96097543483512
 10
29.73990228902801
 20
7.216117818585033
 30
0.0
 10
29.78796135249206
 20
7.177225587935894
 30
0.0
 10
29.83520542648114
 20
7.137697237294972
 30
0.0
 10
30.20540633289181
 20
6.817534553888393
 30
0.0
 10
30.48743559313277
 20
6.508464764030876
 30
0.0
 10
30.81800370817598
 20
6.04417777551312
 30
0.0
 10
30.91366546547818
 20
5.892570343852825
 30
0.0
 10
31.08250137765901
 20
5.58099583593328
 30
0.0
 10
31.15566957215674
 20
5.421047933002754
 30
0.0
 10
31.27298995934518
 20
5.103467921565951
 30
0.0
 10
31.31720471311508
 20
4.945668841055593
 30
0.0
 10
31.37498308112674
 20
4.642117924601806
 30
0.0
 10
31.3885443132607
 20
4.496369788540008
 30
0.0
 10
31.3885443132607
 20
4.22528104553119
 30
0.0
 10
31.37498308112674
 20
4.08939236800525
 30
0.0
 10
31.31720471311508
 20
3.827335942849757
 30
0.0
 10
31.27298995934518
 20
3.701163372572367
 30
0.0
 10
31.15566957215674
 20
3.465776207320303
 30
0.0
 10
31.08250137765901
 20
3.356404609583322
 30
0.0
 10
30.91366546547818
 20
3.158241688278125
 30
0.0
 10
30.81800370817598
 20
3.069414914016832
 30
0.0
 10
30.48743559313277
 20
2.814763357875066
 30
0.0
 10
30.20540633289181
 20
2.674106149076536
 30
0.0
 10
29.55778670595362
 20
2.452557663609994
 30
0.0
 10
29.19209375362459
 20
2.371480259812714
 30
0.0
 10
28.40612444226156
 20
2.251757275369144
 30
0.0
 10
27.9851358207867
 20
2.212777316663917
 30
0.0
 10
27.45312011544911
 20
2.18098214645552
 30
0.0
 10
27.35171097663317
 20
2.175687574538145
 30
0.0
 10
27.24999999999977
 20
2.171051501143623
 30
0.0
  0
LINE
  5
15206
330
1F
100
AcDbEntity
  8
AM_0
100
AcDbLine
 10
25.96430699262112
 20
-67.91570577740413
 30
0.0
 11
19.8146999244567
 21
-67.91570577740413
 31
0.0
  0
SPLINE
  5
1520A
330
1F
100
AcDbEntity
  8
AM_0
100
AcDbSpline
210
0.0
220
0.0
230
1.0
 70
     8
 71
     3
 72
    10
 73
     6
 74
     0
 42
0.0000000001
 43
0.0000000001
 40
1.343838972315006
 40
1.343838972315006
 40
1.343838972315006
 40
1.343838972315006
 40
1.661527464865905
 40
1.661527464865905
 40
1.687390893754481
 40
1.687390893754481
 40
1.687390893754481
 40
1.687390893754481
 10
27.24999999999977
 20
-67.76594019470673
 30
0.0
 10
27.17084950873175
 20
-67.78831598665363
 30
0.0
 10
27.0932340880637
 20
-67.80705151598625
 30
0.0
 10
27.01225812361724
 20
-67.82361538993348
 30
0.0
 10
27.00613975082536
 20
-67.82484814283225
 30
0.0
 10
26.99999999999977
 20
-67.82606608745221
 30
0.0
  0
SPLINE
  5
1520B
330
1F
100
AcDbEntity
  8
AM_0
100
AcDbSpline
210
0.0
220
0.0
230
1.0
 70
     8
 71
     3
 72
    10
 73
     6
 74
     0
 42
0.0000000001
 43
0.0000000001
 40
0.9773289352347655
 40
0.9773289352347655
 40
0.9773289352347655
 40
0.9773289352347655
 40
0.9788801383683881
 40
0.9788801383683881
 40
1.957760276736776
 40
1.957760276736776
 40
1.957760276736776
 40
1.957760276736776
 10
26.99999999999977
 20
-67.82606608745221
 30
0.0
 10
26.99944404461098
 20
-67.82616306630837
 30
0.0
 10
26.99888807473906
 20
-67.82625996717013
 30
0.0
 10
26.64748061535715
 20
-67.88745643294146
 30
0.0
 10
26.29060037207739
 20
-67.91570577740413
 30
0.0
 10
25.96430699262112
 20
-67.91570577740413
 30
0.0
  0
LINE
  5
1520E
330
1F
100
AcDbEntity
  8
AM_0
100
AcDbLine
 10
25.64545645554881
 20
-61.91140833546587
 30
0.0
 11
25.96430699262112
 21
-61.91140833546587
 31
0.0
  0
SPLINE
  5
15217
330
1F
100
AcDbEntity
  8
AM_0
100
AcDbSpline
210
0.0
220
0.0
230
1.0
 70
     8
 71
     3
 72
    12
 73
     8
 74
     0
 42
0.0000000001
 43
0.0000000001
 40
22.26019161173728
 40
22.26019161173728
 40
22.26019161173728
 40
22.26019161173728
 40
22.65835279454108
 40
22.65835279454108
 40
24.0290004877688
 40
24.0290004877688
 40
24.5207029498545
 40
24.5207029498545
 40
24.5207029498545
 40
24.5207029498545
 10
10.95257718100231
 20
0.7642122804637239
 30
0.0
 10
11.0578844699711
 20
0.8441747023441195
 30
0.0
 10
11.16313070043668
 20
0.9207917025408534
 30
0.0
 10
11.62788693586003
 20
1.245920678508995
 30
0.0
 10
12.01072587130216
 20
1.477634622825192
 30
0.0
 10
12.54244769882632
 20
1.752944734881638
 30
0.0
 10
12.68391956964524
 20
1.821963245051805
 30
0.0
 10
12.82578089058518
 20
1.887127974591252
 30
0.0
  0
SPLINE
  5
15238
330
1F
100
AcDbEntity
  8
AM_0
100
AcDbSpline
210
0.0
220
0.0
230
1.0
 70
     8
 71
     3
 72
    14
 73
    10
 74
     0
 42
0.0000000001
 43
0.0000000001
 40
-1.522715588850255
 40
-1.522715588850255
 40
-1.522715588850255
 40
-1.522715588850255
 40
-1.494439558335969
 40
-1.494439558335969
 40
-0.996293038890645
 40
-0.996293038890645
 40
-0.4981465194453207
 40
-0.4981465194453207
 40
0.0
 40
0.0
 40
0.0
 40
0.0
 10
19.8146999244567
 20
2.395700304577147
 30
0.0
 10
19.82013448119119
 20
2.394106189927427
 30
0.0
 10
19.82553087873498
 20
2.392518254107429
 30
0.0
 10
19.92526946216196
 20
2.363079129808355
 30
0.0
 10
20.00731563669547
 20
2.337340465497007
 30
0.0
 10
20.13928168108726
 20
2.29472041645802
 30
0.0
 10
20.18932602520874
 20
2.27783752444789
 30
0.0
 10
20.25503929954334
 20
2.255470574273957
 30
0.0
 10
20.27070328828495
 20
2.250000000000071
 30
0.0
 10
20.27070328828495
 20
2.250000000000071
 30
0.0
  0
ELLIPSE
  5
15239
330
1F
100
AcDbEntity
  8
AM_0
100
AcDbEllipse
 10
29.8379293286547
 20
2.552981565188205
 30
0.0
 11
15.1264538169748
 21
-1.94269974914482
 31
0.0
210
0.0
220
0.0
230
1.0
 40
0.3752887285328832
 41
1.89946191420711
 42
3.456480333222785
  0
LINE
  5
1523A
330
1F
100
AcDbEntity
  8
AM_0
100
AcDbLine
 10
25.96430699262112
 20
2.395700304577261
 30
0.0
 11
19.8146999244567
 21
2.395700304577261
 31
0.0
  0
SPLINE
  5
1523B
330
1F
100
AcDbEntity
  8
AM_0
100
AcDbSpline
210
0.0
220
0.0
230
1.0
 70
     8
 71
     3
 72
    14
 73
    10
 74
     0
 42
0.0000000001
 43
0.0000000001
 40
1.488840332876878
 40
1.488840332876878
 40
1.488840332876878
 40
1.488840332876878
 40
2.084322247225335
 40
2.084322247225335
 40
3.126483370838002
 40
3.126483370838002
 40
4.16864449445067
 40
4.16864449445067
 40
5.908102396196889
 40
5.908102396196889
 40
5.908102396196889
 40
5.908102396196889
 10
19.8146999244567
 20
2.395700304577147
 30
0.0
 10
19.60889908424463
 20
2.456067718211514
 30
0.0
 10
19.39980121082328
 20
2.510177424087559
 30
0.0
 10
18.82058686370965
 20
2.640130505664573
 30
0.0
 10
18.44708307138342
 20
2.701676263635207
 30
0.0
 10
17.71048261592694
 20
2.781605917758796
 30
0.0
 10
17.34738704120389
 20
2.800000000000026
 30
0.0
 10
16.42018069941764
 20
2.800000000000026
 30
0.0
 10
15.82331397146675
 20
2.7488456448054
 30
0.0
 10
15.22942446250636
 20
2.642004992176638
 30
0.0
  0
ARC
  5
1523C
330
1F
100
AcDbEntity
  8
AM_0
100
AcDbCircle
 10
16.99999999999966
 20
-7.199999999999974
 30
0.0
 40
10.0
100
AcDbArc
 50
100.1984173147566
 51
114.671928617496
  0
LINE
  5
1523D
330
1F
100
AcDbEntity
  8
AM_0
100
AcDbLine
 10
20.27070328828495
 20
2.250000000000071
 30
0.0
 11
26.99999999999989
 21
2.250000000000071
 31
0.0
  0
LINE
  5
1523E
330
1F
100
AcDbEntity
  8
AM_0
100
AcDbLine
 10
26.99999999999977
 20
2.250000000000071
 30
0.0
 11
27.24999999999977
 21
2.000000000000071
 31
0.0
  0
LINE
  5
1523F
330
1F
100
AcDbEntity
  8
AM_0
100
AcDbLine
 10
27.24999999999977
 20
2.000000000000071
 30
0.0
 11
27.24999999999977
 21
2.171051501143623
 31
0.0
  0
LINE
  5
15240
330
1F
100
AcDbEntity
  8
AM_0
100
AcDbLine
 10
26.99999999999977
 20
2.250000000000071
 30
0.0
 11
26.99999999999977
 21
2.413881759643985
 31
0.0
  0
SPLINE
  5
15241
330
1F
100
AcDbEntity
  8
AM_0
100
AcDbSpline
210
0.0
220
0.0
230
1.0
 70
     8
 71
     3
 72
    10
 73
     6
 74
     0
 42
0.0000000001
 43
0.0000000001
 40
1.343838972315006
 40
1.343838972315006
 40
1.343838972315006
 40
1.343838972315006
 40
1.661527464865905
 40
1.661527464865905
 40
1.687390893754481
 40
1.687390893754481
 40
1.687390893754481
 40
1.687390893754481
 10
27.24999999999977
 20
2.171051501143623
 30
0.0
 10
27.17084950873175
 20
2.2472284331363
 30
0.0
 10
27.0932340880637
 20
2.322607203226042
 30
0.0
 10
27.01225812361724
 20
2.401870971102042
 30
0.0
 10
27.00613975082536
 20
2.407863898019585
 30
0.0
 10
26.99999999999977
 20
2.413881759643985
 30
0.0
  0
SPLINE
  5
15242
330
1F
100
AcDbEntity
  8
AM_0
100
AcDbSpline
210
0.0
220
0.0
230
1.0
 70
     8
 71
     3
 72
    10
 73
     6
 74
     0
 42
0.0000000001
 43
0.0000000001
 40
0.9773289352347655
 40
0.9773289352347655
 40
0.9773289352347655
 40
0.9773289352347655
 40
0.9788801383683881
 40
0.9788801383683881
 40
1.957760276736776
 40
1.957760276736776
 40
1.957760276736776
 40
1.957760276736776
 10
26.99999999999977
 20
2.413881759643985
 30
0.0
 10
26.99944404461098
 20
2.41386149306318
 30
0.0
 10
26.99888807473906
 20
2.413841244717744
 30
0.0
 10
26.64748061535715
 20
2.401054896066128
 30
0.0
 10
26.29060037207739
 20
2.395700304577261
 30
0.0
 10
25.96430699262112
 20
2.395700304577261
 30
0.0
  0
LINE
  5
15243
330
1F
100
AcDbEntity
  8
AM_0
100
AcDbLine
 10
23.26127481273397
 20
11.95256241897648
 30
0.0
 11
25.64545645554881
 21
8.552978195186668
 31
0.0
  0
LINE
  5
15246
330
1F
100
AcDbEntity
  8
AM_0
100
AcDbLine
 10
25.64545645554881
 20
8.552978195186668
 30
0.0
 11
25.96430699262112
 21
8.552978195186668
 31
0.0
  0
TEXT
  5
15DA5
330
1F
100
AcDbEntity
  8
AM_0
100
AcDbText
 10
24.08217834803429
 20
-117.4576934072359
 30
0.0
 40
5.0
  1
XBPT-216R
100
AcDbText
  0
DIMENSION
  5
16458
330
1F
100
AcDbEntity
  8
AM_5
100
AcDbDimension
  2
*D5
 10
107.4999999999997
 20
-12.43553938149151
 30
0.0
 11
99.99999999999966
 21
-9.035539381491509
 31
0.0
 70
    32
 71
     5
 42
15.0
  3
AM_JIS$0
100
AcDbAlignedDimension
 13
92.49999999999966
 23
7.216117818584905
 33
0.0
 14
107.4999999999997
 24
7.216117818584877
 34
0.0
100
AcDbRotatedDimension
1001
ACAD
1000
DSTYLE
1002
{
1070
   179
1070
     2
1070
   271
1070
     0
1002
}
  0
DIMENSION
  5
164F3
330
1F
100
AcDbEntity
  8
AM_5
100
AcDbDimension
  2
*D6
 10
-0.0000000000013642
 20
-69.41140833546592
 30
0.0
 11
-13.34358576560009
 21
-63.44105408035873
 31
0.0
 70
   162
 71
     5
 42
0.0872664625997381
  3
AM_JIS$2
100
AcDb2LineAngularDimension
 13
-3.023854710452724
 23
-69.41140833546592
 33
0.0
 14
206.7511956964342
 24
-69.41140833546598
 34
0.0
 15
-3.448632220920104
 25
-69.10969211146522
 35
0.0
 16
-14.61217440228139
 26
-68.98623748425655
 36
0.0
1001
ACAD
1000
DSTYLE
1002
{
1070
   271
1070
     0
1002
}
  0
LINE
  5
16557
330
1F
100
AcDbEntity
  8
AM_0
100
AcDbLine
 10
0.5396612389504298
 20
10.70639462930128
 30
0.0
 11
0.5552528460743815
 21
11.00390021705808
 31
0.0
  0
DIMENSION
  5
1658F
330
1F
100
AcDbEntity
  8
AM_5
100
AcDbDimension
  2
*D7
 10
-10.37389939822356
 20
0.0000000000000023
 30
0.0
 11
-13.77389939822356
 21
4.999999999999997
 31
0.0
 70
    32
 71
     5
 42
9.999999999999993
  3
AM_JIS$0
100
AcDbAlignedDimension
 13
-3.41554845196606
 23
9.999999999999993
 33
0.0
 14
-2.12986850650293
 24
0.0
 34
0.0
 50
90.0
100
AcDbRotatedDimension
1001
ACAD
1000
DSTYLE
1002
{
1070
   179
1070
     0
1070
   271
1070
     0
1002
}
  0
DIMENSION
  5
165A9
330
1F
100
AcDbEntity
  8
AM_5
100
AcDbDimension
  2
*D8
 10
-2.12986850650293
 20
0.0
 30
0.0
 11
-19.24146417098523
 21
20.25368250551993
 31
0.0
 70
    34
 71
     5
 42
1.623156204354726
  3
AM_JIS$2
100
AcDb2LineAngularDimension
 13
0.0005497774761807
 23
0.4195351440318689
 33
0.0
 14
0.5034184515751576
 24
10.01484105049158
 34
0.0
 15
0.3972656262079681
 25
0.0
 35
0.0
 16
-11.53367596225311
 26
21.65137225143074
 36
0.0
1001
ACAD
1000
DSTYLE
1002
{
1070
   179
1070
     0
1070
   271
1070
     0
1002
}
  0
DIMENSION
  5
165EE
330
1F
100
AcDbEntity
  8
AM_5
100
AcDbDimension
  2
*D9
 10
200.0000000000001
 20
-37.31042461320843
 30
0.0
 11
100.2910570655371
 21
-37.31042461320843
 31
0.0
 70
   160
 71
     5
 42
200.0000000000001
  3
AM_JIS$0
100
AcDbAlignedDimension
 13
0.0
 23
0.0
 33
0.0
 14
200.0000000000001
 24
2.999999999999943
 34
0.0
100
AcDbRotatedDimension
1001
ACAD
1000
DSTYLE
1002
{
1070
   179
1070
     0
1070
   271
1070
     0
1002
}
  0
DIMENSION
  5
166D2
330
1F
100
AcDbEntity
  8
AM_5
100
AcDbDimension
  2
*D10
 10
97.33988416880081
 20
2.455214796655497
 30
0.0
 11
111.4637176431085
 21
28.2923738209176
 31
0.0
 70
   163
 71
     5
 42
15.99999999999999
  3
AM_JIS$3
100
AcDbDiametricDimension
 15
102.6601158311989
 25
17.54478520334422
 35
0.0
 40
0.0
1001
ACAD
1000
DSTYLE
1002
{
1070
   179
1070
     0
1070
   271
1070
     0
1002
}
  0
DIMENSION
  5
166F9
330
1F
100
AcDbEntity
  8
AM_5
100
AcDbDimension
  2
*D11
 10
-45.9901170414772
 20
17.42876915989692
 30
0.0
 11
-77.54689462047597
 21
-2.751994071969946
 31
0.0
 70
   163
  1
最小加工径\P<>
 71
     5
 42
20.00000000000026
  3
AM_JIS$3
100
AcDbDiametricDimension
 15
-59.65099586552217
 25
2.82122351544421
 35
0.0
 40
0.0
1001
ACAD
1000
DSTYLE
1002
{
1070
   179
1070
     0
1070
   271
1070
     0
1002
}
  0
DIMENSION
  5
1674D
330
1F
100
AcDbEntity
  8
AM_5
100
AcDbDimension
  2
*D12
 10
-52.82055645349965
 20
-4.105045467911623
 30
0.0
 11
-59.01161963114965
 21
-16.36351549800753
 31
0.0
 70
   162
 71
     5
 42
0.0303263825435209
  3
AM_JIS$2
100
AcDb2LineAngularDimension
 13
-52.8059369491815
 23
0.4194511504348384
 33
0.0
 14
-52.51485679171572
 24
10.0147570568946
 34
0.0
 15
-52.82055645349965
 25
22.59843621816346
 35
0.0
 16
-52.99682173452841
 26
-17.4987048405897
 36
0.0
1001
ACAD
1000
DSTYLE
1002
{
1070
   179
1070
     0
1070
   271
1070
     0
1002
}
  0
ENDSEC
  0
SECTION
  2
OBJECTS
  0
DICTIONARY
  5
C
330
0
100
AcDbDictionary
281
     1
  3
ACAD_COLOR
350
15E4B
  3
ACAD_GROUP
350
D
  3
ACAD_LAYOUT
350
1A
  3
ACAD_MATERIAL
350
15E4A
  3
ACAD_MLINESTYLE
350
17
  3
ACAD_PLOTSETTINGS
350
19
  3
ACAD_PLOTSTYLENAME
350
E
  3
ACAD_TABLESTYLE
350
15E4C
  3
AcAmCatalogState
350
15EB3
  3
ACDBHEADERROUNDTRIPXREC
350
169F7
  3
AcDbVariableDictionary
350
30
  3
ACDMSYSVARMGR
350
15E66
  3
ACGREF_MASTER
350
15E5E
  3
ACGREFACAD_MASTER
350
15E86
  3
AcmDictionary
350
4D
  3
ACME_BOM_MANAGER_NAME
350
36
  3
ACME_COMMAND_HISTORY
350
2F
  3
ACME_SCOPE_NAME
350
2E
  3
ACMESTATEMGR
350
3B
  3
AcmeSysVarManager
350
32
  3
AcmSystemVariableManager
350
6A
  3
AD_APPL
350
15E91
  3
ADSYSVARMGR
350
15E90
  3
AmdtNamedDwgMgr
350
15E81
  3
AMG
350
3F
  3
AMGSNAPSETTINGS
350
73
  3
AMI_MASTER
350
15E89
  3
ASE_INDEX_DICTIONARY
350
16051
  3
AUTOCAD_ASSEMBLIES_PROJECT
350
15E99
  3
Designer_Assemblies_SysVars
350
15E94
  3
DWGPROPS
350
169FA
  3
eng_data
350
2A40
  3
FILENAME
350
2916
  3
GREFAM_MODULE
350
15E8A
  3
line_dic_data
350
2A3E
  3
table_dic_data
350
1688
  3
ZWKSIZE
350
2918
  0
DICTIONARY
  5
163F9
330
2
100
AcDbDictionary
280
     1
281
     1
  3
ACAD_LAYERSTATES
360
163FA
  0
DICTIONARY
  5
165
330
1F
100
AcDbDictionary
280
     1
281
     1
  0
DICTIONARY
  5
15E4B
102
{ACAD_REACTORS
330
C
102
}
330
C
100
AcDbDictionary
281
     1
  0
DICTIONARY
  5
D
102
{ACAD_REACTORS
330
C
102
}
330
C
100
AcDbDictionary
281
     1
  0
DICTIONARY
  5
1A
102
{ACAD_REACTORS
330
C
102
}
330
C
100
AcDbDictionary
281
     1
  3
Model
350
22
  3
ﾚｲｱｳﾄ1
350
1E
  3
ﾚｲｱｳﾄ2
350
26
  0
DICTIONARY
  5
15E4A
102
{ACAD_REACTORS
330
C
102
}
330
C
100
AcDbDictionary
281
     1
  0
DICTIONARY
  5
17
102
{ACAD_REACTORS
330
C
102
}
330
C
100
AcDbDictionary
281
     1
  3
Standard
350
18
  0
DICTIONARY
  5
19
102
{ACAD_REACTORS
330
C
102
}
330
C
100
AcDbDictionary
281
     1
  0
ACDBDICTIONARYWDFLT
  5
E
102
{ACAD_REACTORS
330
C
102
}
330
C
100
AcDbDictionary
281
     1
  3
Normal
350
F
100
AcDbDictionaryWithDefault
340
F
  0
DICTIONARY
  5
15E4C
102
{ACAD_REACTORS
330
C
102
}
330
C
100
AcDbDictionary
281
     1
  3
Standard
350
15E4D
  0
ACAD_PROXY_OBJECT
  5
15EB3
102
{ACAD_REACTORS
330
C
102
}
330
C
100
AcDbProxyObject
 90
      499
 91
      571
 95
       25
 70
     0
 93
      600
310
3FFFFFFFE00A02814029F2E2E2816B9B2B93B32B92E483ECB652E4AABC7C0483ECB652E487CC6F6CBB846A445F7AE41BDC1B341A12E4B34482AE76F586C6EDC6F14413BC1B7C0AD94C00AA
  0
DICTIONARY
  5
169F7
102
{ACAD_REACTORS
330
C
102
}
330
C
100
AcDbDictionary
281
     1
  3
COLORDICT
350
169F8
  3
MATERIALDICT
350
169F9
  0
DICTIONARY
  5
30
102
{ACAD_REACTORS
330
C
102
}
330
C
100
AcDbDictionary
281
     1
  3
CTABLESTYLE
350
15EE1
  3
HIDETEXT
350
169F6
  3
INDEXCTL
350
169F5
  0
ACAD_PROXY_OBJECT
  5
15E66
102
{ACAD_REACTORS
330
C
102
}
330
C
100
AcDbProxyObject
 90
      499
 91
      507
 95
       25
 70
     0
 93
      240
310
4C51A47A0000000000000000000000000000000000000000000000000000
330
15E67
330
15E68
330
15E69
330
15E6A
330
15E6B
330
15E6C
330
15E6D
330
15E6E
330
15E6F
330
15E70
330
15E71
330
15E72
330
15E73
330
15E74
330
15E75
330
15E76
330
15E77
330
15E78
330
15E79
330
15E7A
330
15E7B
330
15E7C
330
15E7D
330
15E7E
330
15E7F
330
15E80
 94
        0
  0
ACAD_PROXY_OBJECT
  5
15E5E
102
{ACAD_REACTORS
330
C
102
}
330
C
100
AcDbProxyObject
 90
      499
 91
      535
 95
       25
 70
     0
 93
       34
310
0400004280
  0
ACAD_PROXY_OBJECT
  5
15E86
102
{ACAD_REACTORS
330
C
102
}
330
C
100
AcDbProxyObject
 90
      499
 91
      541
 95
       25
 70
     0
 93
      114
310
04000041C080000000000000000000
  0
DICTIONARY
  5
4D
102
{ACAD_REACTORS
330
C
102
}
330
C
100
AcDbDictionary
281
     1
  3
AcmBOMDATA
350
4E
  3
AcmStdDictionary
350
17E
  3
AMDTSECTSYM_ARROWCOLOR
350
15EA7
  0
ACAD_PROXY_OBJECT
  5
36
102
{ACAD_REACTORS
330
C
102
}
330
C
100
AcDbProxyObject
 90
      499
 91
      510
 95
       25
 70
     0
 93
       50
310
00010040400000
330
0
330
0
330
37
 94
        0
  0
ACAD_PROXY_OBJECT
  5
2F
102
{ACAD_REACTORS
330
C
102
}
330
C
100
AcDbProxyObject
 90
      499
 91
      505
 95
       25
 70
     0
 93
     5528
310
478050653454C4543548050C475249505F535452455443488050653454C4543548050653454C454354404052D4D5347202D205050413A2020206465736B746F702E6172782046696C6556657273696F6E3A20392E322E302E34014390535115149154D15511109353D1102014213880B4815539113C05084E202D20554E444
310
F014115539113E014115539113E014154155491D1601415454D05591501014B5354D1C80B481414104E88080819195CDADD1BDC0B985C9E08119A5B1955995C9CDA5BDB8E880E4B8C8B8C0B8D0050E414D4454524553455444424D4F4440805084E202D20554E444F014213880B4815539113C0504554E444F80504554E444
310
F805055153415645404052D4D5347202D205050413A2020206465736B746F702E6172782046696C6556657273696F6E3A20392E322E302E34014390535115149154D15511109353D1102014213880B4815539113C05084E202D20554E444F014115539113E014115539113E014194D1531150D5201419493D5105511601421
310
11493D411D153D3601411353D591601411693D3D3601415454D05591501014B5354D1C80B481414104E88080819195CDADD1BDC0B985C9E08119A5B1955995C9CDA5BDB8E880E4B8C8B8C0B8D005055153415645404052D4D5347202D205050413A2020206465736B746F702E6172782046696C6556657273696F6E3A20392
310
E322E302E34014390535115149154D15511109353D1102014213880B4815539113C05084E202D20554E444F014115539113E014115539113E014154155491D1601415454D05591501014B5354D1C80B481414104E88080819195CDADD1BDC0B985C9E08119A5B1955995C9CDA5BDB8E880E4B8C8B8C0B8D005055055524745
310
805055153415645404052D4D5347202D205050413A2020206465736B746F702E6172782046696C6556657273696F6E3A20392E322E302E34
  0
ACAD_PROXY_OBJECT
  5
2E
102
{ACAD_REACTORS
330
C
102
}
330
C
100
AcDbProxyObject
 90
      499
 91
      504
 95
       25
 70
     0
 93
      586
310
09000046408000000000000000001344E200000000000000000000000000000000000000000000000000000000000000000000000000000000000000000000000000000000AAA406AA80
360
33
360
34
360
35
360
37
360
6B
360
6C
360
15E5F
360
15E60
360
15E61
360
15E62
360
15E63
360
15E64
360
15E67
360
15E68
360
15E69
360
15E6A
360
15E6B
360
15E6C
360
15E6D
360
15E6E
360
15E6F
360
15E70
360
15E71
360
15E72
360
15E73
360
15E74
360
15E75
360
15E76
360
15E77
360
15E78
360
15E79
360
15E7A
360
15E7B
360
15E7C
360
15E7D
360
15E7E
360
15E7F
360
15E80
360
15E8C
360
15E8D
360
15E8E
360
15E8F
360
15E95
360
15E96
360
15E97
360
15E98
360
15E9D
360
15E9E
360
15E9F
360
15EA0
360
15EA1
360
15EA2
 94
        0
  0
ACAD_PROXY_OBJECT
  5
3B
102
{ACAD_REACTORS
330
C
102
}
330
C
100
AcDbProxyObject
 90
      499
 91
      515
 95
       25
 70
     0
 93
       50
310
09000042641280
  0
ACAD_PROXY_OBJECT
  5
32
102
{ACAD_REACTORS
330
C
102
}
330
C
100
AcDbProxyObject
 90
      499
 91
      507
 95
       25
 70
     0
 93
       48
310
903412000000
330
33
330
34
330
35
 94
        0
  0
ACAD_PROXY_OBJECT
  5
6A
102
{ACAD_REACTORS
330
C
102
}
330
C
100
AcDbProxyObject
 90
      499
 91
      507
 95
       25
 70
     0
 93
       40
310
90240E0000
330
6B
330
6C
 94
        0
  0
ACAD_PROXY_OBJECT
  5
15E91
102
{ACAD_REACTORS
330
C
102
}
330
C
100
AcDbProxyObject
 90
      499
 91
      551
 95
       25
 70
     0
 93
       42
310
000900004040
330
15E8C
 94
        0
  0
ACAD_PROXY_OBJECT
  5
15E90
102
{ACAD_REACTORS
330
C
102
}
330
C
100
AcDbProxyObject
 90
      499
 91
      507
 95
       25
 70
     0
 93
        8
310
AA
  0
ACAD_PROXY_OBJECT
  5
15E81
102
{ACAD_REACTORS
330
C
102
}
330
C
100
AcDbProxyObject
 90
      499
 91
      540
 95
       25
 70
     0
 93
       42
310
000100005E80
330
15E5F
 94
        0
  0
DICTIONARY
  5
3F
102
{ACAD_REACTORS
330
C
102
}
330
C
100
AcDbDictionary
281
     1
  3
AcMgSettings
350
40
  3
AMGLAYCFG
350
42
  0
DICTIONARY
  5
73
102
{ACAD_REACTORS
330
C
102
}
330
C
100
AcDbDictionary
281
     1
  3
DIMENSION
350
62F
  3
FEA
350
630
  3
HATCH (1)
350
631
  3
HATCH (2)
350
632
  3
SYMBOLS
350
633
  0
ACAD_PROXY_OBJECT
  5
15E89
102
{ACAD_REACTORS
330
C
102
}
330
C
100
AcDbProxyObject
 90
      499
 91
      544
 95
       25
 70
     0
 93
       34
310
0500004280
  0
DICTIONARY
  5
16051
102
{ACAD_REACTORS
330
C
102
}
330
C
100
AcDbDictionary
281
     1
  3
ASEBlockHierarchyIndexRecord
350
16053
1001
DCO15
1040
1562583383.687
  0
ACAD_PROXY_OBJECT
  5
15E99
102
{ACAD_REACTORS
330
C
102
}
330
C
100
AcDbProxyObject
 90
      499
 91
      554
 95
       25
 70
     0
 93
       98
310
0900004E400000000000000000
330
15EA0
330
0
330
15EA1
330
0
330
0
330
0
330
0
330
0
 94
        0
  0
ACAD_PROXY_OBJECT
  5
15E94
102
{ACAD_REACTORS
330
C
102
}
330
C
100
AcDbProxyObject
 90
      499
 91
      507
 95
       25
 70
     0
 93
       56
310
90441600000000
330
15E95
330
15E96
330
15E97
330
15E98
 94
        0
  0
XRECORD
  5
169FA
102
{ACAD_REACTORS
330
C
102
}
330
C
100
AcDbXrecord
280
     1
  1
DWGPROPS COOKIE
  2

  3

  4

  6

  7

  8

  9

300
AmdtFileType=82
301
=
302
=
303
=
304
=
305
=
306
=
307
=
308
=
309
=
 40
0.0
 41
2451943.235431667
 42
2455482.224990405
  1

 90
        1
  0
DICTIONARY
  5
2A40
102
{ACAD_REACTORS
330
C
102
}
330
C
100
AcDbDictionary
281
     1
  3
eng_id
350
2A41
  0
DICTIONARY
  5
2916
102
{ACAD_REACTORS
330
C
102
}
330
C
100
AcDbDictionary
281
     1
  3
FILENAME
350
2917
  0
ACAD_PROXY_OBJECT
  5
15E8A
102
{ACAD_REACTORS
330
C
102
}
330
C
100
AcDbProxyObject
 90
      499
 91
      545
 95
       25
 70
     0
 93
        8
310
05
  0
DICTIONARY
  5
2A3E
102
{ACAD_REACTORS
330
C
102
}
330
C
100
AcDbDictionary
281
     1
  3
line_data
350
2A3F
  0
DICTIONARY
  5
1688
102
{ACAD_REACTORS
330
C
102
}
330
C
100
AcDbDictionary
281
     1
  3
input_data
350
168A
  3
table_data
350
1689
  0
DICTIONARY
  5
2918
102
{ACAD_REACTORS
330
C
102
}
330
C
100
AcDbDictionary
281
     1
  3
ZWKSIZE
350
2919
  0
DICTIONARY
  5
163FA
102
{ACAD_REACTORS
330
163F9
102
}
330
163F9
100
AcDbDictionary
281
     1
  0
LAYOUT
  5
22
102
{ACAD_REACTORS
330
1A
102
}
330
1A
100
AcDbPlotSettings
  1

  2
SII LP-2150 (D-SCAN C2)
  4
User262
  6
AM_VIEW1
 40
3.174999952316284
 41
3.174999952316284
 42
3.17498779296875
 43
3.17498779296875
 44
296.9259948730469
 45
419.9889831542969
 46
0.0
 47
0.0
 48
0.0
 49
0.0
140
420.0
141
297.0
142
1.0
143
1.022107788374329
 70
 11952
 72
     1
 73
     1
 74
     4
  7
sei_cad.ctb
 75
     0
147
0.9783703943695685
148
0.0
149
0.0
100
AcDbLayout
  1
Model
 70
     1
 71
     0
 10
0.0
 20
0.0
 11
12.0
 21
9.0
 12
0.0
 22
0.0
 32
0.0
 14
0.0
 24
0.0
 34
0.0
 15
0.0
 25
0.0
 35
0.0
146
0.0
 13
0.0
 23
0.0
 33
0.0
 16
1.0
 26
0.0
 36
0.0
 17
0.0
 27
1.0
 37
0.0
 76
     0
330
1F
  0
LAYOUT
  5
1E
102
{ACAD_REACTORS
330
1A
102
}
330
1A
100
AcDbPlotSettings
  1

  2
Canon LASER SHOT LBP-2030
  4

  6

 40
0.0
 41
0.0
 42
0.0
 43
0.0
 44
0.0
 45
0.0
 46
0.0
 47
0.0
 48
0.0
 49
0.0
140
0.0
141
0.0
142
1.0
143
1.0
 70
   688
 72
     0
 73
     0
 74
     5
  7
sei_cad.ctb
 75
    16
147
1.0
148
0.0
149
0.0
100
AcDbLayout
  1
ﾚｲｱｳﾄ1
 70
     1
 71
     1
 10
0.0
 20
0.0
 11
420.0
 21
297.0
 12
0.0
 22
0.0
 32
0.0
 14
1.000000000000000E+20
 24
1.000000000000000E+20
 34
1.000000000000000E+20
 15
-1.000000000000000E+20
 25
-1.000000000000000E+20
 35
-1.000000000000000E+20
146
0.0
 13
0.0
 23
0.0
 33
0.0
 16
1.0
 26
0.0
 36
0.0
 17
0.0
 27
1.0
 37
0.0
 76
     0
330
1B
  0
LAYOUT
  5
26
102
{ACAD_REACTORS
330
1A
102
}
330
1A
100
AcDbPlotSettings
  1

  2
Canon LASER SHOT LBP-2030
  4

  6

 40
0.0
 41
0.0
 42
0.0
 43
0.0
 44
0.0
 45
0.0
 46
0.0
 47
0.0
 48
0.0
 49
0.0
140
0.0
141
0.0
142
1.0
143
1.0
 70
   688
 72
     0
 73
     0
 74
     5
  7
sei_cad.ctb
 75
    16
147
1.0
148
0.0
149
0.0
100
AcDbLayout
  1
ﾚｲｱｳﾄ2
 70
     1
 71
     2
 10
0.0
 20
0.0
 11
12.0
 21
9.0
 12
0.0
 22
0.0
 32
0.0
 14
0.0
 24
0.0
 34
0.0
 15
0.0
 25
0.0
 35
0.0
146
0.0
 13
0.0
 23
0.0
 33
0.0
 16
1.0
 26
0.0
 36
0.0
 17
0.0
 27
1.0
 37
0.0
 76
     0
330
23
  0
MLINESTYLE
  5
18
102
{ACAD_REACTORS
330
17
102
}
330
17
100
AcDbMlineStyle
  2
STANDARD
 70
     0
  3

 62
   256
 51
90.0
 52
90.0
 71
     2
 49
0.5
 62
   256
  6
BYLAYER
 49
-0.5
 62
   256
  6
BYLAYER
  0
ACDBPLACEHOLDER
  5
F
102
{ACAD_REACTORS
330
E
102
}
330
E
  0
TABLESTYLE
  5
15E4D
102
{ACAD_REACTORS
330
15E4C
102
}
330
15E4C
100
AcDbTableStyle
  3
Standard
 70
     0
 71
     8
 40
1.5
 41
1.5
280
     0
281
     0
  7
STANDARD
140
4.5
170
     2
 62
     0
 63
     7
283
     0
274
    -2
284
     1
 64
     0
275
    -2
285
     1
 65
     0
276
    -2
286
     1
 66
     0
277
    -2
287
     1
 67
     0
278
    -2
288
     1
 68
     0
279
    -2
289
     1
 69
     0
  7
STANDARD
140
6.0
170
     5
 62
     0
 63
     7
283
     0
274
    -2
284
     1
 64
     0
275
    -2
285
     1
 65
     0
276
    -2
286
     1
 66
     0
277
    -2
287
     1
 67
     0
278
    -2
288
     1
 68
     0
279
    -2
289
     1
 69
     0
  7
STANDARD
140
4.5
170
     5
 62
     0
 63
     7
283
     0
274
    -2
284
     1
 64
     0
275
    -2
285
     1
 65
     0
276
    -2
286
     1
 66
     0
277
    -2
287
     1
 67
     0
278
    -2
288
     1
 68
     0
279
    -2
289
     1
 69
     0
  0
XRECORD
  5
169F8
102
{ACAD_REACTORS
330
169F7
102
}
330
169F7
100
AcDbXrecord
280
     1
340
15E4B
  0
XRECORD
  5
169F9
102
{ACAD_REACTORS
330
169F7
102
}
330
169F7
100
AcDbXrecord
280
     1
340
15E4A
  0
DICTIONARYVAR
  5
15EE1
102
{ACAD_REACTORS
330
30
102
}
330
30
100
DictionaryVariables
280
     0
  1
STANDARD
  0
DICTIONARYVAR
  5
169F6
102
{ACAD_REACTORS
330
30
102
}
330
30
100
DictionaryVariables
280
     0
  1
0
  0
DICTIONARYVAR
  5
169F5
102
{ACAD_REACTORS
330
30
102
}
330
30
100
DictionaryVariables
280
     0
  1
1
  0
ACAD_PROXY_OBJECT
  5
4E
102
{ACAD_REACTORS
330
4D
102
}
330
4D
100
AcDbProxyObject
 90
      499
 91
      520
 95
       25
 70
     0
 93
      118
310
405010040CA904C415CD5B075DD118
350
4F
 94
        0
  0
DICTIONARY
  5
17E
102
{ACAD_REACTORS
330
4D
102
}
330
4D
100
AcDbDictionary
281
     1
  3
JIS
350
17F
  0
XRECORD
  5
15EA7
102
{ACAD_REACTORS
330
4D
102
}
330
4D
100
AcDbXrecord
280
     1
 90
-1023410169
  0
ACAD_PROXY_OBJECT
  5
33
330
2E
100
AcDbProxyObject
 90
      499
 91
      508
 95
       25
 70
     0
 93
      156
310
00010143D050D351505391D5531054925390D490
330
2E
 94
        0
  0
ACAD_PROXY_OBJECT
  5
34
330
2E
100
AcDbProxyObject
 90
      499
 91
      508
 95
       25
 70
     0
 93
      148
310
000101439050D351531253915054925390D490
330
2E
 94
        0
  0
ACAD_PROXY_OBJECT
  5
35
330
2E
100
AcDbProxyObject
 90
      499
 91
      509
 95
       25
 70
     0
 93
      156
310
000101439050D35154D6535093D314D256915080
330
2E
 94
        0
  0
ACAD_PROXY_OBJECT
  5
37
330
2E
100
AcDbProxyObject
 90
      499
 91
      511
 95
       25
 70
     0
 93
       88
310
000101411093D34C402B00
330
2E
330
0
330
0
 94
        0
  0
ACAD_PROXY_OBJECT
  5
6B
330
2E
100
AcDbProxyObject
 90
      499
 91
      509
 95
       25
 70
     0
 93
      108
310
00010142505351D153D35054D4E0
330
2E
 94
        0
  0
ACAD_PROXY_OBJECT
  5
6C
330
2E
100
AcDbProxyObject
 90
      499
 91
      522
 95
       25
 70
     0
 93
      140
310
00010142105350D55494D511005034A49530
330
2E
 94
        0
  0
ACAD_PROXY_OBJECT
  5
15E5F
330
2E
100
AcDbProxyObject
 90
      499
 91
      536
 95
       25
 70
     0
 93
      358
310
0001014124FEA55D00507392E322E302E32014124FEA55D00507392E322E302E3240501000041505391D311658
330
2E
330
15E60
330
15E66
 94
        0
  0
ACAD_PROXY_OBJECT
  5
15E60
330
2E
100
AcDbProxyObject
 90
      499
 91
      537
 95
       25
 70
     0
 93
       56
310
000190240E0000
330
2E
330
15E61
330
15E63
 94
        0
  0
ACAD_PROXY_OBJECT
  5
15E61
330
2E
100
AcDbProxyObject
 90
      499
 91
      538
 95
       25
 70
     0
 93
       48
310
0001AA000000
330
2E
330
1E
330
15E62
330
0
 94
        0
  0
ACAD_PROXY_OBJECT
  5
15E62
330
2E
100
AcDbProxyObject
 90
      499
 91
      539
 95
       25
 70
     0
 93
       28
310
0001AAA0
330
2E
 94
        0
  0
ACAD_PROXY_OBJECT
  5
15E63
330
2E
100
AcDbProxyObject
 90
      499
 91
      538
 95
       25
 70
     0
 93
       48
310
0001AA000000
330
2E
330
26
330
15E64
330
0
 94
        0
  0
ACAD_PROXY_OBJECT
  5
15E64
330
2E
100
AcDbProxyObject
 90
      499
 91
      539
 95
       25
 70
     0
 93
       28
310
0001AAA0
330
2E
 94
        0
  0
ACAD_PROXY_OBJECT
  5
15E67
330
2E
100
AcDbProxyObject
 90
      499
 91
      509
 95
       25
 70
     0
 93
      108
310
000101421053521310D05310D010
330
2E
 94
        0
  0
ACAD_PROXY_OBJECT
  5
15E68
330
2E
100
AcDbProxyObject
 90
      499
 91
      509
 95
       25
 70
     0
 93
      124
310
00010142905354915554D15112535010
330
2E
 94
        0
  0
ACAD_PROXY_OBJECT
  5
15E69
330
2E
100
AcDbProxyObject
 90
      499
 91
      509
 95
       25
 70
     0
 93
      132
310
00010143105354D150D51253D391125360
330
2E
 94
        0
  0
ACAD_PROXY_OBJECT
  5
15E6A
330
2E
100
AcDbProxyObject
 90
      499
 91
      509
 95
       25
 70
     0
 93
      124
310
00010142905355941093D49111549010
330
2E
 94
        0
  0
ACAD_PROXY_OBJECT
  5
15E6B
330
2E
100
AcDbProxyObject
 90
      499
 91
      509
 95
       25
 70
     0
 93
      116
310
0001014290535115D1D0D3D313D4A0
330
2E
 94
        0
  0
ACAD_PROXY_OBJECT
  5
15E6C
330
2E
100
AcDbProxyObject
 90
      499
 91
      509
 95
       25
 70
     0
 93
      148
310
00010143505355925155D49151949154D21010
330
2E
 94
        0
  0
ACAD_PROXY_OBJECT
  5
15E6D
330
2E
100
AcDbProxyObject
 90
      499
 91
      509
 95
       25
 70
     0
 93
      172
310
00010144105350539393D51154149154D15495915010
330
2E
 94
        0
  0
ACAD_PROXY_OBJECT
  5
15E6E
330
2E
100
AcDbProxyObject
 90
      499
 91
      509
 95
       25
 70
     0
 93
      172
310
00010144105350555513D11253505494905391D15010
330
2E
 94
        0
  0
ACAD_PROXY_OBJECT
  5
15E6F
330
2E
100
AcDbProxyObject
 90
      499
 91
      509
 95
       25
 70
     0
 93
      124
310
00010142D05351561514915191125360
330
2E
 94
        0
  0
ACAD_PROXY_OBJECT
  5
15E70
330
2E
100
AcDbProxyObject
 90
      499
 91
      509
 95
       25
 70
     0
 93
      132
310
00010142D05355105410539393D5115010
330
2E
 94
        0
  0
ACAD_PROXY_OBJECT
  5
15E71
330
2E
100
AcDbProxyObject
 90
      499
 91
      509
 95
       25
 70
     0
 93
      108
310
00010142105350555513D0D31010
330
2E
 94
        0
  0
ACAD_PROXY_OBJECT
  5
15E72
330
2E
100
AcDbProxyObject
 90
      499
 91
      509
 95
       25
 70
     0
 93
      108
310
00010142105350D3119150551050
330
2E
 94
        0
  0
ACAD_PROXY_OBJECT
  5
15E73
330
2E
100
AcDbProxyObject
 90
      499
 91
      509
 95
       25
 70
     0
 93
      108
310
00010142105350D315925155D3F0
330
2E
 94
        0
  0
ACAD_PROXY_OBJECT
  5
15E74
330
2E
100
AcDbProxyObject
 90
      499
 91
      509
 95
       25
 70
     0
 93
      148
310
0001014350535212511156915493D112535010
330
2E
 94
        0
  0
ACAD_PROXY_OBJECT
  5
15E75
330
2E
100
AcDbProxyObject
 90
      499
 91
      509
 95
       25
 70
     0
 93
      124
310
00010142905352105510D21254D3D010
330
2E
 94
        0
  0
ACAD_PROXY_OBJECT
  5
15E76
330
2E
100
AcDbProxyObject
 90
      499
 91
      509
 95
       25
 70
     0
 93
      148
310
00010143905354D25391D31152105513105660
330
2E
 94
        0
  0
ACAD_PROXY_OBJECT
  5
15E77
330
2E
100
AcDbProxyObject
 90
      499
 91
      509
 95
       25
 70
     0
 93
      124
310
00010142D0535115D1D193111254D420
330
2E
 94
        0
  0
ACAD_PROXY_OBJECT
  5
15E78
330
2E
100
AcDbProxyObject
 90
      499
 91
      509
 95
       25
 70
     0
 93
      100
310
00010142105350555513D213A0
330
2E
 94
        0
  0
ACAD_PROXY_OBJECT
  5
15E79
330
2E
100
AcDbProxyObject
 90
      499
 91
      509
 95
       25
 70
     0
 93
      116
310
000101425053521390D3D553951010
330
2E
 94
        0
  0
ACAD_PROXY_OBJECT
  5
15E7A
330
2E
100
AcDbProxyObject
 90
      499
 91
      509
 95
       25
 70
     0
 93
      108
310
0001014210535213941493D29010
330
2E
 94
        0
  0
ACAD_PROXY_OBJECT
  5
15E7B
330
2E
100
AcDbProxyObject
 90
      499
 91
      509
 95
       25
 70
     0
 93
      108
310
0001014210535213951654115070
330
2E
 94
        0
  0
ACAD_PROXY_OBJECT
  5
15E7C
330
2E
100
AcDbProxyObject
 90
      499
 91
      509
 95
       25
 70
     0
 93
      108
310
000101421053521395925155D0F0
330
2E
 94
        0
  0
ACAD_PROXY_OBJECT
  5
15E7D
330
2E
100
AcDbProxyObject
 90
      499
 91
      509
 95
       25
 70
     0
 93
      140
310
00010143505354D150D51253D390D3D41660
330
2E
 94
        0
  0
ACAD_PROXY_OBJECT
  5
15E7E
330
2E
100
AcDbProxyObject
 90
      499
 91
      509
 95
       25
 70
     0
 93
      108
310
00010142105350D3141493D29030
330
2E
 94
        0
  0
ACAD_PROXY_OBJECT
  5
15E7F
330
2E
100
AcDbProxyObject
 90
      499
 91
      508
 95
       25
 70
     0
 93
      212
310
00010143905350555513D2105510D21493D500000000000002E400
330
2E
 94
        0
  0
ACAD_PROXY_OBJECT
  5
15E80
330
2E
100
AcDbProxyObject
 90
      499
 91
      509
 95
       25
 70
     0
 93
      156
310
00010143905350555513D2105510D21111551010
330
2E
 94
        0
  0
ACAD_PROXY_OBJECT
  5
15E8C
330
2E
100
AcDbProxyObject
 90
      499
 91
      547
 95
       25
 70
     0
 93
      698
310
0001000000009AA6A9AA4051E576564205365702030372030303A35393A303820323030352028555443290141CE4B8C8B8C0B8C80518547565204F63742031322031343A32333A353920323031300141CE4B8C8B8C0B8C80
330
2E
330
15E8D
330
15E8E
330
15E90
330
0
 94
        0
  0
ACAD_PROXY_OBJECT
  5
15E8D
330
2E
100
AcDbProxyObject
 90
      499
 91
      548
 95
       25
 70
     0
 93
       70
310
0001AAA80820000000
330
2E
330
15E8D
330
15E8D
 94
        0
  0
ACAD_PROXY_OBJECT
  5
15E8E
330
2E
100
AcDbProxyObject
 90
      499
 91
      549
 95
       25
 70
     0
 93
       48
310
000100000000
330
2E
330
0
330
15E8F
330
0
330
0
 94
        0
  0
ACAD_PROXY_OBJECT
  5
15E8F
330
2E
100
AcDbProxyObject
 90
      499
 91
      550
 95
       25
 70
     0
 93
       40
310
000100AAAA
330
2E
330
0
 94
        0
  0
ACAD_PROXY_OBJECT
  5
15E95
330
2E
100
AcDbProxyObject
 90
      499
 91
      522
 95
       25
 70
     0
 93
      180
310
00010143105050D3D35411119390535140504434F4D500
330
2E
 94
        0
  0
ACAD_PROXY_OBJECT
  5
15E96
330
2E
100
AcDbProxyObject
 90
      499
 91
      522
 95
       25
 70
     0
 93
      212
310
0001014390505193D311115491119390535140506466F6C6465720
330
2E
 94
        0
  0
ACAD_PROXY_OBJECT
  5
15E97
330
2E
100
AcDbProxyObject
 90
      499
 91
      522
 95
       25
 70
     0
 93
      180
310
00010143105050539393D1119390535140504284156290
330
2E
 94
        0
  0
ACAD_PROXY_OBJECT
  5
15E98
330
2E
100
AcDbProxyObject
 90
      499
 91
      522
 95
       25
 70
     0
 93
      436
310
00010143905050D3D35415925155D31254D50052295BD96CA0A90B396CA0A894591A496CA0A8DB691A496CA0A89BA96CA0A95E28F95310
330
2E
 94
        0
  0
ACAD_PROXY_OBJECT
  5
15E9D
330
2E
100
AcDbProxyObject
 90
      499
 91
      555
 95
       25
 70
     0
 93
       32
310
00010000
330
2E
340
15E9A
330
15E9F
330
15E9A
 94
        0
  0
ACAD_PROXY_OBJECT
  5
15E9E
330
2E
100
AcDbProxyObject
 90
      499
 91
      556
 95
       25
 70
     0
 93
       18
310
000180
330
2E
 94
        0
  0
ACAD_PROXY_OBJECT
  5
15E9F
330
2E
100
AcDbProxyObject
 90
      499
 91
      557
 95
       25
 70
     0
 93
      162
310
00010142561094150B4C8C4D949050055401550000
330
2E
330
15E9D
330
15E9E
 94
        0
  0
ACAD_PROXY_OBJECT
  5
15EA0
330
2E
100
AcDbProxyObject
 90
      499
 91
      558
 95
       25
 70
     0
 93
      178
310
000100AAAAAAA303331BE0E580D0A45C9077E5D95292C0
330
2E
330
15E9F
 94
        0
  0
ACAD_PROXY_OBJECT
  5
15EA1
330
2E
100
AcDbProxyObject
 90
      499
 91
      559
 95
       25
 70
     0
 93
      108
310
000190140A000000000000AAAAA0
330
2E
330
15EA2
330
15EA2
330
15EA2
330
15EA2
330
15EA2
330
0
 94
        0
  0
ACAD_PROXY_OBJECT
  5
15EA2
330
2E
100
AcDbProxyObject
 90
      499
 91
      560
 95
       25
 70
     0
 93
       51
310
00010000AAAA80
330
2E
330
15EA1
330
15E9F
 94
        0
  0
DICTIONARY
  5
40
102
{ACAD_REACTORS
330
3F
102
}
330
3F
100
AcDbDictionary
281
     1
  3
DWGSETTINGS
350
41
  3
FEM
350
69
  3
Shaft
350
56
  3
TRANSSETTINGS
350
4C
  0
ACAD_PROXY_OBJECT
  5
42
102
{ACAD_REACTORS
330
3F
102
}
330
3F
100
AcDbProxyObject
 90
      499
 91
      519
 95
       25
 70
     0
 93
    23232
310
41502491013041105357CC201C00030C011E441013141105357CC603800030C011E441013241105357CCA01400030C011E441013341105357CCE01800030C010D9013441105357CD200C00030C010D9013541105357CD600C00030C010D9013641105357CDA00800030C011E9013741105357CDE01000030C010D901384110
310
5357CE200400030C011E9013941105357CE63F400030C0241102324141505357CC4C201C00030C011E902344141505357CC4C600C00030C010D902495041505357CC4CA01C00030C011E40902304E41505357CC13A01C00030C011E902314E41505357CC53A03800030C011E902324E41505357CC93A01400030C011E90233
310
4E41505357CCD3A01800030C010D902344E41505357CD13A00C00030C010D902354E41505357CD53A00C00030C010D902364E41505357CD93A00800030C011E902374E41505357CDD3A01000030C010D902384E41505357CE13A00400030C011E902394E41505357CE53A3F400030C024110332414E41905357CC4C13A01C0
310
0030C011E90334414E41905357CC4C53A00C00030C010D90349504E41905357CC4C93A01C00030C011E409044B4C494E41505357D0D3200400030C011E42504494E464F42105357D410549151A01000030C010D42D055241484D3541905357D093D4A01C00030C011E425045649455742105357D5925155D4E00400030C011
310
E42D06424548494E4441905357D25395A3F400030C0243505545241494C41505357D514A00C00030C010D4250348494441905357D21251201C00030C011E4250356495341905357D59254E01C00030C011E4250650415244494D42505357D41054911253600C00030C010D4250652454644494D42505357D49151911253601
310
000030C010D425774110531514901348070000C300479034110915312501348000000C0003FFFFFFFD034110921395901398000000C0003FFFFFFFE415092139594D06424548494E448000000C0003FFFFFFFE411093125110234418000000C0003FFFFFFFD03411093D05410234418000000C0003FFFFFFFD03411093D48C
310
9055241484D358010000C30047A411093D48CD055241484D358020000C30047A411093D48D5055241484D358000000C0003FFFFFFFE411093D48DD055241484D3581E0000C30047903411094105410234418000000C0003FFFFFFFD03411094115610234418000000C0003FFFFFFFD034110951112501358000000C0003FFF
310
FFFFD034110D0530C901348000000C0003FFFFFFFE4110D0530CD01348020000C30047A4110D0530D501348070000C30047A4110D0530DD013481E0000C30047A4110D15393901378000000C0003FFFFFFFE4110D15395D01378000000C0003FFFFFFFE4110D312539044B4C494E8000000C0003FFFFFFFE4110D3D38C5013
310
08000000C0003FFFFFFFD034110D3D38C901318000000C0003FFFFFFFD034110D3D38CD01328000000C0003FFFFFFFD034110D3D38D101328000000C0003FFFFFFFD034111115494101348000000C0003FFFFFFFD034111115510501348000000C0003FFFFFFFE4111125051D01358000000C0003FFFFFFFE4111125312501
310
358000000C0003FFFFFFFE411112535410650415244494D8000000C0003FFFFFFFE411112535490652454644494D8000000C0003FFFFFFFE411156135410234418000000C0003FFFFFFFD034111915353901388000000C0003FFFFFFFE415191535413901388030000C3004364151915354D410234418000000C0003FFFFFF
310
FE4151915354D510234418030000C300436415191535593901328000000C0003FFFFFFFE415191535595101328030000C3004364111931055101308000000C0003FFFFFFFD03411194905490234418000000C0003FFFFFFFD034111D49312501358000000C0003FFFFFFFD034111D5931250234418000000C0003FFFFFFFD0
310
34112105510D01388000000C0003FFFFFFFD014112125113901338000000C0003FFFFFFFD034112125115D01338000000C0003FFFFFFFD034112131253901348000000C0003FFFFFFFD01411213D0D3901378000000C0003FFFFFFFE411213D0D5D01378000000C0003FFFFFFFE4112539193D04494E464F8000000C0003FF
310
FFFFFE4113105112501348000000C0003FFFFFFFD034113115051101358000000C0003FFFFFFFE419397D0921395902394E8000000C0003FFFFFFFE419397D0D3D38C502304E8000000C0003FFFFFFFD03419397D0D3D38C902314E8000000C0003FFFFFFFD03419397D0D3D38CD02324E8000000C0003FFFFFFFD03419397
310
D0D3D38D102324E8000000C0003FFFFFFFD03419397D0D15393902374E8000000C0003FFFFFFFE419397D0D15395D02374E8000000C0003FFFFFFFE419397D1125312502354E8000000C0003FFFFFFFE419397D2105510D02384E8000000C0003FFFFFFFD01419397D2125113902334E8000000C0003FFFFFFFD03419397D2
310
125115D02334E8000000C0003FFFFFFFD03419397D3115051102354E8000000C0003FFFFFFFE419397D391D25410349504E8000000C0003FFFFFFFE419397D412105390334414E8000000C0003FFFFFFFE419397D510D3D3902304E8000000C0003FFFFFFFD03419397D5121312502344E8000000C0003FFFFFFFD01419397
310
D5131153902304E8000000C0003FFFFFFFD03419397D516150CD02364E8000000C0003FFFFFFFD03419397D594131250332414E8000000C0003FFFFFFFE411391D25410249508000000C0003FFFFFFFE411410530C9055241484D358010000C30047A411410530CD055241484D358020000C30047A411410530D5055241484
310
D358000000C0003FFFFFFFE411410530DD055241484D3581E0000C30047903411412105390234418000000C0003FFFFFFFE411413D4D3901368070000C30047A419413D4D49151901368050000C30047903411413D4D6101368000000C0003FFFFFFFD03411414D150D0234418000000C0003FFFFFFFD03411490D1D390137
310
8000000C0003FFFFFFFE411490D1D5D01378000000C0003FFFFFFFE4114919112501348000000C0003FFFFFFFD034114945514901348070000C30047903411494D093D01348000000C0003FFFFFFFD034114D09492D01348000000C0003FFFFFFFD014114D0D153901378000000C0003FFFFFFFD034114D150D51013480000
310
00C0003FFFFFFFD014114D15313901378000000C0003FFFFFFFD034114D15315D01378000000C0003FFFFFFFD034114D4D654D01308000000C0003FFFFFFFD034114D51312501348070000C300479034114D6508C501358000000C0003FFFFFFFD034114D6508C901358000000C0003FFFFFFFD034114D6508CD0135802000
310
0C30047A4114D6508D501358070000C300479034114D65353901378000000C0003FFFFFFFD034114D65355D01378000000C0003FFFFFFFD03411510D3D3901308000000C0003FFFFFFFD034115121312501348000000C0003FFFFFFFD01411512550C9055241484D358010000C30047A411512550CD055241484D358020000
310
C30047A411512550D5055241484D358000000C0003FFFFFFFE411512550DD055241484D3581E0000C300479034115131153901308000000C0003FFFFFFFD03415514905253105545241494C8000000C0003FFFFFFFE41151492D3901378000000C0003FFFFFFFD0341151492D5D01378000000C0003FFFFFFFD03411514931
310
2501348000000C0003FFFFFFFD01411516150C501368030000C300436411516150C901368030000C300436411516150CD01368000000C0003FFFFFFFE411516150D501368070000C30047A411516150DD013681E0000C30047A4115925155D04564945578000000C0003FFFFFFFE41159151121034849448000000C0003FFF
310
FFFFD0241159151159035649538000000C0003FFFFFFFD02411594131250232418000000C0003FFFFFFFE4116925690501348000000C0003FFFFFFFD01411354D653501358020000C30047AAAA3F400030C01013F90A4051E4091E40D0D4110D4151E4190D41D1E4391E4791E7F6
340
16
340
16
340
16
340
43
340
16
340
16
340
16
340
44
340
16
340
16
340
44
340
45
340
16
340
16
340
16
340
16
340
43
340
16
340
16
340
16
340
44
340
16
340
16
340
44
340
45
340
16
340
46
340
16
340
16
340
16
340
16
340
16
340
43
340
16
340
16
340
16
340
47
340
15
340
15
340
15
340
15
340
15
340
15
340
15
340
15
340
15
340
15
340
15
340
15
340
15
340
15
340
15
340
15
340
48
340
15
340
15
340
15
340
15
340
15
340
15
340
15
340
15
340
15
340
15
340
15
340
15
340
15
340
15
340
15
340
16
340
15
340
15
340
15
340
15
340
15
340
15
340
15
340
15
340
47
340
15
340
15
340
48
340
15
340
15
340
15
340
15
340
15
340
15
340
15
340
15
340
15
340
48
340
15
340
15
340
15
340
47
340
15
340
15
340
15
340
15
340
15
340
15
340
15
340
15
340
15
340
15
340
15
340
15
340
15
340
15
340
15
340
15
340
15
340
15
340
15
340
48
340
15
340
15
340
48
340
15
340
15
340
16
340
15
340
48
340
15
340
15
340
47
340
15
340
15
340
16
340
15
340
48
340
15
340
15
340
15
340
15
340
15
340
15
340
15
340
15
340
15
340
48
340
15
340
15
340
15
340
15
340
15
340
15
340
15
340
15
340
15
340
15
340
15
340
4B
340
16
 94
        0
  0
ACAD_PROXY_OBJECT
  5
62F
102
{ACAD_REACTORS
330
73
102
}
330
73
100
AcDbProxyObject
 90
      499
 91
      523
 95
       25
 70
     0
 93
      253
310
43D1444494D454E53494F4E2C414D44545F2A5F44494D404A9012A404A9012A0
  0
ACAD_PROXY_OBJECT
  5
630
102
{ACAD_REACTORS
330
73
102
}
330
73
100
AcDbProxyObject
 90
      499
 91
      523
 95
       25
 70
     0
 93
      181
310
43D012A42D05357D191504B505357CA9012A404A9012A8
  0
ACAD_PROXY_OBJECT
  5
631
102
{ACAD_REACTORS
330
73
102
}
330
73
100
AcDbProxyObject
 90
      499
 91
      523
 95
       25
 70
     0
 93
      133
310
43D054841544348404A9012A404A9012A8
  0
ACAD_PROXY_OBJECT
  5
632
102
{ACAD_REACTORS
330
73
102
}
330
73
100
AcDbProxyObject
 90
      499
 91
      523
 95
       25
 70
     0
 93
      549
310
43D044C494E4549CE0B0E138B0A8B4E0B0A8B4E138B105357CE0B105357CE138B0A8B505357CE0B0A8B505357CE139012A404A910494E534552542C5354445041525432448
  0
ACAD_PROXY_OBJECT
  5
633
102
{ACAD_REACTORS
330
73
102
}
330
73
100
AcDbProxyObject
 90
      499
 91
      523
 95
       25
 70
     0
 93
      909
310
43D6641434D46434652414D452C41434D444154554D5441524745542C41434D444154554D49442C41434D57454C4453594D2C41434D5355524653594D2C41434D4645415449442C41434D504152545245462C41434D42414C4C4F4F4E2C414D44544544474553594D404A9012A404A9012A8
  0
XRECORD
  5
16053
102
{ACAD_REACTORS
330
16051
102
}
330
16051
100
AcDbXrecord
280
     1
330
0
330
0
330
0
330
0
330
0
330
0
330
0
330
0
330
0
330
0
330
0
330
0
330
0
330
0
330
0
330
0
330
0
330
0
330
0
330
0
330
0
330
0
330
0
330
0
330
0
330
0
330
0
330
0
330
0
330
0
330
0
330
0
330
0
330
0
330
0
330
0
330
0
330
0
330
0
330
0
330
0
330
0
330
0
330
0
330
0
330
0
330
0
330
0
330
0
330
0
330
0
330
0
330
0
330
0
330
0
330
0
330
0
330
0
330
0
330
0
330
0
330
0
330
0
330
0
330
0
330
0
330
0
330
0
330
0
330
0
330
0
330
0
330
0
330
0
330
0
  0
XRECORD
  5
2A41
102
{ACAD_REACTORS
330
2A40
102
}
330
2A40
100
AcDbXrecord
280
     1
  1
LINE
  0

  0
XRECORD
  5
2917
102
{ACAD_REACTORS
330
2916
102
}
330
2916
100
AcDbXrecord
280
     1
  1
25000259__00___
  0

  0
XRECORD
  5
2A3F
102
{ACAD_REACTORS
330
2A3E
102
}
330
2A3E
100
AcDbXrecord
280
     1
  1
110 ^M^J ^M^J ^M^J ^M^J ^M^J ^M^J ^M^J ^M^J ^M^J ^M^J ^M^Jボーリングクイル ^M^J鋼 ^M^J特型 ^M^J直付け ^M^Jストレート ^M^J25 ^M^J2 ^M^J ^M^Jアルミ ^M^J ^M^J
  0

  0
XRECORD
  5
168A
102
{ACAD_REACTORS
330
1688
102
}
330
1688
100
AcDbXrecord
280
     1
  1
1,,,,,,,,,^M^J2,,,,,,,,,^M^J3,,,,,,,,,^M^J4,,,,,,,,,^M^J5,,,,,,,,,^M^J6,,,,,,,,,^M^J7,,,,,,,,,^M^J8,,,,,,,,,^M^J9,,,,,,,,,^M^J10,,,,,,,,,
  0

  0
XRECORD
  5
1689
102
{ACAD_REACTORS
330
1688
102
}
330
1688
100
AcDbXrecord
280
     1
  1
10,10
  0

  0
XRECORD
  5
2919
102
{ACAD_REACTORS
330
2918
102
}
330
2918
100
AcDbXrecord
280
     1
  1
3
  0

  0
ACAD_PROXY_OBJECT
  5
4F
102
{ACAD_REACTORS
330
4E
102
}
330
4E
100
AcDbProxyObject
 90
      499
 91
      521
 95
       25
 70
     0
 93
      157
310
057356C1D77406406AA8FFFFFFFF05DD01009010
330
1F
330
0
330
15E9F
 94
        0
  0
ACAD_PROXY_OBJECT
  5
17F
102
{ACAD_REACTORS
330
17E
102
}
330
17E
100
AcDbProxyObject
 90
      499
 91
      526
 95
       25
 70
     0
 93
     2379
310
5DC33333333333309408000000C00040D29254D01640600800030C0200800030C003333333333330940C8121E8720B1B6A9BAB9332A32BC3A29BA3220480A1282C6DA8C868CA6E8C88120286A0B1B6ABB2B63234B733A9BA3220480A1082C6DA92C8A6E8C88120285A0B1B6A230BA3AB6A9BA3220480A1282C6DA849E9AA6E
310
8C88120286A0B1A0B6B3AA34BA3632A9BA3220480A2082DAC8E888CAE8C2D2D8A6F2DAA6E8C88120288A0B6B23A29B2B1BA34B7B729BCB6A9BA3220480A2282DAC8E886CADCE8CAE498D2DCCAA6E8C88120288A0B6B23A2A343932B0B22634B732A9BA3220480A1682DAC8E89CDEE8CAA6E8C88120285A0B1A0B6B3A630BCA
310
9BA3220480A1682C682DACE88D2DAA6E8C88120288A0B1A0B6B3A437B632A1B430B93A29BA3220480C812020
340
180
360
181
360
182
360
183
360
184
360
185
360
186
360
15EA4
360
15EA5
360
15EA6
360
15EA8
360
15EA9
360
15EAA
360
15EB0
360
15EB1
360
15EB2
340
0
340
0
 94
        0
  0
ACAD_PROXY_OBJECT
  5
41
102
{ACAD_REACTORS
330
40
102
}
330
40
100
AcDbProxyObject
 90
      499
 91
      518
 95
       25
 70
     0
 93
     2954
310
4050B44574753455454494E4753A0E8482A68AA6A88882A069492A684A1A0A723A0A92920ACA0A81969B1820C868A9C829C8E82A12686AF87260F862666A8321A2A72224A0A50000000000000122020E868A9C889282A682A106260F86460F8666083A1A2A72224A9AA250000000000000042020C868A9C988A9C940000000
310
00000048808321A2A727A323250000000000000122020E868A9C9E8C8C62940000000000000488083A1A2A727A32319250000000000000122021CC6D0C2DACCCAE4C8D2DADADEC8CA9FC84A1A624A720A92920ACA0A8118982108698929C8AA8B2A082A0AB098929C8A84A22BA3AAA9A1A0A622A50A0E9882A6A89E849482A
310
02608426A0A5A2AB24A2ABA7E8120CA0A68682988A0C00800010652455649534941501304154D0D0531150540CC4E8C5085354414E44415244415034A4953425512535154D51053541283EFA11909E4ADCD050756455253494F4E4150531352E3030441ED115D1D4D15515125391D4D153911F40
  0
ACAD_PROXY_OBJECT
  5
69
102
{ACAD_REACTORS
330
40
102
}
330
40
100
AcDbProxyObject
 90
      499
 91
      518
 95
       25
 70
     0
 93
      411
310
4050346454D21092DCC6E486DECACC942842630BCA3B937BAB820A8320A6AFA322A0A20F688AE8EA68AA8A8929C8EA68A9C88FA0
  0
ACAD_PROXY_OBJECT
  5
56
102
{ACAD_REACTORS
330
40
102
}
330
40
100
AcDbProxyObject
 90
      499
 91
      518
 95
       25
 70
     0
 93
      583
310
40505536861667421292DCE8CAE4E4EAE0E89FA0484A634B3B43A2634B732A7F21A98D2CED0E898D2DCCAACD2CAEE9FC8229B4B232A7E80A20F688AE8EA68AA8A8929C8EA68A9C88FA
  0
ACAD_PROXY_OBJECT
  5
4C
102
{ACAD_REACTORS
330
40
102
}
330
40
100
AcDbProxyObject
 90
      499
 91
      518
 95
       25
 70
     0
 93
      852
310
4050D5452414E5353455454494E4753A2488A482AE929C8EA8A4829CA69882A8929E9C0C00800050D4F524947494E414C4C595F4F4E0600400028529A7AAA921A2A620A723A0A81A52827212AAA0A48AA68AA4AC8A0C0080001107B44574753455454494E4753454E447D0
  0
ACAD_PROXY_OBJECT
  5
181
330
17F
100
AcDbProxyObject
 90
      499
 91
      527
 95
       25
 70
     0
 93
       86
310
5DEA0C80A0280A0280A034
  0
ACAD_PROXY_OBJECT
  5
182
330
17F
100
AcDbProxyObject
 90
      499
 91
      528
 95
       25
 70
     0
 93
      282
310
5DD0E4050140501405014050140501405014050141101405014041000000000000001000
340
187
 94
        0
  0
ACAD_PROXY_OBJECT
  5
183
330
17F
100
AcDbProxyObject
 90
      499
 91
      529
 95
       25
 70
     0
 93
      323
310
5DCC199999999999E99F91740501405014050140501405014050140501405014050140501405014040
340
0
 94
        0
  0
ACAD_PROXY_OBJECT
  5
184
330
17F
100
AcDbProxyObject
 90
      499
 91
      530
 95
       25
 70
     0
 93
       10
310
5DC0
  0
ACAD_PROXY_OBJECT
  5
185
330
17F
100
AcDbProxyObject
 90
      499
 91
      531
 95
       25
 70
     0
 93
      257
310
5DE0C16A22A7D90F49F80000000000001081400000000000004204010000618000
340
188
340
189
 94
        0
  0
ACAD_PROXY_OBJECT
  5
186
330
17F
100
AcDbProxyObject
 90
      499
 91
      532
 95
       25
 70
     0
 93
     5277
310
5DD06411255115350141236025B6901405014069010000000000000910240690120281A8AA2CA0282484A4BE52028120280A032020000000000001220480D202405044E414D454050496BC914F4051C40640A80000000000004E4090193C3D3C4946284953424C414E4B28504152543A4E414D45292C424C4F434B3A4E414D
310
452C504152543A4E414D45293E3C41435F44455343524950544E3E40480A109A82A88AA492829880A091BBD2F7E80A3A80C81D0E27A15AF46E08A81203480901411393D5115014124A363B7D0147501904A0000000000000F902406428F4F1050D7D393D5114F901202832B22A72227A92028366EF6EE06F582028EA0320B4
310
0000000000001F20480C879E9E20A1AFAB27222FA620A122A61F20240506445020000000000000490201C00030C00010180000000000003E400000000000000F901073D3C4954454D3E4050180000000000003E400000000000000F901073D3C4954454D3E40501800000000000034400000000000000D101073D3C4954454
310
D3E40501800000000000034400000000000000D101073D3C4954454D3E405029010000000000000F9000000000000003E4041CF4F125511534F901418F4F1455164F9014060000000000000F9000000000000003E4041CF4F125511534F901800000000000034400000000000000D101073D3C4954454D3E40640400000000
310
0000003E400000000000000F90288800000000000020810000001800120881A068120480A032208521122080D21480D211480A1485214852050000000000003C2FC000000000000F0BF40600800030C0200400030C00CDCCCCCCCCCCEC3F3373333333333B0FC3333333333330940C80D069014090341504901A1999999999
310
9984A040100006180400800061804010000618008098A02808
340
0
340
0
 94
        0
  0
ACAD_PROXY_OBJECT
  5
15EA4
330
17F
100
AcDbProxyObject
 90
      499
 91
      561
 95
       25
 70
     0
 93
     3042
310
5DD9740D29254D064A49535F413342929254D7D512551311505134A49535F42525F5265766973696F6E6C6973744190F4134522028323937783231306D6D2941D29254D7D04D1490E41312028353934783834316D6D2941929254D7D04C50F41344C2028323130783239376D6D2941D29254D7D04D1310E413320283239377
310
83432306D6D2941929254D7D04CD0E41322028343230783539346D6D2941929254D7D04C90F4130202838343178313138396D6D2941929254D7D04C10243129254C82557247A25E4C81050A4A49535F5449544C454143129254C82557247A25E4C81090A4A49535F5449544C45424110E979A97F0838A835883675F42525F4
310
4D29254D7D09497D4995D9A5CDA5BDB9B1A5CDD10E979A97F0838A835883675F54525F44D29254D7D51497D4995D9A5CDA5BDB9B1A5CDD10E979A97F0838A835883675F424C5F44D29254D7D09317D4995D9A5CDA5BDB9B1A5CDD10E979A97F0838A835883675F544C5F44D29254D7D51317D4995D9A5CDA5BDB9B1A5CDD00
  0
ACAD_PROXY_OBJECT
  5
15EA5
330
17F
100
AcDbProxyObject
 90
      499
 91
      562
 95
       25
 70
     0
 93
      898
310
5DC4000000000000124048CF4F11115510525317D3105091530F880A0F11115510525317D05094D4D0D053114F8A50241C9A9999999999B93F26A666666666724FC000000000000E03F400000000000000400000000000000510000000000000024408070000C300000000000000049000
340
16
340
180
 94
        0
  0
ACAD_PROXY_OBJECT
  5
15EA6
330
17F
100
AcDbProxyObject
 90
      499
 91
      563
 95
       25
 70
     0
 93
      823
310
5DC0B00000000000002480959E9E29A2A1AA24A7A72FA620A122A62FA324A929AA1F169E29A2A1AA24A7A72FA620A122A62FA620A9AA1F000000000000048803FFFE01C00030C008140380006180000000000000048800000000000000A2000000000000002480
340
652
340
180
 94
        0
  0
ACAD_PROXY_OBJECT
  5
15EA8
330
17F
100
AcDbProxyObject
 90
      499
 91
      564
 95
       25
 70
     0
 93
      152
310
5DE8273108AC1C5A0640A3D0A5723F0BD1F200
  0
ACAD_PROXY_OBJECT
  5
15EA9
330
17F
100
AcDbProxyObject
 90
      499
 91
      565
 95
       25
 70
     0
 93
       14
310
5DE0
340
0
 94
        0
  0
ACAD_PROXY_OBJECT
  5
15EAA
330
17F
100
AcDbProxyObject
 90
      499
 91
      566
 95
       25
 70
     0
 93
     6059
310
5DD084050BA4050AA405024050E836583938376838C815B83672031405983D3C486F6C653A6469613E3C696628657175616C28486F6C653A7465726D696E6174696F6E2C223022292C2220905B82B320222C22208368838A838B22293E3C696628657175616C28486F6C653A7465726D696E6174696F6E2C223022292C486F
310
6C653A64657074682C2222293E2C203C486F6C653A63746469613E2082B482AE82E882CC905B82B3203C486F6C653A637464657074683E406901405034050E836583938376838C815B83672031405EF3D3C486F6C653A6374616E676C653E252564202525633C486F6C653A63746469613E208E4D8C8A2C203C69662865717
310
5616C28486F6C653A7461707065642C223022292C22252563222C486F6C653A6E6F6D696E616C202220782022293E3C696628657175616C28486F6C653A7461707065642C223022292C486F6C653A6469612C486F6C653A706974636864657363293E203C696628657175616C28486F6C653A7465726D696E6174696F6E2C2
310
23022292C22905B82B320222C222022293E3C696628657175616C28486F6C653A7465726D696E6174696F6E2C223022292C486F6C653A64657074682C2222293E406901405014050E836583938376838C815B83672031405C73D3C696628657175616C28486F6C653A7461707065642C223022292C22252563222C486F6C65
310
3A6E6F6D696E616C202220782022293E3C696628657175616C28486F6C653A7461707065642C223022292C486F6C653A6469612C486F6C653A706974636864657363293E203C696628657175616C28486F6C653A7465726D696E6174696F6E2C223022292C22905B82B320222C222022293E3C696628657175616C28486F6C
310
653A7465726D696E6174696F6E2C223022292C486F6C653A64657074682C2222293E4069014051E4090E836583938376838C815B83672032405173D3C535444503A444553433E203C535444503A5354443E40690E836583938376838C815B836720314050C3D3C535444503A444553433E40690240515AAABBA120
360
15EAE
330
15EAE
360
15EAF
330
15EAF
360
15EAD
330
15EAD
360
15EAC
360
15EAB
330
15EAC
330
15EAB
 94
        0
  0
ACAD_PROXY_OBJECT
  5
15EB0
330
17F
100
AcDbProxyObject
 90
      499
 91
      568
 95
       25
 70
     0
 93
       26
310
5DD02A80
340
42
 94
        0
  0
ACAD_PROXY_OBJECT
  5
15EB1
330
17F
100
AcDbProxyObject
 90
      499
 91
      569
 95
       25
 70
     0
 93
      250
310
5DD020000000000000A1000000000000002440408F0F9023C3E409A0DCFFFF80
340
58
340
1B97
340
1B98
340
5F
340
60
340
61
340
62
340
63
340
68
340
0
 94
        0
  0
ACAD_PROXY_OBJECT
  5
15EB2
330
17F
100
AcDbProxyObject
 90
      499
 91
      570
 95
       25
 70
     0
 93
    13889
310
5DD1D003FFFFFFFD030300030CCCCCCCCCCCC250200800030C01030300030CCCCCCCCCCCC250200800030C00050C8DC0955782CC838A83588367014ED1D15395149050D3CB1294138B0C0B23702555E0B320E2A0D620D9CB11D15395149055160B095CCB0A11D1539354D1C819D95B991A5B5E880CCC0A78000C0000000000
310
00000000000000000000010CCCCCCCCCCCC250200800030C010CCCCCCCCCCCC250200800030C020143CF4F111959985D5B1D151A5D1B194F8050A8C8A8365815B8375838B014E51D15395149050D3CB1294138B0C0B2322A0D96056E0DD60E2CB11D15395149055160B095CCB0A11D1539354D1C819D95B991A5B5E880CCC4
310
A78000C000000000000000000000000000000010CCCCCCCCCCCC250200800030C010CCCCCCCCCCCC250200800030C020143CF4F111959985D5B1D151A5D1B194F90D44111409034110541D0C4350F4050E44D03449074510F000141232D24D7C053247454E545241434F2C4A504E2C302C8CB4935F2C47454E54524154582C
310
25732C2847454E4D53472067656E64696D7A20312900010104002214000281464500A608E8A9CA8A482869E5894A09C5860591914588E8A9CA8A482A8B0584AE658508E8A9C9AA68E40CECADCC8D2DAF4406452029E9E9E27B934B3B4B71F1E24A31427A91424A9A12620A7259427B934B3B4B7149624A9A12620A7259424B
310
A32B6949496111116111711149F1E24BA32B69F00808200111A000140560052F47454E545241434F2C4A504E2C302C582C47454E54524154582C25732C2847454E4D53472067656E64696D7A20332900010100002054000280AC80A5E8E8A9CA8A482869E5894A09C586058B2588E8A9CA8A482A8B0584AE658508E8A9C9AA
310
68E40CECADCC8D2DAF4406852000202000040E800050152014BD1D15395149050D3CB1294138B0C0B148B11D15395149055160B095CCB0A11D1539354D1C819D95B991A5B5E880D8A400040400008250000A0507A6029823A2A72A2920A1A79625282716181641E99623A2A72A2920AA2C1612B9961423A2A726A9A39033B2
310
B73234B6BD101B948000808180105A000140A0F4C053047454E545241434F2C4A504E2C302C83D32C47454E54524154582C25732C2847454E4D53472067656E64696D7A203829000101010020F400028248704B5F00A668E8A9CA8A482869E5894A09C58605921C12D7C588E8A9CA8A482A8B0584AE658508E8A9C9AA68E40
310
CECADCC8D2DAF440646052000200080043280005048B4B8A69014CD1D15395149050D3CB1294138B0C0B22D2E29A4B11D15395149055160B095CCB0A11D1539354D1C819D95B991A5B5E880C8C4A4000400100086D0000A09196926BE029923A2A72A2920A1A796252827161816465A49AF9623A2A72A2920AA2C1612B9961
310
423A2A726A9A39033B2B73234B6BD10189480A02620202080043E80005048D8096DA014CD1D15395149050D3CB1294138B0C0B236025B68B11D15395149055160B095CCB0A11D1539354D1C819D95B991A5B5E880C4D0A4000404140280D0000A190687072706CD06C5069D06B0029DA3A2A72A2920A1A7962528271618164
310
1A1C1C9C1B341B141A741AC1623A2A72A2920AA2C1612B9961423A2A726A9A39033B2B73234B6BD10189A94800080820050EA000143A322A0D0E0E4E0D9A0D8A0D3A0D60053D47454E545241434F2C4A504E2C302C8C8A8343839383668362834E83582C47454E54524154582C25732C2847454E4D53472067656E64696D7A
310
2031372900010105002274000281464500A628E8A9CA8A482869E5894A09C5860591914588E8A9CA8A482A8B0584AE658508E8A9C9AA68E40CECADCC8D2DAF440626C52000202080044A8000504909497CA014CD1D15395149050D3CB1294138B0C0B242525F28B11D15395149055160B095CCB0A11D1539354D1C819D95B9
310
91A5B5E880C4E4A400040418008A521E000000000000001CA040C00000000000034408080000000000006881010000000000000D102040000000000001A204080000000000003440818000000000000728103000000000000125020600000000004028A040000000000000034408000000000000004881000000000000000D
310
102000000000000001A204000000000000003440818000000000000508143C0000000000000039408180000000000006881030000000000000D102060000000000001A2040C00000000000034408180000000000006881030000000000000E5020600000000000024A040C0000000000805140800000000000000688100000
310
00000000009102000000000000001A2040000000000000034408180000000000006881030000000000000A10284220000000878000002020000008380000020400000081800000208000000828000002028900000000
340
0
340
0
340
0
340
0
340
180
340
180
 94
        0
  0
ACAD_PROXY_OBJECT
  5
15EAE
330
15EAA
100
AcDbProxyObject
 90
      499
 91
      567
 95
       25
 70
     0
 93
     1376
310
5DE0143A0D960E4E0DDA0E32056E0D9C80C405983D3C486F6C653A6469613E3C696628657175616C28486F6C653A7465726D696E6174696F6E2C223022292C2220905B82B320222C22208368838A838B22293E3C696628657175616C28486F6C653A7465726D696E6174696F6E2C223022292C486F6C653A64657074682C22
310
22293E2C203C486F6C653A63746469613E2082B482AE82E882CC905B82B3203C486F6C653A637464657074683E
  0
ACAD_PROXY_OBJECT
  5
15EAF
330
15EAA
100
AcDbProxyObject
 90
      499
 91
      567
 95
       25
 70
     0
 93
     2072
310
5DE0143A0D960E4E0DDA0E32056E0D9C80C405EF3D3C486F6C653A6374616E676C653E252564202525633C486F6C653A63746469613E208E4D8C8A2C203C696628657175616C28486F6C653A7461707065642C223022292C22252563222C486F6C653A6E6F6D696E616C202220782022293E3C696628657175616C28486F6C
310
653A7461707065642C223022292C486F6C653A6469612C486F6C653A706974636864657363293E203C696628657175616C28486F6C653A7465726D696E6174696F6E2C223022292C22905B82B320222C222022293E3C696628657175616C28486F6C653A7465726D696E6174696F6E2C223022292C486F6C653A6465707468
310
2C2222293E
  0
ACAD_PROXY_OBJECT
  5
15EAD
330
15EAA
100
AcDbProxyObject
 90
      499
 91
      567
 95
       25
 70
     0
 93
     1752
310
5DE0143A0D960E4E0DDA0E32056E0D9C80C405C73D3C696628657175616C28486F6C653A7461707065642C223022292C22252563222C486F6C653A6E6F6D696E616C202220782022293E3C696628657175616C28486F6C653A7461707065642C223022292C486F6C653A6469612C486F6C653A706974636864657363293E20
310
3C696628657175616C28486F6C653A7465726D696E6174696F6E2C223022292C22905B82B320222C222022293E3C696628657175616C28486F6C653A7465726D696E6174696F6E2C223022292C486F6C653A64657074682C2222293E
  0
ACAD_PROXY_OBJECT
  5
15EAC
330
15EAA
100
AcDbProxyObject
 90
      499
 91
      567
 95
       25
 70
     0
 93
      344
310
5DE0143A0D960E4E0DDA0E32056E0D9C80C805173D3C535444503A444553433E203C535444503A5354443E
  0
ACAD_PROXY_OBJECT
  5
15EAB
330
15EAA
100
AcDbProxyObject
 90
      499
 91
      567
 95
       25
 70
     0
 93
      256
310
5DE0143A0D960E4E0DDA0E32056E0D9C80C4050C3D3C535444503A444553433E
  0
ENDSEC
  0
EOF
