  0
SECTION
  2
HEADER
  9
$ACADVER
  1
AC1015
  9
$ACADMAINTVER
 70
     6
  9
$DWGCODEPAGE
  3
ANSI_932
  9
$INSBASE
 10
0.0
 20
0.0
 30
0.0
  9
$EXTMIN
 10
-111.3916316415053
 20
-132.6455676303091
 30
0.0
  9
$EXTMAX
 10
259.6659721023578
 20
48.08579708017912
 30
0.0
  9
$LIMMIN
 10
0.0
 20
0.0
  9
$LIMMAX
 10
420.0
 20
297.0
  9
$ORTHOMODE
 70
     0
  9
$REGENMODE
 70
     1
  9
$FILLMODE
 70
     1
  9
$QTEXTMODE
 70
     0
  9
$MIRRTEXT
 70
     1
  9
$LTSCALE
 40
1.0
  9
$ATTMODE
 70
     1
  9
$TEXTSIZE
 40
4.0
  9
$TRACEWID
 40
1.0
  9
$TEXTSTYLE
  7
STANDARD
  9
$CLAYER
  8
AM_0
  9
$CELTYPE
  6
ByLayer
  9
$CECOLOR
 62
   256
  9
$CELTSCALE
 40
1.0
  9
$DISPSILH
 70
     0
  9
$DIMSCALE
 40
1.0
  9
$DIMASZ
 40
2.5
  9
$DIMEXO
 40
0.0
  9
$DIMDLI
 40
10.0
  9
$DIMRND
 40
0.0
  9
$DIMDLE
 40
0.0
  9
$DIMEXE
 40
1.0
  9
$DIMTP
 40
0.1
  9
$DIMTM
 40
0.1000000001
  9
$DIMTXT
 40
3.8
  9
$DIMCEN
 40
0.0
  9
$DIMTSZ
 40
0.0
  9
$DIMTOL
 70
     0
  9
$DIMLIM
 70
     0
  9
$DIMTIH
 70
     0
  9
$DIMTOH
 70
     0
  9
$DIMSE1
 70
     0
  9
$DIMSE2
 70
     0
  9
$DIMTAD
 70
     3
  9
$DIMZIN
 70
     1
  9
$DIMBLK
  1
Open30
  9
$DIMASO
 70
     1
  9
$DIMSHO
 70
     1
  9
$DIMPOST
  1

  9
$DIMAPOST
  1
"
  9
$DIMALT
 70
     0
  9
$DIMALTD
 70
     2
  9
$DIMALTF
 40
0.0393701
  9
$DIMLFAC
 40
1.0
  9
$DIMTOFL
 70
     1
  9
$DIMTVP
 40
0.0
  9
$DIMTIX
 70
     0
  9
$DIMSOXD
 70
     0
  9
$DIMSAH
 70
     0
  9
$DIMBLK1
  1

  9
$DIMBLK2
  1

  9
$DIMSTYLE
  2
AM_JIS
  9
$DIMCLRD
 70
   256
  9
$DIMCLRE
 70
   256
  9
$DIMCLRT
 70
     2
  9
$DIMTFAC
 40
0.71
  9
$DIMGAP
 40
1.5
  9
$DIMJUST
 70
     0
  9
$DIMSD1
 70
     0
  9
$DIMSD2
 70
     0
  9
$DIMTOLJ
 70
     0
  9
$DIMTZIN
 70
     8
  9
$DIMALTZ
 70
     0
  9
$DIMALTTZ
 70
     0
  9
$DIMUPT
 70
     0
  9
$DIMDEC
 70
     0
  9
$DIMTDEC
 70
     3
  9
$DIMALTU
 70
     2
  9
$DIMALTTD
 70
     2
  9
$DIMTXSTY
  7
STANDARD
  9
$DIMAUNIT
 70
     1
  9
$DIMADEC
 70
     0
  9
$DIMALTRND
 40
0.0
  9
$DIMAZIN
 70
     2
  9
$DIMDSEP
 70
    46
  9
$DIMATFIT
 70
     3
  9
$DIMFRAC
 70
     0
  9
$DIMLDRBLK
  1
Open30
  9
$DIMLUNIT
 70
     2
  9
$DIMLWD
 70
    -1
  9
$DIMLWE
 70
    -1
  9
$DIMTMOVE
 70
     0
  9
$LUNITS
 70
     2
  9
$LUPREC
 70
     4
  9
$SKETCHINC
 40
1.0
  9
$FILLETRAD
 40
0.2
  9
$AUNITS
 70
     0
  9
$AUPREC
 70
     4
  9
$MENU
  1
.
  9
$ELEVATION
 40
0.0
  9
$PELEVATION
 40
0.0
  9
$THICKNESS
 40
0.0
  9
$LIMCHECK
 70
     0
  9
$CHAMFERA
 40
2.0
  9
$CHAMFERB
 40
2.0
  9
$CHAMFERC
 40
20.0
  9
$CHAMFERD
 40
0.0
  9
$SKPOLY
 70
     0
  9
$TDCREATE
 40
2451943.610431667
  9
$TDUCREATE
 40
2451943.235431667
  9
$TDUPDATE
 40
2455482.601149445
  9
$TDUUPDATE
 40
2455482.226149445
  9
$TDINDWG
 40
1.4096216435
  9
$TDUSRTIMER
 40
1.4096214699
  9
$USRTIMER
 70
     1
  9
$ANGBASE
 50
0.0
  9
$ANGDIR
 70
     0
  9
$PDMODE
 70
     0
  9
$PDSIZE
 40
0.0
  9
$PLINEWID
 40
0.0
  9
$SPLFRAME
 70
     0
  9
$SPLINETYPE
 70
     6
  9
$SPLINESEGS
 70
     8
  9
$HANDSEED
  5
189E9
  9
$SURFTAB1
 70
     6
  9
$SURFTAB2
 70
     6
  9
$SURFTYPE
 70
     6
  9
$SURFU
 70
     6
  9
$SURFV
 70
     6
  9
$UCSBASE
  2

  9
$UCSNAME
  2

  9
$UCSORG
 10
0.0
 20
0.0
 30
0.0
  9
$UCSXDIR
 10
1.0
 20
0.0
 30
0.0
  9
$UCSYDIR
 10
0.0
 20
1.0
 30
0.0
  9
$UCSORTHOREF
  2

  9
$UCSORTHOVIEW
 70
     0
  9
$UCSORGTOP
 10
0.0
 20
0.0
 30
0.0
  9
$UCSORGBOTTOM
 10
0.0
 20
0.0
 30
0.0
  9
$UCSORGLEFT
 10
0.0
 20
0.0
 30
0.0
  9
$UCSORGRIGHT
 10
0.0
 20
0.0
 30
0.0
  9
$UCSORGFRONT
 10
0.0
 20
0.0
 30
0.0
  9
$UCSORGBACK
 10
0.0
 20
0.0
 30
0.0
  9
$PUCSBASE
  2

  9
$PUCSNAME
  2

  9
$PUCSORG
 10
0.0
 20
0.0
 30
0.0
  9
$PUCSXDIR
 10
1.0
 20
0.0
 30
0.0
  9
$PUCSYDIR
 10
0.0
 20
1.0
 30
0.0
  9
$PUCSORTHOREF
  2

  9
$PUCSORTHOVIEW
 70
     0
  9
$PUCSORGTOP
 10
0.0
 20
0.0
 30
0.0
  9
$PUCSORGBOTTOM
 10
0.0
 20
0.0
 30
0.0
  9
$PUCSORGLEFT
 10
0.0
 20
0.0
 30
0.0
  9
$PUCSORGRIGHT
 10
0.0
 20
0.0
 30
0.0
  9
$PUCSORGFRONT
 10
0.0
 20
0.0
 30
0.0
  9
$PUCSORGBACK
 10
0.0
 20
0.0
 30
0.0
  9
$USERI1
 70
     0
  9
$USERI2
 70
     0
  9
$USERI3
 70
     0
  9
$USERI4
 70
     0
  9
$USERI5
 70
     0
  9
$USERR1
 40
0.0
  9
$USERR2
 40
0.0
  9
$USERR3
 40
0.0
  9
$USERR4
 40
0.0
  9
$USERR5
 40
0.0
  9
$WORLDVIEW
 70
     1
  9
$SHADEDGE
 70
     3
  9
$SHADEDIF
 70
    70
  9
$TILEMODE
 70
     1
  9
$MAXACTVP
 70
    64
  9
$PINSBASE
 10
0.0
 20
0.0
 30
0.0
  9
$PLIMCHECK
 70
     0
  9
$PEXTMIN
 10
1.000000000000000E+20
 20
1.000000000000000E+20
 30
1.000000000000000E+20
  9
$PEXTMAX
 10
-1.000000000000000E+20
 20
-1.000000000000000E+20
 30
-1.000000000000000E+20
  9
$PLIMMIN
 10
0.0
 20
0.0
  9
$PLIMMAX
 10
420.0
 20
297.0
  9
$UNITMODE
 70
     0
  9
$VISRETAIN
 70
     1
  9
$PLINEGEN
 70
     0
  9
$PSLTSCALE
 70
     1
  9
$TREEDEPTH
 70
  3020
  9
$CMLSTYLE
  2
Standard
  9
$CMLJUST
 70
     0
  9
$CMLSCALE
 40
20.0
  9
$PROXYGRAPHICS
 70
     1
  9
$MEASUREMENT
 70
     1
  9
$CELWEIGHT
370
    -1
  9
$ENDCAPS
280
     0
  9
$JOINSTYLE
280
     0
  9
$LWDISPLAY
290
     0
  9
$INSUNITS
 70
     4
  9
$HYPERLINKBASE
  1

  9
$STYLESHEET
  1
sei_cad.ctb
  9
$XEDIT
290
     1
  9
$CEPSNTYPE
380
     0
  9
$PSTYLEMODE
290
     1
  9
$FINGERPRINTGUID
  2
{C77AB3BE-9CA2-11D3-BAF3-006094EB760E}
  9
$VERSIONGUID
  2
{C59D9A1D-5F41-4FDA-AD86-83BEB76A02CB}
  9
$EXTNAMES
290
     1
  9
$PSVPSCALE
 40
0.0
  9
$OLESTARTUP
290
     0
  0
ENDSEC
  0
SECTION
  2
CLASSES
  0
CLASS
  1
ACDBDICTIONARYWDFLT
  2
AcDbDictionaryWithDefault
  3
ObjectDBX Classes
 90
        0
280
     0
281
     0
  0
CLASS
  1
ACDBPLACEHOLDER
  2
AcDbPlaceHolder
  3
ObjectDBX Classes
 90
        0
280
     0
281
     0
  0
CLASS
  1
LAYOUT
  2
AcDbLayout
  3
ObjectDBX Classes
 90
        0
280
     0
281
     0
  0
CLASS
  1
ACME_DOCUMENT
  2
AcMeDbDoc
  3
AcMeServices
 90
        0
280
     1
281
     0
  0
CLASS
  1
ACMESCOPE
  2
AcMeScope
  3
AcMeServices
 90
        0
280
     1
281
     0
  0
CLASS
  1
ACMECOMMANDHISTORY
  2
AcMeCommandHistory
  3
AcMeServices
 90
        0
280
     1
281
     0
  0
CLASS
  1
DICTIONARYVAR
  2
AcDbDictionaryVar
  3
ObjectDBX Classes
 90
        0
280
     0
281
     0
  0
CLASS
  1
ACIMSYSVARMAN
  2
AcImSysVarManager
  3
AcMeServices
 90
        0
280
     1
281
     0
  0
CLASS
  1
ACIMREALSYSVAR
  2
AcImRealSysVar
  3
AcMeServices
 90
        0
280
     1
281
     0
  0
CLASS
  1
ACIMINTSYSVAR
  2
AcImIntSysVar
  3
AcMeServices
 90
        0
280
     1
281
     0
  0
CLASS
  1
ACMEDRAWINGMAN
  2
AcMeDrawingMan
  3
AcMeServices
 90
        0
280
     1
281
     0
  0
CLASS
  1
ACMEVIEW
  2
AcMeView
  3
AcMeServices
 90
        0
280
     1
281
     0
  0
CLASS
  1
ACDBENTITYCACHE
  2
AcMeEntityCache
  3
AcMeServices
 90
        0
280
     1
281
     0
  0
CLASS
  1
GSMANAGER
  2
AcMeGSManager
  3
AcMeServices
 90
        0
280
     1
281
     0
  0
CLASS
  1
AMDTINTERNALREACTOR
  2
AmdtInternalReactor
  3
AcMeServices
 90
        0
280
     1
281
     0
  0
CLASS
  1
ACMESTATEMGR
  2
AcMeStateMgr
  3
AcMeServices
 90
        0
280
     1
281
     0
  0
CLASS
  1
ACME_DATABASE
  2
AcMeDbDatabase
  3
AcMeServices
 90
        0
280
     1
281
     0
  0
CLASS
  1
ACRFINSADJUSTERMGR
  2
AcRfInsAdjusterMgr
  3
AcMeServices
 90
        0
280
     1
281
     0
  0
CLASS
  1
AMGSETTINGSOBJ
  2
AmgSettingsObj
  3
"AcadM|Product Description: AutoCAD Mechanical 2000|Company: Autodesk"
 90
        0
280
     1
281
     0
  0
CLASS
  1
AMGOBJPROPCFG
  2
AmgObjPropCfg
  3
"AmgLay|Product Description: AutoCAD Mechanical 2000|Company: Autodesk"
 90
        1
280
     1
281
     0
  0
CLASS
  1
ACMDATADICTIONARY
  2
AcmDataDictionary
  3
"AcmSymBB|Product Description: AutoCAD Mechanical 2004 DX|Company: Autodesk"
 90
        0
280
     1
281
     0
  0
CLASS
  1
ACMDATAENTRYBLOCK
  2
AcmDataEntryBlock
  3
"AcmSymBB|Product Description: AutoCAD Mechanical 2004 DX|Company: Autodesk"
 90
        0
280
     1
281
     0
  0
CLASS
  1
ACIMSTRSYSVAR
  2
AcImStrSysVar
  3
AcMeServices
 90
        0
280
     1
281
     0
  0
CLASS
  1
ACAMGFILTERDAT
  2
AcAmgFilterDat
  3
"AcadM|Product Description: AutoCAD Mechanical 2000|Company: Autodesk"
 90
        0
280
     1
281
     0
  0
CLASS
  1
LAYER_INDEX
  2
AcDbLayerIndex
  3
ObjectDBX Classes
 90
        0
280
     0
281
     0
  0
CLASS
  1
IDBUFFER
  2
AcDbIdBuffer
  3
ObjectDBX Classes
 90
        0
280
     0
281
     0
  0
CLASS
  1
ACMSTANDARDJIS
  2
AcmStandardJIS
  3
"Amdt_StdImp|Product Description: AutoCAD Mechanical 2004 DX|Company: Autodesk"
 90
        0
280
     1
281
     0
  0
CLASS
  1
ACMSURFSTANDARDJIS
  2
AcmSurfTextStdJIS
  3
"Amdt_StdImp|Product Description: AutoCAD Mechanical 2004 DX|Company: Autodesk"
 90
        0
280
     1
281
     0
  0
CLASS
  1
ACMFCFSTANDARDJIS
  2
AcmFCFStdJIS
  3
"Amdt_StdImp|Product Description: AutoCAD Mechanical 2004 DX|Company: Autodesk"
 90
        0
280
     1
281
     0
  0
CLASS
  1
ACMWELDSTANDARDJIS
  2
AcmWeldingStdJIS
  3
"Amdt_StdImp|Product Description: AutoCAD Mechanical 2004 DX|Company: Autodesk"
 90
        0
280
     1
281
     0
  0
CLASS
  1
ACMIDSTANDARDJIS
  2
AcmIdStdJIS
  3
"Amdt_StdImp|Product Description: AutoCAD Mechanical 2004 DX|Company: Autodesk"
 90
        0
280
     1
281
     0
  0
CLASS
  1
ACMDATUMSTANDARDJIS
  2
AcmDatumStdJIS
  3
"Amdt_StdImp|Product Description: AutoCAD Mechanical 2004 DX|Company: Autodesk"
 90
        0
280
     1
281
     0
  0
CLASS
  1
ACMBOMSTANDARDJIS
  2
AcmBOMStdJIS
  3
"Amdt_StdImp|Product Description: AutoCAD Mechanical 2004 DX|Company: Autodesk"
 90
        0
280
     1
281
     0
  0
CLASS
  1
AMDTNOTE
  2
AmdtNote
  3
"AcmSymBB|Product Description: AutoCAD Mechanical 2004 DX|Company: Autodesk"
 90
     1023
280
     1
281
     1
  0
CLASS
  1
TABLESTYLE
  2
AcDbTableStyle
  3
ObjectDBX Classes
 90
     2047
280
     0
281
     0
  0
CLASS
  1
ACGREFMASTER
  2
AcGrefMaster
  3
AcAttribServices
 90
        0
280
     1
281
     0
  0
CLASS
  1
AM_DRAWING_MGR
  2
AcDmDwgMgr
  3
AcMechDwgViewMgmt
 90
        0
280
     1
281
     0
  0
CLASS
  1
AM_DWG_DOCUMENT
  2
AcDmDwgDocument
  3
AcMechDwgViewMgmt
 90
        0
280
     1
281
     0
  0
CLASS
  1
AM_DWG_SHEET
  2
AcDmSheet
  3
AcMechDwgViewMgmt
 90
        0
280
     1
281
     0
  0
CLASS
  1
AM_VIEWDIMPARMAP
  2
AcDmViewDimParMap
  3
AcMechDwgViewMgmt
 90
        0
280
     1
281
     0
  0
CLASS
  1
AM_DWGMGR_NAME
  2
AcDmDwgMgrName
  3
AcMechDwgViewMgmt
 90
        0
280
     1
281
     0
  0
CLASS
  1
ACGREFACADMASTER
  2
AcGrefacadMaster
  3
AcGrefServices
 90
        0
280
     1
281
     0
  0
CLASS
  1
AMDTMENUSTATEMGR
  2
AmdtMenuStateMgr
  3
McadcomServices
 90
        0
280
     1
281
     0
  0
CLASS
  1
AMDTMCOMMENUSTATE
  2
AmdtMcomMenuState
  3
McadcomServices
 90
        0
280
     1
281
     0
  0
CLASS
  1
AMIMASTER
  2
AmiMaster
  3
AmiServices
 90
        0
280
     1
281
     0
  0
CLASS
  1
MAPIAMMOUDLE
  2
MApiAmModule
  3
MApiAmServices
 90
        0
280
     1
281
     0
  0
CLASS
  1
AMDTADMENUSTATE
  2
AmdtAdMenuState
  3
DesignerServices
 90
        0
280
     1
281
     0
  0
CLASS
  1
ADAPPL
  2
AcAdAppl
  3
DesignerServices
 90
        0
280
     1
281
     0
  0
CLASS
  1
DEPMGR
  2
AcAdDepMgr
  3
DesignerServices
 90
        0
280
     1
281
     0
  0
CLASS
  1
PARAMMGR
  2
AcAdParamMgr
  3
DesignerServices
 90
        0
280
     1
281
     0
  0
CLASS
  1
PARAMSCOPE
  2
AcAdParamScope
  3
DesignerServices
 90
        0
280
     1
281
     0
  0
CLASS
  1
NAMEDAPPL
  2
AcAdNamedAppl
  3
DesignerServices
 90
        0
280
     1
281
     0
  0
CLASS
  1
AMDTDMMENUSTATE
  2
AmdtDmMenuState
  3
AcMechDwgViewMgmt
 90
        0
280
     1
281
     0
  0
CLASS
  1
AMDTAMMENUSTATE
  2
AmdtAmMenuState
  3
DesignerAssemblies
 90
        0
280
     1
281
     0
  0
CLASS
  1
ACAMPROJECT
  2
AcAmProject
  3
DesignerAssemblies
 90
        0
280
     1
281
     0
  0
CLASS
  1
ACAMGRCOMPDEF
  2
AcAmGrCompDef
  3
DesignerAssemblies
 90
        0
280
     1
281
     0
  0
CLASS
  1
ACCMCONTEXT
  2
AcCmContext
  3
DesignerAssemblies
 90
        0
280
     1
281
     0
  0
CLASS
  1
ACAMCOMPDEF
  2
AcAmCompDef
  3
DesignerAssemblies
 90
        0
280
     1
281
     0
  0
CLASS
  1
ACAMCOMPDEFMGR
  2
AcAmCompDefMgr
  3
DesignerAssemblies
 90
        0
280
     1
281
     0
  0
CLASS
  1
AMCONTEXTMGR
  2
AcAmContextMgr
  3
DesignerAssemblies
 90
        0
280
     1
281
     0
  0
CLASS
  1
ACAMCONTEXTMODELER
  2
AcAmContextModeler
  3
DesignerAssemblies
 90
        0
280
     1
281
     0
  0
CLASS
  1
ACAMGTITLESTD
  2
AcAmgTitleStd
  3
"TITLEAPP"
 90
        0
280
     1
281
     0
  0
CLASS
  1
ACMDETAILSTANDARDJIS
  2
AmdtDetailSymStdJIS
  3
"Amdt_StdImp|Product Description: AutoCAD Mechanical 2004 DX|Company: Autodesk"
 90
        0
280
     1
281
     0
  0
CLASS
  1
ACMSECTIONSTANDARDJIS
  2
AmdtSectionSymStdJIS
  3
"Amdt_StdImp|Product Description: AutoCAD Mechanical 2004 DX|Company: Autodesk"
 90
        0
280
     1
281
     0
  0
CLASS
  1
ACMCENTERLINESTANDARDJIS
  2
AmdtCenterLineStdJIS
  3
"Amdt_StdImp|Product Description: AutoCAD Mechanical 2004 DX|Company: Autodesk"
 90
        0
280
     1
281
     0
  0
CLASS
  1
ACMTHREADLINESTANDARDJIS
  2
AmdtThreadLineStdJIS
  3
"Amdt_StdImp|Product Description: AutoCAD Mechanical 2004 DX|Company: Autodesk"
 90
        0
280
     1
281
     0
  0
CLASS
  1
ACMNOTESTANDARDJIS
  2
AmdtNoteStdJIS
  3
"Amdt_StdImp|Product Description: AutoCAD Mechanical 2004 DX|Company: Autodesk"
 90
        0
280
     1
281
     0
  0
CLASS
  1
AMDTNOTETEMPLATEDB
  2
AmdtNoteTemplateDB
  3
AMDT_STDIMP_MODULE_NAME
 90
        0
280
     1
281
     0
  0
CLASS
  1
ACAMGLAYSTD
  2
AcAmgLayStd
  3
"AcAmgLayStd|Product Description: AutoCAD Mechanical 2000|Company: Autodesk"
 90
        0
280
     1
281
     0
  0
CLASS
  1
ACAMGDIMSTD
  2
AcAmgDimStd
  3
"AcAmgDimStd|Product Description: AutoCAD Mechanical 2000|Company: Autodesk"
 90
        0
280
     1
281
     0
  0
CLASS
  1
ACAMGHOLECHARTSTDJIS
  2
AcAmgHoleChartStdJIS
  3
ACMSYMBB_MODULE_NAME
 90
        0
280
     1
281
     0
  0
CLASS
  1
CATALOGSTATE
  2
AcAmCatalogState
  3
DesignerAssemblies
 90
        0
280
     1
281
     0
  0
CLASS
  1
ACAMGRCOMPDEFSET
  2
AcAmGrCompDefSet
  3
DesignerAssemblies
 90
        0
280
     1
281
     0
  0
CLASS
  1
AMDTBROWSERDBTAB
  2
AmdtBrowserDbTab
  3
McadcomServices
 90
        0
280
     1
281
     0
  0
CLASS
  1
CBROWSERAPPOBJECT
  2
CBrowserAppObject
  3
McadcomServices
 90
        0
280
     1
281
     0
  0
CLASS
  1
DM_PLACEHOLDER
  2
AcDmSelsetPlaceholder
  3
AcMechDwgViewMgmt
 90
        0
280
     1
281
     0
  0
CLASS
  1
SORTENTSTABLE
  2
AcDbSortentsTable
  3
ObjectDBX Classes
 90
        0
280
     0
281
     0
  0
ENDSEC
  0
SECTION
  2
TABLES
  0
TABLE
  2
VPORT
  5
8
330
0
100
AcDbSymbolTable
 70
     3
  0
VPORT
  5
189E1
330
8
100
AcDbSymbolTableRecord
100
AcDbViewportTableRecord
  2
*Active
 70
     0
 10
0.0
 20
0.0
 11
1.0
 21
1.0
 12
106.458118934043
 22
-42.27867238253765
 13
0.0
 23
0.0
 14
2.5
 24
2.5
 15
10.0
 25
10.0
 16
0.0
 26
0.0
 36
1.0
 17
0.0
 27
0.0
 37
0.0
 40
272.0972949685622
 41
1.610603290676417
 42
50.0
 43
0.0
 44
0.0
 50
0.0
 51
0.0
 71
    16
 72
  2000
 73
     1
 74
     3
 75
     0
 76
     0
 77
     0
 78
     0
281
     0
 65
     1
110
0.0
120
0.0
130
0.0
111
1.0
121
0.0
131
0.0
112
0.0
122
1.0
132
0.0
 79
     0
146
0.0
  0
ENDTAB
  0
TABLE
  2
LTYPE
  5
5
330
0
100
AcDbSymbolTable
 70
    13
  0
LTYPE
  5
14
330
5
100
AcDbSymbolTableRecord
100
AcDbLinetypeTableRecord
  2
ByBlock
 70
     0
  3

 72
    65
 73
     0
 40
0.0
  0
LTYPE
  5
15
330
5
100
AcDbSymbolTableRecord
100
AcDbLinetypeTableRecord
  2
ByLayer
 70
     0
  3

 72
    65
 73
     0
 40
0.0
  0
LTYPE
  5
16
330
5
100
AcDbSymbolTableRecord
100
AcDbLinetypeTableRecord
  2
Continuous
 70
     0
  3
Solid line
 72
    65
 73
     0
 40
0.0
  0
LTYPE
  5
43
330
5
100
AcDbSymbolTableRecord
100
AcDbLinetypeTableRecord
  2
AM_ISO02W050
 70
     0
  3
__ __ __ __ __ __ __ __ __ __ __ __ __ __ __
 72
    65
 73
     2
 40
7.5
 49
6.0
 74
     0
 49
-1.5
 74
     0
  0
LTYPE
  5
44
330
5
100
AcDbSymbolTableRecord
100
AcDbLinetypeTableRecord
  2
AM_ISO08W050
 70
     0
  3
____ . ____ . ____ . ____ . ____ . ____ . ____
 72
    65
 73
     4
 40
18.0
 49
12.0
 74
     0
 49
-1.5
 74
     0
 49
3.0
 74
     0
 49
-1.5
 74
     0
  0
LTYPE
  5
45
330
5
100
AcDbSymbolTableRecord
100
AcDbLinetypeTableRecord
  2
AM_ISO09W050
 70
     0
  3
_____ . . _____ . . _____ . . ____ .. ____
 72
    65
 73
     6
 40
22.5
 49
12.0
 74
     0
 49
-1.5
 74
     0
 49
3.0
 74
     0
 49
-1.5
 74
     0
 49
3.0
 74
     0
 49
-1.5
 74
     0
  0
LTYPE
  5
46
330
5
100
AcDbSymbolTableRecord
100
AcDbLinetypeTableRecord
  2
Amconstr
 70
     0
  3
_______________________
 72
    65
 73
     2
 40
9999.0
 49
9999.0
 74
     0
 49
0.0
 74
     0
  0
LTYPE
  5
47
330
5
100
AcDbSymbolTableRecord
100
AcDbLinetypeTableRecord
  2
AM_ISO02W050x2
 70
     0
  3
 _ _ _ _ _ _ _ _ _ _ _ _
 72
    65
 73
     2
 40
3.75
 49
3.0
 74
     0
 49
-0.75
 74
     0
  0
LTYPE
  5
48
330
5
100
AcDbSymbolTableRecord
100
AcDbLinetypeTableRecord
  2
AM_ISO08W050x2
 70
     0
  3
__ . __ . __ . __ . __ . __
 72
    65
 73
     4
 40
9.0
 49
6.0
 74
     0
 49
-0.75
 74
     0
 49
1.5
 74
     0
 49
-0.75
 74
     0
  0
LTYPE
  5
4B
330
5
100
AcDbSymbolTableRecord
100
AcDbLinetypeTableRecord
  2
Amzigzag
 70
     0
  3
/\/-/\/-/\/-/\/-/\/-/\/
 72
    65
 73
     2
 40
11.0001
 49
0.0001
 74
     4
 75
   135
340
4A
 46
0.04
 50
0.0
 44
0.0
 45
0.0
 49
-11.0
 74
     0
  0
LTYPE
  5
188
330
5
100
AcDbSymbolTableRecord
100
AcDbLinetypeTableRecord
  2
ACJISTGB
 70
     0
  3
__ . . __ . .
 72
    65
 73
     6
 40
9.0
 49
4.0
 74
     0
 49
-1.0
 74
     0
 49
1.0
 74
     0
 49
-1.0
 74
     0
 49
1.0
 74
     0
 49
-1.0
 74
     0
  0
LTYPE
  5
189
330
5
100
AcDbSymbolTableRecord
100
AcDbLinetypeTableRecord
  2
ACJISTGL
 70
     0
  3
_ _ _ _ _
 72
    65
 73
     2
 40
3.0
 49
2.0
 74
     0
 49
-1.0
 74
     0
  0
LTYPE
  5
652
330
5
100
AcDbSymbolTableRecord
100
AcDbLinetypeTableRecord
  2
CENTER
 70
     0
  3
____ _ ____ _ ____ _ ____ _ ____ _ ____ _ ____
 72
    65
 73
     4
 40
17.5
 49
13.0
 74
     0
 49
-1.5
 74
     0
 49
1.5
 74
     0
 49
-1.5
 74
     0
  0
LTYPE
  5
12AB
330
5
100
AcDbSymbolTableRecord
100
AcDbLinetypeTableRecord
  2
HIDDEN
 70
     0
  3
Hidden __ __ __ __ __ __ __ __ __ __ __ __ __ _
 72
    65
 73
     2
 40
0.375
 49
0.25
 74
     0
 49
-0.125
 74
     0
  0
LTYPE
  5
12AC
330
5
100
AcDbSymbolTableRecord
100
AcDbLinetypeTableRecord
  2
PHANTOM2
 70
     0
  3
Phantom (.5x) ___ _ _ ___ _ _ ___ _ _ ___ _ _
 72
    65
 73
     6
 40
1.25
 49
0.625
 74
     0
 49
-0.125
 74
     0
 49
0.125
 74
     0
 49
-0.125
 74
     0
 49
0.125
 74
     0
 49
-0.125
 74
     0
  0
ENDTAB
  0
TABLE
  2
LAYER
  5
2
102
{ACAD_XDICTIONARY
360
180A5
102
}
330
0
100
AcDbSymbolTable
 70
     7
  0
LAYER
  5
10
330
2
100
AcDbSymbolTableRecord
100
AcDbLayerTableRecord
  2
0
 70
     0
 62
     7
  6
Continuous
370
    -3
390
F
  0
LAYER
  5
7D
330
2
100
AcDbSymbolTableRecord
100
AcDbLayerTableRecord
  2
AM_5
 70
     0
 62
     3
  6
Continuous
370
    13
390
F
  0
LAYER
  5
7F
330
2
100
AcDbSymbolTableRecord
100
AcDbLayerTableRecord
  2
Defpoints
 70
     0
 62
     7
  6
Continuous
290
     0
370
    -3
390
F
  0
LAYER
  5
12B1
330
2
100
AcDbSymbolTableRecord
100
AcDbLayerTableRecord
  2
AM_0
 70
     0
 62
     7
  6
Continuous
370
    30
390
F
  0
LAYER
  5
1AFF
330
2
100
AcDbSymbolTableRecord
100
AcDbLayerTableRecord
  2
AM_7
 70
     0
 62
     4
  6
AM_ISO08W050
370
    13
390
F
  0
LAYER
  5
361D
330
2
100
AcDbSymbolTableRecord
100
AcDbLayerTableRecord
  2
AM_11
 70
     0
 62
     3
  6
AM_ISO09W050
370
    13
390
F
  0
ENDTAB
  0
TABLE
  2
STYLE
  5
3
330
0
100
AcDbSymbolTable
 70
     4
  0
STYLE
  5
11
330
3
100
AcDbSymbolTableRecord
100
AcDbTextStyleTableRecord
  2
STANDARD
 70
     0
 40
0.0
 41
1.0
 50
0.0
 71
     0
 42
4.0
  3
ISOCP.SHX
  4
EXTFONT.SHX
  0
STYLE
  5
4A
330
3
100
AcDbSymbolTableRecord
100
AcDbTextStyleTableRecord
  2

 70
     1
 40
0.0
 41
1.0
 50
0.0
 71
     0
 42
2.5
  3
ltypeshp.shx
  4

  0
STYLE
  5
180
330
3
100
AcDbSymbolTableRecord
100
AcDbTextStyleTableRecord
  2
ACJISTS
 70
     0
 40
1.0
 41
1.0
 50
0.0
 71
     0
 42
2.5
  3
isocp.shx
  4
bigfont.shx
  0
STYLE
  5
187
330
3
100
AcDbSymbolTableRecord
100
AcDbTextStyleTableRecord
  2
ACJISGDT
 70
     0
 40
0.0
 41
1.0
 50
0.0
 71
     0
 42
2.5
  3
amgdt.shx
  4

  0
ENDTAB
  0
TABLE
  2
VIEW
  5
6
330
0
100
AcDbSymbolTable
 70
     6
  0
VIEW
  5
A30
330
6
100
AcDbSymbolTableRecord
100
AcDbViewTableRecord
  2
AM_VIEW1
 70
     0
 40
148.5
 10
108.6929657794677
 20
222.75
 41
217.3859315589354
 11
0.0
 21
0.0
 31
1.0
 12
0.0
 22
0.0
 32
0.0
 42
50.0
 43
0.0
 44
0.0
 50
0.0
 71
    16
281
     0
 72
     0
  0
VIEW
  5
A31
330
6
100
AcDbSymbolTableRecord
100
AcDbViewTableRecord
  2
AM_VIEW2
 70
     0
 40
148.5
 10
311.3070342205323
 20
222.75
 41
217.3859315589354
 11
0.0
 21
0.0
 31
1.0
 12
0.0
 22
0.0
 32
0.0
 42
50.0
 43
0.0
 44
0.0
 50
0.0
 71
    16
281
     0
 72
     0
  0
VIEW
  5
A32
330
6
100
AcDbSymbolTableRecord
100
AcDbViewTableRecord
  2
AM_VIEW3
 70
     0
 40
148.5
 10
108.6929657794677
 20
74.25
 41
217.3859315589354
 11
0.0
 21
0.0
 31
1.0
 12
0.0
 22
0.0
 32
0.0
 42
50.0
 43
0.0
 44
0.0
 50
0.0
 71
    16
281
     0
 72
     0
  0
VIEW
  5
A33
330
6
100
AcDbSymbolTableRecord
100
AcDbViewTableRecord
  2
AM_VIEW4
 70
     0
 40
148.5
 10
311.3070342205323
 20
74.25
 41
217.3859315589354
 11
0.0
 21
0.0
 31
1.0
 12
0.0
 22
0.0
 32
0.0
 42
50.0
 43
0.0
 44
0.0
 50
0.0
 71
    16
281
     0
 72
     0
  0
VIEW
  5
A34
330
6
100
AcDbSymbolTableRecord
100
AcDbViewTableRecord
  2
AM_VIEW5
 70
     0
 40
148.5
 10
210.0
 20
148.5
 41
217.3859315589353
 11
0.0
 21
0.0
 31
1.0
 12
0.0
 22
0.0
 32
0.0
 42
50.0
 43
0.0
 44
0.0
 50
0.0
 71
    16
281
     0
 72
     0
  0
VIEW
  5
A35
330
6
100
AcDbSymbolTableRecord
100
AcDbViewTableRecord
  2
AM_VIEW6
 70
     0
 40
296.99703
 10
210.0
 20
148.5
 41
434.7675153992395
 11
0.0
 21
0.0
 31
1.0
 12
0.0
 22
0.0
 32
0.0
 42
50.0
 43
0.0
 44
0.0
 50
0.0
 71
    16
281
     0
 72
     0
  0
ENDTAB
  0
TABLE
  2
UCS
  5
7
330
0
100
AcDbSymbolTable
 70
     0
  0
ENDTAB
  0
TABLE
  2
APPID
  5
9
330
0
100
AcDbSymbolTable
 70
    43
  0
APPID
  5
12
330
9
100
AcDbSymbolTableRecord
100
AcDbRegAppTableRecord
  2
ACAD
 70
     0
  0
APPID
  5
2C
330
9
100
AcDbSymbolTableRecord
100
AcDbRegAppTableRecord
  2
MCAD_NO_VIS
 70
     0
  0
APPID
  5
2D
330
9
100
AcDbSymbolTableRecord
100
AcDbRegAppTableRecord
  2
ACAD_TEMP_GRAPHIC
 70
     0
  0
APPID
  5
B9
330
9
100
AcDbSymbolTableRecord
100
AcDbRegAppTableRecord
  2
GENIUS_GENDTOL_13
 70
     0
  0
APPID
  5
359
330
9
100
AcDbSymbolTableRecord
100
AcDbRegAppTableRecord
  2
GENIUS_GENREC_14
 70
     0
  0
APPID
  5
35A
330
9
100
AcDbSymbolTableRecord
100
AcDbRegAppTableRecord
  2
GENIUS_GENODEF_13
 70
     0
  0
APPID
  5
35B
330
9
100
AcDbSymbolTableRecord
100
AcDbRegAppTableRecord
  2
GENIUS_GENOBJ-N-REC_13
 70
     0
  0
APPID
  5
667
330
9
100
AcDbSymbolTableRecord
100
AcDbRegAppTableRecord
  2
GENIUS_GENCFG_13
 70
     0
  0
APPID
  5
668
330
9
100
AcDbSymbolTableRecord
100
AcDbRegAppTableRecord
  2
GENIUS_GENCFG0_13
 70
     0
  0
APPID
  5
669
330
9
100
AcDbSymbolTableRecord
100
AcDbRegAppTableRecord
  2
GENIUS_GENCFG1_13
 70
     0
  0
APPID
  5
66A
330
9
100
AcDbSymbolTableRecord
100
AcDbRegAppTableRecord
  2
GENIUS_GENCFG2_13
 70
     0
  0
APPID
  5
66B
330
9
100
AcDbSymbolTableRecord
100
AcDbRegAppTableRecord
  2
GENIUS_GENCFG3_13
 70
     0
  0
APPID
  5
66C
330
9
100
AcDbSymbolTableRecord
100
AcDbRegAppTableRecord
  2
GENIUS_GENCFG4_13
 70
     0
  0
APPID
  5
A76
330
9
100
AcDbSymbolTableRecord
100
AcDbRegAppTableRecord
  2
GENIUS_GENBLLY_14
 70
     0
  0
APPID
  5
A77
330
9
100
AcDbSymbolTableRecord
100
AcDbRegAppTableRecord
  2
GENIUS_GENOBJ-N-CEN_13
 70
     0
  0
APPID
  5
A83
330
9
100
AcDbSymbolTableRecord
100
AcDbRegAppTableRecord
  2
GENIUS_GENTRA_14
 70
     0
  0
APPID
  5
A8D
330
9
100
AcDbSymbolTableRecord
100
AcDbRegAppTableRecord
  2
GENIUS_GENOBJ-N-TIT_13
 70
     0
  0
APPID
  5
A8E
330
9
100
AcDbSymbolTableRecord
100
AcDbRegAppTableRecord
  2
GENIUS_GENTITLE_13
 70
     0
  0
APPID
  5
A8F
330
9
100
AcDbSymbolTableRecord
100
AcDbRegAppTableRecord
  2
GENIUS_GENOENT_13
 70
     0
  0
APPID
  5
A90
330
9
100
AcDbSymbolTableRecord
100
AcDbRegAppTableRecord
  2
GENIUS_GENOREF_13
 70
     0
  0
APPID
  5
A91
330
9
100
AcDbSymbolTableRecord
100
AcDbRegAppTableRecord
  2
GENIUS_GENOLIS_13
 70
     0
  0
APPID
  5
A92
330
9
100
AcDbSymbolTableRecord
100
AcDbRegAppTableRecord
  2
GENIUS_GENZVEED_13
 70
     0
  0
APPID
  5
A93
330
9
100
AcDbSymbolTableRecord
100
AcDbRegAppTableRecord
  2
GENIUS_GENSCREG_15
 70
     0
  0
APPID
  5
A94
330
9
100
AcDbSymbolTableRecord
100
AcDbRegAppTableRecord
  2
GENIUS_GENOBJ-N-SDF_13
 70
     0
  0
APPID
  5
12B5
330
9
100
AcDbSymbolTableRecord
100
AcDbRegAppTableRecord
  2
GENIUS_GENOBJ-N-RSBK_13
 70
     0
  0
APPID
  5
12B6
330
9
100
AcDbSymbolTableRecord
100
AcDbRegAppTableRecord
  2
GENIUS_GENOBJ-N-LIB_13
 70
     0
  0
APPID
  5
12B7
330
9
100
AcDbSymbolTableRecord
100
AcDbRegAppTableRecord
  2
GENIUS_GENSCALE_13
 70
     0
  0
APPID
  5
12B8
330
9
100
AcDbSymbolTableRecord
100
AcDbRegAppTableRecord
  2
GENIUS_GENOBJ-N-HTC_13
 70
     0
  0
APPID
  5
12B9
330
9
100
AcDbSymbolTableRecord
100
AcDbRegAppTableRecord
  2
GENIUS_GENHATCH_13
 70
     0
  0
APPID
  5
1687
330
9
100
AcDbSymbolTableRecord
100
AcDbRegAppTableRecord
  2
BASE_TYPE
 70
     0
  0
APPID
  5
1ABF
330
9
100
AcDbSymbolTableRecord
100
AcDbRegAppTableRecord
  2
GENIUS_GENFIL_13
 70
     0
  0
APPID
  5
1AC0
330
9
100
AcDbSymbolTableRecord
100
AcDbRegAppTableRecord
  2
GENIUS_GENOBJ-N-CHA_13
 70
     0
  0
APPID
  5
1AE7
330
9
100
AcDbSymbolTableRecord
100
AcDbRegAppTableRecord
  2
GENIUS_GENOBJ-N-FIL_13
 70
     0
  0
APPID
  5
20E9
330
9
100
AcDbSymbolTableRecord
100
AcDbRegAppTableRecord
  2
GENIUS_GENDIMSH_14
 70
     0
  0
APPID
  5
17D7F
330
9
100
AcDbSymbolTableRecord
100
AcDbRegAppTableRecord
  2
AD_DRAW
 70
     0
  0
APPID
  5
17D82
330
9
100
AcDbSymbolTableRecord
100
AcDbRegAppTableRecord
  2
ACATTRIBSERVICES
 70
     0
  0
APPID
  5
17DA0
330
9
100
AcDbSymbolTableRecord
100
AcDbRegAppTableRecord
  2
DESIGNERASSEMBLIES
 70
     0
  0
APPID
  5
17DB3
330
9
100
AcDbSymbolTableRecord
100
AcDbRegAppTableRecord
  2
ACADM_DIM_EDIT
 70
     0
  0
APPID
  5
17DB4
330
9
100
AcDbSymbolTableRecord
100
AcDbRegAppTableRecord
  2
AMDT_DM_ADJ
 70
     0
  0
APPID
  5
17F36
330
9
100
AcDbSymbolTableRecord
100
AcDbRegAppTableRecord
  2
ACAD_DSTYLE_DIMTEXT_FILL
 70
     0
  0
APPID
  5
17F37
330
9
100
AcDbSymbolTableRecord
100
AcDbRegAppTableRecord
  2
ACAD_PSEXT
 70
     0
  0
APPID
  5
1814F
330
9
100
AcDbSymbolTableRecord
100
AcDbRegAppTableRecord
  2
GENIUS_GENCEN_19
 70
     0
  0
APPID
  5
1847F
330
9
100
AcDbSymbolTableRecord
100
AcDbRegAppTableRecord
  2
DCO15
 70
     0
  0
ENDTAB
  0
TABLE
  2
DIMSTYLE
  5
A
330
0
100
AcDbSymbolTable
 70
    10
100
AcDbDimStyleTable
  0
DIMSTYLE
105
58
330
A
100
AcDbSymbolTableRecord
100
AcDbDimStyleTableRecord
  2
AM_JIS
 70
     0
  4
"
 41
2.5
 42
0.0
 43
10.0
 44
1.0
 47
0.1
 48
0.1000000001
 73
     0
 74
     0
 77
     3
 78
     1
 79
     2
140
3.8
141
0.0
143
0.0393701
146
0.71
147
1.5
172
     1
176
   256
177
   256
178
     2
179
     2
271
     3
272
     3
275
     1
283
     0
284
     8
340
11
341
59
342
59
371
    -1
372
    -1
  0
DIMSTYLE
105
5F
102
{ACAD_REACTORS
330
15FAE
330
170CD
102
}
330
A
100
AcDbSymbolTableRecord
100
AcDbDimStyleTableRecord
  2
AM_JIS$3
 70
     0
  4
"
 41
2.5
 42
0.0
 43
10.0
 44
1.0
 47
0.1
 48
0.1000000001
 73
     0
 77
     3
 78
     1
 79
     2
140
3.8
141
0.0
143
0.0393701
146
0.71
147
1.5
172
     1
176
   256
177
   256
178
     2
179
     2
271
     3
272
     3
275
     1
283
     0
284
     8
288
     1
289
     0
340
11
341
59
342
59
371
    -1
372
    -1
  0
DIMSTYLE
105
60
330
A
100
AcDbSymbolTableRecord
100
AcDbDimStyleTableRecord
  2
AM_JIS$4
 70
     0
  4
"
 41
2.5
 42
0.0
 43
10.0
 44
1.0
 47
0.1
 48
0.1000000001
 73
     0
 77
     3
 78
     1
 79
     2
140
3.8
141
0.0
143
0.0393701
146
0.71
147
1.5
172
     1
176
   256
177
   256
178
     2
179
     2
271
     3
272
     3
275
     1
283
     0
284
     8
288
     1
289
     0
340
11
341
59
342
59
371
    -1
372
    -1
  0
DIMSTYLE
105
61
330
A
100
AcDbSymbolTableRecord
100
AcDbDimStyleTableRecord
  2
AM_JIS$6
 70
     0
  4
"
 41
2.5
 42
0.0
 43
10.0
 44
1.0
 47
0.1
 48
0.1000000001
 73
     0
 74
     0
 78
     1
 79
     2
140
3.8
141
0.0
143
0.0393701
146
0.71
147
1.5
172
     1
176
   256
177
   256
178
     2
179
     2
271
     3
272
     3
275
     1
283
     0
284
     8
340
11
341
59
342
59
371
    -1
372
    -1
  0
DIMSTYLE
105
62
330
A
100
AcDbSymbolTableRecord
100
AcDbDimStyleTableRecord
  2
AM_JIS$7
 70
     0
  4
"
 41
2.5
 42
0.0
 43
10.0
 44
1.0
 47
0.1
 48
0.1000000001
 73
     0
 74
     0
 77
     3
 78
     1
 79
     2
140
5.0
141
0.0
143
0.0393701
146
0.71
147
1.5
172
     1
176
   256
177
   256
178
     2
179
     2
271
     3
272
     3
275
     1
283
     0
284
     8
340
11
341
59
342
59
371
    -1
372
    -1
  0
DIMSTYLE
105
63
330
A
100
AcDbSymbolTableRecord
100
AcDbDimStyleTableRecord
  2
AM_JIS$SF
 70
     0
  4
"
 41
2.5
 42
1.0
 43
10.0
 44
1.0
 47
0.1
 48
0.1
 73
     0
 74
     0
 75
     1
 76
     1
 77
     3
 78
     8
 79
     2
140
3.5
141
0.0
143
0.0393701
146
0.71
147
1.5
176
   256
177
   256
178
     2
271
     2
272
     3
274
     4
340
11
341
59
342
59
343
59
344
59
371
    -1
372
    -1
  0
DIMSTYLE
105
68
330
A
100
AcDbSymbolTableRecord
100
AcDbDimStyleTableRecord
  2
AM_JIS$SH
 70
     0
  4
"
 41
2.5
 42
1.0
 43
10.0
 44
1.0
 47
0.1
 48
0.1
 73
     0
 74
     0
 75
     1
 76
     1
 77
     3
 78
     8
 79
     2
140
3.5
141
0.0
143
0.0393701
144
2.0
146
0.71
147
1.5
173
     1
176
   256
177
   256
178
     2
271
     2
272
     3
274
     4
340
11
341
59
342
59
343
64
344
59
371
    -1
372
    -1
  0
DIMSTYLE
105
65F
330
A
100
AcDbSymbolTableRecord
100
AcDbDimStyleTableRecord
  2
STANDARD
 70
     0
340
11
  0
DIMSTYLE
105
1B97
102
{ACAD_REACTORS
330
F478
330
10C41
330
1867A
330
1870C
102
}
330
A
100
AcDbSymbolTableRecord
100
AcDbDimStyleTableRecord
  2
AM_JIS$0
 70
     0
  4
"
 41
2.5
 42
0.0
 43
10.0
 44
1.0
 47
0.1
 48
0.1000000001
 73
     0
 74
     0
 77
     3
 78
     1
 79
     2
140
3.8
141
0.0
143
0.0393701
146
0.71
147
1.5
172
     1
176
     3
177
     3
178
     2
271
     3
272
     3
275
     1
283
     0
284
     8
289
     0
340
11
341
59
342
59
371
    13
372
    13
  0
DIMSTYLE
105
1B98
102
{ACAD_REACTORS
330
1653F
330
185AE
330
186C0
102
}
330
A
100
AcDbSymbolTableRecord
100
AcDbDimStyleTableRecord
  2
AM_JIS$2
 70
     0
  4
"
 41
2.5
 42
0.0
 43
10.0
 44
1.0
 47
0.1
 48
0.1000000001
 73
     0
 74
     0
 77
     3
 78
     1
 79
     2
140
3.8
141
0.0
143
0.0393701
146
0.71
147
1.5
172
     1
176
     3
177
     3
178
     2
271
     3
272
     3
275
     1
283
     0
284
     8
289
     0
340
11
341
59
342
59
371
    13
372
    13
  0
ENDTAB
  0
TABLE
  2
BLOCK_RECORD
  5
1
330
0
100
AcDbSymbolTable
 70
    13
  0
BLOCK_RECORD
  5
1F
102
{ACAD_XDICTIONARY
360
165
102
}
330
1
100
AcDbSymbolTableRecord
100
AcDbBlockTableRecord
  2
*Model_Space
340
22
  0
BLOCK_RECORD
  5
1B
330
1
100
AcDbSymbolTableRecord
100
AcDbBlockTableRecord
  2
*Paper_Space
340
1E
  0
BLOCK_RECORD
  5
23
330
1
100
AcDbSymbolTableRecord
100
AcDbBlockTableRecord
  2
*Paper_Space0
340
26
  0
BLOCK_RECORD
  5
59
330
1
100
AcDbSymbolTableRecord
100
AcDbBlockTableRecord
  2
_Open30
340
0
102
{BLKREFS
331
1896C
331
1896D
331
18975
331
18976
331
18980
331
18981
331
18989
331
1898A
331
18996
331
18997
331
1899F
331
189A0
331
189AA
331
189AB
331
189B3
331
189B4
331
189BE
331
189BF
102
}
  0
BLOCK_RECORD
  5
64
330
1
100
AcDbSymbolTableRecord
100
AcDbBlockTableRecord
  2
GENAXEH
340
0
  0
BLOCK_RECORD
  5
F479
330
1
100
AcDbSymbolTableRecord
100
AcDbBlockTableRecord
  2
*D3
340
0
  0
BLOCK_RECORD
  5
10C42
330
1
100
AcDbSymbolTableRecord
100
AcDbBlockTableRecord
  2
*D4
340
0
  0
BLOCK_RECORD
  5
15FAF
330
1
100
AcDbSymbolTableRecord
100
AcDbBlockTableRecord
  2
*D5
340
0
  0
BLOCK_RECORD
  5
16540
330
1
100
AcDbSymbolTableRecord
100
AcDbBlockTableRecord
  2
*D6
340
0
  0
BLOCK_RECORD
  5
170CE
330
1
100
AcDbSymbolTableRecord
100
AcDbBlockTableRecord
  2
*D7
340
0
  0
BLOCK_RECORD
  5
17D97
330
1
100
AcDbSymbolTableRecord
100
AcDbBlockTableRecord
  2
*U8
340
0
  0
BLOCK_RECORD
  5
185AF
330
1
100
AcDbSymbolTableRecord
100
AcDbBlockTableRecord
  2
*D9
340
0
  0
BLOCK_RECORD
  5
1867B
330
1
100
AcDbSymbolTableRecord
100
AcDbBlockTableRecord
  2
*D10
340
0
  0
BLOCK_RECORD
  5
186C1
330
1
100
AcDbSymbolTableRecord
100
AcDbBlockTableRecord
  2
*D11
340
0
  0
BLOCK_RECORD
  5
1870D
330
1
100
AcDbSymbolTableRecord
100
AcDbBlockTableRecord
  2
*D12
340
0
  0
ENDTAB
  0
ENDSEC
  0
SECTION
  2
BLOCKS
  0
BLOCK
  5
20
330
1F
100
AcDbEntity
  8
0
100
AcDbBlockBegin
  2
*Model_Space
 70
     0
 71
     0
 10
0.0
 20
0.0
 30
0.0
  3
*Model_Space
  1

  0
ENDBLK
  5
21
330
1F
100
AcDbEntity
  8
0
100
AcDbBlockEnd
  0
BLOCK
  5
1C
330
1B
100
AcDbEntity
 67
     1
  8
0
100
AcDbBlockBegin
  2
*Paper_Space
 70
     0
 71
     0
 10
0.0
 20
0.0
 30
0.0
  3
*Paper_Space
  1

  0
ENDBLK
  5
1D
330
1B
100
AcDbEntity
 67
     1
  8
0
100
AcDbBlockEnd
  0
BLOCK
  5
24
330
23
100
AcDbEntity
  8
0
100
AcDbBlockBegin
  2
*Paper_Space0
 70
     0
 71
     0
 10
0.0
 20
0.0
 30
0.0
  3
*Paper_Space0
  1

  0
ENDBLK
  5
25
330
23
100
AcDbEntity
  8
0
100
AcDbBlockEnd
  0
BLOCK
  5
5D
330
59
100
AcDbEntity
  8
0
100
AcDbBlockBegin
  2
_Open30
 70
     0
 71
     0
 10
0.0
 20
0.0
 30
0.0
  3
_Open30
  1

  0
LINE
  5
5A
330
59
100
AcDbEntity
  8
0
 62
     0
370
    -2
100
AcDbLine
 10
-1.0
 20
0.26794919
 30
0.0
 11
0.0
 21
0.0
 31
0.0
  0
LINE
  5
5B
330
59
100
AcDbEntity
  8
0
 62
     0
370
    -2
100
AcDbLine
 10
0.0
 20
0.0
 30
0.0
 11
-1.0
 21
-0.26794919
 31
0.0
  0
LINE
  5
5C
330
59
100
AcDbEntity
  8
0
 62
     0
370
    -2
100
AcDbLine
 10
0.0
 20
0.0
 30
0.0
 11
-1.0
 21
0.0
 31
0.0
  0
ENDBLK
  5
5E
330
59
100
AcDbEntity
  8
0
100
AcDbBlockEnd
  0
BLOCK
  5
66
330
64
100
AcDbEntity
  8
0
100
AcDbBlockBegin
  2
GENAXEH
 70
     0
 71
     0
 10
0.0
 20
0.0
 30
0.0
  3
GENAXEH
  1

  0
LINE
  5
65
330
64
100
AcDbEntity
  8
0
100
AcDbLine
 10
-1.0
 20
0.0
 30
0.0
 11
1.0
 21
0.0
 31
0.0
  0
ENDBLK
  5
67
330
64
100
AcDbEntity
  8
0
100
AcDbBlockEnd
  0
BLOCK
  5
F484
330
F479
100
AcDbEntity
  8
0
100
AcDbBlockBegin
  2
*D3
 70
     1
 71
     0
 10
0.0
 20
0.0
 30
0.0
  3
*D3
  1

  0
LINE
  5
18969
330
F479
100
AcDbEntity
  8
AM_5
 62
     3
370
    13
100
AcDbLine
 10
92.25
 20
8.14110105645932
 30
0.0
 11
92.25
 21
-12.85668149288648
 31
0.0
  0
LINE
  5
1896A
330
F479
100
AcDbEntity
  8
AM_5
 62
     3
370
    13
100
AcDbLine
 10
110.25
 20
8.14110105645932
 30
0.0
 11
110.25
 21
-12.85668149288648
 31
0.0
  0
LINE
  5
1896B
330
F479
100
AcDbEntity
  8
AM_5
 62
     3
370
    13
100
AcDbLine
 10
94.75
 20
-11.85668149288648
 30
0.0
 11
107.75
 21
-11.85668149288648
 31
0.0
  0
INSERT
  5
1896C
330
F479
100
AcDbEntity
  8
AM_5
 62
     3
370
    13
100
AcDbBlockReference
  2
_Open30
 10
92.25
 20
-11.85668149288648
 30
0.0
 41
2.5
 42
2.5
 43
2.5
 50
180.0
  0
INSERT
  5
1896D
330
F479
100
AcDbEntity
  8
AM_5
 62
     3
370
    13
100
AcDbBlockReference
  2
_Open30
 10
110.25
 20
-11.85668149288648
 30
0.0
 41
2.5
 42
2.5
 43
2.5
  0
MTEXT
  5
1896E
330
F479
100
AcDbEntity
  8
AM_5
 62
     2
100
AcDbMText
 10
101.25
 20
-8.45668149288648
 30
0.0
 40
3.8
 41
0.0
 71
     5
 72
     1
  1
18
 73
     1
 44
1.0
  0
POINT
  5
1896F
330
F479
100
AcDbEntity
  8
Defpoints
 62
     0
100
AcDbPoint
 10
92.25
 20
8.14110105645932
 30
0.0
  0
POINT
  5
18970
330
F479
100
AcDbEntity
  8
Defpoints
 62
     0
100
AcDbPoint
 10
110.25
 20
8.14110105645932
 30
0.0
  0
POINT
  5
18971
330
F479
100
AcDbEntity
  8
Defpoints
 62
     0
100
AcDbPoint
 10
110.25
 20
-11.85668149288648
 30
0.0
  0
ENDBLK
  5
F485
330
F479
100
AcDbEntity
  8
0
100
AcDbBlockEnd
  0
BLOCK
  5
10C4C
330
10C42
100
AcDbEntity
  8
0
100
AcDbBlockBegin
  2
*D4
 70
     1
 71
     0
 10
0.0
 20
0.0
 30
0.0
  3
*D4
  1

  0
LINE
  5
18972
330
10C42
100
AcDbEntity
  8
AM_5
 62
     3
370
    13
100
AcDbLine
 10
18.0
 20
-92.32547380003817
 30
0.0
 11
18.0
 21
-107.6400624106934
 31
0.0
  0
LINE
  5
18973
330
10C42
100
AcDbEntity
  8
AM_5
 62
     3
370
    13
100
AcDbLine
 10
0.0
 20
-82.57547380003811
 30
0.0
 11
-0.0000000000000015
 21
-107.6400624106934
 31
0.0
  0
LINE
  5
18974
330
10C42
100
AcDbEntity
  8
AM_5
 62
     3
370
    13
100
AcDbLine
 10
15.5
 20
-106.6400624106934
 30
0.0
 11
2.499999999999999
 21
-106.6400624106934
 31
0.0
  0
INSERT
  5
18975
330
10C42
100
AcDbEntity
  8
AM_5
 62
     3
370
    13
100
AcDbBlockReference
  2
_Open30
 10
18.0
 20
-106.6400624106934
 30
0.0
 41
2.5
 42
2.5
 43
2.5
  0
INSERT
  5
18976
330
10C42
100
AcDbEntity
  8
AM_5
 62
     3
370
    13
100
AcDbBlockReference
  2
_Open30
 10
-0.0000000000000015
 20
-106.6400624106934
 30
0.0
 41
2.5
 42
2.5
 43
2.5
 50
180.0
  0
MTEXT
  5
18977
330
10C42
100
AcDbEntity
  8
AM_5
 62
     2
100
AcDbMText
 10
9.0
 20
-103.2400624106934
 30
0.0
 40
3.8
 41
0.0
 71
     5
 72
     1
  1
18
 73
     1
 44
1.0
  0
POINT
  5
18978
330
10C42
100
AcDbEntity
  8
Defpoints
 62
     0
100
AcDbPoint
 10
18.0
 20
-92.32547380003817
 30
0.0
  0
POINT
  5
18979
330
10C42
100
AcDbEntity
  8
Defpoints
 62
     0
100
AcDbPoint
 10
0.0
 20
-82.57547380003811
 30
0.0
  0
POINT
  5
1897A
330
10C42
100
AcDbEntity
  8
Defpoints
 62
     0
100
AcDbPoint
 10
-0.0000000000000015
 20
-106.6400624106934
 30
0.0
  0
ENDBLK
  5
10C4D
330
10C42
100
AcDbEntity
  8
0
100
AcDbBlockEnd
  0
BLOCK
  5
15FB8
330
15FAF
100
AcDbEntity
  8
0
100
AcDbBlockBegin
  2
*D5
 70
     1
 71
     0
 10
0.0
 20
0.0
 30
0.0
  3
*D5
  1

  0
LINE
  5
1897B
330
15FAF
100
AcDbEntity
  8
AM_5
100
AcDbLine
 10
118.5712857889525
 20
31.91419802471648
 30
0.0
 11
109.4682936629681
 21
31.91419802471647
 31
0.0
  0
LINE
  5
1897C
330
15FAF
100
AcDbEntity
  8
AM_5
100
AcDbLine
 10
109.4682936629681
 20
31.91419802471647
 30
0.0
 11
106.1228103851821
 21
24.01111284585738
 31
0.0
  0
LINE
  5
1897D
330
15FAF
100
AcDbEntity
  8
AM_5
100
AcDbLine
 10
96.37718961481789
 20
0.9888871541426809
 30
0.0
 11
95.40262753778148
 21
-1.313335415028782
 31
0.0
  0
MTEXT
  5
1897E
330
15FAF
100
AcDbEntity
  8
AM_5
 62
     2
100
AcDbMText
 10
114.7697897259603
 20
35.3145720404645
 30
0.0
 40
3.8
 41
0.0
 71
     5
 72
     1
  1
\U+220520
 73
     1
 44
1.0
  0
LINE
  5
1897F
330
15FAF
100
AcDbEntity
  8
AM_5
100
AcDbLine
 10
97.35175169185432
 20
3.29110972331415
 30
0.0
 11
105.1482483081457
 21
21.70889027668591
 31
0.0
  0
INSERT
  5
18980
330
15FAF
100
AcDbEntity
  8
AM_5
100
AcDbBlockReference
  2
_Open30
 10
97.35175169185432
 20
3.29110972331415
 30
0.0
 41
2.5
 42
2.5
 43
2.5
 50
67.05639969599412
  0
INSERT
  5
18981
330
15FAF
100
AcDbEntity
  8
AM_5
100
AcDbBlockReference
  2
_Open30
 10
105.1482483081457
 20
21.70889027668591
 30
0.0
 41
2.5
 42
2.5
 43
2.5
 50
247.0563996959941
  0
POINT
  5
18982
330
15FAF
100
AcDbEntity
  8
Defpoints
 62
     0
100
AcDbPoint
 10
105.1482483081457
 20
21.70889027668591
 30
0.0
  0
POINT
  5
18983
330
15FAF
100
AcDbEntity
  8
Defpoints
 62
     0
100
AcDbPoint
 10
97.35175169185432
 20
3.29110972331415
 30
0.0
  0
ENDBLK
  5
15FB9
330
15FAF
100
AcDbEntity
  8
0
100
AcDbBlockEnd
  0
BLOCK
  5
1654E
330
16540
100
AcDbEntity
  8
0
100
AcDbBlockBegin
  2
*D6
 70
     1
 71
     0
 10
0.0
 20
0.0
 30
0.0
  3
*D6
  1

  0
LINE
  5
18984
330
16540
100
AcDbEntity
  8
AM_5
 62
     3
370
    13
100
AcDbLine
 10
-3.889138696757303
 20
-82.23521825319185
 30
0.0
 11
-10.62454663867117
 21
-81.64594641405188
 31
0.0
  0
LINE
  5
18985
330
16540
100
AcDbEntity
  8
AM_5
 62
     3
370
    13
100
AcDbLine
 10
-1.773854710452499
 20
-82.57547380003813
 30
0.0
 11
-10.66513068080262
 21
-82.57547380003811
 31
0.0
  0
ARC
  5
18986
330
16540
100
AcDbEntity
  8
AM_5
 62
     3
370
    13
100
AcDbCircle
 10
0.0000000000000142
 20
-82.57547380003813
 30
0.0
 40
9.665130680802625
100
AcDbArc
 50
145.2762839503042
 51
160.138141975152
  0
ARC
  5
18987
330
16540
100
AcDbEntity
  8
AM_5
 62
     3
370
    13
100
AcDbCircle
 10
0.0000000000000142
 20
-82.57547380003813
 30
0.0
 40
9.665130680802625
100
AcDbArc
 50
194.8618580248477
 51
209.7237160496955
  0
ARC
  5
18988
330
16540
100
AcDbEntity
  8
AM_5
 62
     3
370
    13
100
AcDbCircle
 10
0.0000000000000142
 20
-82.57547380003813
 30
0.0
 40
9.665130680802625
100
AcDbArc
 50
174.9999999999997
 51
180.0
  0
INSERT
  5
18989
330
16540
100
AcDbEntity
  8
AM_5
 62
     3
370
    13
100
AcDbBlockReference
  2
_Open30
 10
-9.628351940579421
 20
-81.73310215679953
 30
0.0
 41
2.5
 42
2.5
 43
2.5
 50
257.5690709875758
  0
INSERT
  5
1898A
330
16540
100
AcDbEntity
  8
AM_5
 62
     3
370
    13
100
AcDbBlockReference
  2
_Open30
 10
-9.665130680802614
 20
-82.57547380003811
 30
0.0
 41
2.5
 42
2.5
 43
2.5
 50
97.43092901242389
  0
MTEXT
  5
1898B
330
16540
100
AcDbEntity
  8
AM_5
 62
     2
100
AcDbMText
 10
-7.597465979000796
 20
-84.0890873666018
 30
0.0
 40
3.8
 41
0.0
 71
     5
 72
     1
  1
5°
 73
     1
 44
1.0
  0
POINT
  5
1898C
330
16540
100
AcDbEntity
  8
Defpoints
 62
     0
100
AcDbPoint
 10
-9.648778809403183
 20
-82.01349643020544
 30
0.0
  0
POINT
  5
1898D
330
16540
100
AcDbEntity
  8
Defpoints
 62
     0
100
AcDbPoint
 10
-1.773854710452499
 20
-82.57547380003813
 30
0.0
  0
POINT
  5
1898E
330
16540
100
AcDbEntity
  8
Defpoints
 62
     0
100
AcDbPoint
 10
0.0
 20
-82.57547380003813
 30
0.0
  0
POINT
  5
1898F
330
16540
100
AcDbEntity
  8
Defpoints
 62
     0
100
AcDbPoint
 10
-3.889138696757303
 20
-82.23521825319185
 30
0.0
  0
POINT
  5
18990
330
16540
100
AcDbEntity
  8
Defpoints
 62
     0
100
AcDbPoint
 10
153.6686900870429
 20
-82.57547380003813
 30
0.0
  0
ENDBLK
  5
1654F
330
16540
100
AcDbEntity
  8
0
100
AcDbBlockEnd
  0
BLOCK
  5
170D4
330
170CE
100
AcDbEntity
  8
0
100
AcDbBlockBegin
  2
*D7
 70
     1
 71
     0
 10
0.0
 20
0.0
 30
0.0
  3
*D7
  1

  0
LINE
  5
18991
330
170CE
100
AcDbEntity
  8
AM_5
100
AcDbLine
 10
-111.3916316415053
 20
36.45171571534972
 30
0.0
 11
-87.52390563201621
 21
36.45171571534971
 31
0.0
  0
LINE
  5
18992
330
170CE
100
AcDbEntity
  8
AM_5
100
AcDbLine
 10
-87.52390563201621
 20
36.45171571534971
 30
0.0
 11
-80.81704695281185
 21
25.43686026021259
 31
0.0
  0
LINE
  5
18993
330
170CE
100
AcDbEntity
  8
AM_5
100
AcDbLine
 10
-65.21496546696081
 20
-0.1868602602125655
 30
0.0
 11
-63.91479200980655
 21
-2.322170303581338
 31
0.0
  0
MTEXT
  5
18994
330
170CE
100
AcDbEntity
  8
AM_5
 62
     2
100
AcDbMText
 10
-100.2077686367607
 20
43.01875639776441
 30
0.0
 40
3.8
 41
0.0
 71
     5
 72
     1
  1
最小加工径\P\U+220525
 73
     1
 44
1.0
  0
LINE
  5
18995
330
170CE
100
AcDbEntity
  8
AM_5
100
AcDbLine
 10
-66.51513892411506
 20
1.948449783156203
 30
0.0
 11
-79.51687349565759
 21
23.30155021684382
 31
0.0
  0
INSERT
  5
18996
330
170CE
100
AcDbEntity
  8
AM_5
100
AcDbBlockReference
  2
_Open30
 10
-66.51513892411506
 20
1.948449783156203
 30
0.0
 41
2.5
 42
2.5
 43
2.5
 50
121.336905677503
  0
INSERT
  5
18997
330
170CE
100
AcDbEntity
  8
AM_5
100
AcDbBlockReference
  2
_Open30
 10
-79.51687349565759
 20
23.30155021684382
 30
0.0
 41
2.5
 42
2.5
 43
2.5
 50
301.336905677503
  0
POINT
  5
18998
330
170CE
100
AcDbEntity
  8
Defpoints
 62
     0
100
AcDbPoint
 10
-79.51687349565759
 20
23.30155021684382
 30
0.0
  0
POINT
  5
18999
330
170CE
100
AcDbEntity
  8
Defpoints
 62
     0
100
AcDbPoint
 10
-66.51513892411506
 20
1.948449783156203
 30
0.0
  0
ENDBLK
  5
170D5
330
170CE
100
AcDbEntity
  8
0
100
AcDbBlockEnd
  0
BLOCK
  5
17D98
330
17D97
100
AcDbEntity
  8
0
100
AcDbBlockBegin
  2
*U8
 70
     1
 71
     0
 10
0.0
 20
0.0
 30
0.0
  3
*U8
  1

  0
ENDBLK
  5
17D99
330
17D97
100
AcDbEntity
  8
0
100
AcDbBlockEnd
  0
BLOCK
  5
1860A
330
185AF
100
AcDbEntity
  8
0
100
AcDbBlockBegin
  2
*D9
 70
     1
 71
     0
 10
0.0
 20
0.0
 30
0.0
  3
*D9
  1

  0
LINE
  5
1899A
330
185AF
100
AcDbEntity
  8
AM_5
 62
     3
370
    13
100
AcDbLine
 10
-73.01600620988666
 20
0.084974166706715
 30
0.0
 11
-73.96732244764993
 21
-19.80759531516536
 31
0.0
  0
LINE
  5
1899B
330
185AF
100
AcDbEntity
  8
AM_5
 62
     3
370
    13
100
AcDbLine
 10
-73.01600620988666
 20
-3.575659642478119
 30
0.0
 11
-73.01600620988666
 21
-19.83032957627798
 31
0.0
  0
ARC
  5
1899C
330
185AF
100
AcDbEntity
  8
AM_5
 62
     3
370
    13
100
AcDbCircle
 10
-73.01600620988666
 20
0.084974166706715
 30
0.0
 40
18.9153037429847
100
AcDbArc
 50
252.1056521360125
 51
259.6838498241211
  0
ARC
  5
1899D
330
185AF
100
AcDbEntity
  8
AM_5
 62
     3
370
    13
100
AcDbCircle
 10
-73.01600620988666
 20
0.084974166706715
 30
0.0
 40
18.9153037429847
100
AcDbArc
 50
277.5781976881086
 51
285.1563953762171
  0
ARC
  5
1899E
330
185AF
100
AcDbEntity
  8
AM_5
 62
     3
370
    13
100
AcDbCircle
 10
-73.01600620988666
 20
0.084974166706715
 30
0.0
 40
18.9153037429847
100
AcDbArc
 50
267.2620475122296
 51
270.0
  0
INSERT
  5
1899F
330
185AF
100
AcDbEntity
  8
AM_5
 62
     3
370
    13
100
AcDbBlockReference
  2
_Open30
 10
-73.91955434679441
 20
-18.80873686246014
 30
0.0
 41
2.5
 42
2.5
 43
2.5
 50
353.4729486681753
  0
INSERT
  5
189A0
330
185AF
100
AcDbEntity
  8
AM_5
 62
     3
370
    13
100
AcDbBlockReference
  2
_Open30
 10
-73.01600620988666
 20
-18.83032957627798
 30
0.0
 41
2.5
 42
2.5
 43
2.5
 50
183.7890988440543
  0
MTEXT
  5
189A1
330
185AF
100
AcDbEntity
  8
AM_5
 62
     2
100
AcDbMText
 10
-78.51549690812493
 20
-14.42296339509254
 30
0.0
 40
3.8
 41
0.0
 71
     5
 72
     1
  1
3°
 11
0.9350727386409732
 21
-0.3544558836448765
 31
0.0
 73
     1
 44
1.0
  0
POINT
  5
189A2
330
185AF
100
AcDbEntity
  8
Defpoints
 62
     0
100
AcDbPoint
 10
-73.31729083834198
 20
-18.82792997998708
 30
0.0
  0
POINT
  5
189A3
330
185AF
100
AcDbEntity
  8
Defpoints
 62
     0
100
AcDbPoint
 10
-72.99407369675146
 20
0.5435956262538753
 30
0.0
  0
POINT
  5
189A4
330
185AF
100
AcDbEntity
  8
Defpoints
 62
     0
100
AcDbPoint
 10
-73.01600620988666
 20
-3.575659642478119
 30
0.0
  0
POINT
  5
189A5
330
185AF
100
AcDbEntity
  8
Defpoints
 62
     0
100
AcDbPoint
 10
-73.01600620988666
 20
28.97866351642642
 30
0.0
  0
POINT
  5
189A6
330
185AF
100
AcDbEntity
  8
Defpoints
 62
     0
100
AcDbPoint
 10
-72.27318236811186
 20
15.61784777773522
 30
0.0
  0
ENDBLK
  5
1860B
330
185AF
100
AcDbEntity
  8
0
100
AcDbBlockEnd
  0
BLOCK
  5
18694
330
1867B
100
AcDbEntity
  8
0
100
AcDbBlockBegin
  2
*D10
 70
     1
 71
     0
 10
0.0
 20
0.0
 30
0.0
  3
*D10
  1

  0
LINE
  5
189A7
330
1867B
100
AcDbEntity
  8
AM_5
 62
     3
370
    13
100
AcDbLine
 10
-3.890171248788533
 20
0.0
 30
0.0
 11
-13.39020222827935
 21
0.0000000000000027
 31
0.0
  0
LINE
  5
189A8
330
1867B
100
AcDbEntity
  8
AM_5
 62
     3
370
    13
100
AcDbLine
 10
-2.165548451965833
 20
12.5
 30
0.0
 11
-13.39020222827935
 21
12.5
 31
0.0
  0
LINE
  5
189A9
330
1867B
100
AcDbEntity
  8
AM_5
 62
     3
370
    13
100
AcDbLine
 10
-12.39020222827935
 20
2.500000000000002
 30
0.0
 11
-12.39020222827935
 21
10.0
 31
0.0
  0
INSERT
  5
189AA
330
1867B
100
AcDbEntity
  8
AM_5
 62
     3
370
    13
100
AcDbBlockReference
  2
_Open30
 10
-12.39020222827935
 20
0.0000000000000024
 30
0.0
 41
2.5
 42
2.5
 43
2.5
 50
270.0
  0
INSERT
  5
189AB
330
1867B
100
AcDbEntity
  8
AM_5
 62
     3
370
    13
100
AcDbBlockReference
  2
_Open30
 10
-12.39020222827935
 20
12.5
 30
0.0
 41
2.5
 42
2.5
 43
2.5
 50
90.0
  0
MTEXT
  5
189AC
330
1867B
100
AcDbEntity
  8
AM_5
 62
     2
100
AcDbMText
 10
-15.79057624402739
 20
6.250000000000001
 30
0.0
 40
3.8
 41
0.0
 71
     5
 72
     1
  1
12.5
 11
6.123031769111886E-17
 21
1.0
 31
0.0
 73
     1
 44
1.0
  0
POINT
  5
189AD
330
1867B
100
AcDbEntity
  8
Defpoints
 62
     0
100
AcDbPoint
 10
-3.890171248788533
 20
0.0
 30
0.0
  0
POINT
  5
189AE
330
1867B
100
AcDbEntity
  8
Defpoints
 62
     0
100
AcDbPoint
 10
-2.165548451965833
 20
12.5
 30
0.0
  0
POINT
  5
189AF
330
1867B
100
AcDbEntity
  8
Defpoints
 62
     0
100
AcDbPoint
 10
-12.39020222827935
 20
12.5
 30
0.0
  0
ENDBLK
  5
18695
330
1867B
100
AcDbEntity
  8
0
100
AcDbBlockEnd
  0
BLOCK
  5
186EC
330
186C1
100
AcDbEntity
  8
0
100
AcDbBlockBegin
  2
*D11
 70
     1
 71
     0
 10
0.0
 20
0.0
 30
0.0
  3
*D11
  1

  0
LINE
  5
189B0
330
186C1
100
AcDbEntity
  8
AM_5
 62
     3
370
    13
100
AcDbLine
 10
0.790557108683176
 20
15.49284777773511
 30
0.0
 11
1.390372730899497
 21
26.93801165267925
 31
0.0
  0
LINE
  5
189B1
330
186C1
100
AcDbEntity
  8
AM_5
 62
     3
370
    13
100
AcDbLine
 10
-3.890171248788533
 20
-0.0000000000000002
 30
0.0
 11
-26.9963685632809
 21
0.0
 31
0.0
  0
ARC
  5
189B2
330
186C1
100
AcDbEntity
  8
AM_5
 62
     3
370
    13
100
AcDbCircle
 10
-0.0213886381181464
 20
-0.0000000000000003
 30
0.0
 40
25.97497992516275
100
AcDbArc
 50
92.51664692832212
 51
174.4833530716778
  0
INSERT
  5
189B3
330
186C1
100
AcDbEntity
  8
AM_5
 62
     3
370
    13
100
AcDbBlockReference
  2
_Open30
 10
1.338036774656551
 20
25.93938211792467
 30
0.0
 41
2.5
 42
2.5
 43
2.5
 50
359.758323464161
  0
INSERT
  5
189B4
330
186C1
100
AcDbEntity
  8
AM_5
 62
     3
370
    13
100
AcDbBlockReference
  2
_Open30
 10
-25.9963685632809
 20
-0.0000000000000018
 30
0.0
 41
2.5
 42
2.5
 43
2.5
 50
267.2416765358389
  0
MTEXT
  5
189B5
330
186C1
100
AcDbEntity
  8
AM_5
 62
     2
100
AcDbMText
 10
-20.24179048051608
 20
21.30785758671352
 30
0.0
 40
3.8
 41
0.0
 71
     5
 72
     1
  1
93°
 11
0.7253743710122885
 21
0.688354575693753
 31
0.0
 73
     1
 44
1.0
  0
POINT
  5
189B6
330
186C1
100
AcDbEntity
  8
Defpoints
 62
     0
100
AcDbPoint
 10
-12.21590305691642
 20
22.93454599948142
 30
0.0
  0
POINT
  5
189B7
330
186C1
100
AcDbEntity
  8
Defpoints
 62
     0
100
AcDbPoint
 10
0.0005490290714079
 20
0.4185956262537616
 30
0.0
  0
POINT
  5
189B8
330
186C1
100
AcDbEntity
  8
Defpoints
 62
     0
100
AcDbPoint
 10
-3.890171248788533
 20
-0.0000000000000002
 30
0.0
  0
POINT
  5
189B9
330
186C1
100
AcDbEntity
  8
Defpoints
 62
     0
100
AcDbPoint
 10
0.3966585726517451
 20
0.0
 30
0.0
  0
POINT
  5
189BA
330
186C1
100
AcDbEntity
  8
Defpoints
 62
     0
100
AcDbPoint
 10
0.790557108683176
 20
15.49284777773511
 30
0.0
  0
ENDBLK
  5
186ED
330
186C1
100
AcDbEntity
  8
0
100
AcDbBlockEnd
  0
BLOCK
  5
1873E
330
1870D
100
AcDbEntity
  8
0
100
AcDbBlockBegin
  2
*D12
 70
     1
 71
     0
 10
0.0
 20
0.0
 30
0.0
  3
*D12
  1

  0
LINE
  5
189BB
330
1870D
100
AcDbEntity
  8
AM_5
 62
     3
370
    13
100
AcDbLine
 10
0.0
 20
-3.278417165342205
 30
0.0
 11
-0.0000000000000023
 21
-40.71141706346947
 31
0.0
  0
LINE
  5
189BC
330
1870D
100
AcDbEntity
  8
AM_5
 62
     3
370
    13
100
AcDbLine
 10
250.0000000000001
 20
3.500000000000995
 30
0.0
 11
250.0000000000001
 21
-40.71141706346947
 31
0.0
  0
LINE
  5
189BD
330
1870D
100
AcDbEntity
  8
AM_5
 62
     3
370
    13
100
AcDbLine
 10
2.499999999999998
 20
-39.71141706346947
 30
0.0
 11
247.5000000000001
 21
-39.71141706346947
 31
0.0
  0
INSERT
  5
189BE
330
1870D
100
AcDbEntity
  8
AM_5
 62
     3
370
    13
100
AcDbBlockReference
  2
_Open30
 10
-0.0000000000000022
 20
-39.71141706346947
 30
0.0
 41
2.5
 42
2.5
 43
2.5
 50
180.0
  0
INSERT
  5
189BF
330
1870D
100
AcDbEntity
  8
AM_5
 62
     3
370
    13
100
AcDbBlockReference
  2
_Open30
 10
250.0000000000001
 20
-39.71141706346947
 30
0.0
 41
2.5
 42
2.5
 43
2.5
  0
MTEXT
  5
189C0
330
1870D
100
AcDbEntity
  8
AM_5
 62
     2
100
AcDbMText
 10
125.0
 20
-36.31104304772144
 30
0.0
 40
3.8
 41
0.0
 71
     5
 72
     1
  1
250
 73
     1
 44
1.0
  0
POINT
  5
189C1
330
1870D
100
AcDbEntity
  8
Defpoints
 62
     0
100
AcDbPoint
 10
0.0
 20
-3.278417165342205
 30
0.0
  0
POINT
  5
189C2
330
1870D
100
AcDbEntity
  8
Defpoints
 62
     0
100
AcDbPoint
 10
250.0000000000001
 20
3.500000000000995
 30
0.0
  0
POINT
  5
189C3
330
1870D
100
AcDbEntity
  8
Defpoints
 62
     0
100
AcDbPoint
 10
250.0000000000001
 20
-39.71141706346947
 30
0.0
  0
ENDBLK
  5
1873F
330
1870D
100
AcDbEntity
  8
0
100
AcDbBlockEnd
  0
ENDSEC
  0
SECTION
  2
ENTITIES
  0
LINE
  5
EF21
330
1F
100
AcDbEntity
  8
AM_7
100
AcDbLine
 10
259.6659721023578
 20
12.49999999999997
 30
0.0
 11
-2.165548451965833
 21
12.5
 31
0.0
1001
GENIUS_GENODEF_13
1002
{
1000
HIER
1070
     0
1002
}
1002
{
1000
MANEDIT
1070
     0
1002
}
1002
{
1000
NOSEL
1070
     0
1002
}
1002
{
1000
BEHIND
1070
     0
1002
}
1002
{
1000
REACTOR
1002
}
1001
GENIUS_GENOBJ-N-CEN_13
1002
{
1000
OWNER
1000
GEN
1002
}
  0
LINE
  5
EF96
330
1F
100
AcDbEntity
  8
AM_7
100
AcDbLine
 10
-1.773854710452497
 20
-82.57547380003811
 30
0.0
 11
259.6659721023578
 21
-82.57547380003817
 31
0.0
1001
GENIUS_GENODEF_13
1002
{
1000
HIER
1070
     0
1002
}
1002
{
1000
MANEDIT
1070
     0
1002
}
1002
{
1000
NOSEL
1070
     0
1002
}
1002
{
1000
BEHIND
1070
     0
1002
}
1002
{
1000
REACTOR
1002
}
1001
GENIUS_GENOBJ-N-CEN_13
1002
{
1000
OWNER
1000
GEN
1002
}
  0
DIMENSION
  5
F478
330
1F
100
AcDbEntity
  8
AM_5
100
AcDbDimension
  2
*D3
 10
110.25
 20
-11.85668149288648
 30
0.0
 11
101.25
 21
-11.85668149288648
 31
0.0
 70
   160
  1
<>
 71
     5
 42
18.0
  3
AM_JIS$0
100
AcDbAlignedDimension
 13
92.25
 23
8.14110105645932
 33
0.0
 14
110.25
 24
8.14110105645932
 34
0.0
100
AcDbRotatedDimension
1001
GENIUS_GENDTOL_13
1000

1000
h7
1000

1040
0.0
1001
ACAD
1000
DSTYLE
1002
{
1070
   271
1070
     0
1002
}
  0
DIMENSION
  5
10C41
330
1F
100
AcDbEntity
  8
AM_5
100
AcDbDimension
  2
*D4
 10
-0.0000000000000015
 20
-106.6400624106934
 30
0.0
 11
9.0
 21
-103.2400624106934
 31
0.0
 70
    32
  1
<>
 71
     5
 42
18.0
  3
AM_JIS$0
100
AcDbAlignedDimension
 13
18.0
 23
-92.32547380003817
 33
0.0
 14
0.0
 24
-82.57547380003811
 34
0.0
100
AcDbRotatedDimension
1001
ACAD
1000
DSTYLE
1002
{
1070
   271
1070
     0
1002
}
1001
GENIUS_GENDTOL_13
1000

1000
h7
1000

1040
0.0
  0
LINE
  5
15110
330
1F
100
AcDbEntity
  8
AM_0
100
AcDbLine
 10
35.5480553584664
 20
-73.57547380003817
 30
0.0
 11
103.25
 21
-73.5754738000382
 31
0.0
  0
LINE
  5
15111
330
1F
100
AcDbEntity
  8
AM_0
100
AcDbLine
 10
27.25
 20
-91.57547380003817
 30
0.0
 11
103.25
 21
-91.57547380003817
 31
0.0
  0
LINE
  5
15112
330
1F
100
AcDbEntity
  8
AM_0
100
AcDbLine
 10
28.53834841531091
 20
2.50000000000108
 30
0.0
 11
87.25
 21
2.50000000000108
 31
0.0
  0
LINE
  5
15113
330
1F
100
AcDbEntity
  8
AM_0
100
AcDbLine
 10
249.0000000000001
 20
16.85889894354168
 30
0.0
 11
115.25
 21
16.85889894354176
 31
0.0
  0
LINE
  5
15114
330
1F
100
AcDbEntity
  8
AM_0
100
AcDbLine
 10
64.96433089361653
 20
20.97823154371162
 30
0.0
 11
27.25
 21
20.97823154371162
 31
0.0
  0
LINE
  5
15115
330
1F
100
AcDbEntity
  8
AM_0
100
AcDbLine
 10
27.25
 20
22.28059287621358
 30
0.0
 11
64.96433089361653
 21
22.28059287621358
 31
0.0
  0
LINE
  5
15116
330
1F
100
AcDbEntity
  8
AM_0
100
AcDbLine
 10
35.5480553584664
 20
8.1411010564604
 30
0.0
 11
87.25
 21
8.1411010564604
 31
0.0
  0
LINE
  5
15117
330
1F
100
AcDbEntity
  8
AM_0
100
AcDbLine
 10
18.0
 20
-91.57547380003817
 30
0.0
 11
27.0
 21
-91.57547380003817
 31
0.0
  0
SPLINE
  5
15119
330
1F
100
AcDbEntity
  8
AM_0
100
AcDbSpline
210
0.0
220
0.0
230
1.0
 70
     8
 71
     3
 72
    30
 73
    26
 74
     0
 42
0.0000000001
 43
0.0000000001
 40
2.877346225713123
 40
2.877346225713123
 40
2.877346225713123
 40
2.877346225713123
 40
3.344276323597676
 40
3.344276323597676
 40
4.202964648417705
 40
4.202964648417705
 40
5.061652973237734
 40
5.061652973237734
 40
5.854663455515592
 40
5.854663455515592
 40
6.64767393779345
 40
6.64767393779345
 40
7.440684420071309
 40
7.440684420071309
 40
8.233694902349166
 40
8.233694902349166
 40
9.026705384627036
 40
9.026705384627036
 40
9.819715866904906
 40
9.819715866904906
 40
10.61272634918278
 40
10.61272634918278
 40
11.40573683146065
 40
11.40573683146065
 40
12.26146990789928
 40
12.26146990789928
 40
12.26146990789928
 40
12.26146990789928
 10
27.0
 20
-85.31278531233525
 30
0.0
 10
26.89992938920409
 20
-85.43373759801975
 30
0.0
 10
26.79492760735798
 20
-85.54779497716928
 30
0.0
 10
26.48892158915965
 20
-85.85025067385013
 30
0.0
 10
26.25400124290627
 20
-86.04554823738457
 30
0.0
 10
25.75119124867854
 20
-86.39117195969649
 30
0.0
 10
25.48343001075614
 20
-86.54180539383677
 30
0.0
 10
24.99616480037878
 20
-86.77450815144206
 30
0.0
 10
24.7442730095529
 20
-86.87622799459544
 30
0.0
 10
24.21732997574509
 20
-87.05154588923338
 30
0.0
 10
23.94228729677934
 20
-87.1251866202841
 30
0.0
 10
23.38387115096759
 20
-87.24135560273894
 30
0.0
 10
23.10034001643135
 20
-87.28394400135679
 30
0.0
 10
22.54057252673897
 20
-87.33912252215075
 30
0.0
 10
22.26433682742595
 20
-87.35171709367378
 30
0.0
 10
21.73566317257405
 20
-87.35171709367378
 30
0.0
 10
21.45942747326103
 20
-87.33912252215075
 30
0.0
 10
20.89965998356854
 20
-87.28394400135679
 30
0.0
 10
20.61612884903241
 20
-87.24135560273894
 30
0.0
 10
20.05771270322066
 20
-87.1251866202841
 30
0.0
 10
19.78267002425491
 20
-87.05154588923338
 30
0.0
 10
19.2557269904471
 20
-86.87622799459544
 30
0.0
 10
19.00383519962111
 20
-86.77450815144206
 30
0.0
 10
18.51744181267679
 20
-86.54222174967887
 30
0.0
 10
18.25064607892023
 20
-86.39221556908765
 30
0.0
 10
18.0
 20
-86.22014358695228
 30
0.0
  0
SPLINE
  5
1511A
330
1F
100
AcDbEntity
  8
AM_0
100
AcDbSpline
210
0.0
220
0.0
230
1.0
 70
     8
 71
     3
 72
    20
 73
    16
 74
     0
 42
0.0000000001
 43
0.0000000001
 40
1.567471271849996
 40
1.567471271849996
 40
1.567471271849996
 40
1.567471271849996
 40
1.872235261619792
 40
1.872235261619792
 40
3.744470523239584
 40
3.744470523239584
 40
5.616705784859375
 40
5.616705784859375
 40
7.488941046479168
 40
7.488941046479168
 40
8.828193470008468
 40
8.828193470008468
 40
10.16744589353777
 40
10.16744589353777
 40
12.48259940348828
 40
12.48259940348828
 40
12.48259940348828
 40
12.48259940348828
 10
28.10243507955568
 20
-80.57290885402458
 30
0.0
 10
28.00458649802545
 20
-80.57180510736137
 30
0.0
 10
27.90591606054625
 20
-80.5703673986221
 30
0.0
 10
27.19569060700883
 20
-80.55803592865422
 30
0.0
 10
26.55611046668844
 20
-80.53660956874452
 30
0.0
 10
25.25319973027786
 20
-80.49312346527606
 30
0.0
 10
24.58935385050131
 20
-80.4713108637163
 30
0.0
 10
23.27479367407284
 20
-80.44151980753017
 30
0.0
 10
22.62407842053995
 20
-80.43359062278901
 30
0.0
 10
21.55358252549024
 20
-80.43359062278901
 30
0.0
 10
21.09958383987703
 20
-80.43749782100568
 30
0.0
 10
20.18515764795484
 20
-80.45268794422557
 30
0.0
 10
19.72472993315159
 20
-80.4639737075469
 30
0.0
 10
18.47120845281097
 20
-80.50069999628974
 30
0.0
 10
17.68016606803519
 20
-80.530917514435
 30
0.0
 10
16.91262346223743
 20
-80.55211178333511
 30
0.0
  0
ELLIPSE
  5
1511B
330
1F
100
AcDbEntity
  8
AM_0
100
AcDbEllipse
 10
36.60625219299038
 20
-72.57547380003817
 30
0.0
 11
20.17634961866388
 21
7.73115161673008
 31
0.0
210
0.0
220
0.0
230
1.0
 40
0.1019275013800711
 41
1.956108699492101
 42
3.325135393625347
  0
LINE
  5
1511D
330
1F
100
AcDbEntity
  8
AM_0
100
AcDbLine
 10
1.892683787342548
 20
-94.32547380003817
 30
0.0
 11
11.0
 21
-94.32547380003817
 31
0.0
  0
LINE
  5
1511E
330
1F
100
AcDbEntity
  8
AM_0
100
AcDbLine
 10
1.405560359950187
 20
-81.86991268409437
 30
0.0
 11
9.343491307878253
 21
-82.83423131335499
 31
0.0
  0
ELLIPSE
  5
1511F
330
1F
100
AcDbEntity
  8
AM_0
100
AcDbEllipse
 10
7.405461795694464
 20
-82.57547380003817
 30
0.0
 11
134.3299792680871
 21
-11.73413691323788
 31
0.0
210
0.0
220
0.0
230
1.0
 40
0.0045436848795146
 41
4.688446030511672
 42
4.720447490547334
  0
ELLIPSE
  5
15120
330
1F
100
AcDbEntity
  8
AM_0
100
AcDbEllipse
 10
8.794892324064563
 20
-73.23470498583339
 30
0.0
 11
5.099530863997296
 21
8.781755296399011
 31
0.0
210
0.0
220
0.0
230
1.0
 40
0.8510526398884641
 41
3.545658060396749
 42
4.069256836015801
  0
ELLIPSE
  5
15121
330
1F
100
AcDbEntity
  8
AM_0
100
AcDbEllipse
 10
-0.5200423520993809
 20
-71.46049775460756
 30
0.0
 11
-16.57470470793477
 21
3.953774491787887
 31
0.0
210
0.0
220
0.0
230
0.9999999999999998
 40
0.5856806921897092
 41
1.790150513283045
 42
2.286247716965579
  0
ELLIPSE
  5
15122
330
1F
100
AcDbEntity
  8
AM_0
100
AcDbEllipse
 10
0.6880281094520342
 20
-82.57547380003817
 30
0.0
 11
1.208563311071084
 21
-11.74980008972621
 31
0.0
210
0.0
220
0.0
230
1.0
 40
0.0567126883775759
 41
5.123032435626291
 42
6.277352008187384
  0
SPLINE
  5
15123
330
1F
100
AcDbEntity
  8
AM_0
100
AcDbSpline
210
0.0
220
0.0
230
1.0
 70
    11
 71
     3
 72
    70
 73
    66
 74
     0
 42
0.0000000001
 43
0.0000000001
 40
0.0
 40
0.0
 40
0.0
 40
0.0
 40
0.3782469209932
 40
0.3782469209932
 40
0.7564938419864
 40
0.7564938419864
 40
1.1347407629796
 40
1.1347407629796
 40
1.5129876839728
 40
1.5129876839728
 40
1.906643073082657
 40
1.906643073082657
 40
2.300298462192514
 40
2.300298462192514
 40
2.69395385130237
 40
2.69395385130237
 40
3.087609240412228
 40
3.087609240412228
 40
3.506633937500788
 40
3.506633937500788
 40
3.925658634589349
 40
3.925658634589349
 40
4.34468333167791
 40
4.34468333167791
 40
4.763708028766471
 40
4.763708028766471
 40
5.162981507243623
 40
5.162981507243623
 40
5.562254985720776
 40
5.562254985720776
 40
5.961528464197929
 40
5.961528464197929
 40
6.360801942675082
 40
6.360801942675082
 40
6.734023059154611
 40
6.734023059154611
 40
7.10724417563414
 40
7.10724417563414
 40
7.480465292113669
 40
7.480465292113669
 40
7.853686408593198
 40
7.853686408593198
 40
8.276716181479628
 40
8.276716181479628
 40
8.699745954366058
 40
8.699745954366058
 40
9.122775727252488
 40
9.122775727252488
 40
9.54580550013892
 40
9.54580550013892
 40
9.950381751960247
 40
9.950381751960247
 40
10.35495800378157
 40
10.35495800378157
 40
10.7595342556029
 40
10.7595342556029
 40
11.16411050742423
 40
11.16411050742423
 40
11.54193573165804
 40
11.54193573165804
 40
11.91976095589186
 40
11.91976095589186
 40
12.29758618012568
 40
12.29758618012568
 40
12.67541140435949
 40
12.67541140435949
 40
12.67541140435949
 40
12.67541140435949
 10
4.114571570722774
 20
-94.1469850306955
 30
0.0
 10
3.988489263725114
 20
-94.1469850306955
 30
0.0
 10
3.858190740185137
 20
-94.14486416566231
 30
0.0
 10
3.599518766093297
 20
-94.13564475035921
 30
0.0
 10
3.471143449520014
 20
-94.12854420496782
 30
0.0
 10
3.225780119763499
 20
-94.10887104431291
 30
0.0
 10
3.108576336760962
 20
-94.09626456974732
 30
0.0
 10
2.892980012673434
 20
-94.0654460230742
 30
0.0
 10
2.794595970013802
 20
-94.04720730559401
 30
0.0
 10
2.618255192165748
 20
-94.00521801974449
 30
0.0
 10
2.535464193471171
 20
-93.97990435256949
 30
0.0
 10
2.392628979865776
 20
-93.92124442750472
 30
0.0
 10
2.332573857913985
 20
-93.88787662238454
 30
0.0
 10
2.239355832144952
 20
-93.81410722371638
 30
0.0
 10
2.206101117649951
 20
-93.77362666800482
 30
0.0
 10
2.166281465735665
 20
-93.6879986429781
 30
0.0
 10
2.159709917464852
 20
-93.64284788796547
 30
0.0
 10
2.169067772571452
 20
-93.54902951013511
 30
0.0
 10
2.186804295001593
 20
-93.49673423161354
 30
0.0
 10
2.249213792354112
 20
-93.38754611283295
 30
0.0
 10
2.293860477438784
 20
-93.33065614232251
 30
0.0
 10
2.407500199284414
 20
-93.21649833689244
 30
0.0
 10
2.476545841312827
 20
-93.15918044400738
 30
0.0
 10
2.633777454252936
 20
-93.04877595484956
 30
0.0
 10
2.721977933266544
 20
-92.99571079784417
 30
0.0
 10
2.90503386296723
 20
-92.90067649169006
 30
0.0
 10
3.005989506206333
 20
-92.85485929972336
 30
0.0
 10
3.226783146607204
 20
-92.77076765988991
 30
0.0
 10
3.346624514744235
 20
-92.73251848136638
 30
0.0
 10
3.598459281804253
 20
-92.66910867528807
 30
0.0
 10
3.730685106323108
 20
-92.64392895826697
 30
0.0
 10
3.999036031405694
 20
-92.61021871135498
 30
0.0
 10
4.135170581105513
 20
-92.6017205109404
 30
0.0
 10
4.392668779424298
 20
-92.6017205109404
 30
0.0
 10
4.520365160944721
 20
-92.60916727035701
 30
0.0
 10
4.771933295647386
 20
-92.63979576306153
 30
0.0
 10
4.895809726115886
 20
-92.66295898405505
 30
0.0
 10
5.130745288308845
 20
-92.72219966167191
 30
0.0
 10
5.24208193832078
 20
-92.75830757891575
 30
0.0
 10
5.44583930623628
 20
-92.8383847842222
 30
0.0
 10
5.538271314625717
 20
-92.88232349680007
 30
0.0
 10
5.711209154158041
 20
-92.97758962748625
 30
0.0
 10
5.795339730130536
 20
-93.03288583928006
 30
0.0
 10
5.941016041845614
 20
-93.14769929028196
 30
0.0
 10
6.002581975090948
 20
-93.20719234959037
 30
0.0
 10
6.099161636999838
 20
-93.32516288427658
 30
0.0
 10
6.134226065752841
 20
-93.38369928829232
 30
0.0
 10
6.176851449760193
 20
-93.49540207688327
 30
0.0
 10
6.184387138807551
 20
-93.54856715142742
 30
0.0
 10
6.17485741438577
 20
-93.64410862714382
 30
0.0
 10
6.158507641391338
 20
-93.69017492526021
 30
0.0
 10
6.099250168612343
 20
-93.77705733911952
 30
0.0
 10
6.056341317296756
 20
-93.81787936942212
 30
0.0
 10
5.94492893192546
 20
-93.89195779234407
 30
0.0
 10
5.876331169112973
 20
-93.92528609483284
 30
0.0
 10
5.718128690041226
 20
-93.98367667310063
 30
0.0
 10
5.628511172516028
 20
-94.00876011791715
 30
0.0
 10
5.443268442840804
 20
-94.0496763546
 30
0.0
 10
5.342502437388248
 20
-94.06729957994671
 30
0.0
 10
5.123360565600592
 20
-94.09720118055915
 30
0.0
 10
5.004989713362875
 20
-94.10950381902754
 30
0.0
 10
4.758143960624921
 20
-94.12876889289035
 30
0.0
 10
4.62947149287902
 20
-94.13576267511738
 30
0.0
 10
4.37065710443585
 20
-94.14486942145229
 30
0.0
 10
4.240513312133999
 20
-94.1469850306955
 30
0.0
 10
4.114571570722774
 20
-94.1469850306955
 30
0.0
  0
LINE
  5
15124
330
1F
100
AcDbEntity
  8
AM_0
100
AcDbLine
 10
0.2191631242923222
 20
-84.63658365843483
 30
0.0
 11
0.0000062085396166
 21
-82.5547094074266
 31
0.0
  0
ELLIPSE
  5
15125
330
1F
100
AcDbEntity
  8
AM_0
100
AcDbEllipse
 10
4.112851868683947
 20
-82.57547380003817
 30
0.0
 11
-1.026483845715639
 21
-11.74999913030526
 31
0.0
210
0.0
220
0.0
230
1.0
 40
0.0044041816606317
 41
1.129853032568423
 42
1.543155694395141
  0
LINE
  5
15126
330
1F
100
AcDbEntity
  8
AM_0
100
AcDbLine
 10
3.895968659665073
 20
-85.55359788699659
 30
0.0
 11
4.136386641034164
 21
-82.83937342512652
 31
0.0
  0
LINE
  5
15127
330
1F
100
AcDbEntity
  8
AM_0
100
AcDbLine
 10
0.5537898702554003
 20
-87.32848199373538
 30
0.0
 11
3.723681434055834
 21
-87.52054406822489
 31
0.0
  0
ELLIPSE
  5
15128
330
1F
100
AcDbEntity
  8
AM_0
100
AcDbEllipse
 10
-47.22025918435702
 20
-82.57547380003811
 30
0.0
 11
134.3299792680946
 21
-11.73413691323787
 31
0.0
210
0.0
220
0.0
230
1.0
 40
0.0045436848795143
 41
5.07801122003506
 42
5.101748692340596
  0
LINE
  5
15129
330
1F
100
AcDbEntity
  8
AM_0
100
AcDbLine
 10
0.2191631242903895
 20
-84.63658365847729
 30
0.0
 11
0.5537898702554003
 21
-87.32848199373532
 31
0.0
  0
LINE
  5
1512A
330
1F
100
AcDbEntity
  8
AM_0
100
AcDbLine
 10
3.721691783596725
 20
-87.54325924840461
 30
0.0
 11
3.721555332750313
 21
-87.59437632013859
 31
0.0
  0
LINE
  5
1512B
330
1F
100
AcDbEntity
  8
AM_0
100
AcDbLine
 10
3.721691783596725
 20
-87.54325924840461
 30
0.0
 11
3.895968659665186
 21
-85.55359788699659
 31
0.0
  0
ELLIPSE
  5
1512C
330
1F
100
AcDbEntity
  8
AM_0
100
AcDbEllipse
 10
5.133400650722251
 20
-82.62003355003813
 30
0.0
 11
-1.992371644171783
 21
0.1745142730558954
 31
0.0
210
0.0
220
0.0
230
1.0
 40
0.0521422139508189
 41
1.03384697608592
 42
7.317032283265505
  0
LINE
  5
1512D
330
1F
100
AcDbEntity
  8
AM_0
100
AcDbLine
 10
7.044396520499618
 20
-83.01556822512046
 30
0.0
 11
0.5793341448834326
 21
-82.62385347192665
 31
0.0
  0
LINE
  5
1512F
330
1F
100
AcDbEntity
  8
AM_0
100
AcDbLine
 10
0.0005490290714079
 20
-82.55354128690291
 30
0.0
 11
0.7905571086831742
 21
-81.83264995826332
 31
0.0
  0
ELLIPSE
  5
15130
330
1F
100
AcDbEntity
  8
AM_0
100
AcDbEllipse
 10
0.3984784847643823
 20
-82.5893995905212
 30
0.0
 11
-0.3984743288343568
 21
0.03490285461117693
 31
0.0
210
0.0
220
0.0
230
1.0
 40
0.0521422139508189
 41
6.235252378666367
 42
8.329647481059558
  0
ELLIPSE
  5
15131
330
1F
100
AcDbEntity
  8
AM_0
100
AcDbEllipse
 10
1.188486564376149
 20
-81.8685082618816
 30
0.0
 11
-0.3984743288343569
 21
0.03490285461117693
 31
0.0
210
0.0
220
0.0
230
1.0
 40
0.0521422139508189
 41
4.14085727627312
 42
6.235252378666441
  0
LINE
  5
15132
330
1F
100
AcDbEntity
  8
AM_0
100
AcDbLine
 10
0.8264400741052214
 20
-81.79571197780345
 30
0.0
 11
0.8292290760218748
 21
-81.82806896739513
 31
0.0
  0
ELLIPSE
  5
15133
330
1F
100
AcDbEntity
  8
AM_0
100
AcDbEllipse
 10
-0.0883793356533715
 20
-71.54271622117298
 30
0.0
 11
-0.7953992815922608
 21
10.32689670603333
 31
0.0
210
0.0
220
0.0
230
1.0
 40
0.1080762716301083
 41
3.253261860896616
 42
3.312523475750316
  0
LINE
  5
15134
330
1F
100
AcDbEntity
  8
AM_0
100
AcDbLine
 10
7.044396520476084
 20
-83.01556822511904
 30
0.0
 11
4.136386641034164
 21
-82.83937342512652
 31
0.0
  0
LINE
  5
15135
330
1F
100
AcDbEntity
  8
AM_0
100
AcDbLine
 10
4.136386641034164
 20
-82.83937342512652
 30
0.0
 11
4.136212182364147
 21
-82.90472894751437
 31
0.0
  0
LINE
  5
15137
330
1F
100
AcDbEntity
  8
AM_0
100
AcDbLine
 10
18.0
 20
-91.57547380003817
 30
0.0
 11
18.0
 21
-86.22014358695228
 31
0.0
  0
LINE
  5
15138
330
1F
100
AcDbEntity
  8
AM_0
100
AcDbLine
 10
16.47938398148551
 20
-93.84608981855266
 30
0.0
 11
16.47938398148551
 21
-88.5562521106053
 31
0.0
  0
LINE
  5
15139
330
1F
100
AcDbEntity
  8
AM_0
100
AcDbLine
 10
11.0
 20
-94.32547380003817
 30
0.0
 11
11.0
 21
-83.24184928517261
 31
0.0
  0
LINE
  5
1513A
330
1F
100
AcDbEntity
  8
AM_0
100
AcDbLine
 10
16.47938398148551
 20
-93.84608981855266
 30
0.0
 11
11.0
 21
-94.32547380003817
 31
0.0
  0
LINE
  5
1513B
330
1F
100
AcDbEntity
  8
AM_0
100
AcDbLine
 10
18.0
 20
-92.32547380003817
 30
0.0
 11
16.47938398148551
 21
-93.84608981855266
 31
0.0
  0
LINE
  5
1513C
330
1F
100
AcDbEntity
  8
AM_0
100
AcDbLine
 10
18.0
 20
-92.32547380003817
 30
0.0
 11
18.0
 21
-91.57547380003817
 31
0.0
  0
SPLINE
  5
1513D
330
1F
100
AcDbEntity
  8
AM_0
100
AcDbSpline
210
0.0
220
0.0
230
1.0
 70
     8
 71
     3
 72
    22
 73
    18
 74
     0
 42
0.0000000001
 43
0.0000000001
 40
17.84353245495487
 40
17.84353245495487
 40
17.84353245495487
 40
17.84353245495487
 40
18.34544607395179
 40
18.34544607395179
 40
18.94638506195381
 40
18.94638506195381
 40
19.54732404995582
 40
19.54732404995582
 40
20.14826303795783
 40
20.14826303795783
 40
21.41355367971055
 40
21.41355367971055
 40
22.67884432146326
 40
22.67884432146326
 40
23.94413496321598
 40
23.94413496321598
 40
24.96201038597011
 40
24.96201038597011
 40
24.96201038597011
 40
24.96201038597011
 10
16.47938398148551
 20
-88.5562521106053
 30
0.0
 10
16.33458403098848
 20
-88.48857782968057
 30
0.0
 10
16.18749712453848
 20
-88.41367469673068
 30
0.0
 10
15.86652974993558
 20
-88.23390200419161
 30
0.0
 10
15.69311538581633
 20
-88.12598523657923
 30
0.0
 10
15.35882493189638
 20
-87.89368036052733
 30
0.0
 10
15.19788601098776
 20
-87.76923294010666
 30
0.0
 10
14.89579371339937
 20
-87.51012034265338
 30
0.0
 10
14.7546325427852
 20
-87.37545143826074
 30
0.0
 10
14.35463021014721
 20
-86.95594750279699
 30
0.0
 10
14.10280809462745
 20
-86.63234981358303
 30
0.0
 10
13.66403906391133
 20
-85.921283757824
 30
0.0
 10
13.47694793167455
 20
-85.533825804543
 30
0.0
 10
13.17913808881144
 20
-84.7205180174378
 30
0.0
 10
13.06796699030303
 20
-84.29387968841721
 30
0.0
 10
12.93664437000939
 20
-83.51648159819987
 30
0.0
 10
12.90283506709636
 20
-83.16720420464074
 30
0.0
 10
12.89194869009532
 20
-82.82427928434797
 30
0.0
  0
ELLIPSE
  5
1513E
330
1F
100
AcDbEntity
  8
AM_0
100
AcDbEllipse
 10
22.0
 20
-82.79278367161342
 30
0.0
 11
14.89827635264008
 21
6.714415013322366
 31
0.0
210
0.0
220
0.0
230
1.0
 40
0.2597322373330211
 41
1.800291626097355
 42
2.037602158351003
  0
LINE
  5
1513F
330
1F
100
AcDbEntity
  8
AM_0
100
AcDbLine
 10
11.56737159877889
 20
-80.66663635355732
 30
0.0
 11
13.51307155415998
 21
-79.90264651660149
 31
0.0
  0
SPLINE
  5
15140
330
1F
100
AcDbEntity
  8
AM_0
100
AcDbSpline
210
0.0
220
0.0
230
1.0
 70
     8
 71
     3
 72
    10
 73
     6
 74
     0
 42
0.0000000001
 43
0.0000000001
 40
35.01940333495854
 40
35.01940333495854
 40
35.01940333495854
 40
35.01940333495854
 40
36.17288997340091
 40
36.17288997340091
 40
36.88282711634034
 40
36.88282711634034
 40
36.88282711634034
 40
36.88282711634034
 10
12.89194869009532
 20
-82.82427928434797
 30
0.0
 10
12.50850086662695
 20
-82.94495719706262
 30
0.0
 10
12.11813458982329
 20
-83.04424481169278
 30
0.0
 10
11.48421660552708
 20
-83.17008537261998
 30
0.0
 10
11.2419211736551
 20
-83.20994072169881
 30
0.0
 10
11.0
 20
-83.24184928517261
 30
0.0
  0
LINE
  5
15141
330
1F
100
AcDbEntity
  8
AM_0
100
AcDbLine
 10
10.69617591195367
 20
-82.4314683238737
 30
0.0
 11
11.56737159877878
 21
-80.66663635355721
 31
0.0
  0
LINE
  5
15142
330
1F
100
AcDbEntity
  8
AM_0
100
AcDbLine
 10
8.604425246743972
 20
-81.38119090253852
 30
0.0
 11
11.56737159877889
 21
-80.66663635355732
 31
0.0
  0
SPLINE
  5
15143
330
1F
100
AcDbEntity
  8
AM_0
100
AcDbSpline
210
0.0
220
0.0
230
1.0
 70
     8
 71
     3
 72
    12
 73
     8
 74
     0
 42
0.0000000001
 43
0.0000000001
 40
3.098669585242988
 40
3.098669585242988
 40
3.098669585242988
 40
3.098669585242988
 40
3.380446631232775
 40
3.380446631232775
 40
4.507262174977033
 40
4.507262174977033
 40
5.58917892296384
 40
5.58917892296384
 40
5.58917892296384
 40
5.58917892296384
 10
11.0
 20
-83.24184928517261
 30
0.0
 10
10.89943721998577
 20
-83.25373500115435
 30
0.0
 10
10.79911169598495
 20
-83.26434242605566
 30
0.0
 10
10.29962273842807
 20
-83.31108588158824
 30
0.0
 10
9.906532163074303
 20
-83.32814468094418
 30
0.0
 10
9.170288065830619
 20
-83.32814468094418
 30
0.0
 10
8.803831053787235
 20
-83.31260249691334
 30
0.0
 10
8.434635093504085
 20
-83.28036571570877
 30
0.0
  0
LINE
  5
15144
330
1F
100
AcDbEntity
  8
AM_0
100
AcDbLine
 10
12.91134199797193
 20
-81.3571160390928
 30
0.0
 11
11.71732219117428
 21
-81.97410158424211
 31
0.0
  0
LINE
  5
15145
330
1F
100
AcDbEntity
  8
AM_0
100
AcDbLine
 10
13.20332281431229
 20
-81.24246815844035
 30
0.0
 11
12.91134199797205
 21
-81.3571160390928
 31
0.0
  0
ELLIPSE
  5
15146
330
1F
100
AcDbEntity
  8
AM_0
100
AcDbEllipse
 10
13.35819718423613
 20
-80.57255733752098
 30
0.0
 11
2.070084788282625
 21
0.9242035608040927
 31
0.0
210
0.0
220
0.0
230
1.0
 40
0.2461302988843235
 41
4.528504995848362
 42
7.670097649438098
  0
SPLINE
  5
15147
330
1F
100
AcDbEntity
  8
AM_0
100
AcDbSpline
210
0.0
220
0.0
230
1.0
 70
     8
 71
     3
 72
     8
 73
     4
 74
     0
 42
0.0000000001
 43
0.0000000001
 40
14.00972427052398
 40
14.00972427052398
 40
14.00972427052398
 40
14.00972427052398
 40
15.10081580188752
 40
15.10081580188752
 40
15.10081580188752
 40
15.10081580188752
 10
12.89194869009532
 20
-82.82427928434797
 30
0.0
 10
13.17394827481621
 20
-82.68788285686313
 30
0.0
 10
13.45737677164345
 20
-82.53230962904175
 30
0.0
 10
13.73787151099589
 20
-82.35895379619043
 30
0.0
  0
SPLINE
  5
15148
330
1F
100
AcDbEntity
  8
AM_0
100
AcDbSpline
210
0.0
220
0.0
230
1.0
 70
     8
 71
     3
 72
    12
 73
     8
 74
     0
 42
0.0000000001
 43
0.0000000001
 40
7.093898952272268
 40
7.093898952272268
 40
7.093898952272268
 40
7.093898952272268
 40
7.098103581993235
 40
7.098103581993235
 40
8.946714516964821
 40
8.946714516964821
 40
9.783880404925897
 40
9.783880404925897
 40
9.783880404925897
 40
9.783880404925897
 10
18.0
 20
-86.22014358695228
 30
0.0
 10
17.99933907561945
 20
-86.22145791816715
 30
0.0
 10
17.99867788289998
 20
-86.22277212178497
 30
0.0
 10
17.70719546982605
 20
-86.80183278421433
 30
0.0
 10
17.36368954591217
 20
-87.35548746616681
 30
0.0
 10
16.82722340073474
 20
-88.10898221097077
 30
0.0
 10
16.65472413079556
 20
-88.33668431713201
 30
0.0
 10
16.47938398148551
 20
-88.5562521106053
 30
0.0
  0
SPLINE
  5
1514B
330
1F
100
AcDbEntity
  8
AM_0
100
AcDbSpline
210
0.0
220
0.0
230
1.0
 70
     8
 71
     3
 72
    32
 73
    28
 74
     0
 42
0.0000000001
 43
0.0000000001
 40
7.098739844651045
 40
7.098739844651045
 40
7.098739844651045
 40
7.098739844651045
 40
7.816367960476152
 40
7.816367960476152
 40
8.512569363407128
 40
8.512569363407128
 40
9.208770766338102
 40
9.208770766338102
 40
9.904972169269076
 40
9.904972169269076
 40
10.60117357220005
 40
10.60117357220005
 40
11.29737497513103
 40
11.29737497513103
 40
11.993576378062
 40
11.993576378062
 40
12.68977778099298
 40
12.68977778099298
 40
13.38597918392396
 40
13.38597918392396
 40
15.1049048861799
 40
15.1049048861799
 40
16.82383058843583
 40
16.82383058843583
 40
18.54275629069177
 40
18.54275629069177
 40
20.26168199294771
 40
20.26168199294771
 40
20.26168199294771
 40
20.26168199294771
 10
35.5480553584664
 20
-73.57547380003817
 30
0.0
 10
35.70167291746725
 20
-73.65603401466069
 30
0.0
 10
35.84376128832651
 20
-73.74491285389217
 30
0.0
 10
36.09846774936136
 20
-73.93812560421526
 30
0.0
 10
36.2170944671991
 20
-74.04619276163425
 30
0.0
 10
36.42681537974727
 20
-74.28698548492721
 30
0.0
 10
36.51789770600431
 20
-74.41975523633826
 30
0.0
 10
36.66411623199883
 20
-74.70527696731563
 30
0.0
 10
36.71932913756723
 20
-74.85822571644414
 30
0.0
 10
36.79152537368282
 20
-75.17573874753231
 30
0.0
 10
36.80850451134529
 20
-75.34030974381133
 30
0.0
 10
36.80850451134529
 20
-75.66850223253405
 30
0.0
 10
36.79152537368282
 20
-75.84474478435823
 30
0.0
 10
36.71932913756723
 20
-76.21128697548184
 30
0.0
 10
36.66411623199883
 20
-76.40158162437271
 30
0.0
 10
36.51789770600431
 20
-76.78399779470922
 30
0.0
 10
36.42681537974727
 20
-76.97632661558083
 30
0.0
 10
36.2170944671991
 20
-77.35045201076019
 30
0.0
 10
36.09846774936136
 20
-77.53222679789442
 30
0.0
 10
35.66337393518427
 20
-78.12371144738719
 30
0.0
 10
35.28016935634241
 20
-78.52171091238301
 30
0.0
 10
34.40222604330143
 20
-79.23297863176524
 30
0.0
 10
33.90725743377448
 20
-79.54591726584064
 30
0.0
 10
32.84699790450293
 20
-80.054741453422
 30
0.0
 10
32.28086652941238
 20
-80.25076868340622
 30
0.0
 10
31.12603216676712
 20
-80.50991659539417
 30
0.0
 10
30.53730613025846
 20
-80.57290885401918
 30
0.0
 10
29.96433089617312
 20
-80.57290885401918
 30
0.0
  0
LINE
  5
1514C
330
1F
100
AcDbEntity
  8
AM_0
100
AcDbLine
 10
27.0
 20
-91.57547380003817
 30
0.0
 11
27.0
 21
-85.31278531233525
 31
0.0
  0
LINE
  5
1514D
330
1F
100
AcDbEntity
  8
AM_0
100
AcDbLine
 10
27.25
 20
-91.57547380003817
 30
0.0
 11
27.25
 21
-85.84977347029289
 31
0.0
  0
SPLINE
  5
1514E
330
1F
100
AcDbEntity
  8
AM_0
100
AcDbSpline
210
0.0
220
0.0
230
1.0
 70
    28
 71
     2
 72
     6
 73
     3
 74
     0
 42
0.0000000001
 43
0.0000000001
 40
0.0
 40
0.0
 40
0.0
 40
0.6582629195149845
 40
0.6582629195149845
 40
0.6582629195149845
 10
27.0
 20
-91.57547380003817
 30
0.0
 41
1.0
 10
27.11561372345705
 20
-91.57547380003817
 30
0.0
 41
1.000475593576181
 10
27.25
 20
-91.57547380003817
 30
0.0
 41
1.0
  0
SPLINE
  5
1514F
330
1F
100
AcDbEntity
  8
AM_0
100
AcDbSpline
210
0.0
220
0.0
230
1.0
 70
     8
 71
     3
 72
    21
 73
    17
 74
     0
 42
0.0000000001
 43
0.0000000001
 40
-1.998789991098322
 40
-1.998789991098322
 40
-1.998789991098322
 40
-1.998789991098322
 40
-1.852669661612168
 40
-1.852669661612168
 40
-0.9263348308060841
 40
-0.9263348308060841
 40
0.0
 40
0.0
 40
0.0
 40
0.9263348308060841
 40
0.9263348308060841
 40
1.852669661612168
 40
1.852669661612168
 40
2.779004492418252
 40
2.779004492418252
 40
3.506630851208443
 40
3.506630851208443
 40
3.506630851208443
 40
3.506630851208443
 10
28.10243507955568
 20
-80.57290885402458
 30
0.0
 10
28.12358838928356
 20
-80.61899871632696
 30
0.0
 10
28.1440208321194
 20
-80.66546355919925
 30
0.0
 10
28.28854933137802
 20
-81.0089662633803
 30
0.0
 10
28.38347679089884
 20
-81.32003544954259
 30
0.0
 10
28.50837435378764
 20
-81.94889870932101
 30
0.0
 10
28.53834841531102
 20
-82.26669552310281
 30
0.0
 10
28.53834841531102
 20
-82.57547380003817
 30
0.0
 10
28.53834841531102
 20
-82.88425207697352
 30
0.0
 10
28.50837435378764
 20
-83.20204889075527
 30
0.0
 10
28.38347679089884
 20
-83.83091215053375
 30
0.0
 10
28.28854933137802
 20
-84.14198133669603
 30
0.0
 10
28.03887589445606
 20
-84.73538333827204
 30
0.0
 10
27.88384098105462
 20
-85.01831082625344
 30
0.0
 10
27.56608802558685
 20
-85.48373827441029
 30
0.0
 10
27.41222969649789
 20
-85.67485688984615
 30
0.0
 10
27.25
 20
-85.84977347029289
 30
0.0
  0
SPLINE
  5
15150
330
1F
100
AcDbEntity
  8
AM_0
100
AcDbSpline
210
0.0
220
0.0
230
1.0
 70
     8
 71
     3
 72
    10
 73
     6
 74
     0
 42
0.0000000001
 43
0.0000000001
 40
29.31329825431285
 40
29.31329825431285
 40
29.31329825431285
 40
29.31329825431285
 40
29.41366286313561
 40
29.41366286313561
 40
29.8817389282414
 40
29.8817389282414
 40
29.8817389282414
 40
29.8817389282414
 10
27.25
 20
-85.84977347029289
 30
0.0
 10
27.23425345739622
 20
-85.81866011314108
 30
0.0
 10
27.21868050286116
 20
-85.78745682900401
 30
0.0
 10
27.13149074781745
 20
-85.61023551253945
 30
0.0
 10
27.06355215211306
 20
-85.46233748739488
 30
0.0
 10
27.0
 20
-85.31278531233525
 30
0.0
  0
LINE
  5
15151
330
1F
100
AcDbEntity
  8
AM_0
100
AcDbLine
 10
29.96433089617312
 20
-80.57290885401918
 30
0.0
 11
28.10243507955568
 21
-80.57290885401918
 31
0.0
  0
LINE
  5
15152
330
1F
100
AcDbEntity
  8
AM_0
100
AcDbLine
 10
29.96433089617312
 20
-73.57547380003817
 30
0.0
 11
35.5480553584664
 21
-73.57547380003817
 31
0.0
  0
LINE
  5
15153
330
1F
100
AcDbEntity
  8
AM_0
100
AcDbLine
 10
28.29275852375508
 20
-73.57547380003817
 30
0.0
 11
29.96433089617312
 21
-73.57547380003817
 31
0.0
  0
LINE
  5
15185
330
1F
100
AcDbEntity
  8
AM_0
100
AcDbLine
 10
23.97085066358977
 20
16.25000000000108
 30
0.0
 11
28.29275852375508
 21
10.43725393319483
 31
0.0
  0
SPLINE
  5
15186
330
1F
100
AcDbEntity
  8
AM_0
100
AcDbSpline
210
0.0
220
0.0
230
1.0
 70
     8
 71
     3
 72
    20
 73
    16
 74
     0
 42
0.0000000001
 43
0.0000000001
 40
1.567471271849996
 40
1.567471271849996
 40
1.567471271849996
 40
1.567471271849996
 40
1.872235261619792
 40
1.872235261619792
 40
3.744470523239584
 40
3.744470523239584
 40
5.616705784859375
 40
5.616705784859375
 40
7.488941046479168
 40
7.488941046479168
 40
8.828193470008468
 40
8.828193470008468
 40
10.16744589353777
 40
10.16744589353777
 40
12.48259940348828
 40
12.48259940348828
 40
12.48259940348828
 40
12.48259940348828
 10
28.10243507955568
 20
2.702564946017731
 30
0.0
 10
28.00458649802545
 20
2.746141795955509
 30
0.0
 10
27.90591606054625
 20
2.788828213461159
 30
0.0
 10
27.19569060700883
 20
3.08700223303282
 30
0.0
 10
26.55611046668844
 20
3.307239488881407
 30
0.0
 10
25.25319973027786
 20
3.658510531577178
 30
0.0
 10
24.58935385050131
 20
3.789677215831318
 30
0.0
 10
23.27479367407284
 20
3.960421337088746
 30
0.0
 10
22.62407842053995
 20
4.00000000000108
 30
0.0
 10
21.55358252549024
 20
4.00000000000108
 30
0.0
 10
21.09958383987703
 20
3.979987354625052
 30
0.0
 10
20.18515764795484
 20
3.896882816332095
 30
0.0
 10
19.72472993315159
 20
3.833793736390192
 30
0.0
 10
18.47120845281097
 20
3.601368553170175
 30
0.0
 10
17.68016606803519
 20
3.387658961033026
 30
0.0
 10
16.91262346223743
 20
3.11093901776394
 30
0.0
  0
ELLIPSE
  5
15187
330
1F
100
AcDbEntity
  8
AM_0
100
AcDbEllipse
 10
36.60625219299038
 20
2.50000000000108
 30
0.0
 11
20.16588397126045
 21
-2.740370874912968
 31
0.0
210
0.0
220
0.0
230
1.0
 40
0.3727090479189315
 41
2.045750052882338
 42
3.414776747015587
  0
SPLINE
  5
15188
330
1F
100
AcDbEntity
  8
AM_0
100
AcDbSpline
210
0.0
220
0.0
230
1.0
 70
     8
 71
     3
 72
    38
 73
    34
 74
     0
 42
0.0000000001
 43
0.0000000001
 40
0.0
 40
0.0
 40
0.0
 40
0.0
 40
0.7146481072901161
 40
0.7146481072901161
 40
1.429296214580232
 40
1.429296214580232
 40
2.143944321870348
 40
2.143944321870348
 40
2.858592429160464
 40
2.858592429160464
 40
3.572630331560083
 40
3.572630331560083
 40
4.286668233959702
 40
4.286668233959702
 40
5.000706136359321
 40
5.000706136359321
 40
5.714744038758941
 40
5.714744038758941
 40
6.428781941158559
 40
6.428781941158559
 40
7.142819843558177
 40
7.142819843558177
 40
7.856857745957796
 40
7.856857745957796
 40
8.570895648357414
 40
8.570895648357414
 40
9.285543755647518
 40
9.285543755647518
 40
10.00019186293762
 40
10.00019186293762
 40
10.71483997022773
 40
10.71483997022773
 40
11.42948807751783
 40
11.42948807751783
 40
11.42948807751783
 40
11.42948807751783
 10
24.96433089361642
 20
20.71208911086001
 30
0.0
 10
24.72611485785308
 20
20.71208911086001
 30
0.0
 10
24.48066618806024
 20
20.72567055750113
 30
0.0
 10
23.9941196955856
 20
20.78094135082114
 30
0.0
 10
23.75301216411458
 20
20.82258048411779
 30
0.0
 10
23.29192206524226
 20
20.92776133418442
 30
0.0
 10
23.07152555304538
 20
20.99130490383868
 30
0.0
 10
22.66449525129849
 20
21.12989046533232
 30
0.0
 10
22.47785864075877
 20
21.20484572977858
 30
0.0
 10
22.14764332556297
 20
21.35409357648285
 30
0.0
 10
21.99236903038025
 20
21.43373897772852
 30
0.0
 10
21.71788767796636
 20
21.59269018400227
 30
0.0
 10
21.59865962284937
 20
21.67191956610009
 30
0.0
 10
21.4065267383462
 20
21.81995043359734
 30
0.0
 10
21.333469238156
 20
21.88882892117823
 30
0.0
 10
21.23735718066905
 20
22.00913680588536
 30
0.0
 10
21.21433089361642
 20
22.06054513169119
 30
0.0
 10
21.21433089361642
 20
22.1432060520491
 30
0.0
 10
21.23735718066905
 20
22.17701656832702
 30
0.0
 10
21.33346923815611
 20
22.22569619617406
 30
0.0
 10
21.4065267383462
 20
22.24058890684785
 30
0.0
 10
21.59865962284937
 20
22.25276528111948
 30
0.0
 10
21.71788767796636
 20
22.2501146718194
 30
0.0
 10
21.99236903038025
 20
22.23253594640227
 30
0.0
 10
22.14764332556297
 20
22.21768530951823
 30
0.0
 10
22.47785864075888
 20
22.18312003825696
 30
0.0
 10
22.6644952512986
 20
22.16209713522369
 30
0.0
 10
23.07152555304538
 20
22.11881700776974
 30
0.0
 10
23.29192206524226
 20
22.09665590284305
 30
0.0
 10
23.75301216411458
 20
22.05817374991727
 30
0.0
 10
23.9941196955856
 20
22.04190372521799
 30
0.0
 10
24.48066618806024
 20
22.0200222725328
 30
0.0
 10
24.72611485785308
 20
22.01445044336197
 30
0.0
 10
24.96433089361642
 20
22.01445044336197
 30
0.0
  0
LINE
  5
15189
330
1F
100
AcDbEntity
  8
AM_0
100
AcDbLine
 10
27.0
 20
16.25000000000108
 30
0.0
 11
23.97085066358977
 21
16.25000000000108
 31
0.0
  0
LINE
  5
1518C
330
1F
100
AcDbEntity
  8
AM_0
100
AcDbLine
 10
0.0005490290714079
 20
0.4185956262537616
 30
0.0
 11
0.7905571086831742
 21
15.49284777773511
 31
0.0
  0
LINE
  5
1518D
330
1F
100
AcDbEntity
  8
AM_0
100
AcDbLine
 10
1.405560359950187
 20
15.80967973665753
 30
0.0
 11
14.03031069860026
 21
7.646324689171934
 31
0.0
  0
ELLIPSE
  5
15190
330
1F
100
AcDbEntity
  8
AM_0
100
AcDbEllipse
 10
12.70334898759256
 20
8.091987056921539
 30
0.0
 11
-1.026951043869308
 21
-1.716208481943769
 31
0.0
210
0.0
220
0.0
230
1.0
 40
0.9948306801410283
 41
0.4890164221958254
 42
2.927074581750484
  0
ELLIPSE
  5
15191
330
1F
100
AcDbEntity
  8
AM_0
100
AcDbEllipse
 10
13.35819718423613
 20
7.700136622551554
 30
0.0
 11
2.082512190175606
 21
-0.01244529150754732
 31
0.0
210
0.0
220
0.0
230
1.0
 40
0.9461592452453377
 41
4.643606716229459
 42
7.785199369819194
  0
LINE
  5
15192
330
1F
100
AcDbEntity
  8
AM_0
100
AcDbLine
 10
13.99409256314539
 20
6.955241495980772
 30
0.0
 11
0.5793341448834326
 21
0.0443443919851347
 31
0.0
  0
ELLIPSE
  5
15193
330
1F
100
AcDbEntity
  8
AM_0
100
AcDbEllipse
 10
7.405461795694464
 20
12.50000000000108
 30
0.0
 11
134.3299789410825
 21
0.6197389920373821
 31
0.0
210
0.0
220
0.0
230
1.0
 40
0.0873494139778483
 41
4.687646134218486
 42
4.719647594254147
  0
ELLIPSE
  5
15194
330
1F
100
AcDbEntity
  8
AM_0
100
AcDbEllipse
 10
8.794892324064563
 20
1.127993834314793
 30
0.0
 11
8.962375597276481
 21
4.437115358953175
 31
0.0
210
0.0
220
0.0
230
1.0
 40
0.2794761917945776
 41
1.104407399306965
 42
1.628006174926018
  0
ELLIPSE
  5
15196
330
1F
100
AcDbEntity
  8
AM_0
100
AcDbEllipse
 10
0.3984784847643823
 20
0.3994558678050453
 30
0.0
 11
0.2053902087738617
 21
0.3432416963887541
 31
0.0
210
0.0
220
0.0
230
1.0
 40
0.9948306801410284
 41
2.059812748990713
 42
4.154207851383903
  0
LINE
  5
15197
330
1F
100
AcDbEntity
  8
AM_0
100
AcDbLine
 10
4.136369155039461
 20
1.876826363261898
 30
0.0
 11
4.136212182364147
 21
0.7546140528361889
 31
0.0
  0
ELLIPSE
  5
15198
330
1F
100
AcDbEntity
  8
AM_0
100
AcDbEllipse
 10
4.112851868683947
 20
12.50000000000108
 30
0.0
 11
-0.05254505448421661
 21
11.74999910341761
 31
0.0
210
0.0
220
0.0
230
1.0
 40
0.087356892679517
 41
2.740021960526251
 42
3.113176617424706
  0
ARC
  5
15199
330
1F
100
AcDbEntity
  8
AM_0
100
AcDbCircle
 10
21.99999999999997
 20
-10.99999999999892
 30
0.0
 40
15.0
100
AcDbArc
 50
109.8256097369217
 51
123.4225016690596
  0
SPLINE
  5
1519A
330
1F
100
AcDbEntity
  8
AM_0
100
AcDbSpline
210
0.0
220
0.0
230
1.0
 70
     8
 71
     3
 72
    10
 73
     6
 74
     0
 42
0.0000000001
 43
0.0000000001
 40
35.01940333495854
 40
35.01940333495854
 40
35.01940333495854
 40
35.01940333495854
 40
36.17288997340091
 40
36.17288997340091
 40
36.88282711634034
 40
36.88282711634034
 40
36.88282711634034
 40
36.88282711634034
 10
12.89194869009532
 20
0.9181962289525814
 30
0.0
 10
12.50850086662695
 20
0.8872336081149683
 30
0.0
 10
12.11813458982329
 20
0.8570068261978463
 30
0.0
 10
11.48421660552708
 20
0.807378397146465
 30
0.0
 10
11.2419211736551
 20
0.7882981692965245
 30
0.0
 10
11.0
 20
0.7689112307174923
 30
0.0
  0
SPLINE
  5
1519B
330
1F
100
AcDbEntity
  8
AM_0
100
AcDbSpline
210
0.0
220
0.0
230
1.0
 70
     8
 71
     3
 72
    12
 73
     8
 74
     0
 42
0.0000000001
 43
0.0000000001
 40
3.098669585242988
 40
3.098669585242988
 40
3.098669585242988
 40
3.098669585242988
 40
3.380446631232775
 40
3.380446631232775
 40
4.507262174977033
 40
4.507262174977033
 40
5.58917892296384
 40
5.58917892296384
 40
5.58917892296384
 40
5.58917892296384
 10
11.0
 20
0.7689112307174923
 30
0.0
 10
10.89943721998577
 20
0.7695863896826154
 30
0.0
 10
10.79911169598495
 20
0.7702068321610796
 30
0.0
 10
10.29962273842807
 20
0.7729893816380695
 30
0.0
 10
9.906532163074303
 20
0.7741317359860318
 30
0.0
 10
9.170288065830619
 20
0.7741317359860318
 30
0.0
 10
8.803831053787235
 20
0.7730999728062216
 30
0.0
 10
8.434635093504085
 20
0.7711625730767082
 30
0.0
  0
SPLINE
  5
1519C
330
1F
100
AcDbEntity
  8
AM_0
100
AcDbSpline
210
0.0
220
0.0
230
1.0
 70
     8
 71
     3
 72
     8
 73
     4
 74
     0
 42
0.0000000001
 43
0.0000000001
 40
14.00972427052398
 40
14.00972427052398
 40
14.00972427052398
 40
14.00972427052398
 40
15.10081580188752
 40
15.10081580188752
 40
15.10081580188752
 40
15.10081580188752
 10
12.89194869009532
 20
0.9181962289525814
 30
0.0
 10
13.17394827481621
 20
1.133704233491983
 30
0.0
 10
13.45737677164345
 20
1.334363846556073
 30
0.0
 10
13.73787151099589
 20
1.519474143557829
 30
0.0
  0
ELLIPSE
  5
1519D
330
1F
100
AcDbEntity
  8
AM_0
100
AcDbEllipse
 10
13.81323690302622
 20
7.310352971800739
 30
0.0
 11
0.2053902087738617
 21
0.3432416963887541
 31
0.0
210
0.0
220
0.0
230
1.0
 40
0.9948306801410284
 41
4.154207851384063
 42
6.24860295377709
  0
LINE
  5
1519E
330
1F
100
AcDbEntity
  8
AM_0
100
AcDbLine
 10
12.59879623632025
 20
6.097001718815022
 30
0.0
 11
12.35127122845563
 21
6.108907268386133
 31
0.0
  0
LINE
  5
1519F
330
1F
100
AcDbEntity
  8
AM_0
100
AcDbLine
 10
12.91134199797193
 20
5.756047753316409
 30
0.0
 11
11.94605361937602
 21
5.900150829115091
 31
0.0
  0
LINE
  5
151A0
330
1F
100
AcDbEntity
  8
AM_0
100
AcDbLine
 10
12.91134199797193
 20
5.756047753316409
 30
0.0
 11
11.71732219117428
 21
5.360459867920326
 31
0.0
  0
LINE
  5
151A1
330
1F
100
AcDbEntity
  8
AM_0
100
AcDbLine
 10
13.20332281431229
 20
5.735262916771148
 30
0.0
 11
12.91134199797205
 21
5.756047753316352
 31
0.0
  0
ELLIPSE
  5
151A2
330
1F
100
AcDbEntity
  8
AM_0
100
AcDbEllipse
 10
-0.5200423520993809
 20
19.41158512636406
 30
0.0
 11
-16.70038746771036
 21
11.07617518388717
 31
0.0
210
0.0
220
0.0
230
1.0
 40
0.0980786526237086
 41
1.716319024175659
 42
2.212393422829097
  0
ELLIPSE
  5
151A7
330
1F
100
AcDbEntity
  8
AM_0
100
AcDbEllipse
 10
1.188486564376149
 20
15.47370801928639
 30
0.0
 11
0.2053902087738617
 21
0.3432416963887541
 31
0.0
210
0.0
220
0.0
230
1.0
 40
0.9948306801410284
 41
6.248602953777051
 42
8.342998056170373
  0
LINE
  5
151A8
330
1F
100
AcDbEntity
  8
AM_0
100
AcDbLine
 10
0.8268204942150987
 20
16.18479439382992
 30
0.0
 11
0.9463096595627576
 21
15.78981396180325
 31
0.0
  0
LINE
  5
151AC
330
1F
100
AcDbEntity
  8
AM_0
100
AcDbLine
 10
11.56737159877889
 20
9.803516193359428
 30
0.0
 11
13.51307155415998
 21
9.665010328332073
 31
0.0
  0
LINE
  5
151AD
330
1F
100
AcDbEntity
  8
AM_0
100
AcDbLine
 10
10.43207403419945
 20
9.972999090522819
 30
0.0
 11
11.56737159877878
 21
9.803516193359428
 31
0.0
  0
LINE
  5
151AE
330
1F
100
AcDbEntity
  8
AM_0
100
AcDbLine
 10
8.604425246743972
 20
11.47053336224894
 30
0.0
 11
11.56737159877889
 21
9.803516193359428
 31
0.0
  0
ARC
  5
151B4
330
1F
100
AcDbEntity
  8
AM_0
100
AcDbCircle
 10
29.9643308961731
 20
2.50000000000108
 30
0.0
 40
7.937253933193771
100
AcDbArc
 50
45.29286941269879
 51
90.0
  0
SPLINE
  5
151B5
330
1F
100
AcDbEntity
  8
AM_0
100
AcDbSpline
210
0.0
220
0.0
230
1.0
 70
     8
 71
     3
 72
    32
 73
    28
 74
     0
 42
0.0000000001
 43
0.0000000001
 40
7.098739844651045
 40
7.098739844651045
 40
7.098739844651045
 40
7.098739844651045
 40
7.816367960476152
 40
7.816367960476152
 40
8.512569363407128
 40
8.512569363407128
 40
9.208770766338102
 40
9.208770766338102
 40
9.904972169269076
 40
9.904972169269076
 40
10.60117357220005
 40
10.60117357220005
 40
11.29737497513103
 40
11.29737497513103
 40
11.993576378062
 40
11.993576378062
 40
12.68977778099298
 40
12.68977778099298
 40
13.38597918392396
 40
13.38597918392396
 40
15.1049048861799
 40
15.1049048861799
 40
16.82383058843583
 40
16.82383058843583
 40
18.54275629069177
 40
18.54275629069177
 40
20.26168199294771
 40
20.26168199294771
 40
20.26168199294771
 40
20.26168199294771
 10
35.5480553584664
 20
8.1411010564604
 30
0.0
 10
35.70167291746725
 20
7.974765029634853
 30
0.0
 10
35.84376128832651
 20
7.803011567664271
 30
0.0
 10
36.09846774936136
 20
7.456752997857336
 30
0.0
 10
36.2170944671991
 20
7.274978210723077
 30
0.0
 10
36.42681537974727
 20
6.900852815543715
 30
0.0
 10
36.51789770600431
 20
6.708523994672134
 30
0.0
 10
36.66411623199883
 20
6.326107824335622
 30
0.0
 10
36.71932913756723
 20
6.135813175444753
 30
0.0
 10
36.79152537368282
 20
5.769270984321167
 30
0.0
 10
36.80850451134529
 20
5.593028432496965
 30
0.0
 10
36.80850451134529
 20
5.264835943774244
 30
0.0
 10
36.79152537368282
 20
5.100264947495191
 30
0.0
 10
36.71932913756723
 20
4.782751916407108
 30
0.0
 10
36.66411623199883
 20
4.629803167278567
 30
0.0
 10
36.51789770600431
 20
4.344281436301174
 30
0.0
 10
36.42681537974727
 20
4.211511684890127
 30
0.0
 10
36.2170944671991
 20
3.970718961597129
 30
0.0
 10
36.09846774936136
 20
3.862651804178199
 30
0.0
 10
35.66337393518427
 20
3.53260256968241
 30
0.0
 10
35.28016935634241
 20
3.350490766107953
 30
0.0
 10
34.40222604330143
 20
3.067384307769203
 30
0.0
 10
33.90725743377448
 20
2.966274547559863
 30
0.0
 10
32.84699790450293
 20
2.819296152035179
 30
0.0
 10
32.28086652941238
 20
2.773058777320387
 30
0.0
 10
31.12603216676712
 20
2.714750244978006
 30
0.0
 10
30.53730613025846
 20
2.702564946020118
 30
0.0
 10
29.96433089617312
 20
2.702564946020118
 30
0.0
  0
SPLINE
  5
151B6
330
1F
100
AcDbEntity
  8
AM_0
100
AcDbSpline
210
0.0
220
0.0
230
1.0
 70
     8
 71
     3
 72
    12
 73
     8
 74
     0
 42
0.0000000001
 43
0.0000000001
 40
-1.998789991098322
 40
-1.998789991098322
 40
-1.998789991098322
 40
-1.998789991098322
 40
-1.852669661612168
 40
-1.852669661612168
 40
-0.9263348308060841
 40
-0.9263348308060841
 40
0.0
 40
0.0
 40
0.0
 40
0.0
 10
28.10243507955374
 20
2.702564946018754
 30
0.0
 10
28.12358838928356
 20
2.693144322956243
 30
0.0
 10
28.1440208321194
 20
2.683986119134204
 30
0.0
 10
28.28854933137802
 20
2.618843111917556
 30
0.0
 10
28.38347679089884
 20
2.574093237441332
 30
0.0
 10
28.50837435378764
 20
2.514653024860309
 30
0.0
 10
28.53834841531102
 20
2.50000000000108
 30
0.0
 10
28.53834841531102
 20
2.50000000000108
 30
0.0
  0
LINE
  5
151B7
330
1F
100
AcDbEntity
  8
AM_0
100
AcDbLine
 10
29.96433089617312
 20
2.702564946020118
 30
0.0
 11
28.10243507955568
 21
2.702564946020118
 31
0.0
  0
LINE
  5
151B8
330
1F
100
AcDbEntity
  8
AM_0
100
AcDbLine
 10
27.25
 20
16.85889894354176
 30
0.0
 11
27.25
 21
20.97823154371162
 31
0.0
  0
LINE
  5
151B9
330
1F
100
AcDbEntity
  8
AM_0
100
AcDbLine
 10
27.0
 20
16.25000000000108
 30
0.0
 11
27.0
 21
20.71208911085995
 31
0.0
  0
LINE
  5
151BA
330
1F
100
AcDbEntity
  8
AM_0
100
AcDbLine
 10
28.29275852375508
 20
10.43725393319488
 30
0.0
 11
29.96433089617312
 21
10.43725393319488
 31
0.0
  0
SPLINE
  5
151BB
330
1F
100
AcDbEntity
  8
AM_0
100
AcDbSpline
210
0.0
220
0.0
230
1.0
 70
    12
 71
     2
 72
     6
 73
     3
 74
     0
 42
0.0000000001
 43
0.0000000001
 40
0.0
 40
0.0
 40
0.0
 40
0.6582629195149845
 40
0.6582629195149845
 40
0.6582629195149845
 10
27.25
 20
16.85889894354176
 30
0.0
 41
1.0
 10
27.11561372345705
 20
16.5505956809896
 30
0.0
 41
1.000475593576181
 10
27.0
 20
16.25000000000108
 30
0.0
 41
1.0
  0
SPLINE
  5
151BC
330
1F
100
AcDbEntity
  8
AM_0
100
AcDbSpline
210
0.0
220
0.0
230
1.0
 70
    12
 71
     2
 72
     6
 73
     3
 74
     0
 42
0.0000000001
 43
0.0000000001
 40
0.0
 40
0.0
 40
0.0
 40
0.3681495330393884
 40
0.3681495330393884
 40
0.3681495330393884
 10
27.25
 20
20.97823154371162
 30
0.0
 41
1.0
 10
27.12315103695824
 20
20.84347588151377
 30
0.0
 41
1.000093631493867
 10
27.0
 20
20.71208911086001
 30
0.0
 41
1.0
  0
SPLINE
  5
151BD
330
1F
100
AcDbEntity
  8
AM_0
100
AcDbSpline
210
0.0
220
0.0
230
1.0
 70
    12
 71
     2
 72
     6
 73
     3
 74
     0
 42
0.0000000001
 43
0.0000000001
 40
0.0
 40
0.0
 40
0.0
 40
0.3681495330393882
 40
0.3681495330393882
 40
0.3681495330393882
 10
27.0
 20
22.01445044336197
 30
0.0
 41
1.0
 10
27.12315103696164
 20
22.14583721401931
 30
0.0
 41
1.000093631577263
 10
27.25
 20
22.28059287621358
 30
0.0
 41
1.0
  0
LINE
  5
151BE
330
1F
100
AcDbEntity
  8
AM_0
100
AcDbLine
 10
24.96433089361642
 20
22.01445044336197
 30
0.0
 11
27.0
 21
22.01445044336197
 31
0.0
  0
LINE
  5
151BF
330
1F
100
AcDbEntity
  8
AM_0
100
AcDbLine
 10
27.0
 20
20.71208911086001
 30
0.0
 11
24.96433089361642
 21
20.71208911086001
 31
0.0
  0
LINE
  5
151C0
330
1F
100
AcDbEntity
  8
AM_0
100
AcDbLine
 10
68.28805336086543
 20
22.50000000000108
 30
0.0
 11
87.25
 21
22.50000000000108
 31
0.0
  0
SPLINE
  5
151C1
330
1F
100
AcDbEntity
  8
AM_0
100
AcDbSpline
210
0.0
220
0.0
230
1.0
 70
     8
 71
     3
 72
    38
 73
    34
 74
     0
 42
0.0000000001
 43
0.0000000001
 40
-11.42263456855353
 40
-11.42263456855353
 40
-11.42263456855353
 40
-11.42263456855353
 40
-10.70844645666123
 40
-10.70844645666123
 40
-9.994258344768932
 40
-9.994258344768932
 40
-9.280070232876636
 40
-9.280070232876636
 40
-8.565882120984339
 40
-8.565882120984339
 40
-7.852240911807431
 40
-7.852240911807431
 40
-7.138599702630526
 40
-7.138599702630526
 40
-6.424958493453616
 40
-6.424958493453616
 40
-5.71131728427671
 40
-5.71131728427671
 40
-4.997676075099804
 40
-4.997676075099804
 40
-4.284034865922894
 40
-4.284034865922894
 40
-3.570393656745985
 40
-3.570393656745985
 40
-2.856752447569079
 40
-2.856752447569079
 40
-2.142564335676809
 40
-2.142564335676809
 40
-1.428376223784539
 40
-1.428376223784539
 40
-0.7141881118922697
 40
-0.7141881118922697
 40
0.0
 40
0.0
 40
0.0
 40
0.0
 10
64.96433089361653
 20
22.28059287621358
 30
0.0
 10
65.20239359758057
 20
22.28059287621358
 30
0.0
 10
65.44773738888046
 20
22.28587793647074
 30
0.0
 10
65.93417107327332
 20
22.30662836811399
 30
0.0
 10
66.17527024853303
 20
22.3220565280235
 30
0.0
 10
66.63641347215025
 20
22.3584919273074
 30
0.0
 10
66.85686911771859
 20
22.37944963523546
 30
0.0
 10
67.26403172236655
 20
22.42022150207129
 30
0.0
 10
67.45074087415492
 20
22.43994192383082
 30
0.0
 10
67.78109523605667
 20
22.4720468701982
 30
0.0
 10
67.93641924491681
 20
22.48564768466605
 30
0.0
 10
68.21094552807836
 20
22.50091233953077
 30
0.0
 10
68.33016870502274
 20
22.50250016671799
 30
0.0
 10
68.52226006292176
 20
22.48857171706482
 30
0.0
 10
68.59528085650436
 20
22.47298928128902
 30
0.0
 10
68.69133022313088
 20
22.42340745490412
 30
0.0
 10
68.71433089361653
 20
22.38938502861703
 30
0.0
 10
68.71433089361653
 20
22.30677003162936
 30
0.0
 10
68.69133022313088
 20
22.255607590019
 30
0.0
 10
68.59528085650436
 20
22.13624245511903
 30
0.0
 10
68.52226006292165
 20
22.06806032452033
 30
0.0
 10
68.33016870502263
 20
21.92177051433617
 30
0.0
 10
68.21094552807836
 20
21.84358698527223
 30
0.0
 10
67.93641924491681
 20
21.6869050320642
 30
0.0
 10
67.78109523605667
 20
21.60848180062743
 30
0.0
 10
67.45074087415469
 20
21.46164598840295
 30
0.0
 10
67.26403172236655
 20
21.38797662262385
 30
0.0
 10
66.85686911771859
 20
21.25188163620544
 30
0.0
 10
66.63641347215014
 20
21.18954059827496
 30
0.0
 10
66.17527024853303
 20
21.08641796546885
 30
0.0
 10
65.93417107327321
 20
21.04563303184335
 30
0.0
 10
65.44773738888034
 20
20.99151601209093
 30
0.0
 10
65.20239359758057
 20
20.97823154371162
 30
0.0
 10
64.96433089361653
 20
20.97823154371162
 30
0.0
  0
LINE
  5
151C2
330
1F
100
AcDbEntity
  8
AM_0
100
AcDbLine
 10
250.0000000000001
 20
-91.57547380003823
 30
0.0
 11
250.0000000000001
 21
-73.57547380003823
 31
0.0
  0
LINE
  5
151C3
330
1F
100
AcDbEntity
  8
AM_0
100
AcDbLine
 10
249.0000000000001
 20
-91.57547380003828
 30
0.0
 11
249.0000000000001
 21
-73.57547380003823
 31
0.0
  0
SPLINE
  5
151C4
330
1F
100
AcDbEntity
  8
AM_0
100
AcDbSpline
210
0.0
220
0.0
230
1.0
 70
    28
 71
     2
 72
     6
 73
     3
 74
     0
 42
0.0000000001
 43
0.0000000001
 40
0.0
 40
0.0
 40
0.0
 40
4.496611670767369
 40
4.496611670767369
 40
4.496611670767369
 10
249.0000000000001
 20
-91.57547380003823
 30
0.0
 41
1.0
 10
249.9999999999999
 20
-91.57547380003828
 30
0.0
 41
1.027402333828149
 10
250.0000000000001
 20
-91.57547380003823
 30
0.0
 41
1.0
  0
SPLINE
  5
151C5
330
1F
100
AcDbEntity
  8
AM_0
100
AcDbSpline
210
0.0
220
0.0
230
1.0
 70
    28
 71
     2
 72
     6
 73
     3
 74
     0
 42
0.0000000001
 43
0.0000000001
 40
0.0
 40
0.0
 40
0.0
 40
4.496611670767331
 40
4.496611670767331
 40
4.496611670767331
 10
249.0000000000001
 20
-73.57547380003823
 30
0.0
 41
1.0
 10
249.9999999999993
 20
-73.57547380003817
 30
0.0
 41
1.027402333828092
 10
250.0000000000001
 20
-73.57547380003823
 30
0.0
 41
1.0
  0
LINE
  5
151C6
330
1F
100
AcDbEntity
  8
AM_0
100
AcDbLine
 10
250.0000000000001
 20
3.500000000000995
 30
0.0
 11
250.0000000000001
 21
12.500000000001
 31
0.0
  0
SPLINE
  5
151C7
330
1F
100
AcDbEntity
  8
AM_0
100
AcDbSpline
210
0.0
220
0.0
230
1.0
 70
    12
 71
     2
 72
     6
 73
     3
 74
     0
 42
0.0000000001
 43
0.0000000001
 40
0.0
 40
0.0
 40
0.0
 40
4.496611670767331
 40
4.496611670767331
 40
4.496611670767331
 10
249.0000000000001
 20
8.141101056460371
 30
0.0
 41
1.0
 10
249.9999999999994
 20
10.4352583951659
 30
0.0
 41
1.027402333828092
 10
250.0000000000001
 20
12.500000000001
 30
0.0
 41
1.0
  0
LINE
  5
151C8
330
1F
100
AcDbEntity
  8
AM_0
100
AcDbLine
 10
250.0000000000001
 20
3.500000000000995
 30
0.0
 11
249.0000000000001
 21
2.500000000000995
 31
0.0
  0
LINE
  5
151C9
330
1F
100
AcDbEntity
  8
AM_0
100
AcDbLine
 10
249.0000000000001
 20
2.500000000000995
 30
0.0
 11
249.0000000000001
 21
8.141101056460315
 31
0.0
  0
LINE
  5
151CA
330
1F
100
AcDbEntity
  8
AM_0
100
AcDbLine
 10
250.0000000000001
 20
12.500000000001
 30
0.0
 11
250.0000000000001
 21
21.500000000001
 31
0.0
  0
LINE
  5
151CB
330
1F
100
AcDbEntity
  8
AM_0
100
AcDbLine
 10
249.0000000000001
 20
16.85889894354168
 30
0.0
 11
249.0000000000001
 21
22.500000000001
 31
0.0
  0
SPLINE
  5
151CC
330
1F
100
AcDbEntity
  8
AM_0
100
AcDbSpline
210
0.0
220
0.0
230
1.0
 70
    12
 71
     2
 72
     6
 73
     3
 74
     0
 42
0.0000000001
 43
0.0000000001
 40
4.496611670767331
 40
4.496611670767331
 40
4.496611670767331
 40
8.993223341534662
 40
8.993223341534662
 40
8.993223341534662
 10
250.0000000000001
 20
12.500000000001
 30
0.0
 41
1.0
 10
249.9999999999994
 20
14.56474160483592
 30
0.0
 41
1.027402333828092
 10
249.0000000000001
 20
16.85889894354168
 30
0.0
 41
1.0
  0
LINE
  5
151CD
330
1F
100
AcDbEntity
  8
AM_0
100
AcDbLine
 10
250.0000000000001
 20
21.500000000001
 30
0.0
 11
249.0000000000001
 21
22.500000000001
 31
0.0
  0
LINE
  5
152CB
330
1F
100
AcDbEntity
  8
AM_7
  6
AM_ISO08W050x2
100
AcDbLine
 10
-0.0165993492777261
 20
7.727838952964021
 30
0.0
 11
10.28340065072234
 21
7.727838952964021
 31
0.0
1001
GENIUS_GENODEF_13
1002
{
1000
HIER
1070
     0
1002
}
1002
{
1000
MANEDIT
1070
     0
1002
}
1002
{
1000
NOSEL
1070
     0
1002
}
1002
{
1000
BEHIND
1070
     0
1002
}
1002
{
1000
REACTOR
1002
}
1001
GENIUS_GENOBJ-N-CEN_13
1002
{
1000
OWNER
1000
GEN
1002
}
  0
CIRCLE
  5
152CC
330
1F
100
AcDbEntity
  8
AM_0
100
AcDbCircle
 10
5.133400650722223
 20
7.727838952964021
 30
0.0
 40
1.706099999999583
  0
ARC
  5
152CD
330
1F
100
AcDbEntity
  8
AM_0
100
AcDbCircle
 10
6.117105799564428
 20
6.024011655502477
 30
0.0
 40
0.726
100
AcDbArc
 50
76.97221509006506
 51
163.0277849099374
  0
ARC
  5
152CE
330
1F
100
AcDbEntity
  8
AM_0
100
AcDbCircle
 10
6.117105799564428
 20
9.431666250425565
 30
0.0
 40
0.726
100
AcDbArc
 50
196.9722150900625
 51
283.0277849099353
  0
CIRCLE
  5
152CF
330
1F
100
AcDbEntity
  8
AM_0
100
AcDbCircle
 10
5.133400650722223
 20
7.727838952964021
 30
0.0
 40
2.8
  0
CIRCLE
  5
152D0
330
1F
100
AcDbEntity
  8
AM_0
100
AcDbCircle
 10
5.133400650722223
 20
7.727838952964021
 30
0.0
 40
2.35
  0
ARC
  5
152D1
330
1F
100
AcDbEntity
  8
AM_0
100
AcDbCircle
 10
4.149695501880132
 20
9.431666250425678
 30
0.0
 40
0.726
100
AcDbArc
 50
256.9722150900651
 51
343.0277849099375
  0
LINE
  5
152D2
330
1F
100
AcDbEntity
  8
AM_7
  6
AM_ISO08W050x2
100
AcDbLine
 10
5.133400650722251
 20
12.877838952964
 30
0.0
 11
5.133400650722251
 21
2.577838952964044
 31
0.0
1001
GENIUS_GENODEF_13
1002
{
1000
HIER
1070
     0
1002
}
1002
{
1000
MANEDIT
1070
     0
1002
}
1002
{
1000
NOSEL
1070
     0
1002
}
1002
{
1000
BEHIND
1070
     0
1002
}
1002
{
1000
REACTOR
1002
}
1001
GENIUS_GENOBJ-N-CEN_13
1002
{
1000
OWNER
1000
GEN
1002
}
  0
ARC
  5
152D4
330
1F
100
AcDbEntity
  8
AM_0
100
AcDbCircle
 10
3.917847393970732
 20
8.429638952963956
 30
0.0
 40
0.3024999999998347
100
AcDbArc
 50
76.97221509006819
 51
223.0277849099423
  0
ARC
  5
152D5
330
1F
100
AcDbEntity
  8
AM_0
100
AcDbCircle
 10
3.917847393970732
 20
7.0260389529642
 30
0.0
 40
0.3024999999998347
100
AcDbArc
 50
136.9722150900622
 51
283.0277849099385
  0
ARC
  5
152D6
330
1F
100
AcDbEntity
  8
AM_0
100
AcDbCircle
 10
5.133400650722223
 20
6.324238952964322
 30
0.0
 40
0.3024999999998347
100
AcDbArc
 50
196.9722150900666
 51
343.0277849099334
  0
ARC
  5
152D7
330
1F
100
AcDbEntity
  8
AM_0
100
AcDbCircle
 10
4.149695501880245
 20
6.024011655502363
 30
0.0
 40
0.726
100
AcDbArc
 50
16.97221509006248
 51
103.0277849099349
  0
ARC
  5
152D8
330
1F
100
AcDbEntity
  8
AM_0
100
AcDbCircle
 10
3.16599035303804
 20
7.727838952964021
 30
0.0
 40
0.726
100
AcDbArc
 50
316.9722150900647
 51
43.02778490993772
  0
ARC
  5
152D9
330
1F
100
AcDbEntity
  8
AM_0
100
AcDbCircle
 10
5.133400650722223
 20
9.131438952963777
 30
0.0
 40
0.3024999999998347
100
AcDbArc
 50
16.97221509006655
 51
163.0277849099334
  0
ARC
  5
152E3
330
1F
100
AcDbEntity
  8
AM_0
100
AcDbCircle
 10
6.348953907473941
 20
8.429638952963956
 30
0.0
 40
0.3024999999998347
100
AcDbArc
 50
316.9722150900669
 51
103.0277849099416
  0
ARC
  5
152E4
330
1F
100
AcDbEntity
  8
AM_0
100
AcDbCircle
 10
6.348953907473941
 20
7.0260389529642
 30
0.0
 40
0.3024999999998347
100
AcDbArc
 50
256.9722150900615
 51
43.02778490993772
  0
ARC
  5
152E5
330
1F
100
AcDbEntity
  8
AM_0
100
AcDbCircle
 10
7.100810948406405
 20
7.727838952964021
 30
0.0
 40
0.726
100
AcDbArc
 50
136.9722150900647
 51
223.0277849099353
  0
LINE
  5
159D5
330
1F
100
AcDbEntity
  8
AM_0
100
AcDbLine
 10
115.25
 20
2.50000000000108
 30
0.0
 11
249.0000000000001
 21
2.500000000001052
 31
0.0
  0
LINE
  5
159D6
330
1F
100
AcDbEntity
  8
AM_0
100
AcDbLine
 10
115.25
 20
8.1411010564604
 30
0.0
 11
249.0000000000001
 21
8.141101056460315
 31
0.0
  0
LINE
  5
159D7
330
1F
100
AcDbEntity
  8
AM_0
100
AcDbLine
 10
87.25
 20
16.85889894354176
 30
0.0
 11
27.25
 21
16.85889894354176
 31
0.0
  0
LINE
  5
159D8
330
1F
100
AcDbEntity
  8
AM_0
100
AcDbLine
 10
115.25
 20
22.50000000000108
 30
0.0
 11
249.0000000000001
 21
22.50000000000105
 31
0.0
  0
LINE
  5
159D9
330
1F
100
AcDbEntity
  8
AM_0
100
AcDbLine
 10
103.25
 20
-73.5754738000382
 30
0.0
 11
249.0000000000001
 21
-73.57547380003817
 31
0.0
  0
LINE
  5
159DA
330
1F
100
AcDbEntity
  8
AM_0
100
AcDbLine
 10
103.25
 20
-91.57547380003817
 30
0.0
 11
249.0000000000001
 21
-91.57547380003823
 31
0.0
  0
CIRCLE
  5
15AC1
330
1F
100
AcDbEntity
  8
AM_11
  6
ACJISTGB
100
AcDbCircle
 10
-73.01600620988666
 20
12.625
 30
0.0
 40
12.5
  0
LINE
  5
15AD4
330
1F
100
AcDbEntity
  8
AM_7
100
AcDbLine
 10
-57.40940589959189
 20
12.5
 30
0.0
 11
-88.7194054873097
 21
12.5
 31
0.0
1001
GENIUS_GENODEF_13
1002
{
1000
HIER
1070
     0
1002
}
1002
{
1000
MANEDIT
1070
     0
1002
}
1002
{
1000
NOSEL
1070
     0
1002
}
1002
{
1000
BEHIND
1070
     0
1002
}
1002
{
1000
REACTOR
1002
}
1001
GENIUS_GENOBJ-N-CEN_13
1002
{
1000
OWNER
1000
GEN
1002
}
  0
LINE
  5
15ADA
330
1F
100
AcDbEntity
  8
AM_7
100
AcDbLine
 10
-73.01600620988666
 20
-3.575659642478115
 30
0.0
 11
-73.01600620988666
 21
28.97866351642642
 31
0.0
1001
GENIUS_GENODEF_13
1002
{
1000
HIER
1070
     0
1002
}
1002
{
1000
MANEDIT
1070
     0
1002
}
1002
{
1000
NOSEL
1070
     0
1002
}
1002
{
1000
BEHIND
1070
     0
1002
}
1002
{
1000
REACTOR
1002
}
1001
GENIUS_GENOBJ-N-CEN_13
1002
{
1000
OWNER
1000
GEN
1002
}
  0
LINE
  5
15ADD
330
1F
100
AcDbEntity
  8
AM_5
100
AcDbLine
 10
0.0
 20
-3.278417165342205
 30
0.0
 11
0.0
 21
0.5226314918359662
 31
0.0
  0
LINE
  5
15ADE
330
1F
100
AcDbEntity
  8
AM_5
100
AcDbLine
 10
-3.890171248788533
 20
0.0
 30
0.0
 11
0.3966585726517451
 21
0.0
 31
0.0
  0
ARC
  5
15ED6
330
1F
100
AcDbEntity
  8
AM_0
100
AcDbCircle
 10
101.25
 20
12.5
 30
0.0
 40
10.0
100
AcDbArc
 50
205.8419327631672
 51
334.1580672368328
  0
LINE
  5
15F4D
330
1F
100
AcDbEntity
  8
AM_0
100
AcDbLine
 10
110.25
 20
16.85889894354068
 30
0.0
 11
110.25
 21
8.14110105645932
 31
0.0
  0
LINE
  5
15F4E
330
1F
100
AcDbEntity
  8
AM_0
100
AcDbLine
 10
92.25
 20
16.85889894354068
 30
0.0
 11
92.25
 21
8.14110105645932
 31
0.0
  0
ARC
  5
15F60
330
1F
100
AcDbEntity
  8
AM_0
100
AcDbCircle
 10
101.25
 20
12.5
 30
0.0
 40
10.0
100
AcDbArc
 50
25.84193276316717
 51
154.1580672368328
  0
LINE
  5
15F69
330
1F
100
AcDbEntity
  8
AM_7
  6
AM_ISO08W050x2
100
AcDbLine
 10
101.25
 20
25.5
 30
0.0
 11
101.25
 21
-0.5
 31
0.0
1001
GENIUS_GENODEF_13
1002
{
1000
HIER
1070
     0
1002
}
1002
{
1000
MANEDIT
1070
     0
1002
}
1002
{
1000
NOSEL
1070
     0
1002
}
1002
{
1000
BEHIND
1070
     0
1002
}
1002
{
1000
REACTOR
1002
}
1001
GENIUS_GENOBJ-N-CEN_13
1002
{
1000
OWNER
1000
GEN
1002
}
  0
DIMENSION
  5
15FAE
330
1F
100
AcDbEntity
  8
AM_5
100
AcDbDimension
  2
*D5
 10
97.35175169185432
 20
3.29110972331415
 30
0.0
 11
114.7697897259603
 21
31.91419802471646
 31
0.0
 70
   163
  1
<>
 71
     5
 42
20.00000000000003
  3
AM_JIS$3
100
AcDbDiametricDimension
 15
105.1482483081457
 25
21.70889027668591
 35
0.0
 40
0.0
1001
GENIUS_GENDTOL_13
1000

1000
h7
1000

1040
0.0
1001
ACAD
1000
DSTYLE
1002
{
1070
   271
1070
     0
1070
   289
1070
     3
1002
}
  0
LINE
  5
164C7
330
1F
100
AcDbEntity
  8
AM_11
  6
ACJISTGB
100
AcDbLine
 10
29.99999999827435
 20
-73.57547380003817
 30
0.0
 11
16.91262346223743
 21
-80.55211178333511
 31
0.0
  0
LINE
  5
16534
330
1F
100
AcDbEntity
  8
AM_5
100
AcDbLine
 10
0.0
 20
-82.57547380003811
 30
0.0
 11
-3.8891386967573
 21
-82.23521825319185
 31
0.0
  0
DIMENSION
  5
1653F
330
1F
100
AcDbEntity
  8
AM_5
100
AcDbDimension
  2
*D6
 10
153.6686900870429
 20
-82.57547380003811
 30
0.0
 11
-12.88977738927679
 21
-85.1434539634664
 31
0.0
 70
   162
  1
<>
 71
     5
 42
0.0872664625997217
  3
AM_JIS$2
100
AcDb2LineAngularDimension
 13
0.0
 23
-82.57547380003811
 33
0.0
 14
-3.8891386967573
 24
-82.23521825319185
 34
0.0
 15
-1.773854710452497
 25
-82.57547380003811
 35
0.0
 16
-9.648778809403183
 26
-82.01349643020544
 36
0.0
1001
GENIUS_GENDTOL_13
1000

1000
h7
1000

1040
0.0
1001
ACAD
1000
DSTYLE
1002
{
1070
   279
1070
     1
1002
}
  0
DIMENSION
  5
170CD
330
1F
100
AcDbEntity
  8
AM_5
100
AcDbDimension
  2
*D7
 10
-66.51513892411506
 20
1.948449783156203
 30
0.0
 11
-100.2077686367607
 21
36.45171571534971
 31
0.0
 70
   163
  1
最小加工径\P<>
 71
     5
 42
24.99999999999989
  3
AM_JIS$3
100
AcDbDiametricDimension
 15
-79.51687349565759
 25
23.30155021684382
 35
0.0
 40
0.0
1001
ACAD
1000
DSTYLE
1002
{
1070
   271
1070
     0
1070
   288
1070
     1
1070
   289
1070
     3
1070
   172
1070
     1
1070
    74
1070
     1
1002
}
1001
GENIUS_GENDTOL_13
1000

1000
h7
1000

1040
0.0
  0
LINE
  5
1789F
330
1F
100
AcDbEntity
  8
AM_0
100
AcDbLine
 10
23.97085066358989
 20
-73.57547380003817
 30
0.0
 11
28.29275852375531
 21
-73.57547380003817
 31
0.0
  0
ELLIPSE
  5
178A3
330
1F
100
AcDbEntity
  8
AM_0
100
AcDbEllipse
 10
26.09727288386955
 20
-71.07547380003817
 30
0.0
 11
20.17634961866388
 21
7.73115161673008
 31
0.0
210
0.0
220
0.0
230
1.0
 40
0.1019275013800711
 41
3.45149597529643
 42
4.258793984145514
  0
ELLIPSE
  5
178B5
330
1F
100
AcDbEntity
  8
AM_0
100
AcDbEllipse
 10
0.6011891577701363
 20
-71.67405771201433
 30
0.0
 11
-0.1544997617305708
 21
-10.03652515353205
 31
0.0
210
0.0
220
0.0
230
1.0
 40
0.8639227773954887
 41
0.0505808377477659
 42
0.4874164265765941
  0
LINE
  5
178BD
330
1F
100
AcDbEntity
  8
AM_0
100
AcDbLine
 10
7.122381689735903
 20
-79.06550833123831
 30
0.0
 11
4.525597075489259
 21
-80.60430016868443
 31
0.0
  0
ELLIPSE
  5
178D0
330
1F
100
AcDbEntity
  8
AM_0
100
AcDbEllipse
 10
19.06778988732663
 20
-73.73697967007615
 30
0.0
 11
6.85233501329305
 21
2.840974639933642
 31
0.0
210
0.0
220
0.0
230
1.0
 40
0.2738724925989959
 41
4.438629266902917
 42
5.317806208396814
  0
ELLIPSE
  5
178D1
330
1F
100
AcDbEntity
  8
AM_0
100
AcDbEllipse
 10
5.051363824177543
 20
-82.57547380003817
 30
0.0
 11
-24.58992609774661
 21
-9.422341032889781
 31
0.0
210
0.0
220
0.0
230
1.0
 40
0.1019275013800711
 41
3.796368314818711
 42
3.819162490729929
  0
LINE
  5
178DC
330
1F
100
AcDbEntity
  8
AM_0
100
AcDbLine
 10
-75.07711606832584
 20
0.5066623136779072
 30
0.0
 11
-77.76901440358392
 21
1.52990605655873
 31
0.0
  0
LINE
  5
178DD
330
1F
100
AcDbEntity
  8
AM_0
100
AcDbLine
 10
-77.76901440358392
 20
1.52990605655873
 30
0.0
 11
-77.11350538168506
 21
15.23697658315314
 31
0.0
  0
ARC
  5
178DE
330
1F
100
AcDbEntity
  8
AM_0
100
AcDbCircle
 10
-73.01600620988666
 20
12.5
 30
0.0
 40
10.0
100
AcDbArc
 50
102.0243128370406
 51
120.0855610093547
  0
LINE
  5
178DF
330
1F
100
AcDbEntity
  8
AM_0
100
AcDbLine
 10
-72.14502762588757
 20
17.49982063163105
 30
0.0
 11
-82.08500517844573
 21
18.10832410303078
 31
0.0
  0
ARC
  5
178E0
330
1F
100
AcDbEntity
  8
AM_0
100
AcDbCircle
 10
-73.01600620988666
 20
10.25
 30
0.0
 40
12.0
100
AcDbArc
 50
89.99999999999672
 51
139.0909388116448
  0
ARC
  5
178E1
330
1F
100
AcDbEntity
  8
AM_0
100
AcDbCircle
 10
-73.01600620988666
 20
12.5
 30
0.0
 40
11.75
100
AcDbArc
 50
179.0517996111519
 51
246.1954977501086
  0
LINE
  5
178E2
330
1F
100
AcDbEntity
  8
AM_0
100
AcDbLine
 10
-77.76901440358392
 20
1.52990605655873
 30
0.0
 11
-77.78132739924376
 21
1.759692091831653
 31
0.0
  0
ARC
  5
178E3
330
1F
100
AcDbEntity
  8
AM_0
100
AcDbCircle
 10
-73.01600620988666
 20
10.25
 30
0.0
 40
12.0
100
AcDbArc
 50
139.0909388116448
 51
168.2463743831295
  0
LINE
  5
178E4
330
1F
100
AcDbEntity
  8
AM_0
100
AcDbLine
 10
-72.99407369675146
 20
0.4185026977814346
 30
0.0
 11
-72.27318236811186
 21
15.49275484926278
 31
0.0
  0
ELLIPSE
  5
178E5
330
1F
100
AcDbEntity
  8
AM_0
100
AcDbEllipse
 10
-71.01308974736946
 20
7.825136622551668
 30
0.0
 11
-0.7254190729629135
 21
-1.949679448983115
 31
0.0
210
0.0
220
0.0
230
0.9999999999999999
 40
0.3931409405476686
 41
0.070147890801602
 42
3.211740544391336
  0
ARC
  5
178E6
330
1F
100
AcDbEntity
  8
AM_0
100
AcDbCircle
 10
-63.01600620988666
 20
2.5
 30
0.0
 40
8.0
100
AcDbArc
 50
97.18075578145833
 51
175.6202073960388
  0
LINE
  5
178E7
330
1F
100
AcDbEntity
  8
AM_0
100
AcDbLine
 10
-64.01600620988666
 20
10.4372539331938
 30
0.0
 11
-64.01600620988666
 21
8.141101056459377
 31
0.0
  0
SPLINE
  5
178E8
330
1F
100
AcDbEntity
  8
AM_0
100
AcDbSpline
210
0.0
220
0.0
230
1.0
 70
     8
 71
     3
 72
    32
 73
    28
 74
     0
 42
0.0000000001
 43
0.0000000001
 40
7.098739844651045
 40
7.098739844651045
 40
7.098739844651045
 40
7.098739844651045
 40
7.816367960476152
 40
7.816367960476152
 40
8.512569363407128
 40
8.512569363407128
 40
9.208770766338102
 40
9.208770766338102
 40
9.904972169269076
 40
9.904972169269076
 40
10.60117357220005
 40
10.60117357220005
 40
11.29737497513103
 40
11.29737497513103
 40
11.993576378062
 40
11.993576378062
 40
12.68977778099298
 40
12.68977778099298
 40
13.38597918392396
 40
13.38597918392396
 40
15.1049048861799
 40
15.1049048861799
 40
16.82383058843583
 40
16.82383058843583
 40
18.54275629069177
 40
18.54275629069177
 40
20.26168199294771
 40
20.26168199294771
 40
20.26168199294771
 40
20.26168199294771
 10
-64.01600620988666
 20
8.14110105645932
 30
0.0
 10
-64.09656642450921
 20
7.974765029633772
 30
0.0
 10
-64.18544526374069
 20
7.803011567663191
 30
0.0
 10
-64.37865801406383
 20
7.456752997856256
 30
0.0
 10
-64.4867251714827
 20
7.274978210721997
 30
0.0
 10
-64.7275178947757
 20
6.900852815542635
 30
0.0
 10
-64.86028764618675
 20
6.708523994671054
 30
0.0
 10
-65.14580937716414
 20
6.326107824334542
 30
0.0
 10
-65.29875812629268
 20
6.135813175443673
 30
0.0
 10
-65.61627115738077
 20
5.769270984320087
 30
0.0
 10
-65.78084215365982
 20
5.593028432495885
 30
0.0
 10
-66.10903464238254
 20
5.264835943773164
 30
0.0
 10
-66.28527719420674
 20
5.100264947494111
 30
0.0
 10
-66.65181938533033
 20
4.782751916406028
 30
0.0
 10
-66.84211403422114
 20
4.629803167277487
 30
0.0
 10
-67.22453020455771
 20
4.344281436300093
 30
0.0
 10
-67.4168590254294
 20
4.211511684889047
 30
0.0
 10
-67.79098442060877
 20
3.970718961596049
 30
0.0
 10
-67.97275920774291
 20
3.862651804177119
 30
0.0
 10
-68.56424385723562
 20
3.53260256968133
 30
0.0
 10
-68.96224332223153
 20
3.350490766106873
 30
0.0
 10
-69.67351104161378
 20
3.067384307768123
 30
0.0
 10
-69.98644967568907
 20
2.966274547558783
 30
0.0
 10
-70.49527386327054
 20
2.819296152034099
 30
0.0
 10
-70.69130109325477
 20
2.773058777319307
 30
0.0
 10
-70.95044900524272
 20
2.714750244976926
 30
0.0
 10
-71.01344126386766
 20
2.702564946019038
 30
0.0
 10
-71.01344126386766
 20
2.702564946019038
 30
0.0
  0
ELLIPSE
  5
178E9
330
1F
100
AcDbEntity
  8
AM_0
100
AcDbEllipse
 10
-73.23331608146191
 20
-10.99999999999997
 30
0.0
 11
-5.419260552370604
 21
-14.86339052510177
 31
0.0
210
0.0
220
0.0
230
1.0
 40
0.3727090479189315
 41
3.622678921619345
 42
3.859989453872992
  0
SPLINE
  5
178EA
330
1F
100
AcDbEntity
  8
AM_0
100
AcDbSpline
210
0.0
220
0.0
230
1.0
 70
     8
 71
     3
 72
    10
 73
     6
 74
     0
 42
0.0000000001
 43
0.0000000001
 40
1.567471271849996
 40
1.567471271849996
 40
1.567471271849996
 40
1.567471271849996
 40
1.872235261619792
 40
1.872235261619792
 40
2.594870387974002
 40
2.594870387974002
 40
2.594870387974002
 40
2.594870387974002
 10
-71.01344126386766
 20
2.702564946016764
 30
0.0
 10
-71.01233751720986
 20
2.746141795954429
 30
0.0
 10
-71.01089980847064
 20
2.788828213460079
 30
0.0
 10
-71.00508017332959
 20
2.929546554986132
 30
0.0
 10
-70.99937475029606
 20
3.023130576351036
 30
0.0
 10
-70.99264419318365
 20
3.11093901776286
 30
0.0
  0
LINE
  5
178EB
330
1F
100
AcDbEntity
  8
AM_0
100
AcDbLine
 10
-75.07711606866178
 20
0.5066623138055775
 30
0.0
 11
-73.05145731968048
 21
0.0
 31
0.0
  0
ELLIPSE
  5
178EC
330
1F
100
AcDbEntity
  8
AM_0
100
AcDbEllipse
 10
-73.02993200036974
 20
0.3993629393327183
 30
0.0
 11
0.02093652367972854
 21
0.3994517016814527
 31
0.0
210
0.0
220
0.0
230
0.9999999999999999
 40
0.0871384379848884
 41
3.124589163192717
 42
4.764889077538509
  0
SPLINE
  5
178ED
330
1F
100
AcDbEntity
  8
AM_0
100
AcDbSpline
210
0.0
220
0.0
230
1.0
 70
     8
 71
     3
 72
     8
 73
     4
 74
     0
 42
0.0000000001
 43
0.0000000001
 40
14.76186604351263
 40
14.76186604351263
 40
14.76186604351263
 40
14.76186604351263
 40
15.10081580188752
 40
15.10081580188752
 40
15.10081580188752
 40
15.10081580188752
 10
-72.95586842703108
 20
1.342489781864288
 30
0.0
 10
-72.90547677160055
 20
1.402963796843665
 30
0.0
 10
-72.85333954095063
 20
1.461969260934268
 30
0.0
 10
-72.79948620603886
 20
1.519474143556749
 30
0.0
  0
SPLINE
  5
178EE
330
1F
100
AcDbEntity
  8
AM_0
100
AcDbSpline
210
0.0
220
0.0
230
1.0
 70
     8
 71
     3
 72
    10
 73
     6
 74
     0
 42
0.0000000001
 43
0.0000000001
 40
-1.998789991098322
 40
-1.998789991098322
 40
-1.998789991098322
 40
-1.998789991098322
 40
-1.852669661612168
 40
-1.852669661612168
 40
-1.320591087044511
 40
-1.320591087044511
 40
-1.320591087044511
 40
-1.320591087044511
 10
-71.01344126387414
 20
2.702564946017674
 30
0.0
 10
-71.05953112617544
 20
2.693144322955163
 30
0.0
 10
-71.10599596904774
 20
2.683986119133124
 30
0.0
 10
-71.32322011616418
 20
2.642791001857518
 30
0.0
 10
-71.49838298703946
 20
2.61427143110501
 30
0.0
 10
-71.67617146239547
 20
2.590164337920896
 30
0.0
  0
LINE
  5
178EF
330
1F
100
AcDbEntity
  8
AM_0
100
AcDbLine
 10
-71.79764844894135
 20
5.881047753316523
 30
0.0
 11
-72.73551711175492
 21
5.950162473186651
 31
0.0
  0
LINE
  5
178F0
330
1F
100
AcDbEntity
  8
AM_0
100
AcDbLine
 10
-71.79764844894135
 20
5.881047753316523
 30
0.0
 11
-72.41463399409065
 21
5.48545986792044
 31
0.0
  0
LINE
  5
178F1
330
1F
100
AcDbEntity
  8
AM_0
100
AcDbLine
 10
-71.68300056828889
 20
5.860262916771262
 30
0.0
 11
-71.79764844894135
 21
5.881047753316466
 31
0.0
  0
ELLIPSE
  5
178F2
330
1F
100
AcDbEntity
  8
AM_0
100
AcDbEllipse
 10
-63.67523739568196
 20
1.252993834314907
 30
0.0
 11
9.711278461304238
 21
-3.055003079375967
 31
0.0
210
0.0
220
0.0
230
1.0
 40
0.4199082135933727
 41
2.804263278957242
 42
2.892482362356529
  0
ARC
  5
178F3
330
1F
100
AcDbEntity
  8
AM_0
100
AcDbCircle
 10
-73.01600620988666
 20
12.5
 30
0.0
 40
10.0
100
AcDbArc
 50
25.84193276316885
 51
57.97568716295753
  0
LINE
  5
178F4
330
1F
100
AcDbEntity
  8
AM_0
100
AcDbLine
 10
-69.50604074108674
 20
21.10081559370377
 30
0.0
 11
-71.04483257853292
 21
19.60156129764107
 31
0.0
  0
SPLINE
  5
178F5
330
1F
100
AcDbEntity
  8
AM_0
100
AcDbSpline
210
0.0
220
0.0
230
1.0
 70
     8
 71
     3
 72
    30
 73
    26
 74
     0
 42
0.0000000001
 43
0.0000000001
 40
0.9409244215429546
 40
0.9409244215429546
 40
0.9409244215429546
 40
0.9409244215429546
 40
2.530103484724979
 40
2.530103484724979
 40
4.119282547907003
 40
4.119282547907003
 40
5.708461611089026
 40
5.708461611089026
 40
7.297640674271051
 40
7.297640674271051
 40
7.922655058240657
 40
7.922655058240657
 40
8.547669442210264
 40
8.547669442210264
 40
9.17268382617987
 40
9.17268382617987
 40
9.797698210149475
 40
9.797698210149475
 40
10.42271259411908
 40
10.42271259411908
 40
11.04772697808869
 40
11.04772697808869
 40
11.67274136205829
 40
11.67274136205829
 40
12.21125399644816
 40
12.21125399644816
 40
12.21125399644816
 40
12.21125399644816
 10
-69.51538246691905
 20
21.59989743954139
 30
0.0
 10
-69.51538246691905
 20
21.59989743954139
 30
0.0
 10
-69.46202405199665
 20
21.57996659240723
 30
0.0
 10
-69.2420802552283
 20
21.49077668765881
 30
0.0
 10
-69.075621154077
 20
21.42147259713437
 30
0.0
 10
-68.6443862318431
 20
21.2182715143262
 30
0.0
 10
-68.3795874216471
 20
21.08410902921889
 30
0.0
 10
-67.78011182953753
 20
20.73217571805242
 30
0.0
 10
-67.44575618298154
 20
20.51442837642867
 30
0.0
 10
-66.95543425072117
 20
20.13952374917653
 30
0.0
 10
-66.80830627703551
 20
20.0210729591858
 30
0.0
 10
-66.50668000035751
 20
19.76159412405787
 30
0.0
 10
-66.35220334467931
 20
19.62052968420113
 30
0.0
 10
-66.04646960321225
 20
19.32156681684467
 30
0.0
 10
-65.89504974792567
 20
19.16346795370151
 30
0.0
 10
-65.60492883155848
 20
18.8392237854996
 30
0.0
 10
-65.46623295956124
 20
18.67307286885921
 30
0.0
 10
-65.20943194056417
 20
18.34493823347401
 30
0.0
 10
-65.08148316539553
 20
18.17037654540258
 30
0.0
 10
-64.83646630324324
 20
17.81083355216288
 30
0.0
 10
-64.71939152206062
 20
17.62585593537312
 30
0.0
 10
-64.5026672111926
 20
17.25723351363479
 30
0.0
 10
-64.40286223840553
 20
17.07338253934148
 30
0.0
 10
-64.23589099087371
 20
16.74281237729053
 30
0.0
 10
-64.16606924872167
 20
16.59446935692529
 30
0.0
 10
-64.10381495151864
 20
16.45415565883133
 30
0.0
  0
ARC
  5
178F6
330
1F
100
AcDbEntity
  8
AM_0
100
AcDbCircle
 10
-61.51600620988666
 20
21.5
 30
0.0
 40
8.0
100
AcDbArc
 50
182.8601354226104
 51
229.1149041389764
  0
LINE
  5
178F7
330
1F
100
AcDbEntity
  8
AM_0
100
AcDbLine
 10
-72.54021117286879
 20
10.03412194459014
 30
0.0
 11
-71.10716876340575
 21
9.928516193359542
 31
0.0
  0
LINE
  5
178F8
330
1F
100
AcDbEntity
  8
AM_0
100
AcDbLine
 10
-71.10716876340575
 20
9.928516193359542
 30
0.0
 11
-70.34317892645004
 21
9.790010328332187
 31
0.0
  0
LINE
  5
178F9
330
1F
100
AcDbEntity
  8
AM_0
100
AcDbLine
 10
-71.82172331238701
 20
11.59553336224906
 30
0.0
 11
-71.10716876340575
 21
9.928516193359542
 31
0.0
  0
ELLIPSE
  5
178FA
330
1F
100
AcDbEntity
  8
AM_0
100
AcDbEllipse
 10
-61.90103016445607
 20
19.53658512636417
 30
0.0
 11
-8.520714947729125
 21
-9.882372444273257
 31
0.0
210
0.0
220
0.0
230
1.0
 40
0.617716748044719
 41
5.732174088797875
 42
5.990191741918517
  0
LINE
  5
178FB
330
1F
100
AcDbEntity
  8
AM_0
100
AcDbLine
 10
-74.35622473964634
 20
15.58091446534002
 30
0.0
 11
-72.26909709618917
 21
15.87580966756741
 31
0.0
  0
LINE
  5
178FC
330
1F
100
AcDbEntity
  8
AM_0
100
AcDbLine
 10
-72.25684531515981
 20
16.17907629081066
 30
0.0
 11
-75.07828633938061
 21
15.37518239070414
 31
0.0
  0
LINE
  5
178FD
330
1F
100
AcDbEntity
  8
AM_0
100
AcDbLine
 10
-74.35622473967533
 20
15.58091446538572
 30
0.0
 11
-77.13491926201289
 21
14.78920003379187
 31
0.0
  0
LINE
  5
178FE
330
1F
100
AcDbEntity
  8
AM_0
100
AcDbLine
 10
-77.11350538168506
 20
15.23697658315314
 30
0.0
 11
-75.07828633938061
 21
15.37518239070414
 31
0.0
  0
ELLIPSE
  5
178FF
330
1F
100
AcDbEntity
  8
AM_0
100
AcDbEllipse
 10
-72.30904067173015
 20
15.59870801928651
 30
0.0
 11
0.01476893961323113
 21
0.4035596697852421
 31
0.0
210
0.0
220
0.0
230
1.0
 40
0.1018040561352757
 41
4.450456223718073
 42
5.472970150147293
  0
ELLIPSE
  5
17900
330
1F
100
AcDbEntity
  8
AM_0
100
AcDbEllipse
 10
-61.90103016445607
 20
19.53658512636417
 30
0.0
 11
10.2762581326599
 21
4.081976802045817
 31
0.0
210
0.0
220
0.0
230
1.0
 40
0.3419912993270286
 41
2.923885942293746
 42
3.028874522869892
  0
ELLIPSE
  5
17901
330
1F
100
AcDbEntity
  8
AM_0
100
AcDbEllipse
 10
-61.98324863102152
 20
18.68930595125755
 30
0.0
 11
3.21098451727959
 21
20.09781639347461
 31
0.0
210
0.0
220
0.0
230
1.0
 40
0.4883806202686292
 41
1.707705811514938
 42
1.766967426368635
  0
ELLIPSE
  5
17902
330
1F
100
AcDbEntity
  8
AM_0
100
AcDbEllipse
 10
-62.11459012186288
 20
17.33580332993603
 30
0.0
 11
-10.03740142158361
 21
-0.03011585319889473
 31
0.0
210
0.0
220
0.0
230
1.0
 40
0.4988126486250566
 41
5.807570489967256
 42
6.244406078796084
  0
LINE
  5
17903
330
1F
100
AcDbEntity
  8
AM_0
100
AcDbLine
 10
-64.01600620988666
 20
16.25
 30
0.0
 11
-64.01600620988666
 21
10.43725393319375
 31
0.0
  0
ELLIPSE
  5
17904
330
1F
100
AcDbEntity
  8
AM_0
100
AcDbEllipse
 10
-64.17751207992467
 20
22.32044665850265
 30
0.0
 11
2.185209496291631
 21
7.088758106781806
 31
0.0
210
0.0
220
0.0
230
1.0
 40
0.3683445611680206
 41
2.980896088661455
 42
3.86007303015535
  0
SPLINE
  5
17905
330
1F
100
AcDbEntity
  8
AM_0
100
AcDbSpline
210
0.0
220
0.0
230
1.0
 70
    28
 71
     2
 72
     6
 73
     3
 74
     0
 42
0.0000000001
 43
0.0000000001
 40
0.0
 40
0.0
 40
0.0
 40
0.6582629195149845
 40
0.6582629195149845
 40
0.6582629195149845
 10
-64.01600620988666
 20
16.85889894354068
 30
0.0
 41
1.0
 10
-64.01600620988666
 20
16.55059568098852
 30
0.0
 41
1.000475593576181
 10
-64.01600620988666
 20
16.25
 30
0.0
 41
1.0
  0
ARC
  5
17906
330
1F
100
AcDbEntity
  8
AM_0
100
AcDbCircle
 10
-73.01600620988666
 20
12.5
 30
0.0
 40
9.75
100
AcDbArc
 50
22.61986494803941
 51
23.92587502523321
  0
SPLINE
  5
17907
330
1F
100
AcDbEntity
  8
AM_0
100
AcDbSpline
210
0.0
220
0.0
230
1.0
 70
     8
 71
     3
 72
    38
 73
    34
 74
     0
 42
0.0000000001
 43
0.0000000001
 40
-11.42263456855353
 40
-11.42263456855353
 40
-11.42263456855353
 40
-11.42263456855353
 40
-10.70844645666123
 40
-10.70844645666123
 40
-9.994258344768932
 40
-9.994258344768932
 40
-9.280070232876636
 40
-9.280070232876636
 40
-8.565882120984339
 40
-8.565882120984339
 40
-7.852240911807431
 40
-7.852240911807431
 40
-7.138599702630526
 40
-7.138599702630526
 40
-6.424958493453616
 40
-6.424958493453616
 40
-5.71131728427671
 40
-5.71131728427671
 40
-4.997676075099804
 40
-4.997676075099804
 40
-4.284034865922894
 40
-4.284034865922894
 40
-3.570393656745985
 40
-3.570393656745985
 40
-2.856752447569079
 40
-2.856752447569079
 40
-2.142564335676809
 40
-2.142564335676809
 40
-1.428376223784539
 40
-1.428376223784539
 40
-0.7141881118922697
 40
-0.7141881118922697
 40
0.0
 40
0.0
 40
0.0
 40
0.0
 10
-75.09927359305698
 20
22.2805928762125
 30
0.0
 10
-75.09927359305698
 20
22.2805928762125
 30
0.0
 10
-75.07495298967274
 20
22.28587793646966
 30
0.0
 10
-74.97373675158076
 20
22.30662836811291
 30
0.0
 10
-74.89687810416103
 20
22.32205652802242
 30
0.0
 10
-74.69547313340763
 20
22.35849192730632
 30
0.0
 10
-74.57078096169153
 20
22.37944963523438
 30
0.0
 10
-74.28488562504174
 20
22.42022150207021
 30
0.0
 10
-74.12367222270598
 20
22.43994192382974
 30
0.0
 10
-73.78256064401955
 20
22.47204687019712
 30
0.0
 10
-73.59063438550641
 20
22.48564768466497
 30
0.0
 10
-73.17446629584697
 20
22.50091233952969
 30
0.0
 10
-72.95023546889274
 20
22.50250016671691
 30
0.0
 10
-72.48424457726696
 20
22.48857171706374
 30
0.0
 10
-72.24208097337601
 20
22.47298928128794
 30
0.0
 10
-71.7568557183215
 20
22.42340745490304
 30
0.0
 10
-71.51379089843954
 20
22.38938502861595
 30
0.0
 10
-71.04525796799521
 20
22.30677003162828
 30
0.0
 10
-70.80521539526433
 20
22.25560759001792
 30
0.0
 10
-70.33229482030424
 20
22.13624245511795
 30
0.0
 10
-70.09940596178763
 20
22.06806032451925
 30
0.0
 10
-69.65675394922675
 20
21.92177051433509
 30
0.0
 10
-69.44658896466717
 20
21.84358698527115
 30
0.0
 10
-69.06073970125237
 20
21.68690503206312
 30
0.0
 10
-68.8850397649062
 20
21.60848180062635
 30
0.0
 10
-68.57548026990799
 20
21.46164598840187
 30
0.0
 10
-68.43073400683784
 20
21.38797662262277
 30
0.0
 10
-68.1760250684099
 20
21.25188163620436
 30
0.0
 10
-68.06602071304781
 20
21.18954059827388
 30
0.0
 10
-67.8892235887264
 20
21.08641796546777
 30
0.0
 10
-67.82227682636608
 20
21.04563303184227
 30
0.0
 10
-67.73426173993198
 20
20.99151601208985
 30
0.0
 10
-67.71321544546538
 20
20.97823154371054
 30
0.0
 10
-67.71321544546538
 20
20.97823154371054
 30
0.0
  0
SPLINE
  5
17908
330
1F
100
AcDbEntity
  8
AM_0
100
AcDbSpline
210
0.0
220
0.0
230
1.0
 70
    28
 71
     2
 72
     6
 73
     3
 74
     0
 42
0.0000000001
 43
0.0000000001
 40
0.0649103227799642
 40
0.0649103227799642
 40
0.0649103227799642
 40
0.3681495330393882
 40
0.3681495330393882
 40
0.3681495330393882
 10
-75.13801341534747
 20
22.06088842636211
 30
0.0
 41
1.000027195869764
 10
-75.11884554161179
 20
22.16959484019947
 30
0.0
 41
1.000077122916089
 10
-75.09927359305698
 20
22.2805928762125
 30
0.0
 41
1.0
  0
ARC
  5
17909
330
1F
100
AcDbEntity
  8
AM_0
100
AcDbCircle
 10
-73.01600620988666
 20
12.5
 30
0.0
 40
9.75
100
AcDbArc
 50
68.95885151635723
 51
90.0
  0
ARC
  5
1790A
330
1F
100
AcDbEntity
  8
AM_0
100
AcDbCircle
 10
-61.51600620988666
 20
21.5
 30
0.0
 40
8.0
100
AcDbArc
 50
179.2845186963152
 51
182.8601354226104
  0
SPLINE
  5
1790B
330
1F
100
AcDbEntity
  8
AM_0
100
AcDbSpline
210
0.0
220
0.0
230
1.0
 70
    28
 71
     2
 72
     6
 73
     3
 74
     0
 42
0.0000000001
 43
0.0000000001
 40
0.0
 40
0.0
 40
0.0
 40
0.3681495330393884
 40
0.3681495330393884
 40
0.3681495330393884
 10
-67.71321544546538
 20
20.97823154371054
 30
0.0
 41
1.0
 10
-67.73697650451413
 20
20.84347588151269
 30
0.0
 41
1.000093631493867
 10
-67.76014353708854
 20
20.71208911085893
 30
0.0
 41
1.0
  0
SPLINE
  5
17911
330
1F
100
AcDbEntity
  8
AM_0
100
AcDbSpline
210
0.0
220
0.0
230
1.0
 70
     8
 71
     3
 72
    30
 73
    26
 74
     0
 42
0.0000000001
 43
0.0000000001
 40
0.9409244215429546
 40
0.9409244215429546
 40
0.9409244215429546
 40
0.9409244215429546
 40
2.530103484724979
 40
2.530103484724979
 40
4.119282547907003
 40
4.119282547907003
 40
5.708461611089026
 40
5.708461611089026
 40
7.297640674271051
 40
7.297640674271051
 40
7.922655058240657
 40
7.922655058240657
 40
8.547669442210264
 40
8.547669442210264
 40
9.17268382617987
 40
9.17268382617987
 40
9.797698210149475
 40
9.797698210149475
 40
10.42271259411908
 40
10.42271259411908
 40
11.04772697808869
 40
11.04772697808869
 40
11.67274136205829
 40
11.67274136205829
 40
12.21125399644816
 40
12.21125399644816
 40
12.21125399644816
 40
12.21125399644816
 10
17.96433089617301
 20
21.59989743954253
 30
0.0
 10
18.49405725056704
 20
21.59989743954253
 30
0.0
 10
19.03936091461105
 20
21.57996659240837
 30
0.0
 10
20.1111840630158
 20
21.49077668765995
 30
0.0
 10
20.63772570920241
 20
21.42147259713551
 30
0.0
 10
21.62599879573634
 20
21.21827151432734
 30
0.0
 10
22.08839581834332
 20
21.08410902922003
 30
0.0
 10
22.91014230484927
 20
20.73217571805355
 30
0.0
 10
23.26973604959267
 20
20.51442837642981
 30
0.0
 10
23.67442124003833
 20
20.13952374917767
 30
0.0
 10
23.7826720037242
 20
20.02107295918694
 30
0.0
 10
23.97431247386624
 20
19.761594124059
 30
0.0
 10
24.05768697076451
 20
19.62052968420227
 30
0.0
 10
24.19165214648365
 20
19.3215668168458
 30
0.0
 10
24.24230982980157
 20
19.16346795370265
 30
0.0
 10
24.30857281564886
 20
18.83922378550074
 30
0.0
 10
24.32417337825928
 20
18.67307286886035
 30
0.0
 10
24.32417337825928
 20
18.34493823347515
 30
0.0
 10
24.30857281564886
 20
18.17037654540371
 30
0.0
 10
24.24230982980157
 20
17.81083355216401
 30
0.0
 10
24.19165214648365
 20
17.62585593537426
 30
0.0
 10
24.05768697076451
 20
17.25723351363592
 30
0.0
 10
23.97431247386624
 20
17.07338253934262
 30
0.0
 10
23.79593348728577
 20
16.74281237729167
 30
0.0
 10
23.70418207261275
 20
16.59446935692643
 30
0.0
 10
23.60726460138608
 20
16.45415565883246
 30
0.0
  0
LINE
  5
1792B
330
1F
100
AcDbEntity
  8
AM_0
100
AcDbLine
 10
7.122381689735676
 20
21.10081559370491
 30
0.0
 11
7.986816803861643
 21
21.59989743954247
 31
0.0
  0
ELLIPSE
  5
1792C
330
1F
100
AcDbEntity
  8
AM_0
100
AcDbEllipse
 10
26.09727288386932
 20
21.50000000000114
 30
0.0
 11
20.16588397126045
 21
-2.740370874912968
 31
0.0
210
0.0
220
0.0
230
1.0
 40
0.3727090479189315
 41
3.541137328686663
 42
4.348435337535748
  0
LINE
  5
1792D
330
1F
100
AcDbEntity
  8
AM_0
100
AcDbLine
 10
7.122381689735676
 20
21.10081559370491
 30
0.0
 11
4.525597075489031
 21
19.60156129764221
 31
0.0
  0
LINE
  5
1792E
330
1F
100
AcDbEntity
  8
AM_0
100
AcDbLine
 10
4.525597075489031
 20
19.60156129764221
 30
0.0
 11
0.8960645516183377
 21
17.50604971795292
 31
0.0
  0
ELLIPSE
  5
17935
330
1F
100
AcDbEntity
  8
AM_0
100
AcDbEllipse
 10
19.0677898873264
 20
22.32044665850378
 30
0.0
 11
-4.426039680125337
 21
5.952798063860722
 31
0.0
210
0.0
220
0.0
230
1.0
 40
0.8884346582926354
 41
2.284062144601015
 42
3.163239086094911
  0
ELLIPSE
  5
17936
330
1F
100
AcDbEntity
  8
AM_0
100
AcDbEllipse
 10
5.051363824177315
 20
12.50000000000114
 30
0.0
 11
-24.57717108997367
 21
3.339827003800181
 31
0.0
210
0.0
220
0.0
230
0.9999999999999999
 40
0.3727090479189316
 41
3.886009668208944
 42
3.908803844120162
  0
LINE
  5
17937
330
1F
100
AcDbEntity
  8
AM_0
100
AcDbLine
 10
9.112827468706655
 20
22.25000000000114
 30
0.0
 11
17.99999999999989
 21
22.25000000000114
 31
0.0
  0
LINE
  5
17938
330
1F
100
AcDbEntity
  8
AM_0
100
AcDbLine
 10
7.986816803861643
 20
21.59989743954253
 30
0.0
 11
17.96433089617301
 21
21.59989743954253
 31
0.0
  0
LINE
  5
17939
330
1F
100
AcDbEntity
  8
AM_0
100
AcDbLine
 10
7.986816803861643
 20
21.59989743954253
 30
0.0
 11
9.112827468706655
 21
22.25000000000114
 31
0.0
  0
LINE
  5
1793A
330
1F
100
AcDbEntity
  8
AM_0
100
AcDbLine
 10
18.00000000000011
 20
22.25000000000097
 30
0.0
 11
21.61828623137274
 21
22.25000000000097
 31
0.0
  0
TEXT
  5
17CB3
330
1F
100
AcDbEntity
  8
AM_0
100
AcDbText
 10
16.8179066843644
 20
-132.6884608491226
 30
0.0
 40
5.0
  1
XBPT-320R
100
AcDbText
  0
DIMENSION
  5
185AE
330
1F
100
AcDbEntity
  8
AM_5
100
AcDbDimension
  2
*D9
 10
-72.27318236811186
 20
15.61784777773522
 30
0.0
 11
-79.72064691251751
 21
-17.60221070647185
 31
0.0
 70
   162
 71
     5
 42
0.0477862856747633
  3
AM_JIS$2
100
AcDb2LineAngularDimension
 13
-73.01600620988666
 23
-3.575659642478115
 33
0.0
 14
-73.01600620988666
 24
28.97866351642642
 34
0.0
 15
-72.99407369675146
 25
0.5435956262538753
 35
0.0
 16
-73.31729083834198
 26
-18.82792997998708
 36
0.0
  0
LINE
  5
18669
330
1F
100
AcDbEntity
  8
AM_0
100
AcDbLine
 10
0.8960645516183377
 20
17.50604971795292
 30
0.0
 11
0.8268204942150987
 21
16.18479439382992
 31
0.0
  0
DIMENSION
  5
1867A
330
1F
100
AcDbEntity
  8
AM_5
100
AcDbDimension
  2
*D10
 10
-12.39020222827935
 20
12.5
 30
0.0
 11
-15.79057624402739
 21
6.250000000000001
 31
0.0
 70
    32
 71
     5
 42
12.5
  3
AM_JIS$0
100
AcDbAlignedDimension
 13
-3.890171248788533
 23
0.0
 33
0.0
 14
-2.165548451965833
 24
12.5
 34
0.0
 50
90.0
100
AcDbRotatedDimension
1001
ACAD
1000
DSTYLE
1002
{
1070
   271
1070
     1
1002
}
  0
DIMENSION
  5
186C0
330
1F
100
AcDbEntity
  8
AM_5
100
AcDbDimension
  2
*D11
 10
0.7905571086831742
 20
15.49284777773511
 30
0.0
 11
-20.24179048051608
 21
21.30785758671352
 31
0.0
 70
    34
 71
     5
 42
1.623156204354728
  3
AM_JIS$2
100
AcDb2LineAngularDimension
 13
-3.890171248788533
 23
0.0
 33
0.0
 14
0.3966585726517451
 24
0.0
 34
0.0
 15
0.0005490290714079
 25
0.4185956262537616
 35
0.0
 16
-12.21590305691642
 26
22.93454599948142
 36
0.0
1001
ACAD
1000
DSTYLE
1002
{
1070
   179
1070
     0
1002
}
  0
DIMENSION
  5
1870C
330
1F
100
AcDbEntity
  8
AM_5
100
AcDbDimension
  2
*D12
 10
250.0000000000001
 20
-39.71141706346947
 30
0.0
 11
125.0
 21
-36.31104304772144
 31
0.0
 70
    32
 71
     5
 42
250.0000000000001
  3
AM_JIS$0
100
AcDbAlignedDimension
 13
0.0
 23
-3.278417165342205
 33
0.0
 14
250.0000000000001
 24
3.500000000000995
 34
0.0
100
AcDbRotatedDimension
1001
ACAD
1000
DSTYLE
1002
{
1070
   271
1070
     0
1002
}
  0
ENDSEC
  0
SECTION
  2
OBJECTS
  0
DICTIONARY
  5
C
330
0
100
AcDbDictionary
281
     1
  3
ACAD_COLOR
350
17D48
  3
ACAD_GROUP
350
D
  3
ACAD_LAYOUT
350
1A
  3
ACAD_MATERIAL
350
17D47
  3
ACAD_MLINESTYLE
350
17
  3
ACAD_PLOTSETTINGS
350
19
  3
ACAD_PLOTSTYLENAME
350
E
  3
ACAD_TABLESTYLE
350
17D49
  3
AcAmCatalogState
350
17DB0
  3
ACDBHEADERROUNDTRIPXREC
350
189E5
  3
AcDbVariableDictionary
350
30
  3
ACDMSYSVARMGR
350
17D63
  3
ACGREF_MASTER
350
17D5B
  3
ACGREFACAD_MASTER
350
17D83
  3
AcmDictionary
350
4D
  3
ACME_BOM_MANAGER_NAME
350
36
  3
ACME_COMMAND_HISTORY
350
2F
  3
ACME_SCOPE_NAME
350
2E
  3
ACMESTATEMGR
350
3B
  3
AcmeSysVarManager
350
32
  3
AcmSystemVariableManager
350
6A
  3
AD_APPL
350
17D8E
  3
ADSYSVARMGR
350
17D8D
  3
AmdtNamedDwgMgr
350
17D7E
  3
AMG
350
3F
  3
AMGSNAPSETTINGS
350
73
  3
AMI_MASTER
350
17D86
  3
ASE_INDEX_DICTIONARY
350
18490
  3
AUTOCAD_ASSEMBLIES_PROJECT
350
17D96
  3
Designer_Assemblies_SysVars
350
17D91
  3
DWGPROPS
350
189E8
  3
eng_data
350
2A40
  3
FILENAME
350
2916
  3
GREFAM_MODULE
350
17D87
  3
line_dic_data
350
2A3E
  3
table_dic_data
350
1688
  3
ZWKSIZE
350
2918
  0
DICTIONARY
  5
180A5
330
2
100
AcDbDictionary
280
     1
281
     1
  3
ACAD_LAYERSTATES
360
180A6
  0
DICTIONARY
  5
165
330
1F
100
AcDbDictionary
280
     1
281
     1
  0
DICTIONARY
  5
17D48
102
{ACAD_REACTORS
330
C
102
}
330
C
100
AcDbDictionary
281
     1
  0
DICTIONARY
  5
D
102
{ACAD_REACTORS
330
C
102
}
330
C
100
AcDbDictionary
281
     1
  0
DICTIONARY
  5
1A
102
{ACAD_REACTORS
330
C
102
}
330
C
100
AcDbDictionary
281
     1
  3
Model
350
22
  3
ﾚｲｱｳﾄ1
350
1E
  3
ﾚｲｱｳﾄ2
350
26
  0
DICTIONARY
  5
17D47
102
{ACAD_REACTORS
330
C
102
}
330
C
100
AcDbDictionary
281
     1
  0
DICTIONARY
  5
17
102
{ACAD_REACTORS
330
C
102
}
330
C
100
AcDbDictionary
281
     1
  3
Standard
350
18
  0
DICTIONARY
  5
19
102
{ACAD_REACTORS
330
C
102
}
330
C
100
AcDbDictionary
281
     1
  0
ACDBDICTIONARYWDFLT
  5
E
102
{ACAD_REACTORS
330
C
102
}
330
C
100
AcDbDictionary
281
     1
  3
Normal
350
F
100
AcDbDictionaryWithDefault
340
F
  0
DICTIONARY
  5
17D49
102
{ACAD_REACTORS
330
C
102
}
330
C
100
AcDbDictionary
281
     1
  3
Standard
350
17D4A
  0
ACAD_PROXY_OBJECT
  5
17DB0
102
{ACAD_REACTORS
330
C
102
}
330
C
100
AcDbProxyObject
 90
      499
 91
      571
 95
       25
 70
     0
 93
      488
310
3FFFFFFFE00A028140298231D2E20A1A0A226991818182E4B34482AC8E746FA41B7C1A1C1B3A422AE4B34482AC8E746FA41B7C1A1C1B3CAABC7C0400AA
  0
DICTIONARY
  5
189E5
102
{ACAD_REACTORS
330
C
102
}
330
C
100
AcDbDictionary
281
     1
  3
COLORDICT
350
189E6
  3
MATERIALDICT
350
189E7
  0
DICTIONARY
  5
30
102
{ACAD_REACTORS
330
C
102
}
330
C
100
AcDbDictionary
281
     1
  3
CTABLESTYLE
350
180DF
  3
HIDETEXT
350
189E4
  3
INDEXCTL
350
189E3
  0
ACAD_PROXY_OBJECT
  5
17D63
102
{ACAD_REACTORS
330
C
102
}
330
C
100
AcDbProxyObject
 90
      499
 91
      507
 95
       25
 70
     0
 93
      240
310
4C51A47A0000000000000000000000000000000000000000000000000000
330
17D64
330
17D65
330
17D66
330
17D67
330
17D68
330
17D69
330
17D6A
330
17D6B
330
17D6C
330
17D6D
330
17D6E
330
17D6F
330
17D70
330
17D71
330
17D72
330
17D73
330
17D74
330
17D75
330
17D76
330
17D77
330
17D78
330
17D79
330
17D7A
330
17D7B
330
17D7C
330
17D7D
 94
        0
  0
ACAD_PROXY_OBJECT
  5
17D5B
102
{ACAD_REACTORS
330
C
102
}
330
C
100
AcDbProxyObject
 90
      499
 91
      535
 95
       25
 70
     0
 93
       34
310
0400004280
  0
ACAD_PROXY_OBJECT
  5
17D83
102
{ACAD_REACTORS
330
C
102
}
330
C
100
AcDbProxyObject
 90
      499
 91
      541
 95
       25
 70
     0
 93
      114
310
04000041C080000000000000000000
  0
DICTIONARY
  5
4D
102
{ACAD_REACTORS
330
C
102
}
330
C
100
AcDbDictionary
281
     1
  3
AcmBOMDATA
350
4E
  3
AcmStdDictionary
350
17E
  3
AMDTSECTSYM_ARROWCOLOR
350
17DA4
  0
ACAD_PROXY_OBJECT
  5
36
102
{ACAD_REACTORS
330
C
102
}
330
C
100
AcDbProxyObject
 90
      499
 91
      510
 95
       25
 70
     0
 93
       50
310
00010040400000
330
0
330
0
330
37
 94
        0
  0
ACAD_PROXY_OBJECT
  5
2F
102
{ACAD_REACTORS
330
C
102
}
330
C
100
AcDbProxyObject
 90
      499
 91
      505
 95
       25
 70
     0
 93
     5858
310
47805064D4952524F528050844524F5047454F4D805054552415345404052D4D5347202D205050413A2020206465736B746F702E6172782046696C6556657273696F6E3A20392E322E302E34014311D4925417D4D514915510D22014311D4925417D4D514915510D2101014B5354D1C80B481414104E88080819195CDADD1B
310
DC0B985C9E08119A5B1955995C9CDA5BDB8E880E4B8C8B8C0B8D0050E414D4454524553455444424D4F4440805084E202D20554E444F014213880B4815539113C0504554E444F80504554E444F805055055524745805055153415645404052D4D5347202D205050413A2020206465736B746F702E6172782046696C6556657
310
273696F6E3A20392E322E302E34014154155491D150101461354D1C80B4810DBDB5B585B990810D05390D1531311510B805055153415645404052D4D5347202D205050413A2020206465736B746F702E6172782046696C6556657273696F6E3A20392E322E302E34014390535115149154D15511109353D1102014213880B4
310
815539113C05084E202D20554E444F014115539113E014115539113E01415454D05591501014B5354D1C80B481414104E88080819195CDADD1BDC0B985C9E08119A5B1955995C9CDA5BDB8E880E4B8C8B8C0B8D0050E414D4454524553455444424D4F4440805084E202D20554E444F014213880B4815539113C0504554E44
310
4F80504554E444F80506524F544154458050844524F5047454F4D8050C475249505F53545245544348805044D4F5645805045A4F4F4D805055153415645404052D4D5347202D205050413A2020206465736B746F702E6172782046696C6556657273696F6E3A20392E322E302E34014390535115149154D15511109353D110
310
2014213880B4815539113C05084E202D20554E444F014115539113E014115539113E014154155491D1601415454D05591501014B5354D1C80B481414104E88080819195CDADD1BDC0B985C9E08119A5B1955995C9CDA5BDB8E880E4B8C8B8C0B8D00
  0
ACAD_PROXY_OBJECT
  5
2E
102
{ACAD_REACTORS
330
C
102
}
330
C
100
AcDbProxyObject
 90
      499
 91
      504
 95
       25
 70
     0
 93
      586
310
09000046408000000000000000001344E200000000000000000000000000000000000000000000000000000000000000000000000000000000000000000000000000000000AAA406AA80
360
33
360
34
360
35
360
37
360
6B
360
6C
360
17D5C
360
17D5D
360
17D5E
360
17D5F
360
17D60
360
17D61
360
17D64
360
17D65
360
17D66
360
17D67
360
17D68
360
17D69
360
17D6A
360
17D6B
360
17D6C
360
17D6D
360
17D6E
360
17D6F
360
17D70
360
17D71
360
17D72
360
17D73
360
17D74
360
17D75
360
17D76
360
17D77
360
17D78
360
17D79
360
17D7A
360
17D7B
360
17D7C
360
17D7D
360
17D89
360
17D8A
360
17D8B
360
17D8C
360
17D92
360
17D93
360
17D94
360
17D95
360
17D9A
360
17D9B
360
17D9C
360
17D9D
360
17D9E
360
17D9F
 94
        0
  0
ACAD_PROXY_OBJECT
  5
3B
102
{ACAD_REACTORS
330
C
102
}
330
C
100
AcDbProxyObject
 90
      499
 91
      515
 95
       25
 70
     0
 93
       50
310
09000042641280
  0
ACAD_PROXY_OBJECT
  5
32
102
{ACAD_REACTORS
330
C
102
}
330
C
100
AcDbProxyObject
 90
      499
 91
      507
 95
       25
 70
     0
 93
       48
310
903412000000
330
33
330
34
330
35
 94
        0
  0
ACAD_PROXY_OBJECT
  5
6A
102
{ACAD_REACTORS
330
C
102
}
330
C
100
AcDbProxyObject
 90
      499
 91
      507
 95
       25
 70
     0
 93
       40
310
90240E0000
330
6B
330
6C
 94
        0
  0
ACAD_PROXY_OBJECT
  5
17D8E
102
{ACAD_REACTORS
330
C
102
}
330
C
100
AcDbProxyObject
 90
      499
 91
      551
 95
       25
 70
     0
 93
       42
310
000900004040
330
17D89
 94
        0
  0
ACAD_PROXY_OBJECT
  5
17D8D
102
{ACAD_REACTORS
330
C
102
}
330
C
100
AcDbProxyObject
 90
      499
 91
      507
 95
       25
 70
     0
 93
        8
310
AA
  0
ACAD_PROXY_OBJECT
  5
17D7E
102
{ACAD_REACTORS
330
C
102
}
330
C
100
AcDbProxyObject
 90
      499
 91
      540
 95
       25
 70
     0
 93
       42
310
000100005E80
330
17D5C
 94
        0
  0
DICTIONARY
  5
3F
102
{ACAD_REACTORS
330
C
102
}
330
C
100
AcDbDictionary
281
     1
  3
AcMgSettings
350
40
  3
AMGLAYCFG
350
42
  0
DICTIONARY
  5
73
102
{ACAD_REACTORS
330
C
102
}
330
C
100
AcDbDictionary
281
     1
  3
DIMENSION
350
62F
  3
FEA
350
630
  3
HATCH (1)
350
631
  3
HATCH (2)
350
632
  3
SYMBOLS
350
633
  0
ACAD_PROXY_OBJECT
  5
17D86
102
{ACAD_REACTORS
330
C
102
}
330
C
100
AcDbProxyObject
 90
      499
 91
      544
 95
       25
 70
     0
 93
       34
310
0500004280
  0
DICTIONARY
  5
18490
102
{ACAD_REACTORS
330
C
102
}
330
C
100
AcDbDictionary
281
     1
  3
ASEBlockHierarchyIndexRecord
350
18491
1001
DCO15
1040
1562583382.531
  0
ACAD_PROXY_OBJECT
  5
17D96
102
{ACAD_REACTORS
330
C
102
}
330
C
100
AcDbProxyObject
 90
      499
 91
      554
 95
       25
 70
     0
 93
       98
310
0900004E400000000000000000
330
17D9D
330
0
330
17D9E
330
0
330
0
330
0
330
0
330
0
 94
        0
  0
ACAD_PROXY_OBJECT
  5
17D91
102
{ACAD_REACTORS
330
C
102
}
330
C
100
AcDbProxyObject
 90
      499
 91
      507
 95
       25
 70
     0
 93
       56
310
90441600000000
330
17D92
330
17D93
330
17D94
330
17D95
 94
        0
  0
XRECORD
  5
189E8
102
{ACAD_REACTORS
330
C
102
}
330
C
100
AcDbXrecord
280
     1
  1
DWGPROPS COOKIE
  2

  3

  4

  6

  7

  8

  9

300
AmdtFileType=84
301
=
302
=
303
=
304
=
305
=
306
=
307
=
308
=
309
=
 40
0.0
 41
2451943.235431667
 42
2455482.226149445
  1

 90
        1
  0
DICTIONARY
  5
2A40
102
{ACAD_REACTORS
330
C
102
}
330
C
100
AcDbDictionary
281
     1
  3
eng_id
350
2A41
  0
DICTIONARY
  5
2916
102
{ACAD_REACTORS
330
C
102
}
330
C
100
AcDbDictionary
281
     1
  3
FILENAME
350
2917
  0
ACAD_PROXY_OBJECT
  5
17D87
102
{ACAD_REACTORS
330
C
102
}
330
C
100
AcDbProxyObject
 90
      499
 91
      545
 95
       25
 70
     0
 93
        8
310
05
  0
DICTIONARY
  5
2A3E
102
{ACAD_REACTORS
330
C
102
}
330
C
100
AcDbDictionary
281
     1
  3
line_data
350
2A3F
  0
DICTIONARY
  5
1688
102
{ACAD_REACTORS
330
C
102
}
330
C
100
AcDbDictionary
281
     1
  3
input_data
350
168A
  3
table_data
350
1689
  0
DICTIONARY
  5
2918
102
{ACAD_REACTORS
330
C
102
}
330
C
100
AcDbDictionary
281
     1
  3
ZWKSIZE
350
2919
  0
DICTIONARY
  5
180A6
102
{ACAD_REACTORS
330
180A5
102
}
330
180A5
100
AcDbDictionary
281
     1
  0
LAYOUT
  5
22
102
{ACAD_REACTORS
330
1A
102
}
330
1A
100
AcDbPlotSettings
  1

  2
SII LP-2150 (D-SCAN C2)
  4
User262
  6
AM_VIEW1
 40
3.174999952316284
 41
3.174999952316284
 42
3.17498779296875
 43
3.17498779296875
 44
296.9259948730469
 45
419.9889831542969
 46
0.0
 47
0.0
 48
0.0
 49
0.0
140
420.0
141
297.0
142
1.0
143
1.022107788374329
 70
 11952
 72
     1
 73
     1
 74
     4
  7
sei_cad.ctb
 75
     0
147
0.9783703943695685
148
0.0
149
0.0
100
AcDbLayout
  1
Model
 70
     1
 71
     0
 10
0.0
 20
0.0
 11
12.0
 21
9.0
 12
0.0
 22
0.0
 32
0.0
 14
0.0
 24
0.0
 34
0.0
 15
0.0
 25
0.0
 35
0.0
146
0.0
 13
0.0
 23
0.0
 33
0.0
 16
1.0
 26
0.0
 36
0.0
 17
0.0
 27
1.0
 37
0.0
 76
     0
330
1F
  0
LAYOUT
  5
1E
102
{ACAD_REACTORS
330
1A
102
}
330
1A
100
AcDbPlotSettings
  1

  2
Canon LASER SHOT LBP-2030
  4

  6

 40
0.0
 41
0.0
 42
0.0
 43
0.0
 44
0.0
 45
0.0
 46
0.0
 47
0.0
 48
0.0
 49
0.0
140
0.0
141
0.0
142
1.0
143
1.0
 70
   688
 72
     0
 73
     0
 74
     5
  7
sei_cad.ctb
 75
    16
147
1.0
148
0.0
149
0.0
100
AcDbLayout
  1
ﾚｲｱｳﾄ1
 70
     1
 71
     1
 10
0.0
 20
0.0
 11
420.0
 21
297.0
 12
0.0
 22
0.0
 32
0.0
 14
1.000000000000000E+20
 24
1.000000000000000E+20
 34
1.000000000000000E+20
 15
-1.000000000000000E+20
 25
-1.000000000000000E+20
 35
-1.000000000000000E+20
146
0.0
 13
0.0
 23
0.0
 33
0.0
 16
1.0
 26
0.0
 36
0.0
 17
0.0
 27
1.0
 37
0.0
 76
     0
330
1B
  0
LAYOUT
  5
26
102
{ACAD_REACTORS
330
1A
102
}
330
1A
100
AcDbPlotSettings
  1

  2
Canon LASER SHOT LBP-2030
  4

  6

 40
0.0
 41
0.0
 42
0.0
 43
0.0
 44
0.0
 45
0.0
 46
0.0
 47
0.0
 48
0.0
 49
0.0
140
0.0
141
0.0
142
1.0
143
1.0
 70
   688
 72
     0
 73
     0
 74
     5
  7
sei_cad.ctb
 75
    16
147
1.0
148
0.0
149
0.0
100
AcDbLayout
  1
ﾚｲｱｳﾄ2
 70
     1
 71
     2
 10
0.0
 20
0.0
 11
12.0
 21
9.0
 12
0.0
 22
0.0
 32
0.0
 14
0.0
 24
0.0
 34
0.0
 15
0.0
 25
0.0
 35
0.0
146
0.0
 13
0.0
 23
0.0
 33
0.0
 16
1.0
 26
0.0
 36
0.0
 17
0.0
 27
1.0
 37
0.0
 76
     0
330
23
  0
MLINESTYLE
  5
18
102
{ACAD_REACTORS
330
17
102
}
330
17
100
AcDbMlineStyle
  2
STANDARD
 70
     0
  3

 62
   256
 51
90.0
 52
90.0
 71
     2
 49
0.5
 62
   256
  6
BYLAYER
 49
-0.5
 62
   256
  6
BYLAYER
  0
ACDBPLACEHOLDER
  5
F
102
{ACAD_REACTORS
330
E
102
}
330
E
  0
TABLESTYLE
  5
17D4A
102
{ACAD_REACTORS
330
17D49
102
}
330
17D49
100
AcDbTableStyle
  3
Standard
 70
     0
 71
     8
 40
1.5
 41
1.5
280
     0
281
     0
  7
STANDARD
140
4.5
170
     2
 62
     0
 63
     7
283
     0
274
    -2
284
     1
 64
     0
275
    -2
285
     1
 65
     0
276
    -2
286
     1
 66
     0
277
    -2
287
     1
 67
     0
278
    -2
288
     1
 68
     0
279
    -2
289
     1
 69
     0
  7
STANDARD
140
6.0
170
     5
 62
     0
 63
     7
283
     0
274
    -2
284
     1
 64
     0
275
    -2
285
     1
 65
     0
276
    -2
286
     1
 66
     0
277
    -2
287
     1
 67
     0
278
    -2
288
     1
 68
     0
279
    -2
289
     1
 69
     0
  7
STANDARD
140
4.5
170
     5
 62
     0
 63
     7
283
     0
274
    -2
284
     1
 64
     0
275
    -2
285
     1
 65
     0
276
    -2
286
     1
 66
     0
277
    -2
287
     1
 67
     0
278
    -2
288
     1
 68
     0
279
    -2
289
     1
 69
     0
  0
XRECORD
  5
189E6
102
{ACAD_REACTORS
330
189E5
102
}
330
189E5
100
AcDbXrecord
280
     1
340
17D48
  0
XRECORD
  5
189E7
102
{ACAD_REACTORS
330
189E5
102
}
330
189E5
100
AcDbXrecord
280
     1
340
17D47
  0
DICTIONARYVAR
  5
180DF
102
{ACAD_REACTORS
330
30
102
}
330
30
100
DictionaryVariables
280
     0
  1
STANDARD
  0
DICTIONARYVAR
  5
189E4
102
{ACAD_REACTORS
330
30
102
}
330
30
100
DictionaryVariables
280
     0
  1
0
  0
DICTIONARYVAR
  5
189E3
102
{ACAD_REACTORS
330
30
102
}
330
30
100
DictionaryVariables
280
     0
  1
1
  0
ACAD_PROXY_OBJECT
  5
4E
102
{ACAD_REACTORS
330
4D
102
}
330
4D
100
AcDbProxyObject
 90
      499
 91
      520
 95
       25
 70
     0
 93
      118
310
405010040CA904C415CD5B075DD108
350
4F
 94
        0
  0
DICTIONARY
  5
17E
102
{ACAD_REACTORS
330
4D
102
}
330
4D
100
AcDbDictionary
281
     1
  3
JIS
350
17F
  0
XRECORD
  5
17DA4
102
{ACAD_REACTORS
330
4D
102
}
330
4D
100
AcDbXrecord
280
     1
 90
-1023410169
  0
ACAD_PROXY_OBJECT
  5
33
330
2E
100
AcDbProxyObject
 90
      499
 91
      508
 95
       25
 70
     0
 93
      156
310
00010143D050D351505391D5531054925390D490
330
2E
 94
        0
  0
ACAD_PROXY_OBJECT
  5
34
330
2E
100
AcDbProxyObject
 90
      499
 91
      508
 95
       25
 70
     0
 93
      148
310
000101439050D351531253915054925390D490
330
2E
 94
        0
  0
ACAD_PROXY_OBJECT
  5
35
330
2E
100
AcDbProxyObject
 90
      499
 91
      509
 95
       25
 70
     0
 93
      156
310
000101439050D35154D6535093D314D256915080
330
2E
 94
        0
  0
ACAD_PROXY_OBJECT
  5
37
330
2E
100
AcDbProxyObject
 90
      499
 91
      511
 95
       25
 70
     0
 93
       88
310
000101411093D34C402B00
330
2E
330
0
330
0
 94
        0
  0
ACAD_PROXY_OBJECT
  5
6B
330
2E
100
AcDbProxyObject
 90
      499
 91
      509
 95
       25
 70
     0
 93
      108
310
00010142505351D153D35054D4E0
330
2E
 94
        0
  0
ACAD_PROXY_OBJECT
  5
6C
330
2E
100
AcDbProxyObject
 90
      499
 91
      522
 95
       25
 70
     0
 93
      140
310
00010142105350D55494D511005034A49530
330
2E
 94
        0
  0
ACAD_PROXY_OBJECT
  5
17D5C
330
2E
100
AcDbProxyObject
 90
      499
 91
      536
 95
       25
 70
     0
 93
      358
310
0001014124FEA55D00507392E322E302E32014124FEA55D00507392E322E302E3240501000041505391D311658
330
2E
330
17D5D
330
17D63
 94
        0
  0
ACAD_PROXY_OBJECT
  5
17D5D
330
2E
100
AcDbProxyObject
 90
      499
 91
      537
 95
       25
 70
     0
 93
       56
310
000190240E0000
330
2E
330
17D5E
330
17D60
 94
        0
  0
ACAD_PROXY_OBJECT
  5
17D5E
330
2E
100
AcDbProxyObject
 90
      499
 91
      538
 95
       25
 70
     0
 93
       48
310
0001AA000000
330
2E
330
1E
330
17D5F
330
0
 94
        0
  0
ACAD_PROXY_OBJECT
  5
17D5F
330
2E
100
AcDbProxyObject
 90
      499
 91
      539
 95
       25
 70
     0
 93
       28
310
0001AAA0
330
2E
 94
        0
  0
ACAD_PROXY_OBJECT
  5
17D60
330
2E
100
AcDbProxyObject
 90
      499
 91
      538
 95
       25
 70
     0
 93
       48
310
0001AA000000
330
2E
330
26
330
17D61
330
0
 94
        0
  0
ACAD_PROXY_OBJECT
  5
17D61
330
2E
100
AcDbProxyObject
 90
      499
 91
      539
 95
       25
 70
     0
 93
       28
310
0001AAA0
330
2E
 94
        0
  0
ACAD_PROXY_OBJECT
  5
17D64
330
2E
100
AcDbProxyObject
 90
      499
 91
      509
 95
       25
 70
     0
 93
      108
310
000101421053521310D05310D010
330
2E
 94
        0
  0
ACAD_PROXY_OBJECT
  5
17D65
330
2E
100
AcDbProxyObject
 90
      499
 91
      509
 95
       25
 70
     0
 93
      124
310
00010142905354915554D15112535010
330
2E
 94
        0
  0
ACAD_PROXY_OBJECT
  5
17D66
330
2E
100
AcDbProxyObject
 90
      499
 91
      509
 95
       25
 70
     0
 93
      132
310
00010143105354D150D51253D391125360
330
2E
 94
        0
  0
ACAD_PROXY_OBJECT
  5
17D67
330
2E
100
AcDbProxyObject
 90
      499
 91
      509
 95
       25
 70
     0
 93
      124
310
00010142905355941093D49111549010
330
2E
 94
        0
  0
ACAD_PROXY_OBJECT
  5
17D68
330
2E
100
AcDbProxyObject
 90
      499
 91
      509
 95
       25
 70
     0
 93
      116
310
0001014290535115D1D0D3D313D4A0
330
2E
 94
        0
  0
ACAD_PROXY_OBJECT
  5
17D69
330
2E
100
AcDbProxyObject
 90
      499
 91
      509
 95
       25
 70
     0
 93
      148
310
00010143505355925155D49151949154D21010
330
2E
 94
        0
  0
ACAD_PROXY_OBJECT
  5
17D6A
330
2E
100
AcDbProxyObject
 90
      499
 91
      509
 95
       25
 70
     0
 93
      172
310
00010144105350539393D51154149154D15495915010
330
2E
 94
        0
  0
ACAD_PROXY_OBJECT
  5
17D6B
330
2E
100
AcDbProxyObject
 90
      499
 91
      509
 95
       25
 70
     0
 93
      172
310
00010144105350555513D11253505494905391D15010
330
2E
 94
        0
  0
ACAD_PROXY_OBJECT
  5
17D6C
330
2E
100
AcDbProxyObject
 90
      499
 91
      509
 95
       25
 70
     0
 93
      124
310
00010142D05351561514915191125360
330
2E
 94
        0
  0
ACAD_PROXY_OBJECT
  5
17D6D
330
2E
100
AcDbProxyObject
 90
      499
 91
      509
 95
       25
 70
     0
 93
      132
310
00010142D05355105410539393D5115010
330
2E
 94
        0
  0
ACAD_PROXY_OBJECT
  5
17D6E
330
2E
100
AcDbProxyObject
 90
      499
 91
      509
 95
       25
 70
     0
 93
      108
310
00010142105350555513D0D31010
330
2E
 94
        0
  0
ACAD_PROXY_OBJECT
  5
17D6F
330
2E
100
AcDbProxyObject
 90
      499
 91
      509
 95
       25
 70
     0
 93
      108
310
00010142105350D3119150551050
330
2E
 94
        0
  0
ACAD_PROXY_OBJECT
  5
17D70
330
2E
100
AcDbProxyObject
 90
      499
 91
      509
 95
       25
 70
     0
 93
      108
310
00010142105350D315925155D3F0
330
2E
 94
        0
  0
ACAD_PROXY_OBJECT
  5
17D71
330
2E
100
AcDbProxyObject
 90
      499
 91
      509
 95
       25
 70
     0
 93
      148
310
0001014350535212511156915493D112535010
330
2E
 94
        0
  0
ACAD_PROXY_OBJECT
  5
17D72
330
2E
100
AcDbProxyObject
 90
      499
 91
      509
 95
       25
 70
     0
 93
      124
310
00010142905352105510D21254D3D010
330
2E
 94
        0
  0
ACAD_PROXY_OBJECT
  5
17D73
330
2E
100
AcDbProxyObject
 90
      499
 91
      509
 95
       25
 70
     0
 93
      148
310
00010143905354D25391D31152105513105660
330
2E
 94
        0
  0
ACAD_PROXY_OBJECT
  5
17D74
330
2E
100
AcDbProxyObject
 90
      499
 91
      509
 95
       25
 70
     0
 93
      124
310
00010142D0535115D1D193111254D420
330
2E
 94
        0
  0
ACAD_PROXY_OBJECT
  5
17D75
330
2E
100
AcDbProxyObject
 90
      499
 91
      509
 95
       25
 70
     0
 93
      100
310
00010142105350555513D213A0
330
2E
 94
        0
  0
ACAD_PROXY_OBJECT
  5
17D76
330
2E
100
AcDbProxyObject
 90
      499
 91
      509
 95
       25
 70
     0
 93
      116
310
000101425053521390D3D553951010
330
2E
 94
        0
  0
ACAD_PROXY_OBJECT
  5
17D77
330
2E
100
AcDbProxyObject
 90
      499
 91
      509
 95
       25
 70
     0
 93
      108
310
0001014210535213941493D29010
330
2E
 94
        0
  0
ACAD_PROXY_OBJECT
  5
17D78
330
2E
100
AcDbProxyObject
 90
      499
 91
      509
 95
       25
 70
     0
 93
      108
310
0001014210535213951654115070
330
2E
 94
        0
  0
ACAD_PROXY_OBJECT
  5
17D79
330
2E
100
AcDbProxyObject
 90
      499
 91
      509
 95
       25
 70
     0
 93
      108
310
000101421053521395925155D0F0
330
2E
 94
        0
  0
ACAD_PROXY_OBJECT
  5
17D7A
330
2E
100
AcDbProxyObject
 90
      499
 91
      509
 95
       25
 70
     0
 93
      140
310
00010143505354D150D51253D390D3D41660
330
2E
 94
        0
  0
ACAD_PROXY_OBJECT
  5
17D7B
330
2E
100
AcDbProxyObject
 90
      499
 91
      509
 95
       25
 70
     0
 93
      108
310
00010142105350D3141493D29030
330
2E
 94
        0
  0
ACAD_PROXY_OBJECT
  5
17D7C
330
2E
100
AcDbProxyObject
 90
      499
 91
      508
 95
       25
 70
     0
 93
      212
310
00010143905350555513D2105510D21493D500000000000002E400
330
2E
 94
        0
  0
ACAD_PROXY_OBJECT
  5
17D7D
330
2E
100
AcDbProxyObject
 90
      499
 91
      509
 95
       25
 70
     0
 93
      156
310
00010143905350555513D2105510D21111551010
330
2E
 94
        0
  0
ACAD_PROXY_OBJECT
  5
17D89
330
2E
100
AcDbProxyObject
 90
      499
 91
      547
 95
       25
 70
     0
 93
      698
310
0001000000009AA6A9AA4051E547565204D61722032312032333A32383A333620323030362028555443290141CE4B8C8B8C0B8C80518547565204F63742031322031343A32353A333920323031300141CE4B8C8B8C0B8C80
330
2E
330
17D8A
330
17D8B
330
17D8D
330
0
 94
        0
  0
ACAD_PROXY_OBJECT
  5
17D8A
330
2E
100
AcDbProxyObject
 90
      499
 91
      548
 95
       25
 70
     0
 93
       70
310
0001AAA80820000000
330
2E
330
17D8A
330
17D8A
 94
        0
  0
ACAD_PROXY_OBJECT
  5
17D8B
330
2E
100
AcDbProxyObject
 90
      499
 91
      549
 95
       25
 70
     0
 93
       48
310
000100000000
330
2E
330
0
330
17D8C
330
0
330
0
 94
        0
  0
ACAD_PROXY_OBJECT
  5
17D8C
330
2E
100
AcDbProxyObject
 90
      499
 91
      550
 95
       25
 70
     0
 93
       40
310
000100AAAA
330
2E
330
0
 94
        0
  0
ACAD_PROXY_OBJECT
  5
17D92
330
2E
100
AcDbProxyObject
 90
      499
 91
      522
 95
       25
 70
     0
 93
      180
310
00010143105050D3D35411119390535140504434F4D500
330
2E
 94
        0
  0
ACAD_PROXY_OBJECT
  5
17D93
330
2E
100
AcDbProxyObject
 90
      499
 91
      522
 95
       25
 70
     0
 93
      212
310
0001014390505193D311115491119390535140506466F6C6465720
330
2E
 94
        0
  0
ACAD_PROXY_OBJECT
  5
17D94
330
2E
100
AcDbProxyObject
 90
      499
 91
      522
 95
       25
 70
     0
 93
      180
310
00010143105050539393D1119390535140504284156290
330
2E
 94
        0
  0
ACAD_PROXY_OBJECT
  5
17D95
330
2E
100
AcDbProxyObject
 90
      499
 91
      522
 95
       25
 70
     0
 93
      436
310
00010143905050D3D35415925155D31254D50052295BD96CA0A90B396CA0A894591A496CA0A8DB691A496CA0A89BA96CA0A95E28F95310
330
2E
 94
        0
  0
ACAD_PROXY_OBJECT
  5
17D9A
330
2E
100
AcDbProxyObject
 90
      499
 91
      555
 95
       25
 70
     0
 93
       32
310
00010000
330
2E
340
17D97
330
17D9C
330
17D97
 94
        0
  0
ACAD_PROXY_OBJECT
  5
17D9B
330
2E
100
AcDbProxyObject
 90
      499
 91
      556
 95
       25
 70
     0
 93
       18
310
000180
330
2E
 94
        0
  0
ACAD_PROXY_OBJECT
  5
17D9C
330
2E
100
AcDbProxyObject
 90
      499
 91
      557
 95
       25
 70
     0
 93
      162
310
00010142561094150B4CCC8C149050055401550000
330
2E
330
17D9A
330
17D9B
 94
        0
  0
ACAD_PROXY_OBJECT
  5
17D9D
330
2E
100
AcDbProxyObject
 90
      499
 91
      558
 95
       25
 70
     0
 93
      178
310
000100AAAAAAA9C31EF923618E532AAC2A3923C629C140
330
2E
330
17D9C
 94
        0
  0
ACAD_PROXY_OBJECT
  5
17D9E
330
2E
100
AcDbProxyObject
 90
      499
 91
      559
 95
       25
 70
     0
 93
      108
310
000190140A000000000000AAAAA0
330
2E
330
17D9F
330
17D9F
330
17D9F
330
17D9F
330
17D9F
330
0
 94
        0
  0
ACAD_PROXY_OBJECT
  5
17D9F
330
2E
100
AcDbProxyObject
 90
      499
 91
      560
 95
       25
 70
     0
 93
       51
310
00010000AAAA80
330
2E
330
17D9E
330
17D9C
 94
        0
  0
DICTIONARY
  5
40
102
{ACAD_REACTORS
330
3F
102
}
330
3F
100
AcDbDictionary
281
     1
  3
DWGSETTINGS
350
41
  3
FEM
350
69
  3
Shaft
350
56
  3
TRANSSETTINGS
350
4C
  0
ACAD_PROXY_OBJECT
  5
42
102
{ACAD_REACTORS
330
3F
102
}
330
3F
100
AcDbProxyObject
 90
      499
 91
      519
 95
       25
 70
     0
 93
    23232
310
41502491013041105357CC201C00030C011E441013141105357CC603800030C011E441013241105357CCA01400030C011E441013341105357CCE01800030C010D9013441105357CD200C00030C010D9013541105357CD600C00030C010D9013641105357CDA00800030C011E9013741105357CDE01000030C010D901384110
310
5357CE200400030C011E9013941105357CE63F400030C0241102324141505357CC4C201C00030C011E902344141505357CC4C600C00030C010D902495041505357CC4CA01C00030C011E40902304E41505357CC13A01C00030C011E902314E41505357CC53A03800030C011E902324E41505357CC93A01400030C011E90233
310
4E41505357CCD3A01800030C010D902344E41505357CD13A00C00030C010D902354E41505357CD53A00C00030C010D902364E41505357CD93A00800030C011E902374E41505357CDD3A01000030C010D902384E41505357CE13A00400030C011E902394E41505357CE53A3F400030C024110332414E41905357CC4C13A01C0
310
0030C011E90334414E41905357CC4C53A00C00030C010D90349504E41905357CC4C93A01C00030C011E409044B4C494E41505357D0D3200400030C011E42504494E464F42105357D410549151A01000030C010D42D055241484D3541905357D093D4A01C00030C011E425045649455742105357D5925155D4E00400030C011
310
E42D06424548494E4441905357D25395A3F400030C0243505545241494C41505357D514A00C00030C010D4250348494441905357D21251201C00030C011E4250356495341905357D59254E01C00030C011E4250650415244494D42505357D41054911253600C00030C010D4250652454644494D42505357D49151911253601
310
000030C010D425774110531514901348070000C300479034110915312501348000000C0003FFFFFFFD034110921395901398000000C0003FFFFFFFE415092139594D06424548494E448000000C0003FFFFFFFE411093125110234418000000C0003FFFFFFFD03411093D05410234418000000C0003FFFFFFFD03411093D48C
310
9055241484D358010000C30047A411093D48CD055241484D358020000C30047A411093D48D5055241484D358000000C0003FFFFFFFE411093D48DD055241484D3581E0000C30047903411094105410234418000000C0003FFFFFFFD03411094115610234418000000C0003FFFFFFFD034110951112501358000000C0003FFF
310
FFFFD034110D0530C901348000000C0003FFFFFFFE4110D0530CD01348020000C30047A4110D0530D501348070000C30047A4110D0530DD013481E0000C30047A4110D15393901378000000C0003FFFFFFFE4110D15395D01378000000C0003FFFFFFFE4110D312539044B4C494E8000000C0003FFFFFFFE4110D3D38C5013
310
08000000C0003FFFFFFFD034110D3D38C901318000000C0003FFFFFFFD034110D3D38CD01328000000C0003FFFFFFFD034110D3D38D101328000000C0003FFFFFFFD034111115494101348000000C0003FFFFFFFD034111115510501348000000C0003FFFFFFFE4111125051D01358000000C0003FFFFFFFE4111125312501
310
358000000C0003FFFFFFFE411112535410650415244494D8000000C0003FFFFFFFE411112535490652454644494D8000000C0003FFFFFFFE411156135410234418000000C0003FFFFFFFD034111915353901388000000C0003FFFFFFFE415191535413901388030000C3004364151915354D410234418000000C0003FFFFFF
310
FE4151915354D510234418030000C300436415191535593901328000000C0003FFFFFFFE415191535595101328030000C3004364111931055101308000000C0003FFFFFFFD03411194905490234418000000C0003FFFFFFFD034111D49312501358000000C0003FFFFFFFD034111D5931250234418000000C0003FFFFFFFD0
310
34112105510D01388000000C0003FFFFFFFD014112125113901338000000C0003FFFFFFFD034112125115D01338000000C0003FFFFFFFD034112131253901348000000C0003FFFFFFFD01411213D0D3901378000000C0003FFFFFFFE411213D0D5D01378000000C0003FFFFFFFE4112539193D04494E464F8000000C0003FF
310
FFFFFE4113105112501348000000C0003FFFFFFFD034113115051101358000000C0003FFFFFFFE419397D0921395902394E8000000C0003FFFFFFFE419397D0D3D38C502304E8000000C0003FFFFFFFD03419397D0D3D38C902314E8000000C0003FFFFFFFD03419397D0D3D38CD02324E8000000C0003FFFFFFFD03419397
310
D0D3D38D102324E8000000C0003FFFFFFFD03419397D0D15393902374E8000000C0003FFFFFFFE419397D0D15395D02374E8000000C0003FFFFFFFE419397D1125312502354E8000000C0003FFFFFFFE419397D2105510D02384E8000000C0003FFFFFFFD01419397D2125113902334E8000000C0003FFFFFFFD03419397D2
310
125115D02334E8000000C0003FFFFFFFD03419397D3115051102354E8000000C0003FFFFFFFE419397D391D25410349504E8000000C0003FFFFFFFE419397D412105390334414E8000000C0003FFFFFFFE419397D510D3D3902304E8000000C0003FFFFFFFD03419397D5121312502344E8000000C0003FFFFFFFD01419397
310
D5131153902304E8000000C0003FFFFFFFD03419397D516150CD02364E8000000C0003FFFFFFFD03419397D594131250332414E8000000C0003FFFFFFFE411391D25410249508000000C0003FFFFFFFE411410530C9055241484D358010000C30047A411410530CD055241484D358020000C30047A411410530D5055241484
310
D358000000C0003FFFFFFFE411410530DD055241484D3581E0000C30047903411412105390234418000000C0003FFFFFFFE411413D4D3901368070000C30047A419413D4D49151901368050000C30047903411413D4D6101368000000C0003FFFFFFFD03411414D150D0234418000000C0003FFFFFFFD03411490D1D390137
310
8000000C0003FFFFFFFE411490D1D5D01378000000C0003FFFFFFFE4114919112501348000000C0003FFFFFFFD034114945514901348070000C30047903411494D093D01348000000C0003FFFFFFFD034114D09492D01348000000C0003FFFFFFFD014114D0D153901378000000C0003FFFFFFFD034114D150D51013480000
310
00C0003FFFFFFFD014114D15313901378000000C0003FFFFFFFD034114D15315D01378000000C0003FFFFFFFD034114D4D654D01308000000C0003FFFFFFFD034114D51312501348070000C300479034114D6508C501358000000C0003FFFFFFFD034114D6508C901358000000C0003FFFFFFFD034114D6508CD0135802000
310
0C30047A4114D6508D501358070000C300479034114D65353901378000000C0003FFFFFFFD034114D65355D01378000000C0003FFFFFFFD03411510D3D3901308000000C0003FFFFFFFD034115121312501348000000C0003FFFFFFFD01411512550C9055241484D358010000C30047A411512550CD055241484D358020000
310
C30047A411512550D5055241484D358000000C0003FFFFFFFE411512550DD055241484D3581E0000C300479034115131153901308000000C0003FFFFFFFD03415514905253105545241494C8000000C0003FFFFFFFE41151492D3901378000000C0003FFFFFFFD0341151492D5D01378000000C0003FFFFFFFD03411514931
310
2501348000000C0003FFFFFFFD01411516150C501368030000C300436411516150C901368030000C300436411516150CD01368000000C0003FFFFFFFE411516150D501368070000C30047A411516150DD013681E0000C30047A4115925155D04564945578000000C0003FFFFFFFE41159151121034849448000000C0003FFF
310
FFFFD0241159151159035649538000000C0003FFFFFFFD02411594131250232418000000C0003FFFFFFFE4116925690501348000000C0003FFFFFFFD01411354D653501358020000C30047AAAA3F400030C01013F90A4051E4091E40D0D4110D4151E4190D41D1E4391E4791E7F6
340
16
340
16
340
16
340
43
340
16
340
16
340
16
340
44
340
16
340
16
340
44
340
45
340
16
340
16
340
16
340
16
340
43
340
16
340
16
340
16
340
44
340
16
340
16
340
44
340
45
340
16
340
46
340
16
340
16
340
16
340
16
340
16
340
43
340
16
340
16
340
16
340
47
340
15
340
15
340
15
340
15
340
15
340
15
340
15
340
15
340
15
340
15
340
15
340
15
340
15
340
15
340
15
340
15
340
48
340
15
340
15
340
15
340
15
340
15
340
15
340
15
340
15
340
15
340
15
340
15
340
15
340
15
340
15
340
15
340
16
340
15
340
15
340
15
340
15
340
15
340
15
340
15
340
15
340
47
340
15
340
15
340
48
340
15
340
15
340
15
340
15
340
15
340
15
340
15
340
15
340
15
340
48
340
15
340
15
340
15
340
47
340
15
340
15
340
15
340
15
340
15
340
15
340
15
340
15
340
15
340
15
340
15
340
15
340
15
340
15
340
15
340
15
340
15
340
15
340
15
340
48
340
15
340
15
340
48
340
15
340
15
340
16
340
15
340
48
340
15
340
15
340
47
340
15
340
15
340
16
340
15
340
48
340
15
340
15
340
15
340
15
340
15
340
15
340
15
340
15
340
15
340
48
340
15
340
15
340
15
340
15
340
15
340
15
340
15
340
15
340
15
340
15
340
15
340
4B
340
16
 94
        0
  0
ACAD_PROXY_OBJECT
  5
62F
102
{ACAD_REACTORS
330
73
102
}
330
73
100
AcDbProxyObject
 90
      499
 91
      523
 95
       25
 70
     0
 93
      253
310
43D1444494D454E53494F4E2C414D44545F2A5F44494D404A9012A404A9012A0
  0
ACAD_PROXY_OBJECT
  5
630
102
{ACAD_REACTORS
330
73
102
}
330
73
100
AcDbProxyObject
 90
      499
 91
      523
 95
       25
 70
     0
 93
      181
310
43D012A42D05357D191504B505357CA9012A404A9012A8
  0
ACAD_PROXY_OBJECT
  5
631
102
{ACAD_REACTORS
330
73
102
}
330
73
100
AcDbProxyObject
 90
      499
 91
      523
 95
       25
 70
     0
 93
      133
310
43D054841544348404A9012A404A9012A8
  0
ACAD_PROXY_OBJECT
  5
632
102
{ACAD_REACTORS
330
73
102
}
330
73
100
AcDbProxyObject
 90
      499
 91
      523
 95
       25
 70
     0
 93
      549
310
43D044C494E4549CE0B0E138B0A8B4E0B0A8B4E138B105357CE0B105357CE138B0A8B505357CE0B0A8B505357CE139012A404A910494E534552542C5354445041525432448
  0
ACAD_PROXY_OBJECT
  5
633
102
{ACAD_REACTORS
330
73
102
}
330
73
100
AcDbProxyObject
 90
      499
 91
      523
 95
       25
 70
     0
 93
      909
310
43D6641434D46434652414D452C41434D444154554D5441524745542C41434D444154554D49442C41434D57454C4453594D2C41434D5355524653594D2C41434D4645415449442C41434D504152545245462C41434D42414C4C4F4F4E2C414D44544544474553594D404A9012A404A9012A8
  0
XRECORD
  5
18491
102
{ACAD_REACTORS
330
18490
102
}
330
18490
100
AcDbXrecord
280
     1
330
0
330
0
330
0
330
0
330
0
330
0
330
0
330
0
330
0
330
0
330
0
330
0
330
0
330
0
330
0
330
0
330
0
330
0
330
0
330
0
330
0
330
0
330
0
330
0
330
0
330
0
330
0
330
0
330
0
330
0
330
0
330
0
330
0
330
0
330
0
330
0
330
0
330
0
330
0
330
0
330
0
330
0
330
0
330
0
330
0
330
0
330
0
330
0
330
0
330
0
330
0
330
0
330
0
330
0
330
0
330
0
330
0
330
0
330
0
330
0
330
0
330
0
330
0
330
0
330
0
330
0
330
0
330
0
330
0
330
0
330
0
330
0
330
0
330
0
330
0
  0
XRECORD
  5
2A41
102
{ACAD_REACTORS
330
2A40
102
}
330
2A40
100
AcDbXrecord
280
     1
  1
LINE
  0

  0
XRECORD
  5
2917
102
{ACAD_REACTORS
330
2916
102
}
330
2916
100
AcDbXrecord
280
     1
  1
25000259__00___
  0

  0
XRECORD
  5
2A3F
102
{ACAD_REACTORS
330
2A3E
102
}
330
2A3E
100
AcDbXrecord
280
     1
  1
110 ^M^J ^M^J ^M^J ^M^J ^M^J ^M^J ^M^J ^M^J ^M^J ^M^J ^M^Jボーリングクイル ^M^J鋼 ^M^J特型 ^M^J直付け ^M^Jストレート ^M^J25 ^M^J2 ^M^J ^M^Jアルミ ^M^J ^M^J
  0

  0
XRECORD
  5
168A
102
{ACAD_REACTORS
330
1688
102
}
330
1688
100
AcDbXrecord
280
     1
  1
1,,,,,,,,,^M^J2,,,,,,,,,^M^J3,,,,,,,,,^M^J4,,,,,,,,,^M^J5,,,,,,,,,^M^J6,,,,,,,,,^M^J7,,,,,,,,,^M^J8,,,,,,,,,^M^J9,,,,,,,,,^M^J10,,,,,,,,,
  0

  0
XRECORD
  5
1689
102
{ACAD_REACTORS
330
1688
102
}
330
1688
100
AcDbXrecord
280
     1
  1
10,10
  0

  0
XRECORD
  5
2919
102
{ACAD_REACTORS
330
2918
102
}
330
2918
100
AcDbXrecord
280
     1
  1
3
  0

  0
ACAD_PROXY_OBJECT
  5
4F
102
{ACAD_REACTORS
330
4E
102
}
330
4E
100
AcDbProxyObject
 90
      499
 91
      521
 95
       25
 70
     0
 93
      157
310
057356C1D77406406AA8FFFFFFFF05DD01009010
330
1F
330
0
330
17D9C
 94
        0
  0
ACAD_PROXY_OBJECT
  5
17F
102
{ACAD_REACTORS
330
17E
102
}
330
17E
100
AcDbProxyObject
 90
      499
 91
      526
 95
       25
 70
     0
 93
     2379
310
5DC33333333333309408000000C00040D29254D01640600800030C0200800030C003333333333330940C8121E8720B1B6A9BAB9332A32BC3A29BA3220480A1282C6DA8C868CA6E8C88120286A0B1B6ABB2B63234B733A9BA3220480A1082C6DA92C8A6E8C88120285A0B1B6A230BA3AB6A9BA3220480A1282C6DA849E9AA6E
310
8C88120286A0B1A0B6B3AA34BA3632A9BA3220480A2082DAC8E888CAE8C2D2D8A6F2DAA6E8C88120288A0B6B23A29B2B1BA34B7B729BCB6A9BA3220480A2282DAC8E886CADCE8CAE498D2DCCAA6E8C88120288A0B6B23A2A343932B0B22634B732A9BA3220480A1682DAC8E89CDEE8CAA6E8C88120285A0B1A0B6B3A630BCA
310
9BA3220480A1682C682DACE88D2DAA6E8C88120288A0B1A0B6B3A437B632A1B430B93A29BA3220480C812020
340
180
360
181
360
182
360
183
360
184
360
185
360
186
360
17DA1
360
17DA2
360
17DA3
360
17DA5
360
17DA6
360
17DA7
360
17DAD
360
17DAE
360
17DAF
340
0
340
0
 94
        0
  0
ACAD_PROXY_OBJECT
  5
41
102
{ACAD_REACTORS
330
40
102
}
330
40
100
AcDbProxyObject
 90
      499
 91
      518
 95
       25
 70
     0
 93
     2962
310
4050B44574753455454494E4753A0E8482A68AA6A88882A069492A684A1A0A723A0A92920ACA0A81969B19A0C868A9C829C8E82A12686AF87260F862666A8321A2A72224A0A50000000000000122020E868A9C889282A682A106260F86460F8666083A1A2A72224A9AA250000000000000042020C868A9C988A9C940000000
310
00000048808321A2A727A323250000000000000122020E868A9C9E8C8C62940000000000000488083A1A2A727A32319250000000000000122021CC6D0C2DACCCAE4C8D2DADADEC8CA9FC84A1A624A720A92920ACA0A81991A982108698929C8AA8B2A082A0AB098929C8A84A22BA3AAA9A1A0A622A50A0E9882A6A89E84948
310
2A02608426A0A5A2AB24A2ABA7E8120CA0A68682988A0C00800010652455649534941501304154D0D0531150540CC4E8C5085354414E44415244415034A4953425512535154D510535412823AC11D09E4ADCD050756455253494F4E4150531352E3030441ED115D1D4D15515125391D4D153911F40
  0
ACAD_PROXY_OBJECT
  5
69
102
{ACAD_REACTORS
330
40
102
}
330
40
100
AcDbProxyObject
 90
      499
 91
      518
 95
       25
 70
     0
 93
      411
310
4050346454D21092DCC6E486DECACC942842630BCA3B937BAB820A8320A6AFA322A0A20F688AE8EA68AA8A8929C8EA68A9C88FA0
  0
ACAD_PROXY_OBJECT
  5
56
102
{ACAD_REACTORS
330
40
102
}
330
40
100
AcDbProxyObject
 90
      499
 91
      518
 95
       25
 70
     0
 93
      583
310
40505536861667421292DCE8CAE4E4EAE0E89FA0484A634B3B43A2634B732A7F21A98D2CED0E898D2DCCAACD2CAEE9FC8229B4B232A7E80A20F688AE8EA68AA8A8929C8EA68A9C88FA
  0
ACAD_PROXY_OBJECT
  5
4C
102
{ACAD_REACTORS
330
40
102
}
330
40
100
AcDbProxyObject
 90
      499
 91
      518
 95
       25
 70
     0
 93
      852
310
4050D5452414E5353455454494E4753A2488A482AE929C8EA8A4829CA69882A8929E9C0C00800050D4F524947494E414C4C595F4F4E0600400028529A7AAA921A2A620A723A0A81A52827212AAA0A48AA68AA4AC8A0C0080001107B44574753455454494E4753454E447D0
  0
ACAD_PROXY_OBJECT
  5
181
330
17F
100
AcDbProxyObject
 90
      499
 91
      527
 95
       25
 70
     0
 93
       86
310
5DEA0C80A0280A0280A034
  0
ACAD_PROXY_OBJECT
  5
182
330
17F
100
AcDbProxyObject
 90
      499
 91
      528
 95
       25
 70
     0
 93
      282
310
5DD0E4050140501405014050140501405014050141101405014041000000000000001000
340
187
 94
        0
  0
ACAD_PROXY_OBJECT
  5
183
330
17F
100
AcDbProxyObject
 90
      499
 91
      529
 95
       25
 70
     0
 93
      323
310
5DCC199999999999E99F91740501405014050140501405014050140501405014050140501405014040
340
0
 94
        0
  0
ACAD_PROXY_OBJECT
  5
184
330
17F
100
AcDbProxyObject
 90
      499
 91
      530
 95
       25
 70
     0
 93
       10
310
5DC0
  0
ACAD_PROXY_OBJECT
  5
185
330
17F
100
AcDbProxyObject
 90
      499
 91
      531
 95
       25
 70
     0
 93
      257
310
5DE0C16A22A7D90F49F80000000000001081400000000000004204010000618000
340
188
340
189
 94
        0
  0
ACAD_PROXY_OBJECT
  5
186
330
17F
100
AcDbProxyObject
 90
      499
 91
      532
 95
       25
 70
     0
 93
     5277
310
5DD06411255115350141236025B6901405014069010000000000000910240690120281A8AA2CA0282484A4BE52028120280A032020000000000001220480D202405044E414D454050496BC914F4051C40640A80000000000004E4090193C3D3C4946284953424C414E4B28504152543A4E414D45292C424C4F434B3A4E414D
310
452C504152543A4E414D45293E3C41435F44455343524950544E3E40480A109A82A88AA492829880A091BBD2F7E80A3A80C81D0E27A15AF46E08A81203480901411393D5115014124A363B7D0147501904A0000000000000F902406428F4F1050D7D393D5114F901202832B22A72227A92028366EF6EE06F582028EA0320B4
310
0000000000001F20480C879E9E20A1AFAB27222FA620A122A61F20240506445020000000000000490201C00030C00010180000000000003E400000000000000F901073D3C4954454D3E4050180000000000003E400000000000000F901073D3C4954454D3E40501800000000000034400000000000000D101073D3C4954454
310
D3E40501800000000000034400000000000000D101073D3C4954454D3E405029010000000000000F9000000000000003E4041CF4F125511534F901418F4F1455164F9014060000000000000F9000000000000003E4041CF4F125511534F901800000000000034400000000000000D101073D3C4954454D3E40640400000000
310
0000003E400000000000000F90288800000000000020810000001800120881A068120480A032208521122080D21480D211480A1485214852050000000000003C2FC000000000000F0BF40600800030C0200400030C00CDCCCCCCCCCCEC3F3373333333333B0FC3333333333330940C80D069014090341504901A1999999999
310
9984A040100006180400800061804010000618008098A02808
340
0
340
0
 94
        0
  0
ACAD_PROXY_OBJECT
  5
17DA1
330
17F
100
AcDbProxyObject
 90
      499
 91
      561
 95
       25
 70
     0
 93
     3042
310
5DD9740D29254D064A49535F413342929254D7D512551311505134A49535F42525F5265766973696F6E6C6973744190F4134522028323937783231306D6D2941D29254D7D04D1490E41312028353934783834316D6D2941929254D7D04C50E41332028323937783432306D6D2941929254D7D04CD0F41344C2028323130783
310
239376D6D2941D29254D7D04D1310E41322028343230783539346D6D2941929254D7D04C90F4130202838343178313138396D6D2941929254D7D04C10243129254C82557247A25E4C81050A4A49535F5449544C454143129254C82557247A25E4C81090A4A49535F5449544C45424110E979A97F0838A835883675F42525F4
310
4D29254D7D09497D4995D9A5CDA5BDB9B1A5CDD10E979A97F0838A835883675F54525F44D29254D7D51497D4995D9A5CDA5BDB9B1A5CDD10E979A97F0838A835883675F424C5F44D29254D7D09317D4995D9A5CDA5BDB9B1A5CDD10E979A97F0838A835883675F544C5F44D29254D7D51317D4995D9A5CDA5BDB9B1A5CDD00
  0
ACAD_PROXY_OBJECT
  5
17DA2
330
17F
100
AcDbProxyObject
 90
      499
 91
      562
 95
       25
 70
     0
 93
      898
310
5DC4000000000000124048CF4F11115510525317D3105091530F880A0F11115510525317D05094D4D0D053114F8A50241C9A9999999999B93F26A666666666724FC000000000000E03F400000000000000400000000000000510000000000000024408070000C300000000000000049000
340
16
340
180
 94
        0
  0
ACAD_PROXY_OBJECT
  5
17DA3
330
17F
100
AcDbProxyObject
 90
      499
 91
      563
 95
       25
 70
     0
 93
      823
310
5DC0B00000000000002480959E9E29A2A1AA24A7A72FA620A122A62FA324A929AA1F169E29A2A1AA24A7A72FA620A122A62FA620A9AA1F000000000000048803FFFE01C00030C008140380006180000000000000048800000000000000A2000000000000002480
340
652
340
180
 94
        0
  0
ACAD_PROXY_OBJECT
  5
17DA5
330
17F
100
AcDbProxyObject
 90
      499
 91
      564
 95
       25
 70
     0
 93
      152
310
5DE8273108AC1C5A0640A3D0A5723F0BD1F200
  0
ACAD_PROXY_OBJECT
  5
17DA6
330
17F
100
AcDbProxyObject
 90
      499
 91
      565
 95
       25
 70
     0
 93
       14
310
5DE0
340
0
 94
        0
  0
ACAD_PROXY_OBJECT
  5
17DA7
330
17F
100
AcDbProxyObject
 90
      499
 91
      566
 95
       25
 70
     0
 93
     6059
310
5DD084050BA4050AA405024050E836583938376838C815B83672031405983D3C486F6C653A6469613E3C696628657175616C28486F6C653A7465726D696E6174696F6E2C223022292C2220905B82B320222C22208368838A838B22293E3C696628657175616C28486F6C653A7465726D696E6174696F6E2C223022292C486F
310
6C653A64657074682C2222293E2C203C486F6C653A63746469613E2082B482AE82E882CC905B82B3203C486F6C653A637464657074683E406901405034050E836583938376838C815B83672031405EF3D3C486F6C653A6374616E676C653E252564202525633C486F6C653A63746469613E208E4D8C8A2C203C69662865717
310
5616C28486F6C653A7461707065642C223022292C22252563222C486F6C653A6E6F6D696E616C202220782022293E3C696628657175616C28486F6C653A7461707065642C223022292C486F6C653A6469612C486F6C653A706974636864657363293E203C696628657175616C28486F6C653A7465726D696E6174696F6E2C2
310
23022292C22905B82B320222C222022293E3C696628657175616C28486F6C653A7465726D696E6174696F6E2C223022292C486F6C653A64657074682C2222293E406901405014050E836583938376838C815B83672031405C73D3C696628657175616C28486F6C653A7461707065642C223022292C22252563222C486F6C65
310
3A6E6F6D696E616C202220782022293E3C696628657175616C28486F6C653A7461707065642C223022292C486F6C653A6469612C486F6C653A706974636864657363293E203C696628657175616C28486F6C653A7465726D696E6174696F6E2C223022292C22905B82B320222C222022293E3C696628657175616C28486F6C
310
653A7465726D696E6174696F6E2C223022292C486F6C653A64657074682C2222293E4069014051E4090E836583938376838C815B83672032405173D3C535444503A444553433E203C535444503A5354443E40690E836583938376838C815B836720314050C3D3C535444503A444553433E40690240515AAABBA120
360
17DAB
330
17DAB
360
17DAC
330
17DAC
360
17DAA
330
17DAA
360
17DA9
360
17DA8
330
17DA9
330
17DA8
 94
        0
  0
ACAD_PROXY_OBJECT
  5
17DAD
330
17F
100
AcDbProxyObject
 90
      499
 91
      568
 95
       25
 70
     0
 93
       26
310
5DD02A80
340
42
 94
        0
  0
ACAD_PROXY_OBJECT
  5
17DAE
330
17F
100
AcDbProxyObject
 90
      499
 91
      569
 95
       25
 70
     0
 93
      250
310
5DD020000000000000A1000000000000002440408F0F9023C3E409A0DCFFFF80
340
58
340
1B97
340
1B98
340
5F
340
60
340
61
340
62
340
63
340
68
340
0
 94
        0
  0
ACAD_PROXY_OBJECT
  5
17DAF
330
17F
100
AcDbProxyObject
 90
      499
 91
      570
 95
       25
 70
     0
 93
    13889
310
5DD1D003FFFFFFFD030300030CCCCCCCCCCCC250200800030C01030300030CCCCCCCCCCCC250200800030C00050C8DC0955782CC838A83588367014ED1D15395149050D3CB1294138B0C0B23702555E0B320E2A0D620D9CB11D15395149055160B095CCB0A11D1539354D1C819D95B991A5B5E880CCC0A78000C0000000000
310
00000000000000000000010CCCCCCCCCCCC250200800030C010CCCCCCCCCCCC250200800030C020143CF4F111959985D5B1D151A5D1B194F8050A8C8A8365815B8375838B014E51D15395149050D3CB1294138B0C0B2322A0D96056E0DD60E2CB11D15395149055160B095CCB0A11D1539354D1C819D95B991A5B5E880CCC4
310
A78000C000000000000000000000000000000010CCCCCCCCCCCC250200800030C010CCCCCCCCCCCC250200800030C020143CF4F111959985D5B1D151A5D1B194F90D44111409034110541D0C4350F4050E44D03449074510F000141232D24D7C053247454E545241434F2C4A504E2C302C8CB4935F2C47454E54524154582C
310
25732C2847454E4D53472067656E64696D7A20312900010104002214000281464500A608E8A9CA8A482869E5894A09C5860591914588E8A9CA8A482A8B0584AE658508E8A9C9AA68E40CECADCC8D2DAF4406452029E9E9E27B934B3B4B71F1E24A31427A91424A9A12620A7259427B934B3B4B7149624A9A12620A7259424B
310
A32B6949496111116111711149F1E24BA32B69F00808200111A000140560052F47454E545241434F2C4A504E2C302C582C47454E54524154582C25732C2847454E4D53472067656E64696D7A20332900010100002054000280AC80A5E8E8A9CA8A482869E5894A09C586058B2588E8A9CA8A482A8B0584AE658508E8A9C9AA
310
68E40CECADCC8D2DAF4406852000202000040E800050152014BD1D15395149050D3CB1294138B0C0B148B11D15395149055160B095CCB0A11D1539354D1C819D95B991A5B5E880D8A400040400008250000A0507A6029823A2A72A2920A1A79625282716181641E99623A2A72A2920AA2C1612B9961423A2A726A9A39033B2
310
B73234B6BD101B948000808180105A000140A0F4C053047454E545241434F2C4A504E2C302C83D32C47454E54524154582C25732C2847454E4D53472067656E64696D7A203829000101010020F400028248704B5F00A668E8A9CA8A482869E5894A09C58605921C12D7C588E8A9CA8A482A8B0584AE658508E8A9C9AA68E40
310
CECADCC8D2DAF440646052000200080043280005048B4B8A69014CD1D15395149050D3CB1294138B0C0B22D2E29A4B11D15395149055160B095CCB0A11D1539354D1C819D95B991A5B5E880C8C4A4000400100086D0000A09196926BE029923A2A72A2920A1A796252827161816465A49AF9623A2A72A2920AA2C1612B9961
310
423A2A726A9A39033B2B73234B6BD10189480A02620202080043E80005048D8096DA014CD1D15395149050D3CB1294138B0C0B236025B68B11D15395149055160B095CCB0A11D1539354D1C819D95B991A5B5E880C4D0A4000404140280D0000A190687072706CD06C5069D06B0029DA3A2A72A2920A1A7962528271618164
310
1A1C1C9C1B341B141A741AC1623A2A72A2920AA2C1612B9961423A2A726A9A39033B2B73234B6BD10189A94800080820050EA000143A322A0D0E0E4E0D9A0D8A0D3A0D60053D47454E545241434F2C4A504E2C302C8C8A8343839383668362834E83582C47454E54524154582C25732C2847454E4D53472067656E64696D7A
310
2031372900010105002274000281464500A628E8A9CA8A482869E5894A09C5860591914588E8A9CA8A482A8B0584AE658508E8A9C9AA68E40CECADCC8D2DAF440626C52000202080044A8000504909497CA014CD1D15395149050D3CB1294138B0C0B242525F28B11D15395149055160B095CCB0A11D1539354D1C819D95B9
310
91A5B5E880C4E4A400040418008A521E000000000000001CA040C00000000000034408080000000000006881010000000000000D102040000000000001A204080000000000003440818000000000000728103000000000000125020600000000004028A040000000000000034408000000000000004881000000000000000D
310
102000000000000001A204000000000000003440818000000000000508143C0000000000000039408180000000000006881030000000000000D102060000000000001A2040C00000000000034408180000000000006881030000000000000E5020600000000000024A040C0000000000805140800000000000000688100000
310
00000000009102000000000000001A2040000000000000034408180000000000006881030000000000000A10284220000000878000002020000008380000020400000081800000208000000828000002028900000000
340
0
340
0
340
0
340
0
340
180
340
180
 94
        0
  0
ACAD_PROXY_OBJECT
  5
17DAB
330
17DA7
100
AcDbProxyObject
 90
      499
 91
      567
 95
       25
 70
     0
 93
     1376
310
5DE0143A0D960E4E0DDA0E32056E0D9C80C405983D3C486F6C653A6469613E3C696628657175616C28486F6C653A7465726D696E6174696F6E2C223022292C2220905B82B320222C22208368838A838B22293E3C696628657175616C28486F6C653A7465726D696E6174696F6E2C223022292C486F6C653A64657074682C22
310
22293E2C203C486F6C653A63746469613E2082B482AE82E882CC905B82B3203C486F6C653A637464657074683E
  0
ACAD_PROXY_OBJECT
  5
17DAC
330
17DA7
100
AcDbProxyObject
 90
      499
 91
      567
 95
       25
 70
     0
 93
     2072
310
5DE0143A0D960E4E0DDA0E32056E0D9C80C405EF3D3C486F6C653A6374616E676C653E252564202525633C486F6C653A63746469613E208E4D8C8A2C203C696628657175616C28486F6C653A7461707065642C223022292C22252563222C486F6C653A6E6F6D696E616C202220782022293E3C696628657175616C28486F6C
310
653A7461707065642C223022292C486F6C653A6469612C486F6C653A706974636864657363293E203C696628657175616C28486F6C653A7465726D696E6174696F6E2C223022292C22905B82B320222C222022293E3C696628657175616C28486F6C653A7465726D696E6174696F6E2C223022292C486F6C653A6465707468
310
2C2222293E
  0
ACAD_PROXY_OBJECT
  5
17DAA
330
17DA7
100
AcDbProxyObject
 90
      499
 91
      567
 95
       25
 70
     0
 93
     1752
310
5DE0143A0D960E4E0DDA0E32056E0D9C80C405C73D3C696628657175616C28486F6C653A7461707065642C223022292C22252563222C486F6C653A6E6F6D696E616C202220782022293E3C696628657175616C28486F6C653A7461707065642C223022292C486F6C653A6469612C486F6C653A706974636864657363293E20
310
3C696628657175616C28486F6C653A7465726D696E6174696F6E2C223022292C22905B82B320222C222022293E3C696628657175616C28486F6C653A7465726D696E6174696F6E2C223022292C486F6C653A64657074682C2222293E
  0
ACAD_PROXY_OBJECT
  5
17DA9
330
17DA7
100
AcDbProxyObject
 90
      499
 91
      567
 95
       25
 70
     0
 93
      344
310
5DE0143A0D960E4E0DDA0E32056E0D9C80C805173D3C535444503A444553433E203C535444503A5354443E
  0
ACAD_PROXY_OBJECT
  5
17DA8
330
17DA7
100
AcDbProxyObject
 90
      499
 91
      567
 95
       25
 70
     0
 93
      256
310
5DE0143A0D960E4E0DDA0E32056E0D9C80C4050C3D3C535444503A444553433E
  0
ENDSEC
  0
EOF
